  0
SECTION
  2
HEADER
  9
$ACADVER
  1
AC1015
  9
$ACADMAINTVER
 70
    13
  9
$DWGCODEPAGE
  3
ANSI_1252
  9
$INSBASE
 10
0.0
 20
0.0
 30
0.0
  9
$EXTMIN
 10
256.5323861911078
 20
-2107.594087063849
 30
0.0
  9
$EXTMAX
 10
607.0945833827055
 20
-1813.557886
 30
0.0
  9
$LIMMIN
 10
256.2448639999999
 20
-1969.557884
  9
$LIMMAX
 10
607.8788809999998
 20
-1813.557886
  9
$ORTHOMODE
 70
     1
  9
$REGENMODE
 70
     1
  9
$FILLMODE
 70
     1
  9
$QTEXTMODE
 70
     0
  9
$MIRRTEXT
 70
     1
  9
$LTSCALE
 40
1.0
  9
$ATTMODE
 70
     1
  9
$TEXTSIZE
 40
3.5
  9
$TRACEWID
 40
0.5
  9
$TEXTSTYLE
  7
STANDARD
  9
$CLAYER
  8
0
  9
$CELTYPE
  6
ByLayer
  9
$CECOLOR
 62
   256
  9
$CELTSCALE
 40
1.0
  9
$DISPSILH
 70
     0
  9
$DIMSCALE
 40
1.0
  9
$DIMASZ
 40
0.18
  9
$DIMEXO
 40
0.0625
  9
$DIMDLI
 40
0.38
  9
$DIMRND
 40
0.0
  9
$DIMDLE
 40
0.0
  9
$DIMEXE
 40
0.18
  9
$DIMTP
 40
0.0
  9
$DIMTM
 40
0.0
  9
$DIMTXT
 40
0.18
  9
$DIMCEN
 40
0.09
  9
$DIMTSZ
 40
0.0
  9
$DIMTOL
 70
     0
  9
$DIMLIM
 70
     0
  9
$DIMTIH
 70
     1
  9
$DIMTOH
 70
     1
  9
$DIMSE1
 70
     0
  9
$DIMSE2
 70
     0
  9
$DIMTAD
 70
     0
  9
$DIMZIN
 70
     0
  9
$DIMBLK
  1

  9
$DIMASO
 70
     1
  9
$DIMSHO
 70
     1
  9
$DIMPOST
  1

  9
$DIMAPOST
  1

  9
$DIMALT
 70
     0
  9
$DIMALTD
 70
     2
  9
$DIMALTF
 40
25.4
  9
$DIMLFAC
 40
1.0
  9
$DIMTOFL
 70
     0
  9
$DIMTVP
 40
0.0
  9
$DIMTIX
 70
     0
  9
$DIMSOXD
 70
     0
  9
$DIMSAH
 70
     0
  9
$DIMBLK1
  1

  9
$DIMBLK2
  1

  9
$DIMSTYLE
  2
DMST_1
  9
$DIMCLRD
 70
     0
  9
$DIMCLRE
 70
     0
  9
$DIMCLRT
 70
     0
  9
$DIMTFAC
 40
1.0
  9
$DIMGAP
 40
0.09
  9
$DIMJUST
 70
     0
  9
$DIMSD1
 70
     0
  9
$DIMSD2
 70
     0
  9
$DIMTOLJ
 70
     1
  9
$DIMTZIN
 70
     0
  9
$DIMALTZ
 70
     0
  9
$DIMALTTZ
 70
     0
  9
$DIMUPT
 70
     0
  9
$DIMDEC
 70
     4
  9
$DIMTDEC
 70
     4
  9
$DIMALTU
 70
     2
  9
$DIMALTTD
 70
     2
  9
$DIMTXSTY
  7
STANDARD
  9
$DIMAUNIT
 70
     0
  9
$DIMADEC
 70
     0
  9
$DIMALTRND
 40
0.0
  9
$DIMAZIN
 70
     0
  9
$DIMDSEP
 70
    46
  9
$DIMATFIT
 70
     3
  9
$DIMFRAC
 70
     0
  9
$DIMLDRBLK
  1

  9
$DIMLUNIT
 70
     2
  9
$DIMLWD
 70
    -2
  9
$DIMLWE
 70
    -2
  9
$DIMTMOVE
 70
     0
  9
$LUNITS
 70
     2
  9
$LUPREC
 70
     4
  9
$SKETCHINC
 40
0.1
  9
$FILLETRAD
 40
2.0
  9
$AUNITS
 70
     0
  9
$AUPREC
 70
     0
  9
$MENU
  1
ACAD
  9
$ELEVATION
 40
0.0
  9
$PELEVATION
 40
0.0
  9
$THICKNESS
 40
0.0
  9
$LIMCHECK
 70
     0
  9
$CHAMFERA
 40
0.0
  9
$CHAMFERB
 40
0.0
  9
$CHAMFERC
 40
0.0
  9
$CHAMFERD
 40
0.0
  9
$SKPOLY
 70
     0
  9
$TDCREATE
 40
2311947.014548495
  9
$TDUCREATE
 40
2311947.181215162
  9
$TDUPDATE
 40
2453864.621169884
  9
$TDUUPDATE
 40
2453864.787836550
  9
$TDINDWG
 40
0.0029450694
  9
$TDUSRTIMER
 40
0.0029448843
  9
$USRTIMER
 70
     1
  9
$ANGBASE
 50
0.0
  9
$ANGDIR
 70
     0
  9
$PDMODE
 70
     0
  9
$PDSIZE
 40
0.0
  9
$PLINEWID
 40
0.0
  9
$SPLFRAME
 70
     0
  9
$SPLINETYPE
 70
     6
  9
$SPLINESEGS
 70
     8
  9
$HANDSEED
  5
A20
  9
$SURFTAB1
 70
     6
  9
$SURFTAB2
 70
     6
  9
$SURFTYPE
 70
     6
  9
$SURFU
 70
     6
  9
$SURFV
 70
     6
  9
$UCSBASE
  2

  9
$UCSNAME
  2

  9
$UCSORG
 10
0.0
 20
0.0
 30
0.0
  9
$UCSXDIR
 10
1.0
 20
0.0
 30
0.0
  9
$UCSYDIR
 10
0.0
 20
1.0
 30
0.0
  9
$UCSORTHOREF
  2

  9
$UCSORTHOVIEW
 70
     0
  9
$UCSORGTOP
 10
0.0
 20
0.0
 30
0.0
  9
$UCSORGBOTTOM
 10
0.0
 20
0.0
 30
0.0
  9
$UCSORGLEFT
 10
0.0
 20
0.0
 30
0.0
  9
$UCSORGRIGHT
 10
0.0
 20
0.0
 30
0.0
  9
$UCSORGFRONT
 10
0.0
 20
0.0
 30
0.0
  9
$UCSORGBACK
 10
0.0
 20
0.0
 30
0.0
  9
$PUCSBASE
  2

  9
$PUCSNAME
  2

  9
$PUCSORG
 10
0.0
 20
0.0
 30
0.0
  9
$PUCSXDIR
 10
1.0
 20
0.0
 30
0.0
  9
$PUCSYDIR
 10
0.0
 20
1.0
 30
0.0
  9
$PUCSORTHOREF
  2

  9
$PUCSORTHOVIEW
 70
     0
  9
$PUCSORGTOP
 10
0.0
 20
0.0
 30
0.0
  9
$PUCSORGBOTTOM
 10
0.0
 20
0.0
 30
0.0
  9
$PUCSORGLEFT
 10
0.0
 20
0.0
 30
0.0
  9
$PUCSORGRIGHT
 10
0.0
 20
0.0
 30
0.0
  9
$PUCSORGFRONT
 10
0.0
 20
0.0
 30
0.0
  9
$PUCSORGBACK
 10
0.0
 20
0.0
 30
0.0
  9
$USERI1
 70
     0
  9
$USERI2
 70
     0
  9
$USERI3
 70
     0
  9
$USERI4
 70
     0
  9
$USERI5
 70
     0
  9
$USERR1
 40
0.0
  9
$USERR2
 40
0.0
  9
$USERR3
 40
0.0
  9
$USERR4
 40
0.0
  9
$USERR5
 40
0.0
  9
$WORLDVIEW
 70
     1
  9
$SHADEDGE
 70
     3
  9
$SHADEDIF
 70
    70
  9
$TILEMODE
 70
     1
  9
$MAXACTVP
 70
    48
  9
$PINSBASE
 10
0.0
 20
0.0
 30
0.0
  9
$PLIMCHECK
 70
     0
  9
$PEXTMIN
 10
1.000000000000000E+20
 20
1.000000000000000E+20
 30
1.000000000000000E+20
  9
$PEXTMAX
 10
-1.000000000000000E+20
 20
-1.000000000000000E+20
 30
-1.000000000000000E+20
  9
$PLIMMIN
 10
0.0
 20
0.0
  9
$PLIMMAX
 10
12.0
 20
9.0
  9
$UNITMODE
 70
     0
  9
$VISRETAIN
 70
     1
  9
$PLINEGEN
 70
     0
  9
$PSLTSCALE
 70
     1
  9
$TREEDEPTH
 70
  3020
  9
$CMLSTYLE
  2
Standard
  9
$CMLJUST
 70
     0
  9
$CMLSCALE
 40
1.0
  9
$PROXYGRAPHICS
 70
     1
  9
$MEASUREMENT
 70
     0
  9
$CELWEIGHT
370
    -1
  9
$ENDCAPS
280
     0
  9
$JOINSTYLE
280
     0
  9
$LWDISPLAY
290
     0
  9
$INSUNITS
 70
     0
  9
$HYPERLINKBASE
  1

  9
$STYLESHEET
  1

  9
$XEDIT
290
     1
  9
$CEPSNTYPE
380
     0
  9
$PSTYLEMODE
290
     1
  9
$FINGERPRINTGUID
  2
{B6D44B93-29A0-4C8E-81F3-E6757D6227E9}
  9
$VERSIONGUID
  2
{92C8C32C-0D21-444C-8D04-686AF592E8DC}
  9
$EXTNAMES
290
     1
  9
$PSVPSCALE
 40
0.0
  9
$OLESTARTUP
290
     0
  0
ENDSEC
  0
SECTION
  2
CLASSES
  0
CLASS
  1
ACDBDICTIONARYWDFLT
  2
AcDbDictionaryWithDefault
  3
AutoCAD 2000
 90
        0
280
     0
281
     0
  0
CLASS
  1
ACDBPLACEHOLDER
  2
AcDbPlaceHolder
  3
AutoCAD 2000
 90
        0
280
     0
281
     0
  0
CLASS
  1
LAYOUT
  2
AcDbLayout
  3
AutoCAD 2000
 90
        0
280
     0
281
     0
  0
CLASS
  1
DICTIONARYVAR
  2
AcDbDictionaryVar
  3
AutoCAD 2000
 90
        0
280
     0
281
     0
  0
ENDSEC
  0
SECTION
  2
TABLES
  0
TABLE
  2
VPORT
  5
5CA
330
0
100
AcDbSymbolTable
 70
     2
  0
VPORT
  5
A1F
330
5CA
100
AcDbSymbolTableRecord
100
AcDbViewportTableRecord
  2
*Active
 70
     0
 10
0.0
 20
0.0
 11
1.0
 21
1.0
 12
468.0553740797092
 22
-1949.497002754597
 13
0.0
 23
0.0
 14
1.0
 24
1.0
 15
0.0
 25
0.0
 16
0.0
 26
0.0
 36
1.0
 17
0.0
 27
0.0
 37
0.0
 40
375.3217445614899
 41
1.182835820895522
 42
50.0
 43
0.0
 44
0.0
 50
0.0
 51
0.0
 71
     0
 72
   100
 73
     1
 74
     1
 75
     0
 76
     0
 77
     0
 78
     0
281
     0
 65
     1
110
0.0
120
0.0
130
0.0
111
1.0
121
0.0
131
0.0
112
0.0
122
1.0
132
0.0
 79
     0
146
0.0
  0
ENDTAB
  0
TABLE
  2
LTYPE
  5
5C7
330
0
100
AcDbSymbolTable
 70
     4
  0
LTYPE
  5
5D5
330
5C7
100
AcDbSymbolTableRecord
100
AcDbLinetypeTableRecord
  2
ByBlock
 70
     0
  3

 72
    65
 73
     0
 40
0.0
  0
LTYPE
  5
5D6
330
5C7
100
AcDbSymbolTableRecord
100
AcDbLinetypeTableRecord
  2
ByLayer
 70
     0
  3

 72
    65
 73
     0
 40
0.0
  0
LTYPE
  5
5D7
330
5C7
100
AcDbSymbolTableRecord
100
AcDbLinetypeTableRecord
  2
CONTINUOUS
 70
     0
  3
Solid line
 72
    65
 73
     0
 40
0.0
  0
LTYPE
  5
5E5
330
5C7
100
AcDbSymbolTableRecord
100
AcDbLinetypeTableRecord
  2
CENTER
 70
     0
  3
____ _ ____ _
 72
    65
 73
     4
 40
18.507054
 49
11.566908
 74
     0
 49
-2.313381999999998
 74
     0
 49
2.313381999999998
 74
     0
 49
-2.313381999999998
 74
     0
  0
LTYPE
  5
5E6
330
5C7
100
AcDbSymbolTableRecord
100
AcDbLinetypeTableRecord
  2
DASHDOT
 70
     0
  3
__ . __ . __ .
 72
    65
 73
     4
 40
9.253527
 49
4.626762999999998
 74
     0
 49
-2.313381999999998
 74
     0
 49
0.0
 74
     0
 49
-2.313381999999998
 74
     0
  0
LTYPE
  5
5E7
330
5C7
100
AcDbSymbolTableRecord
100
AcDbLinetypeTableRecord
  2
DASHED
 70
     0
  3
__ __ __ __ __
 72
    65
 73
     2
 40
6.940144999999998
 49
4.626762999999998
 74
     0
 49
-2.313381999999998
 74
     0
  0
ENDTAB
  0
TABLE
  2
LAYER
  5
5C4
330
0
100
AcDbSymbolTable
 70
     4
  0
LAYER
  5
5D2
330
5C4
100
AcDbSymbolTableRecord
100
AcDbLayerTableRecord
  2
0
 70
     0
 62
     7
  6
CONTINUOUS
370
    -3
390
5D1
  0
LAYER
  5
5E8
330
5C4
100
AcDbSymbolTableRecord
100
AcDbLayerTableRecord
  2
1
 70
     0
 62
     7
  6
CONTINUOUS
370
    -3
390
5D1
  0
LAYER
  5
5E9
330
5C4
100
AcDbSymbolTableRecord
100
AcDbLayerTableRecord
  2
TITLEBOX
 70
     0
 62
     7
  6
CONTINUOUS
370
    -3
390
5D1
  0
LAYER
  5
9EB
330
5C4
100
AcDbSymbolTableRecord
100
AcDbLayerTableRecord
  2
LAYER_1
 70
     0
 62
     5
  6
CONTINUOUS
370
    -3
390
5D1
  0
ENDTAB
  0
TABLE
  2
STYLE
  5
5C5
330
0
100
AcDbSymbolTable
 70
     2
  0
STYLE
  5
5D3
330
5C5
100
AcDbSymbolTableRecord
100
AcDbTextStyleTableRecord
  2
STANDARD
 70
     0
 40
0.0
 41
1.0
 50
0.0
 71
     0
 42
3.5
  3
txt
  4

  0
STYLE
  5
5EA
330
5C5
100
AcDbSymbolTableRecord
100
AcDbTextStyleTableRecord
  2
ROMAND
 70
     0
 40
0.002
 41
1.0
 50
0.0
 71
     0
 42
0.002
  3
romand
  4

  0
ENDTAB
  0
TABLE
  2
VIEW
  5
5C8
330
0
100
AcDbSymbolTable
 70
     0
  0
ENDTAB
  0
TABLE
  2
UCS
  5
5C9
330
0
100
AcDbSymbolTable
 70
     0
  0
ENDTAB
  0
TABLE
  2
APPID
  5
5CB
330
0
100
AcDbSymbolTable
 70
     1
  0
APPID
  5
5D4
330
5CB
100
AcDbSymbolTableRecord
100
AcDbRegAppTableRecord
  2
ACAD
 70
     0
  0
ENDTAB
  0
TABLE
  2
DIMSTYLE
  5
5CC
330
0
100
AcDbSymbolTable
 70
     2
100
AcDbDimStyleTable
 71
     0
  0
DIMSTYLE
105
5EB
102
{ACAD_REACTORS
330
93C
330
93D
330
93E
330
93F
330
940
330
941
330
942
330
943
330
944
330
945
330
946
330
947
330
948
330
949
102
}
330
5CC
100
AcDbSymbolTableRecord
100
AcDbDimStyleTableRecord
  2
DMST_1
 70
     0
 41
4.0
 42
1.0
 43
7.0
 44
1.0
 73
     0
 74
     0
 77
     1
 78
     9
140
4.0
141
0.0
176
     2
177
     2
178
     2
279
     2
340
5D3
  0
DIMSTYLE
105
9EC
330
5CC
100
AcDbSymbolTableRecord
100
AcDbDimStyleTableRecord
  2
Standard
 70
     0
340
5D3
  0
ENDTAB
  0
TABLE
  2
BLOCK_RECORD
  5
5C3
330
0
100
AcDbSymbolTable
 70
    50
  0
BLOCK_RECORD
  5
5E0
330
5C3
100
AcDbSymbolTableRecord
100
AcDbBlockTableRecord
  2
*Model_Space
340
5E3
  0
BLOCK_RECORD
  5
5DC
330
5C3
100
AcDbSymbolTableRecord
100
AcDbBlockTableRecord
  2
*Paper_Space
340
5DF
  0
BLOCK_RECORD
  5
5EE
330
5C3
100
AcDbSymbolTableRecord
100
AcDbBlockTableRecord
  2
$MODEL_SPACE
340
0
  0
BLOCK_RECORD
  5
5F1
330
5C3
100
AcDbSymbolTableRecord
100
AcDbBlockTableRecord
  2
$PAPER_SPACE
340
0
  0
BLOCK_RECORD
  5
5F4
330
5C3
100
AcDbSymbolTableRecord
100
AcDbBlockTableRecord
  2
WB_025_R
340
0
102
{BLKREFS
331
66E
102
}
  0
BLOCK_RECORD
  5
66C
330
5C3
100
AcDbSymbolTableRecord
100
AcDbBlockTableRecord
  2
SHF-25
340
0
102
{BLKREFS
331
94A
102
}
  0
BLOCK_RECORD
  5
670
330
5C3
100
AcDbSymbolTableRecord
100
AcDbBlockTableRecord
  2
*X4
340
0
102
{BLKREFS
331
688
102
}
  0
BLOCK_RECORD
  5
676
330
5C3
100
AcDbSymbolTableRecord
100
AcDbBlockTableRecord
  2
*X5
340
0
102
{BLKREFS
331
689
102
}
  0
BLOCK_RECORD
  5
67B
330
5C3
100
AcDbSymbolTableRecord
100
AcDbBlockTableRecord
  2
*X6
340
0
102
{BLKREFS
331
68A
102
}
  0
BLOCK_RECORD
  5
681
330
5C3
100
AcDbSymbolTableRecord
100
AcDbBlockTableRecord
  2
*X7
340
0
102
{BLKREFS
331
68B
102
}
  0
BLOCK_RECORD
  5
686
330
5C3
100
AcDbSymbolTableRecord
100
AcDbBlockTableRecord
  2
WBG_025_F
340
0
102
{BLKREFS
331
94B
102
}
  0
BLOCK_RECORD
  5
6D9
330
5C3
100
AcDbSymbolTableRecord
100
AcDbBlockTableRecord
  2
*D9
340
0
  0
BLOCK_RECORD
  5
6E5
330
5C3
100
AcDbSymbolTableRecord
100
AcDbBlockTableRecord
  2
*D10
340
0
  0
BLOCK_RECORD
  5
6F1
330
5C3
100
AcDbSymbolTableRecord
100
AcDbBlockTableRecord
  2
*D11
340
0
  0
BLOCK_RECORD
  5
6FA
330
5C3
100
AcDbSymbolTableRecord
100
AcDbBlockTableRecord
  2
*D12
340
0
102
{BLKREFS
331
94C
102
}
  0
BLOCK_RECORD
  5
704
330
5C3
100
AcDbSymbolTableRecord
100
AcDbBlockTableRecord
  2
*D13
340
0
  0
BLOCK_RECORD
  5
710
330
5C3
100
AcDbSymbolTableRecord
100
AcDbBlockTableRecord
  2
*D14
340
0
  0
BLOCK_RECORD
  5
71B
330
5C3
100
AcDbSymbolTableRecord
100
AcDbBlockTableRecord
  2
*D15
340
0
  0
BLOCK_RECORD
  5
727
330
5C3
100
AcDbSymbolTableRecord
100
AcDbBlockTableRecord
  2
*D16
340
0
  0
BLOCK_RECORD
  5
732
330
5C3
100
AcDbSymbolTableRecord
100
AcDbBlockTableRecord
  2
*D17
340
0
  0
BLOCK_RECORD
  5
73D
330
5C3
100
AcDbSymbolTableRecord
100
AcDbBlockTableRecord
  2
*D18
340
0
102
{BLKREFS
331
94D
102
}
  0
BLOCK_RECORD
  5
749
330
5C3
100
AcDbSymbolTableRecord
100
AcDbBlockTableRecord
  2
*D19
340
0
  0
BLOCK_RECORD
  5
754
330
5C3
100
AcDbSymbolTableRecord
100
AcDbBlockTableRecord
  2
*D20
340
0
  0
BLOCK_RECORD
  5
760
330
5C3
100
AcDbSymbolTableRecord
100
AcDbBlockTableRecord
  2
*D21
340
0
102
{BLKREFS
331
94E
102
}
  0
BLOCK_RECORD
  5
768
330
5C3
100
AcDbSymbolTableRecord
100
AcDbBlockTableRecord
  2
*D22
340
0
102
{BLKREFS
331
94F
102
}
  0
BLOCK_RECORD
  5
770
330
5C3
100
AcDbSymbolTableRecord
100
AcDbBlockTableRecord
  2
*D23
340
0
102
{BLKREFS
331
950
102
}
  0
BLOCK_RECORD
  5
77A
330
5C3
100
AcDbSymbolTableRecord
100
AcDbBlockTableRecord
  2
*D24
340
0
102
{BLKREFS
331
951
102
}
  0
BLOCK_RECORD
  5
784
330
5C3
100
AcDbSymbolTableRecord
100
AcDbBlockTableRecord
  2
*D25
340
0
  0
BLOCK_RECORD
  5
78C
330
5C3
100
AcDbSymbolTableRecord
100
AcDbBlockTableRecord
  2
*D26
340
0
  0
BLOCK_RECORD
  5
794
330
5C3
100
AcDbSymbolTableRecord
100
AcDbBlockTableRecord
  2
*D27
340
0
  0
BLOCK_RECORD
  5
79C
330
5C3
100
AcDbSymbolTableRecord
100
AcDbBlockTableRecord
  2
*D28
340
0
  0
BLOCK_RECORD
  5
7A7
330
5C3
100
AcDbSymbolTableRecord
100
AcDbBlockTableRecord
  2
*X29
340
0
102
{BLKREFS
331
976
102
}
  0
BLOCK_RECORD
  5
807
330
5C3
100
AcDbSymbolTableRecord
100
AcDbBlockTableRecord
  2
PROPRIETARYDRAWINGNOTICE
340
0
102
{BLKREFS
331
952
102
}
  0
BLOCK_RECORD
  5
97F
330
5C3
100
AcDbSymbolTableRecord
100
AcDbBlockTableRecord
  2
AI9-BLK14
340
0
310
2800000020000000200000000100080000000000000400000000000000000000000000000000000000000000000080000080000000808000800000008000800080800000C0C0C000C0DCC000F0CAA6000020400000206000002080000020A0000020C0000020E00000400000004020000040400000406000004080000040A0
310
000040C0000040E00000600000006020000060400000606000006080000060A0000060C0000060E00000800000008020000080400000806000008080000080A0000080C0000080E00000A0000000A0200000A0400000A0600000A0800000A0A00000A0C00000A0E00000C0000000C0200000C0400000C0600000C0800000C0
310
A00000C0C00000C0E00000E0000000E0200000E0400000E0600000E0800000E0A00000E0C00000E0E00040000000400020004000400040006000400080004000A0004000C0004000E00040200000402020004020400040206000402080004020A0004020C0004020E000404000004040200040404000404060004040800040
310
40A0004040C0004040E00040600000406020004060400040606000406080004060A0004060C0004060E00040800000408020004080400040806000408080004080A0004080C0004080E00040A0000040A0200040A0400040A0600040A0800040A0A00040A0C00040A0E00040C0000040C0200040C0400040C0600040C08000
310
40C0A00040C0C00040C0E00040E0000040E0200040E0400040E0600040E0800040E0A00040E0C00040E0E00080000000800020008000400080006000800080008000A0008000C0008000E00080200000802020008020400080206000802080008020A0008020C0008020E00080400000804020008040400080406000804080
310
008040A0008040C0008040E00080600000806020008060400080606000806080008060A0008060C0008060E00080800000808020008080400080806000808080008080A0008080C0008080E00080A0000080A0200080A0400080A0600080A0800080A0A00080A0C00080A0E00080C0000080C0200080C0400080C0600080C0
310
800080C0A00080C0C00080C0E00080E0000080E0200080E0400080E0600080E0800080E0A00080E0C00080E0E000C0000000C0002000C0004000C0006000C0008000C000A000C000C000C000E000C0200000C0202000C0204000C0206000C0208000C020A000C020C000C020E000C0400000C0402000C0404000C0406000C0
310
408000C040A000C040C000C040E000C0600000C0602000C0604000C0606000C0608000C060A000C060C000C060E000C0800000C0802000C0804000C0806000C0808000C080A000C080C000C080E000C0A00000C0A02000C0A04000C0A06000C0A08000C0A0A000C0A0C000C0A0E000C0C00000C0C02000C0C04000C0C06000
310
C0C08000C0C0A000F0FBFF00A4A0A000808080000000FF0000FF000000FFFF00FF000000FF00FF00FFFF0000FFFFFF00FF00FFFFFFFF00FFFFFFFFFFFFFFFFFFFFFFFFFFFFFFFFFFFFFFFFFFFFFFFFFFFF00FFFFFFFF00FFFFFFFFFFFFFFFFFFFFFFFFFFFFFFFFFFFFFFFFFFFFFFFFFFFF00FFFFFFFF00FFFFFFFFFFFFFFFF
310
FFFFFFFFFFFFFFFFFFFFFFFFFFFFFFFFFFFF00FFFFFFFF00FFFFFFFFFFFFFFFFFFFFFFFFFFFFFFFFFFFFFFFFFFFFFFFFFFFF00FFFFFFFF00FFFFFFFFFFFFFFFFFFFFFFFFFFFFFFFFFFFFFFFFFFFFFFFFFFFF00FFFFFFFF00FFFFFFFFFFFFFFFFFFFFFFFFFFFFFFFFFFFFFFFFFFFFFFFFFFFF00FFFFFFFF00FFFFFFFFFFFFFF
310
FFFFFFFFFFFFFFFFFFFFFFFFFFFFFFFFFFFFFF00FFFFFFFF00FFFFFFFFFFFFFFFFFFFFFFFFFFFFFFFFFFFFFFFFFFFFFFFFFFFF00FFFFFFFF00FFFFFFFFFFFFFFFFFFFFFFFFFFFFFFFFFFFFFFFFFFFFFFFFFFFF00FFFFFFFF00FFFFFFFFFFFFFFFFFFFFFFFFFFFFFFFFFFFFFFFFFFFFFFFFFFFF00FFFFFFFF00FFFFFFFFFFFF
310
FFFFFFFFFFFFFFFFFFFFFFFFFFFFFFFFFFFFFFFF00FFFFFFFF00FFFFFFFFFFFFFFFFFFFFFFFFFFFFFFFFFFFFFFFFFFFFFFFFFFFF00FFFFFFFF00FFFFFFFFFFFFFFFFFFFFFFFFFFFFFFFFFFFFFFFFFFFFFFFFFFFF00FFFFFFFF0000000000000000000000000000000000000000000000000000FF00FFFFFFFFFFFFFFFFFFFF
310
FFFFFFFFFFFFFFFFFFFFFFFFFFFFFFFFFFFFFFFFFF00FFFFFFFFFFFFFFFFFFFFFFFFFFFFFFFFFFFFFFFFFFFFFFFFFFFFFFFFFFFFFF00FFFFFFFFFFFFFFFFFFFFFFFFFFFFFFFFFFFFFFFFFFFFFFFFFFFFFFFFFFFFFF00FFFFFFFFFFFFFFFFFFFFFFFFFFFFFFFFFFFFFFFFFFFFFFFFFFFFFFFFFF00FF00000000000000000000
310
0000000000000000000000000000000000000000FFFFFFFFFFFFFFFFFFFFFFFFFFFFFFFFFFFFFFFFFFFFFFFFFFFFFFFFFFFFFFFFFFFFFFFFFFFFFFFFFFFFFFFFFFFFFFFFFFFFFFFFFFFFFFFFFFFFFFFFFFFFFFFFFFFFFFFFFFFFFFFFFFFFFFFFFFFFFFFFFFFFFFFFFFFFFFFFFFFFFFFFFFFFFFFFFFFFFFFFFFFFFFFFFFFFFF
310
FFFFFFFFFFFFFFFFFFFFFFFFFFFFFFFFFFFFFFFFFFFFFFFFFFFFFFFFFFFFFFFFFFFFFFFFFFFFFFFFFFFFFFFFFFFFFFFFFFFFFFFFFFFFFFFFFFFFFFFFFFFFFFFFFFFFFFFFFFFFFFFFFFFFFFFFFFFFFFFFFFFFFFFFFFFFFFFFFFFFFFFFFFFFFFFFFFFFFFFFFFFFFFFFFFFFFFFFFFFFFFFFFFFFFFFFFFFFFFFFFFFFFFFFFFFFFF
310
FFFFFFFFFFFFFFFFFFFFFFFFFFFFFFFFFFFFFFFFFFFFFFFFFFFFFFFFFFFFFFFFFFFFFFFFFFFFFFFFFFFFFFFFFFFFFFFFFFFFFFFFFFFFFFFFFFFFFFFFFFFFFFFFFFFFFFFFFFFFFFFFFFFFFFFFFFFFFFFFFFFFFFFFFFFFFFFFFFFFFFFFFFFFFFFFFFFFFFFFFFFFFFFFFFFFFFFFFFFFFFFFFFFFFFFFFFFFFFFFFFFFFFFFFFFFFF
310
FFFFFFFFFFFFFFFFFFFFFFFFFFFFFFFFFFFFFFFFFFFFFFFFFFFFFFFFFFFFFFFFFFFFFFFFFFFFFFFFFFFFFFFFFFFFFFFFFFFFFFFFFFFFFFFF
102
{BLKREFS
331
9C0
102
}
  0
BLOCK_RECORD
  5
984
330
5C3
100
AcDbSymbolTableRecord
100
AcDbBlockTableRecord
  2
AI9-BLK13
340
0
310
2800000020000000200000000100080000000000000400000000000000000000000000000000000000000000000080000080000000808000800000008000800080800000C0C0C000C0DCC000F0CAA6000020400000206000002080000020A0000020C0000020E00000400000004020000040400000406000004080000040A0
310
000040C0000040E00000600000006020000060400000606000006080000060A0000060C0000060E00000800000008020000080400000806000008080000080A0000080C0000080E00000A0000000A0200000A0400000A0600000A0800000A0A00000A0C00000A0E00000C0000000C0200000C0400000C0600000C0800000C0
310
A00000C0C00000C0E00000E0000000E0200000E0400000E0600000E0800000E0A00000E0C00000E0E00040000000400020004000400040006000400080004000A0004000C0004000E00040200000402020004020400040206000402080004020A0004020C0004020E000404000004040200040404000404060004040800040
310
40A0004040C0004040E00040600000406020004060400040606000406080004060A0004060C0004060E00040800000408020004080400040806000408080004080A0004080C0004080E00040A0000040A0200040A0400040A0600040A0800040A0A00040A0C00040A0E00040C0000040C0200040C0400040C0600040C08000
310
40C0A00040C0C00040C0E00040E0000040E0200040E0400040E0600040E0800040E0A00040E0C00040E0E00080000000800020008000400080006000800080008000A0008000C0008000E00080200000802020008020400080206000802080008020A0008020C0008020E00080400000804020008040400080406000804080
310
008040A0008040C0008040E00080600000806020008060400080606000806080008060A0008060C0008060E00080800000808020008080400080806000808080008080A0008080C0008080E00080A0000080A0200080A0400080A0600080A0800080A0A00080A0C00080A0E00080C0000080C0200080C0400080C0600080C0
310
800080C0A00080C0C00080C0E00080E0000080E0200080E0400080E0600080E0800080E0A00080E0C00080E0E000C0000000C0002000C0004000C0006000C0008000C000A000C000C000C000E000C0200000C0202000C0204000C0206000C0208000C020A000C020C000C020E000C0400000C0402000C0404000C0406000C0
310
408000C040A000C040C000C040E000C0600000C0602000C0604000C0606000C0608000C060A000C060C000C060E000C0800000C0802000C0804000C0806000C0808000C080A000C080C000C080E000C0A00000C0A02000C0A04000C0A06000C0A08000C0A0A000C0A0C000C0A0E000C0C00000C0C02000C0C04000C0C06000
310
C0C08000C0C0A000F0FBFF00A4A0A000808080000000FF0000FF000000FFFF00FF000000FF00FF00FFFF0000FFFFFF00FFFFFFFFFFFFFFFFFFFFFFFFFFFFFFFFFFFFFFFFFFFFFFFFFFFFFFFFFFFFFFFFFFFFFFFFFFFFFFFFFFFFFF0000FFFFFFFFFFFF0000FFFFFFFFFFFFFFFFFFFFFFFFFFFFFFFFFFFFFFFFFFFF0000FFFF
310
FFFFFFFF0000FFFFFFFFFFFFFFFFFFFFFFFFFFFFFFFFFFFFFFFFFFFF0000FFFFFFFFFFFF0000FFFFFFFFFFFFFFFFFFFFFFFFFFFFFFFFFFFFFFFFFFFF0000FFFFFFFFFFFF0000FFFFFFFFFFFFFFFFFFFFFFFFFFFFFFFFFFFFFFFFFFFF0000FFFFFFFFFFFF0000FFFFFFFFFFFFFFFFFFFFFFFFFFFFFFFFFFFFFFFFFFFF0000FF
310
FFFFFFFFFF0000FFFFFFFFFFFFFFFFFFFFFFFFFFFFFFFFFFFFFFFFFFFF0000FFFFFFFFFFFF0000FFFFFFFFFFFFFFFFFFFFFFFFFFFFFFFFFFFFFFFFFFFF0000FFFFFFFFFFFF0000FFFFFFFFFFFFFFFFFFFFFFFFFFFFFFFFFFFFFFFFFFFF0000FFFFFFFFFFFF0000FFFFFFFFFFFFFFFFFFFFFFFFFFFFFFFFFFFFFFFFFFFF0000
310
FFFFFFFFFFFF0000FFFFFFFFFFFFFFFFFFFFFFFFFFFFFFFFFFFFFFFFFFFF0000FFFFFFFFFFFF0000FFFFFFFFFFFFFFFFFFFFFFFFFFFFFFFFFFFFFFFFFFFF0000FFFFFFFFFFFF0000FFFFFFFFFFFFFFFFFFFFFFFFFFFFFFFFFFFFFFFFFFFF0000FFFFFFFFFFFF0000FFFFFFFFFFFFFFFFFFFFFFFFFFFFFFFFFFFFFFFFFFFF00
310
00FFFFFFFFFFFF0000FFFFFFFFFFFFFFFFFFFFFFFFFFFFFFFFFFFFFFFFFFFF00000000000000000000FFFFFFFFFFFFFFFFFFFFFFFFFFFFFFFFFFFFFFFFFFFF00FFFFFFFFFFFFFFFF00FFFFFFFFFFFFFFFFFFFFFFFFFFFFFFFFFFFFFFFFFFFF00FFFFFFFFFFFFFFFF00FFFFFFFFFFFFFFFFFFFFFFFFFFFFFFFFFFFFFFFFFFFF
310
00000000000000000000FFFFFFFFFFFFFFFFFFFFFFFFFFFFFFFFFFFFFFFFFFFF0000FFFFFFFFFFFF0000FFFFFFFFFFFFFFFFFFFFFFFFFFFFFFFFFFFFFFFFFFFF0000FFFFFFFFFFFF0000FFFFFFFFFFFFFFFFFFFFFFFFFFFFFFFFFFFFFFFFFFFF0000FFFFFFFFFFFF0000FFFFFFFFFFFFFFFFFFFFFFFFFFFFFFFFFFFFFFFFFF
310
FF0000FFFFFFFFFFFF0000FFFFFFFFFFFFFFFFFFFFFFFFFFFFFFFFFFFFFFFFFFFF0000FFFFFFFFFFFF0000FFFFFFFFFFFFFFFFFFFFFFFFFFFFFFFFFFFFFFFFFFFF0000FFFFFFFFFFFF0000FFFFFFFFFFFFFFFFFFFFFFFFFFFFFFFFFFFFFFFFFFFF0000FFFFFFFFFFFF0000FFFFFFFFFFFFFFFFFFFFFFFFFFFFFFFFFFFFFFFF
310
FFFF0000FFFFFFFFFFFF0000FFFFFFFFFFFFFFFFFFFFFFFFFFFFFFFFFFFFFFFFFFFF0000FFFFFFFFFFFF0000FFFFFFFFFFFFFFFFFFFFFFFFFFFFFFFFFFFFFFFFFFFF0000FFFFFFFFFFFF0000FFFFFFFFFFFFFFFFFFFFFFFFFFFFFFFFFFFFFFFFFFFF0000FFFFFFFFFFFF0000FFFFFFFFFFFFFFFFFFFFFFFFFFFFFFFFFFFFFF
310
FFFFFF0000FFFFFFFFFFFF0000FFFFFFFFFFFFFFFFFFFFFFFFFFFFFFFFFFFFFFFFFFFFFFFFFFFFFFFFFFFFFFFFFFFFFFFFFFFFFFFFFFFFFF
102
{BLKREFS
331
9C1
102
}
  0
BLOCK_RECORD
  5
989
330
5C3
100
AcDbSymbolTableRecord
100
AcDbBlockTableRecord
  2
AI9-BLK11
340
0
310
2800000020000000200000000100080000000000000400000000000000000000000000000000000000000000000080000080000000808000800000008000800080800000C0C0C000C0DCC000F0CAA6000020400000206000002080000020A0000020C0000020E00000400000004020000040400000406000004080000040A0
310
000040C0000040E00000600000006020000060400000606000006080000060A0000060C0000060E00000800000008020000080400000806000008080000080A0000080C0000080E00000A0000000A0200000A0400000A0600000A0800000A0A00000A0C00000A0E00000C0000000C0200000C0400000C0600000C0800000C0
310
A00000C0C00000C0E00000E0000000E0200000E0400000E0600000E0800000E0A00000E0C00000E0E00040000000400020004000400040006000400080004000A0004000C0004000E00040200000402020004020400040206000402080004020A0004020C0004020E000404000004040200040404000404060004040800040
310
40A0004040C0004040E00040600000406020004060400040606000406080004060A0004060C0004060E00040800000408020004080400040806000408080004080A0004080C0004080E00040A0000040A0200040A0400040A0600040A0800040A0A00040A0C00040A0E00040C0000040C0200040C0400040C0600040C08000
310
40C0A00040C0C00040C0E00040E0000040E0200040E0400040E0600040E0800040E0A00040E0C00040E0E00080000000800020008000400080006000800080008000A0008000C0008000E00080200000802020008020400080206000802080008020A0008020C0008020E00080400000804020008040400080406000804080
310
008040A0008040C0008040E00080600000806020008060400080606000806080008060A0008060C0008060E00080800000808020008080400080806000808080008080A0008080C0008080E00080A0000080A0200080A0400080A0600080A0800080A0A00080A0C00080A0E00080C0000080C0200080C0400080C0600080C0
310
800080C0A00080C0C00080C0E00080E0000080E0200080E0400080E0600080E0800080E0A00080E0C00080E0E000C0000000C0002000C0004000C0006000C0008000C000A000C000C000C000E000C0200000C0202000C0204000C0206000C0208000C020A000C020C000C020E000C0400000C0402000C0404000C0406000C0
310
408000C040A000C040C000C040E000C0600000C0602000C0604000C0606000C0608000C060A000C060C000C060E000C0800000C0802000C0804000C0806000C0808000C080A000C080C000C080E000C0A00000C0A02000C0A04000C0A06000C0A08000C0A0A000C0A0C000C0A0E000C0C00000C0C02000C0C04000C0C06000
310
C0C08000C0C0A000F0FBFF00A4A0A000808080000000FF0000FF000000FFFF00FF000000FF00FF00FFFF0000FFFFFF00FFFFFFFFFFFFFFFFFFFFFFFFFFFFFFFFFFFFFFFFFFFFFFFFFFFFFFFFFFFFFFFFFFFFFFFFFFFFFFFFFFFFFFFFFFFF00000000FFFFFFFFFFFFFFFFFFFFFF000000FFFFFFFFFFFFFFFFFFFFFFFFFFFF00
310
FFFF00FFFFFFFFFFFFFFFFFFFFFF00FFFFFFFFFFFFFFFFFFFFFFFFFFFFFFFF00FFFF00FFFFFFFFFFFFFFFFFFFFFF00FFFFFFFFFFFFFFFFFFFFFFFFFFFFFFFF00FFFF00FFFFFFFFFFFFFFFFFFFFFF00FFFFFFFFFFFFFFFFFFFFFFFFFFFFFFFF00FFFF00FFFFFFFFFFFFFFFFFFFFFF00FFFFFFFFFFFFFFFFFFFFFFFFFFFFFFFF
310
00FFFF00FFFFFFFFFFFFFFFFFFFFFF00FFFFFFFFFFFFFFFFFFFFFFFFFFFFFFFF00FFFF00FFFFFFFFFFFFFFFFFFFFFF00FFFFFFFFFFFFFFFFFFFFFFFFFFFFFFFF00FFFF00FFFFFFFFFFFFFFFFFFFFFF00FFFFFFFFFFFFFFFFFFFFFFFFFFFFFFFF00FFFF00FFFFFFFFFFFFFFFFFFFFFF00FFFFFFFFFFFFFFFFFFFFFFFFFFFFFF
310
FF00FFFF00FFFFFFFFFFFFFFFFFFFFFF00FFFFFFFFFFFFFFFFFFFFFFFFFFFFFFFF00FFFF00FFFFFFFFFFFFFFFFFFFFFF00FFFFFFFFFFFFFFFFFFFFFFFFFFFFFFFF00FFFF00FFFFFFFFFFFFFFFFFFFFFF00FFFFFFFFFFFFFFFFFFFFFFFFFFFFFFFF00FFFF00FFFFFFFFFFFFFFFFFFFFFF00FFFFFFFFFFFFFFFFFFFFFFFFFFFF
310
FFFF00FFFF00FFFFFFFFFFFFFFFFFFFFFF00FFFFFFFFFFFFFFFFFFFFFFFFFFFFFFFF00FFFF00FFFFFFFFFFFFFFFFFFFFFF00FFFFFFFFFFFFFFFFFFFFFFFFFFFFFFFF00FFFF00FFFFFFFFFFFFFFFFFFFFFF00FFFFFFFFFFFFFFFFFFFFFFFFFFFFFFFF00FFFF00FFFFFFFFFFFFFFFFFFFF00FFFFFFFFFFFFFFFFFFFFFFFFFFFF
310
FFFFFF00FFFF00FFFFFFFFFFFFFFFFFFFF00FFFFFFFFFFFFFFFFFFFFFFFFFFFFFFFFFF00FFFF00FFFFFFFFFFFFFFFFFFFF00FFFFFFFFFFFFFFFFFFFFFFFFFFFFFFFFFF00FFFF00FFFFFFFFFFFFFFFFFFFF00FFFFFFFFFFFFFFFFFFFFFFFFFFFFFFFFFF00FFFF00FFFFFFFFFFFFFFFFFFFF00FFFFFFFFFFFFFFFFFFFFFFFFFF
310
FFFFFFFF00FFFF00FFFFFFFFFFFFFFFFFF0000FFFF00FFFFFFFFFFFFFFFFFFFFFFFFFFFF00FFFF00FFFFFFFFFFFFFFFF0000FFFFFF00FFFFFFFFFFFFFFFFFFFFFFFFFFFF00FFFF00000000000000000000FFFFFFFF00FFFFFFFFFFFFFFFFFFFFFFFFFFFF00FFFFFFFFFFFFFFFFFFFFFFFFFFFFFF00FFFFFFFFFFFFFFFFFFFF
310
FFFFFFFFFF00FFFFFFFFFFFFFFFFFFFFFFFFFFFF00FFFFFFFFFFFFFFFFFFFFFFFFFFFFFFFF00FFFFFFFFFFFFFFFFFFFFFFFFFFFF00FFFFFFFFFFFFFFFFFFFFFFFFFFFFFFFF00FFFFFFFFFFFFFFFFFFFFFFFFFFFFFF00FFFFFFFFFFFFFFFFFFFFFFFFFFFFFF00FFFFFFFFFFFFFFFFFFFFFFFFFFFFFF00FFFFFFFFFFFFFFFFFF
310
FFFFFFFFFFFF00FFFF00000000000000000000FFFFFFFF00FFFFFFFFFFFFFFFFFFFFFFFFFFFF00FFFF00FFFFFFFFFFFFFFFFFF0000FFFF00
102
{BLKREFS
331
9C2
102
}
  0
BLOCK_RECORD
  5
98E
330
5C3
100
AcDbSymbolTableRecord
100
AcDbBlockTableRecord
  2
AI9-BLK10
340
0
310
2800000020000000200000000100080000000000000400000000000000000000000000000000000000000000000080000080000000808000800000008000800080800000C0C0C000C0DCC000F0CAA6000020400000206000002080000020A0000020C0000020E00000400000004020000040400000406000004080000040A0
310
000040C0000040E00000600000006020000060400000606000006080000060A0000060C0000060E00000800000008020000080400000806000008080000080A0000080C0000080E00000A0000000A0200000A0400000A0600000A0800000A0A00000A0C00000A0E00000C0000000C0200000C0400000C0600000C0800000C0
310
A00000C0C00000C0E00000E0000000E0200000E0400000E0600000E0800000E0A00000E0C00000E0E00040000000400020004000400040006000400080004000A0004000C0004000E00040200000402020004020400040206000402080004020A0004020C0004020E000404000004040200040404000404060004040800040
310
40A0004040C0004040E00040600000406020004060400040606000406080004060A0004060C0004060E00040800000408020004080400040806000408080004080A0004080C0004080E00040A0000040A0200040A0400040A0600040A0800040A0A00040A0C00040A0E00040C0000040C0200040C0400040C0600040C08000
310
40C0A00040C0C00040C0E00040E0000040E0200040E0400040E0600040E0800040E0A00040E0C00040E0E00080000000800020008000400080006000800080008000A0008000C0008000E00080200000802020008020400080206000802080008020A0008020C0008020E00080400000804020008040400080406000804080
310
008040A0008040C0008040E00080600000806020008060400080606000806080008060A0008060C0008060E00080800000808020008080400080806000808080008080A0008080C0008080E00080A0000080A0200080A0400080A0600080A0800080A0A00080A0C00080A0E00080C0000080C0200080C0400080C0600080C0
310
800080C0A00080C0C00080C0E00080E0000080E0200080E0400080E0600080E0800080E0A00080E0C00080E0E000C0000000C0002000C0004000C0006000C0008000C000A000C000C000C000E000C0200000C0202000C0204000C0206000C0208000C020A000C020C000C020E000C0400000C0402000C0404000C0406000C0
310
408000C040A000C040C000C040E000C0600000C0602000C0604000C0606000C0608000C060A000C060C000C060E000C0800000C0802000C0804000C0806000C0808000C080A000C080C000C080E000C0A00000C0A02000C0A04000C0A06000C0A08000C0A0A000C0A0C000C0A0E000C0C00000C0C02000C0C04000C0C06000
310
C0C08000C0C0A000F0FBFF00A4A0A000808080000000FF0000FF000000FFFF00FF000000FF00FF00FFFF0000FFFFFF00FFFFFFFFFFFFFFFFFFFFFFFFFFFFFFFF00FFFFFFFFFFFFFFFFFFFFFFFF00FFFFFFFFFFFFFFFFFFFFFFFFFFFFFFFFFFFF00FFFFFFFFFFFFFFFFFFFFFF00FFFFFFFFFFFFFFFFFFFFFFFFFFFFFFFFFFFF
310
FF00FFFFFFFFFFFFFFFFFFFFFF00FFFFFFFFFFFFFFFFFFFFFFFFFFFFFFFFFFFFFF00FFFFFFFFFFFFFFFFFFFFFF00FFFFFFFFFFFFFFFFFFFFFFFFFFFFFFFFFFFFFF00FFFFFFFFFFFFFFFFFFFFFF00FFFFFFFFFFFFFFFFFFFFFFFFFFFFFFFFFFFFFF00FFFFFFFFFFFFFFFFFFFFFF00FFFFFFFFFFFFFFFFFFFFFFFFFFFFFFFFFF
310
FFFF00FFFFFFFFFFFFFFFFFFFFFF00FFFFFFFFFFFFFFFFFFFFFFFFFFFFFFFFFFFFFF00FFFFFFFFFFFFFFFFFFFF00FFFFFFFFFFFFFFFFFFFFFFFFFFFFFFFFFFFFFFFF00FFFFFFFFFFFFFFFFFFFF00FFFFFFFFFFFFFFFFFFFFFFFFFFFFFFFFFFFFFFFF00FFFFFFFFFFFFFFFFFFFF00FFFFFFFFFFFFFFFFFFFFFFFFFFFFFFFFFF
310
FFFFFF00FFFFFFFFFFFFFFFFFFFF00FFFFFFFFFFFFFFFFFFFFFFFFFFFFFFFFFFFFFFFF00FFFFFFFFFFFFFFFFFFFF00FFFFFFFFFFFFFFFFFFFFFFFFFFFFFFFFFFFFFFFF00FFFFFFFFFFFFFFFFFFFF00FFFFFFFFFFFFFFFFFFFFFFFFFFFFFFFFFFFFFFFF00FFFFFFFFFFFFFFFFFF00FFFFFFFFFFFFFFFFFFFFFFFFFFFFFFFFFF
310
FFFFFFFF00FFFFFFFFFFFFFFFFFF00FFFFFFFFFFFFFFFFFFFFFFFFFFFFFFFFFFFFFFFFFF00FFFFFFFFFFFFFFFFFF00FFFFFFFFFFFFFFFFFFFFFFFFFFFFFFFFFFFFFFFFFF0000000000000000000000FFFFFFFFFFFFFFFFFFFFFFFFFFFFFFFFFFFFFFFFFFFFFFFFFFFFFFFFFFFFFFFFFFFFFFFFFFFFFFFFFFFFFFFFFFFFFFFF
310
FFFFFFFFFFFFFFFFFFFFFFFFFFFFFFFFFFFFFFFFFFFFFFFFFFFFFFFFFFFFFFFFFFFFFFFFFFFFFFFFFFFFFFFFFFFFFFFFFFFFFFFFFFFFFFFFFFFFFFFFFFFFFFFFFFFFFFFFFFFFFFFFFFFFFFFFFFFFFFFFFFFFFFFFFFFFFFFFFFFFFFFFFFFFFFFFFFFFFFFFFFFFFFFFFFFFFFFFFFFFFFFFFFFFFFFFFFFFFFFFFFFFFFFFFFFFFF
310
FFFFFFFFFFFFFFFFFFFFFFFFFFFFFFFFFFFFFFFFFFFFFFFFFFFFFFFFFFFFFFFFFFFFFFFFFFFFFFFFFFFFFFFFFFFFFFFFFFFFFFFFFFFFFFFFFFFFFFFFFFFFFFFFFFFFFFFFFFFFFFFFFFFFFFFFFFFFFFFFFFFFFFFFFFFFFFFFFFFFFFFFFFFFFFFFFFFFFFFFFFFFFFFFFFFFFFFFFFFFFFFFFFFFFFFFFFFFFFFFFFFFFFFFFFFFFF
310
FFFFFFFFFFFFFFFFFFFFFFFFFFFFFFFFFFFFFFFFFFFFFFFFFFFFFFFFFFFFFFFFFFFFFFFFFFFFFFFFFFFFFFFFFFFFFFFFFFFFFFFFFFFFFFFFFFFFFFFFFFFFFFFFFFFFFFFFFFFFFFFFFFFFFFFFFFFFFFFFFFFFFFFFFFFFFFFFFFFFFFFFFFFFFFFFFFFFFFFFFFFFFFFFFFFFFFFFFFFFFFFFFFFFFFFFFFFFFFFFFFFFFFFFFFFFFF
310
FFFFFFFFFFFFFFFFFFFFFFFFFFFFFFFFFFFFFFFFFFFFFFFFFFFFFFFFFFFFFFFFFFFFFFFFFFFFFFFFFFFFFFFFFFFFFFFFFFFFFFFFFFFFFFFF
102
{BLKREFS
331
9C3
102
}
  0
BLOCK_RECORD
  5
992
330
5C3
100
AcDbSymbolTableRecord
100
AcDbBlockTableRecord
  2
AI9-BLK9
340
0
310
2800000020000000200000000100080000000000000400000000000000000000000000000000000000000000000080000080000000808000800000008000800080800000C0C0C000C0DCC000F0CAA6000020400000206000002080000020A0000020C0000020E00000400000004020000040400000406000004080000040A0
310
000040C0000040E00000600000006020000060400000606000006080000060A0000060C0000060E00000800000008020000080400000806000008080000080A0000080C0000080E00000A0000000A0200000A0400000A0600000A0800000A0A00000A0C00000A0E00000C0000000C0200000C0400000C0600000C0800000C0
310
A00000C0C00000C0E00000E0000000E0200000E0400000E0600000E0800000E0A00000E0C00000E0E00040000000400020004000400040006000400080004000A0004000C0004000E00040200000402020004020400040206000402080004020A0004020C0004020E000404000004040200040404000404060004040800040
310
40A0004040C0004040E00040600000406020004060400040606000406080004060A0004060C0004060E00040800000408020004080400040806000408080004080A0004080C0004080E00040A0000040A0200040A0400040A0600040A0800040A0A00040A0C00040A0E00040C0000040C0200040C0400040C0600040C08000
310
40C0A00040C0C00040C0E00040E0000040E0200040E0400040E0600040E0800040E0A00040E0C00040E0E00080000000800020008000400080006000800080008000A0008000C0008000E00080200000802020008020400080206000802080008020A0008020C0008020E00080400000804020008040400080406000804080
310
008040A0008040C0008040E00080600000806020008060400080606000806080008060A0008060C0008060E00080800000808020008080400080806000808080008080A0008080C0008080E00080A0000080A0200080A0400080A0600080A0800080A0A00080A0C00080A0E00080C0000080C0200080C0400080C0600080C0
310
800080C0A00080C0C00080C0E00080E0000080E0200080E0400080E0600080E0800080E0A00080E0C00080E0E000C0000000C0002000C0004000C0006000C0008000C000A000C000C000C000E000C0200000C0202000C0204000C0206000C0208000C020A000C020C000C020E000C0400000C0402000C0404000C0406000C0
310
408000C040A000C040C000C040E000C0600000C0602000C0604000C0606000C0608000C060A000C060C000C060E000C0800000C0802000C0804000C0806000C0808000C080A000C080C000C080E000C0A00000C0A02000C0A04000C0A06000C0A08000C0A0A000C0A0C000C0A0E000C0C00000C0C02000C0C04000C0C06000
310
C0C08000C0C0A000F0FBFF00A4A0A000808080000000FF0000FF000000FFFF00FF000000FF00FF00FFFF0000FFFFFF00FFFFFFFFFFFFFFFFFFFFFFFFFFFFFFFFFFFFFFFFFFFFFFFFFFFFFFFFFFFFFFFFFFFFFFFFFFFFFFFFFFFFFFFFFFFFFF0000FFFFFFFFFFFFFFFFFFFFFFFFFFFFFFFFFFFFFFFFFFFFFFFFFFFFFFFF0000
310
FF0000FFFFFFFFFFFFFFFFFFFFFFFFFFFFFFFFFFFFFFFFFFFFFFFFFFFFFF00FFFFFF0000FFFFFFFFFFFFFFFFFFFFFFFFFFFFFFFFFFFFFFFFFFFFFFFFFFFF00FFFFFFFF0000FFFFFFFFFFFFFFFFFFFFFFFFFFFFFFFFFFFFFFFFFFFFFFFF00FF00000000FF00FFFFFFFFFFFFFFFFFFFFFFFFFFFFFFFFFFFFFFFFFFFFFFFF0000
310
00FFFF00FF00FFFFFFFFFFFFFFFFFFFFFFFFFFFFFFFFFFFFFFFFFFFFFFFF0000FFFFFFFF0000FFFFFFFFFFFFFFFFFFFFFFFFFFFFFFFFFFFFFFFFFFFFFFFF0000FFFFFFFF0000FFFFFFFFFFFFFFFFFFFFFFFFFFFFFFFFFFFFFFFFFFFFFF00FF00FFFFFFFF00FF00FFFFFFFFFFFFFFFFFFFFFFFFFFFFFFFFFFFFFFFFFFFF0000
310
FFFFFFFFFF00FF00FFFFFFFFFFFFFFFFFFFFFFFFFFFFFFFFFFFFFFFFFFFF0000FFFFFFFFFFFF0000FFFFFFFFFFFFFFFFFFFFFFFFFFFFFFFFFFFFFFFFFFFF0000FFFFFFFFFFFF0000FFFFFFFFFFFFFFFFFFFFFFFFFFFFFFFFFFFFFFFFFFFF0000FFFFFFFFFFFF0000FFFFFFFFFFFFFFFFFFFFFFFFFFFFFFFFFFFFFFFFFFFF00
310
00FFFFFFFFFFFF0000FFFFFFFFFFFFFFFFFFFFFFFFFFFFFFFFFFFFFFFFFFFF0000FFFFFFFFFFFF0000FFFFFFFFFFFFFFFFFFFFFFFFFFFFFFFFFFFFFFFFFFFF0000FFFFFFFFFFFF0000FFFFFFFFFFFFFFFFFFFFFFFFFFFFFFFFFFFFFFFFFFFF0000FFFFFFFFFFFF0000FFFFFFFFFFFFFFFFFFFFFFFFFFFFFFFFFFFFFFFFFFFF
310
0000FFFFFFFFFFFF0000FFFFFFFFFFFFFFFFFFFFFFFFFFFFFFFFFFFFFFFFFFFF0000FFFFFFFFFFFF0000FFFFFFFFFFFFFFFFFFFFFFFFFFFFFFFFFFFFFFFFFFFF0000FFFFFFFFFFFF0000FFFFFFFFFFFFFFFFFFFFFFFFFFFFFFFFFFFFFFFFFFFF00FF00FFFFFFFF00FF00FFFFFFFFFFFFFFFFFFFFFFFFFFFFFFFFFFFFFFFFFF
310
FF00FF00FFFFFFFF00FF00FFFFFFFFFFFFFFFFFFFFFFFFFFFFFFFFFFFFFFFFFFFF00FF00FFFFFFFF00FF00FFFFFFFFFFFFFFFFFFFFFFFFFFFFFFFFFFFFFFFFFFFFFF0000FFFFFFFF0000FFFFFFFFFFFFFFFFFFFFFFFFFFFFFFFFFFFFFFFFFFFFFFFF00FF00FFFF00FF00FFFFFFFFFFFFFFFFFFFFFFFFFFFFFFFFFFFFFFFFFF
310
FFFFFF00FF00000000FF00FFFFFFFFFFFFFFFFFFFFFFFFFFFFFFFFFFFFFFFFFFFFFFFFFF00FFFFFFFF0000FFFFFFFFFFFFFFFFFFFFFFFFFFFFFFFFFFFFFFFFFFFFFFFFFF00FFFFFFFF00FFFFFFFFFFFFFFFFFFFFFFFFFFFFFFFFFFFFFFFFFFFFFFFFFFFFFF00000000FFFFFFFFFFFFFFFFFFFFFFFFFFFFFFFFFFFFFFFFFFFF
310
FFFFFFFFFFFFFF0000FFFFFFFFFFFFFFFFFFFFFFFFFFFFFFFFFFFFFFFFFFFFFFFFFFFFFFFFFFFFFFFFFFFFFFFFFFFFFFFFFFFFFFFFFFFFFF
102
{BLKREFS
331
9C4
102
}
  0
BLOCK_RECORD
  5
997
330
5C3
100
AcDbSymbolTableRecord
100
AcDbBlockTableRecord
  2
AI9-BLK8
340
0
310
2800000020000000200000000100080000000000000400000000000000000000000000000000000000000000000080000080000000808000800000008000800080800000C0C0C000C0DCC000F0CAA6000020400000206000002080000020A0000020C0000020E00000400000004020000040400000406000004080000040A0
310
000040C0000040E00000600000006020000060400000606000006080000060A0000060C0000060E00000800000008020000080400000806000008080000080A0000080C0000080E00000A0000000A0200000A0400000A0600000A0800000A0A00000A0C00000A0E00000C0000000C0200000C0400000C0600000C0800000C0
310
A00000C0C00000C0E00000E0000000E0200000E0400000E0600000E0800000E0A00000E0C00000E0E00040000000400020004000400040006000400080004000A0004000C0004000E00040200000402020004020400040206000402080004020A0004020C0004020E000404000004040200040404000404060004040800040
310
40A0004040C0004040E00040600000406020004060400040606000406080004060A0004060C0004060E00040800000408020004080400040806000408080004080A0004080C0004080E00040A0000040A0200040A0400040A0600040A0800040A0A00040A0C00040A0E00040C0000040C0200040C0400040C0600040C08000
310
40C0A00040C0C00040C0E00040E0000040E0200040E0400040E0600040E0800040E0A00040E0C00040E0E00080000000800020008000400080006000800080008000A0008000C0008000E00080200000802020008020400080206000802080008020A0008020C0008020E00080400000804020008040400080406000804080
310
008040A0008040C0008040E00080600000806020008060400080606000806080008060A0008060C0008060E00080800000808020008080400080806000808080008080A0008080C0008080E00080A0000080A0200080A0400080A0600080A0800080A0A00080A0C00080A0E00080C0000080C0200080C0400080C0600080C0
310
800080C0A00080C0C00080C0E00080E0000080E0200080E0400080E0600080E0800080E0A00080E0C00080E0E000C0000000C0002000C0004000C0006000C0008000C000A000C000C000C000E000C0200000C0202000C0204000C0206000C0208000C020A000C020C000C020E000C0400000C0402000C0404000C0406000C0
310
408000C040A000C040C000C040E000C0600000C0602000C0604000C0606000C0608000C060A000C060C000C060E000C0800000C0802000C0804000C0806000C0808000C080A000C080C000C080E000C0A00000C0A02000C0A04000C0A06000C0A08000C0A0A000C0A0C000C0A0E000C0C00000C0C02000C0C04000C0C06000
310
C0C08000C0C0A000F0FBFF00A4A0A000808080000000FF0000FF000000FFFF00FF000000FF00FF00FFFF0000FFFFFF00FFFFFFFFFFFFFFFFFFFFFFFFFFFFFFFFFFFFFFFFFFFFFFFFFFFFFFFFFFFFFFFFFFFFFFFFFFFFFFFFFFFFFF0000FFFFFFFFFFFF0000FFFFFFFFFFFFFFFFFFFFFFFFFFFFFFFFFFFFFFFFFFFF0000FFFF
310
FFFFFFFF0000FFFFFFFFFFFFFFFFFFFFFFFFFFFFFFFFFFFFFFFFFFFF0000FFFFFFFFFF00FF00FFFFFFFFFFFFFFFFFFFFFFFFFFFFFFFFFFFFFFFFFFFF0000FFFFFFFFFF00FF00FFFFFFFFFFFFFFFFFFFFFFFFFFFFFFFFFFFFFFFFFFFF0000FFFFFFFFFF00FF00FFFFFFFFFFFFFFFFFFFFFFFFFFFFFFFFFFFFFFFFFFFF0000FF
310
FFFFFF00FFFF00FFFFFFFFFFFFFFFFFFFFFFFFFFFFFFFFFFFFFFFFFFFF0000FFFFFFFF00FF0000FFFFFFFFFFFFFFFFFFFFFFFFFFFFFFFFFFFFFFFFFFFF0000FFFFFFFF00FF0000FFFFFFFFFFFFFFFFFFFFFFFFFFFFFFFFFFFFFFFFFFFF0000FFFFFFFF00000000FFFFFFFFFFFFFFFFFFFFFFFFFFFFFFFFFFFFFFFFFFFF0000
310
FFFFFF00FF000000FFFFFFFFFFFFFFFFFFFFFFFFFFFFFFFFFFFFFFFFFFFF0000FFFFFF00FF000000FFFFFFFFFFFFFFFFFFFFFFFFFFFFFFFFFFFFFFFFFFFF0000FFFFFF00FF000000FFFFFFFFFFFFFFFFFFFFFFFFFFFFFFFFFFFFFFFFFFFF0000FFFF00FF00FF0000FFFFFFFFFFFFFFFFFFFFFFFFFFFFFFFFFFFFFFFFFFFF00
310
00FFFF00FF00FF0000FFFFFFFFFFFFFFFFFFFFFFFFFFFFFFFFFFFFFFFFFFFF0000FFFF00FF00FF0000FFFFFFFFFFFFFFFFFFFFFFFFFFFFFFFFFFFFFFFFFFFF0000FF00FFFF00FF0000FFFFFFFFFFFFFFFFFFFFFFFFFFFFFFFFFFFFFFFFFFFF0000FF00FF00FFFF0000FFFFFFFFFFFFFFFFFFFFFFFFFFFFFFFFFFFFFFFFFFFF
310
0000FF00FF00FFFF0000FFFFFFFFFFFFFFFFFFFFFFFFFFFFFFFFFFFFFFFFFFFF0000FF00FF00FFFF0000FFFFFFFFFFFFFFFFFFFFFFFFFFFFFFFFFFFFFFFFFFFF000000FFFF00FFFF0000FFFFFFFFFFFFFFFFFFFFFFFFFFFFFFFFFFFFFFFFFFFF000000FF00FFFFFF0000FFFFFFFFFFFFFFFFFFFFFFFFFFFFFFFFFFFFFFFFFF
310
FF000000FF00FFFFFF0000FFFFFFFFFFFFFFFFFFFFFFFFFFFFFFFFFFFFFFFFFFFF0000FFFF00FFFFFF0000FFFFFFFFFFFFFFFFFFFFFFFFFFFFFFFFFFFFFFFFFFFF0000FFFF00FFFFFF0000FFFFFFFFFFFFFFFFFFFFFFFFFFFFFFFFFFFFFFFFFFFF00FFFF00FFFFFFFF0000FFFFFFFFFFFFFFFFFFFFFFFFFFFFFFFFFFFFFFFF
310
FFFF00FFFF00FFFFFFFF0000FFFFFFFFFFFFFFFFFFFFFFFFFFFFFFFFFFFFFFFFFFFF00FFFF00FFFFFFFF0000FFFFFFFFFFFFFFFFFFFFFFFFFFFFFFFFFFFFFFFFFFFF00FFFF00FFFFFFFF0000FFFFFFFFFFFFFFFFFFFFFFFFFFFFFFFFFFFFFFFFFFFF00FF00FFFFFFFFFF0000FFFFFFFFFFFFFFFFFFFFFFFFFFFFFFFFFFFFFF
310
FFFFFF000000FFFFFFFFFF0000FFFFFFFFFFFFFFFFFFFFFFFFFFFFFFFFFFFFFFFFFFFFFFFFFFFFFFFFFFFFFFFFFFFFFFFFFFFFFFFFFFFFFF
102
{BLKREFS
331
9C5
102
}
  0
BLOCK_RECORD
  5
99C
330
5C3
100
AcDbSymbolTableRecord
100
AcDbBlockTableRecord
  2
AI9-BLK7
340
0
310
2800000020000000200000000100080000000000000400000000000000000000000000000000000000000000000080000080000000808000800000008000800080800000C0C0C000C0DCC000F0CAA6000020400000206000002080000020A0000020C0000020E00000400000004020000040400000406000004080000040A0
310
000040C0000040E00000600000006020000060400000606000006080000060A0000060C0000060E00000800000008020000080400000806000008080000080A0000080C0000080E00000A0000000A0200000A0400000A0600000A0800000A0A00000A0C00000A0E00000C0000000C0200000C0400000C0600000C0800000C0
310
A00000C0C00000C0E00000E0000000E0200000E0400000E0600000E0800000E0A00000E0C00000E0E00040000000400020004000400040006000400080004000A0004000C0004000E00040200000402020004020400040206000402080004020A0004020C0004020E000404000004040200040404000404060004040800040
310
40A0004040C0004040E00040600000406020004060400040606000406080004060A0004060C0004060E00040800000408020004080400040806000408080004080A0004080C0004080E00040A0000040A0200040A0400040A0600040A0800040A0A00040A0C00040A0E00040C0000040C0200040C0400040C0600040C08000
310
40C0A00040C0C00040C0E00040E0000040E0200040E0400040E0600040E0800040E0A00040E0C00040E0E00080000000800020008000400080006000800080008000A0008000C0008000E00080200000802020008020400080206000802080008020A0008020C0008020E00080400000804020008040400080406000804080
310
008040A0008040C0008040E00080600000806020008060400080606000806080008060A0008060C0008060E00080800000808020008080400080806000808080008080A0008080C0008080E00080A0000080A0200080A0400080A0600080A0800080A0A00080A0C00080A0E00080C0000080C0200080C0400080C0600080C0
310
800080C0A00080C0C00080C0E00080E0000080E0200080E0400080E0600080E0800080E0A00080E0C00080E0E000C0000000C0002000C0004000C0006000C0008000C000A000C000C000C000E000C0200000C0202000C0204000C0206000C0208000C020A000C020C000C020E000C0400000C0402000C0404000C0406000C0
310
408000C040A000C040C000C040E000C0600000C0602000C0604000C0606000C0608000C060A000C060C000C060E000C0800000C0802000C0804000C0806000C0808000C080A000C080C000C080E000C0A00000C0A02000C0A04000C0A06000C0A08000C0A0A000C0A0C000C0A0E000C0C00000C0C02000C0C04000C0C06000
310
C0C08000C0C0A000F0FBFF00A4A0A000808080000000FF0000FF000000FFFF00FF000000FF00FF00FFFF0000FFFFFF00FFFFFFFFFFFFFFFFFFFFFFFFFFFFFFFFFFFFFFFFFFFFFFFFFFFFFFFFFFFFFFFFFFFFFFFFFFFFFFFFFFFFFFFFFFFFFF0000FFFFFFFFFFFFFFFFFFFFFFFFFFFFFFFFFFFFFFFFFFFFFFFFFFFFFFFFFFFF
310
0000FFFFFFFFFFFFFFFFFFFFFFFFFFFFFFFFFFFFFFFFFFFFFFFFFFFFFFFFFFFF0000FFFFFFFFFFFFFFFFFFFFFFFFFFFFFFFFFFFFFFFFFFFFFFFFFFFFFFFFFFFF0000FFFFFFFFFFFFFFFFFFFFFFFFFFFFFFFFFFFFFFFFFFFFFFFFFFFFFFFFFFFF0000FFFFFFFFFFFFFFFFFFFFFFFFFFFFFFFFFFFFFFFFFFFFFFFFFFFFFFFFFF
310
FF0000FFFFFFFFFFFFFFFFFFFFFFFFFFFFFFFFFFFFFFFFFFFFFFFFFFFFFFFFFFFF0000FFFFFFFFFFFFFFFFFFFFFFFFFFFFFFFFFFFFFFFFFFFFFFFFFFFFFFFFFFFF0000FFFFFFFFFFFFFFFFFFFFFFFFFFFFFFFFFFFFFFFFFFFFFFFFFFFFFFFFFFFF0000FFFFFFFFFFFFFFFFFFFFFFFFFFFFFFFFFFFFFFFFFFFFFFFFFFFFFFFF
310
FFFF0000FFFFFFFFFFFFFFFFFFFFFFFFFFFFFFFFFFFFFFFFFFFFFFFFFFFFFFFFFFFF0000FFFFFFFFFFFFFFFFFFFFFFFFFFFFFFFFFFFFFFFFFFFFFFFFFFFFFFFFFFFF0000FFFFFFFFFFFFFFFFFFFFFFFFFFFFFFFFFFFFFFFFFFFFFFFFFFFFFFFFFFFF0000FFFFFFFFFFFFFFFFFFFFFFFFFFFFFFFFFFFFFFFFFFFFFFFFFFFFFF
310
FFFFFF0000FFFFFFFFFFFFFFFFFFFFFFFFFFFFFFFFFFFFFFFFFFFFFFFFFFFFFFFFFFFF0000FFFFFFFFFFFFFFFFFFFFFFFFFFFFFFFFFFFFFFFFFFFFFFFFFFFFFFFFFFFF0000FFFFFFFFFFFFFFFFFFFFFFFFFFFFFFFFFFFFFFFFFFFFFFFFFFFFFFFFFFFF0000FFFFFFFFFFFFFFFFFFFFFFFFFFFFFFFFFFFFFFFFFFFFFFFFFFFF
310
FFFFFFFF0000FFFFFFFFFFFFFFFFFFFFFFFFFFFFFFFFFFFFFFFFFFFFFFFFFFFFFFFFFFFF0000FFFFFFFFFFFFFFFFFFFFFFFFFFFFFFFFFFFFFFFFFFFFFFFFFFFFFFFFFFFF0000FFFFFFFFFFFFFFFFFFFFFFFFFFFFFFFFFFFFFFFFFFFFFFFFFFFFFFFFFFFF0000FFFFFFFFFFFFFFFFFFFFFFFFFFFFFFFFFFFFFFFFFFFFFFFFFF
310
FFFFFFFFFF0000FFFFFFFFFFFFFFFFFFFFFFFFFFFFFFFFFFFFFFFFFFFFFFFFFFFFFFFFFFFF0000FFFFFFFFFFFFFFFFFFFFFFFFFFFFFFFFFFFFFFFFFFFFFFFFFFFFFFFFFFFF0000FFFFFFFFFFFFFFFFFFFFFFFFFFFFFFFFFFFFFFFFFFFFFFFFFFFFFFFFFFFF0000FFFFFFFFFFFFFFFFFFFFFFFFFFFFFFFFFFFFFFFFFFFFFFFF
310
FFFFFFFFFFFF0000FFFFFFFFFFFFFFFFFFFFFFFFFFFFFFFFFFFFFFFFFFFFFFFFFFFFFFFFFFFF0000FFFFFFFFFFFFFFFFFFFFFFFFFFFFFFFFFFFFFFFFFFFFFFFFFFFFFFFFFFFF0000FFFFFFFFFFFFFFFFFFFFFFFFFFFFFFFFFFFFFFFFFFFFFFFFFFFFFFFFFFFF0000FFFFFFFFFFFFFFFFFFFFFFFFFFFFFFFFFFFFFFFFFFFFFF
310
FFFFFFFFFFFFFF0000FFFFFFFFFFFFFFFFFFFFFFFFFFFFFFFFFFFFFFFFFFFFFFFFFFFFFFFFFFFFFFFFFFFFFFFFFFFFFFFFFFFFFFFFFFFFFF
102
{BLKREFS
331
9C6
102
}
  0
BLOCK_RECORD
  5
9A1
330
5C3
100
AcDbSymbolTableRecord
100
AcDbBlockTableRecord
  2
AI9-BLK6
340
0
310
2800000020000000200000000100080000000000000400000000000000000000000000000000000000000000000080000080000000808000800000008000800080800000C0C0C000C0DCC000F0CAA6000020400000206000002080000020A0000020C0000020E00000400000004020000040400000406000004080000040A0
310
000040C0000040E00000600000006020000060400000606000006080000060A0000060C0000060E00000800000008020000080400000806000008080000080A0000080C0000080E00000A0000000A0200000A0400000A0600000A0800000A0A00000A0C00000A0E00000C0000000C0200000C0400000C0600000C0800000C0
310
A00000C0C00000C0E00000E0000000E0200000E0400000E0600000E0800000E0A00000E0C00000E0E00040000000400020004000400040006000400080004000A0004000C0004000E00040200000402020004020400040206000402080004020A0004020C0004020E000404000004040200040404000404060004040800040
310
40A0004040C0004040E00040600000406020004060400040606000406080004060A0004060C0004060E00040800000408020004080400040806000408080004080A0004080C0004080E00040A0000040A0200040A0400040A0600040A0800040A0A00040A0C00040A0E00040C0000040C0200040C0400040C0600040C08000
310
40C0A00040C0C00040C0E00040E0000040E0200040E0400040E0600040E0800040E0A00040E0C00040E0E00080000000800020008000400080006000800080008000A0008000C0008000E00080200000802020008020400080206000802080008020A0008020C0008020E00080400000804020008040400080406000804080
310
008040A0008040C0008040E00080600000806020008060400080606000806080008060A0008060C0008060E00080800000808020008080400080806000808080008080A0008080C0008080E00080A0000080A0200080A0400080A0600080A0800080A0A00080A0C00080A0E00080C0000080C0200080C0400080C0600080C0
310
800080C0A00080C0C00080C0E00080E0000080E0200080E0400080E0600080E0800080E0A00080E0C00080E0E000C0000000C0002000C0004000C0006000C0008000C000A000C000C000C000E000C0200000C0202000C0204000C0206000C0208000C020A000C020C000C020E000C0400000C0402000C0404000C0406000C0
310
408000C040A000C040C000C040E000C0600000C0602000C0604000C0606000C0608000C060A000C060C000C060E000C0800000C0802000C0804000C0806000C0808000C080A000C080C000C080E000C0A00000C0A02000C0A04000C0A06000C0A08000C0A0A000C0A0C000C0A0E000C0C00000C0C02000C0C04000C0C06000
310
C0C08000C0C0A000F0FBFF00A4A0A000808080000000FF0000FF000000FFFF00FF000000FF00FF00FFFF0000FFFFFF00FFFFFFFFFFFFFFFFFFFFFFFF00FFFFFFFFFFFFFF00FFFFFFFFFFFFFFFFFFFFFFFFFFFFFFFFFFFFFFFFFFFFFF00FFFFFFFFFFFFFF00FFFFFFFFFFFFFFFFFFFFFFFFFFFFFFFFFFFFFFFFFFFFFF00FFFF
310
FFFFFFFFFF00FFFFFFFFFFFFFFFFFFFFFFFFFFFFFFFFFFFFFFFFFFFF00FFFFFFFFFFFFFFFF00FFFFFFFFFFFFFFFFFFFFFFFFFFFFFFFFFFFFFFFFFFFF00FFFFFFFFFFFFFF00FFFFFFFFFFFFFFFFFFFFFFFFFFFFFFFFFFFFFFFFFFFFFF00FFFFFFFFFFFFFF00FFFFFFFFFFFFFFFFFFFFFFFFFFFFFFFFFFFFFFFFFFFF00FFFFFF
310
FFFFFFFFFF00FFFFFFFFFFFFFFFFFFFFFFFFFFFFFFFFFFFFFFFFFFFF00FFFFFFFFFFFFFF00FFFFFFFFFFFFFFFFFFFFFFFFFFFFFFFFFFFFFFFFFFFF00FFFFFFFFFFFFFFFF00FFFFFFFFFFFFFFFFFFFFFFFFFFFFFFFFFFFFFFFFFF00FFFFFFFFFFFFFFFFFF00FFFFFFFFFFFFFFFFFFFFFFFFFFFFFFFFFFFFFFFF00FFFFFFFFFF
310
FFFFFFFFFF00FFFFFFFFFFFFFFFFFFFFFFFFFFFFFFFFFFFFFF00FFFFFFFFFFFFFFFFFFFF00FFFFFFFFFFFFFFFFFFFFFFFFFFFFFFFFFFFF0000FFFFFFFFFFFFFFFFFFFFFF00FFFFFFFFFFFFFFFFFFFFFFFFFFFF00000000FFFFFFFFFFFFFFFFFFFFFFFFFF00FFFFFFFFFFFFFFFFFFFFFFFFFFFFFFFFFFFFFFFFFFFFFFFFFFFF
310
FFFFFFFF00FFFFFFFFFFFFFFFFFFFFFFFFFFFFFFFFFFFFFFFFFFFFFFFFFFFFFFFFFFFFFF00FFFFFFFFFFFFFFFFFFFFFFFFFFFFFFFFFFFFFFFFFFFFFFFFFFFFFFFFFFFFFF00FFFFFFFFFFFFFFFFFFFFFFFFFFFFFFFFFFFFFFFFFFFFFFFFFFFFFFFFFFFF00FFFFFFFFFFFFFFFFFFFFFFFFFFFFFFFFFFFFFFFFFFFFFFFFFFFFFF
310
FFFFFFFF00FFFFFFFFFFFFFFFFFFFFFFFFFFFFFFFFFFFFFFFFFFFFFFFFFFFFFFFFFFFF00FFFFFFFFFFFFFFFFFFFFFFFFFFFFFFFFFFFFFFFFFFFFFFFFFFFFFFFFFFFF00FFFFFFFFFFFFFFFFFFFFFFFFFFFFFFFFFFFFFFFFFFFFFFFFFFFFFFFFFFFF00FFFFFFFFFFFFFFFFFFFFFFFFFFFFFFFFFFFFFFFFFFFFFFFFFFFFFFFFFF
310
FF00FFFFFFFFFFFFFFFFFFFFFFFFFFFFFFFFFFFFFFFFFFFFFFFFFFFFFFFFFFFFFF00FFFFFFFFFFFFFFFFFFFFFFFFFFFFFFFFFFFFFFFFFFFFFFFFFFFFFFFFFFFF00FFFFFFFFFFFFFFFFFFFFFFFFFFFFFFFFFFFFFFFFFFFFFFFFFFFFFFFFFF0000FFFFFFFFFFFFFFFFFFFFFFFFFFFFFFFFFFFFFFFFFFFFFFFFFFFFFFFF0000FF
310
FFFFFFFFFFFFFFFFFFFFFFFFFFFFFFFFFFFFFFFFFFFFFFFFFF00000000FFFFFFFFFFFFFFFFFFFFFFFFFFFFFFFFFFFFFFFFFFFFFFFFFFFF0000FFFFFFFFFFFFFFFFFFFFFFFFFFFFFFFFFFFFFFFFFFFFFFFFFFFFFFFFFFFFFFFFFFFFFFFFFFFFFFFFFFFFFFFFFFFFFFFFFFFFFFFFFFFFFFFFFFFFFFFFFFFFFFFFFFFFFFFFFFFF
310
FFFFFFFFFFFFFFFFFFFFFFFFFFFFFFFFFFFFFFFFFFFFFFFFFFFFFFFFFFFFFFFFFFFFFFFFFFFFFFFFFFFFFFFFFFFFFFFFFFFFFFFFFFFFFFFF
102
{BLKREFS
331
9C7
102
}
  0
BLOCK_RECORD
  5
9A5
330
5C3
100
AcDbSymbolTableRecord
100
AcDbBlockTableRecord
  2
AI9-BLK5
340
0
310
2800000020000000200000000100080000000000000400000000000000000000000000000000000000000000000080000080000000808000800000008000800080800000C0C0C000C0DCC000F0CAA6000020400000206000002080000020A0000020C0000020E00000400000004020000040400000406000004080000040A0
310
000040C0000040E00000600000006020000060400000606000006080000060A0000060C0000060E00000800000008020000080400000806000008080000080A0000080C0000080E00000A0000000A0200000A0400000A0600000A0800000A0A00000A0C00000A0E00000C0000000C0200000C0400000C0600000C0800000C0
310
A00000C0C00000C0E00000E0000000E0200000E0400000E0600000E0800000E0A00000E0C00000E0E00040000000400020004000400040006000400080004000A0004000C0004000E00040200000402020004020400040206000402080004020A0004020C0004020E000404000004040200040404000404060004040800040
310
40A0004040C0004040E00040600000406020004060400040606000406080004060A0004060C0004060E00040800000408020004080400040806000408080004080A0004080C0004080E00040A0000040A0200040A0400040A0600040A0800040A0A00040A0C00040A0E00040C0000040C0200040C0400040C0600040C08000
310
40C0A00040C0C00040C0E00040E0000040E0200040E0400040E0600040E0800040E0A00040E0C00040E0E00080000000800020008000400080006000800080008000A0008000C0008000E00080200000802020008020400080206000802080008020A0008020C0008020E00080400000804020008040400080406000804080
310
008040A0008040C0008040E00080600000806020008060400080606000806080008060A0008060C0008060E00080800000808020008080400080806000808080008080A0008080C0008080E00080A0000080A0200080A0400080A0600080A0800080A0A00080A0C00080A0E00080C0000080C0200080C0400080C0600080C0
310
800080C0A00080C0C00080C0E00080E0000080E0200080E0400080E0600080E0800080E0A00080E0C00080E0E000C0000000C0002000C0004000C0006000C0008000C000A000C000C000C000E000C0200000C0202000C0204000C0206000C0208000C020A000C020C000C020E000C0400000C0402000C0404000C0406000C0
310
408000C040A000C040C000C040E000C0600000C0602000C0604000C0606000C0608000C060A000C060C000C060E000C0800000C0802000C0804000C0806000C0808000C080A000C080C000C080E000C0A00000C0A02000C0A04000C0A06000C0A08000C0A0A000C0A0C000C0A0E000C0C00000C0C02000C0C04000C0C06000
310
C0C08000C0C0A000F0FBFF00A4A0A000808080000000FF0000FF000000FFFF00FF000000FF00FF00FFFF0000FFFFFF00FFFFFFFFFFFFFFFFFFFFFFFFFFFFFFFFFFFFFFFFFFFFFFFFFFFFFFFFFFFFFFFFFFFFFFFFFFFFFFFF000000000000000000000000000000000000000000000000FFFFFFFFFFFFFFFF00FFFFFFFFFFFF
310
FFFFFFFFFFFFFFFFFFFFFFFFFFFFFFFFFFFFFFFFFFFFFFFFFF00FFFFFFFFFFFFFFFFFFFFFFFFFFFFFFFFFFFFFFFFFFFFFFFFFFFFFFFFFFFFFF00FFFFFFFFFFFFFFFFFFFFFFFFFFFFFFFFFFFFFFFFFFFFFFFFFFFFFFFFFFFFFF00FFFFFFFFFFFFFFFFFFFFFFFFFFFFFFFFFFFFFFFFFFFFFFFFFFFFFFFFFFFFFF00FFFFFFFFFF
310
FFFFFFFFFFFFFFFFFFFFFFFFFFFFFFFFFFFFFFFFFFFFFFFFFFFF00FFFFFFFFFFFFFFFFFFFFFFFFFFFFFFFFFFFFFFFFFFFFFFFFFFFFFFFFFFFFFF00FFFFFFFFFFFFFFFFFFFFFFFFFFFFFFFFFFFFFFFFFFFFFFFFFFFFFFFFFFFFFF00FFFFFFFFFFFFFFFFFFFFFFFFFFFFFFFFFFFFFFFFFFFFFFFFFFFFFFFFFFFFFF00FFFFFFFF
310
FFFFFFFFFFFFFFFFFFFFFFFFFFFFFFFFFFFFFFFFFFFFFFFFFFFFFF00FFFFFFFFFFFFFFFFFFFFFFFFFFFFFFFFFFFFFFFFFFFFFFFFFFFFFFFFFFFFFF00FFFFFFFFFFFFFFFFFFFFFFFFFFFFFFFFFFFFFFFFFFFFFFFFFFFFFFFFFFFFFF00FFFFFFFFFFFFFFFFFFFFFFFFFFFFFFFFFFFFFFFFFFFFFFFFFFFFFFFFFFFFFF00FFFFFF
310
FFFFFFFFFFFFFFFFFFFFFFFFFFFFFFFFFFFFFFFFFFFFFFFFFFFFFFFF00FFFFFFFFFFFFFFFFFFFFFFFFFFFFFFFFFFFFFFFFFFFFFFFFFFFFFFFFFFFFFF00FFFFFFFFFFFFFFFFFFFFFFFFFFFFFFFFFFFFFFFFFFFFFFFFFFFFFFFFFFFFFF00FFFFFFFFFFFFFFFFFFFFFFFFFFFFFFFFFFFFFFFFFFFFFFFFFFFFFFFFFFFFFF00FFFF
310
FFFFFFFFFFFFFFFFFFFFFFFFFFFFFFFFFFFFFFFFFFFFFFFFFFFFFFFFFF00FFFFFFFFFFFFFFFFFFFFFFFFFFFFFFFFFFFFFFFFFFFFFFFFFFFFFFFFFFFFFF00FFFFFFFFFFFFFFFFFFFFFFFFFFFFFFFFFFFFFFFFFFFFFFFFFFFFFFFFFFFFFF00FFFFFFFFFFFFFFFFFFFFFFFFFFFFFFFFFFFFFFFFFFFFFFFFFFFFFFFFFFFFFF00FF
310
FFFFFFFFFFFFFFFFFFFFFFFFFFFFFFFFFFFFFFFFFFFFFFFFFFFFFFFFFFFF00FFFFFFFFFFFFFFFFFFFFFFFFFFFFFFFFFFFFFFFFFFFFFFFFFFFFFFFFFFFFFF00FFFFFFFFFFFFFFFFFFFFFFFFFFFFFFFFFFFFFFFFFFFFFFFFFFFFFFFFFFFFFF00FFFFFFFFFFFFFFFFFFFFFFFFFFFFFFFFFFFFFFFFFFFFFFFFFFFFFFFFFFFFFF00
310
FFFFFFFFFFFFFFFFFFFFFFFFFFFFFFFFFFFFFFFFFFFFFFFFFFFFFFFFFFFFFF00FFFFFFFFFFFFFFFFFFFFFFFFFFFFFFFFFFFFFFFFFFFFFFFFFFFFFFFFFFFFFF00FFFFFFFFFFFFFFFFFFFFFFFFFFFFFFFFFFFFFFFFFFFFFFFFFFFFFFFFFFFFFF00FFFFFFFFFFFFFFFFFFFFFFFFFFFFFFFFFFFFFFFFFFFFFFFFFFFFFFFFFFFFFF
310
00FFFFFFFFFFFFFFFFFFFFFFFFFFFF000000000000000000FFFFFFFFFFFFFFFF00FFFFFFFFFFFFFFFFFFFFFFFFFFFF00FFFFFFFFFFFFFFFF
102
{BLKREFS
331
9C8
102
}
  0
BLOCK_RECORD
  5
9AA
330
5C3
100
AcDbSymbolTableRecord
100
AcDbBlockTableRecord
  2
AI9-BLK4
340
0
310
2800000020000000200000000100080000000000000400000000000000000000000000000000000000000000000080000080000000808000800000008000800080800000C0C0C000C0DCC000F0CAA6000020400000206000002080000020A0000020C0000020E00000400000004020000040400000406000004080000040A0
310
000040C0000040E00000600000006020000060400000606000006080000060A0000060C0000060E00000800000008020000080400000806000008080000080A0000080C0000080E00000A0000000A0200000A0400000A0600000A0800000A0A00000A0C00000A0E00000C0000000C0200000C0400000C0600000C0800000C0
310
A00000C0C00000C0E00000E0000000E0200000E0400000E0600000E0800000E0A00000E0C00000E0E00040000000400020004000400040006000400080004000A0004000C0004000E00040200000402020004020400040206000402080004020A0004020C0004020E000404000004040200040404000404060004040800040
310
40A0004040C0004040E00040600000406020004060400040606000406080004060A0004060C0004060E00040800000408020004080400040806000408080004080A0004080C0004080E00040A0000040A0200040A0400040A0600040A0800040A0A00040A0C00040A0E00040C0000040C0200040C0400040C0600040C08000
310
40C0A00040C0C00040C0E00040E0000040E0200040E0400040E0600040E0800040E0A00040E0C00040E0E00080000000800020008000400080006000800080008000A0008000C0008000E00080200000802020008020400080206000802080008020A0008020C0008020E00080400000804020008040400080406000804080
310
008040A0008040C0008040E00080600000806020008060400080606000806080008060A0008060C0008060E00080800000808020008080400080806000808080008080A0008080C0008080E00080A0000080A0200080A0400080A0600080A0800080A0A00080A0C00080A0E00080C0000080C0200080C0400080C0600080C0
310
800080C0A00080C0C00080C0E00080E0000080E0200080E0400080E0600080E0800080E0A00080E0C00080E0E000C0000000C0002000C0004000C0006000C0008000C000A000C000C000C000E000C0200000C0202000C0204000C0206000C0208000C020A000C020C000C020E000C0400000C0402000C0404000C0406000C0
310
408000C040A000C040C000C040E000C0600000C0602000C0604000C0606000C0608000C060A000C060C000C060E000C0800000C0802000C0804000C0806000C0808000C080A000C080C000C080E000C0A00000C0A02000C0A04000C0A06000C0A08000C0A0A000C0A0C000C0A0E000C0C00000C0C02000C0C04000C0C06000
310
C0C08000C0C0A000F0FBFF00A4A0A000808080000000FF0000FF000000FFFF00FF000000FF00FF00FFFF0000FFFFFF00FFFFFFFFFFFFFFFFFFFFFFFFFFFFFFFFFFFFFFFFFFFFFFFFFFFFFFFFFFFFFFFFFFFFFFFFFFFFFFFFFFFFFFFFFFFF00000000FFFFFFFFFFFFFFFFFFFFFF000000FFFFFFFFFFFFFFFFFFFFFFFFFFFF00
310
FFFF00FFFFFFFFFFFFFFFFFFFFFF00FFFFFFFFFFFFFFFFFFFFFFFFFFFFFFFF00FFFF00FFFFFFFFFFFFFFFFFFFFFF00FFFFFFFFFFFFFFFFFFFFFFFFFFFFFFFF00FFFF00FFFFFFFFFFFFFFFFFFFFFF00FFFFFFFFFFFFFFFFFFFFFFFFFFFFFFFF00FFFF00FFFFFFFFFFFFFFFFFFFFFF00FFFFFFFFFFFFFFFFFFFFFFFFFFFFFFFF
310
00FFFF00FFFFFFFFFFFFFFFFFFFFFF00FFFFFFFFFFFFFFFFFFFFFFFFFFFFFFFF00FFFF00FFFFFFFFFFFFFFFFFFFFFF00FFFFFFFFFFFFFFFFFFFFFFFFFFFFFFFF00FFFF00FFFFFFFFFFFFFFFFFFFFFF00FFFFFFFFFFFFFFFFFFFFFFFFFFFFFFFF00FFFF00FFFFFFFFFFFFFFFFFFFFFF00FFFFFFFFFFFFFFFFFFFFFFFFFFFFFF
310
FF00FFFF00FFFFFFFFFFFFFFFFFFFFFF00FFFFFFFFFFFFFFFFFFFFFFFFFFFFFFFF00FFFF00FFFFFFFFFFFFFFFFFFFFFF00FFFFFFFFFFFFFFFFFFFFFFFFFFFFFFFF00FFFF00FFFFFFFFFFFFFFFFFFFFFF00FFFFFFFFFFFFFFFFFFFFFFFFFFFFFFFF00FFFF00FFFFFFFFFFFFFFFFFFFFFF00FFFFFFFFFFFFFFFFFFFFFFFFFFFF
310
FFFF00FFFF00FFFFFFFFFFFFFFFFFFFFFF00FFFFFFFFFFFFFFFFFFFFFFFFFFFFFFFF00FFFF00FFFFFFFFFFFFFFFFFFFFFF00FFFFFFFFFFFFFFFFFFFFFFFFFFFFFFFF00FFFF00FFFFFFFFFFFFFFFFFFFFFF00FFFFFFFFFFFFFFFFFFFFFFFFFFFFFFFF00FFFF00FFFFFFFFFFFFFFFFFFFF00FFFFFFFFFFFFFFFFFFFFFFFFFFFF
310
FFFFFF00FFFF00FFFFFFFFFFFFFFFFFFFF00FFFFFFFFFFFFFFFFFFFFFFFFFFFFFFFFFF00FFFF00FFFFFFFFFFFFFFFFFFFF00FFFFFFFFFFFFFFFFFFFFFFFFFFFFFFFFFF00FFFF00FFFFFFFFFFFFFFFFFFFF00FFFFFFFFFFFFFFFFFFFFFFFFFFFFFFFFFF00FFFF00FFFFFFFFFFFFFFFFFFFF00FFFFFFFFFFFFFFFFFFFFFFFFFF
310
FFFFFFFF00FFFF00FFFFFFFFFFFFFFFFFF0000FFFF00FFFFFFFFFFFFFFFFFFFFFFFFFFFF00FFFF00FFFFFFFFFFFFFFFF0000FFFFFF00FFFFFFFFFFFFFFFFFFFFFFFFFFFF00FFFF00000000000000000000FFFFFFFF00FFFFFFFFFFFFFFFFFFFFFFFFFFFF00FFFFFFFFFFFFFFFFFFFFFFFFFFFFFF00FFFFFFFFFFFFFFFFFFFF
310
FFFFFFFFFF00FFFFFFFFFFFFFFFFFFFFFFFFFFFF00FFFFFFFFFFFFFFFFFFFFFFFFFFFFFFFF00FFFFFFFFFFFFFFFFFFFFFFFFFFFF00FFFFFFFFFFFFFFFFFFFFFFFFFFFFFFFF00FFFFFFFFFFFFFFFFFFFFFFFFFFFFFF00FFFFFFFFFFFFFFFFFFFFFFFFFFFFFF00FFFFFFFFFFFFFFFFFFFFFFFFFFFFFF00FFFFFFFFFFFFFFFFFF
310
FFFFFFFFFFFF00FFFF00000000000000000000FFFFFFFF00FFFFFFFFFFFFFFFFFFFFFFFFFFFF00FFFF00FFFFFFFFFFFFFFFFFF0000FFFF00
102
{BLKREFS
331
9C9
102
}
  0
BLOCK_RECORD
  5
9AF
330
5C3
100
AcDbSymbolTableRecord
100
AcDbBlockTableRecord
  2
AI9-BLK3
340
0
310
2800000020000000200000000100080000000000000400000000000000000000000000000000000000000000000080000080000000808000800000008000800080800000C0C0C000C0DCC000F0CAA6000020400000206000002080000020A0000020C0000020E00000400000004020000040400000406000004080000040A0
310
000040C0000040E00000600000006020000060400000606000006080000060A0000060C0000060E00000800000008020000080400000806000008080000080A0000080C0000080E00000A0000000A0200000A0400000A0600000A0800000A0A00000A0C00000A0E00000C0000000C0200000C0400000C0600000C0800000C0
310
A00000C0C00000C0E00000E0000000E0200000E0400000E0600000E0800000E0A00000E0C00000E0E00040000000400020004000400040006000400080004000A0004000C0004000E00040200000402020004020400040206000402080004020A0004020C0004020E000404000004040200040404000404060004040800040
310
40A0004040C0004040E00040600000406020004060400040606000406080004060A0004060C0004060E00040800000408020004080400040806000408080004080A0004080C0004080E00040A0000040A0200040A0400040A0600040A0800040A0A00040A0C00040A0E00040C0000040C0200040C0400040C0600040C08000
310
40C0A00040C0C00040C0E00040E0000040E0200040E0400040E0600040E0800040E0A00040E0C00040E0E00080000000800020008000400080006000800080008000A0008000C0008000E00080200000802020008020400080206000802080008020A0008020C0008020E00080400000804020008040400080406000804080
310
008040A0008040C0008040E00080600000806020008060400080606000806080008060A0008060C0008060E00080800000808020008080400080806000808080008080A0008080C0008080E00080A0000080A0200080A0400080A0600080A0800080A0A00080A0C00080A0E00080C0000080C0200080C0400080C0600080C0
310
800080C0A00080C0C00080C0E00080E0000080E0200080E0400080E0600080E0800080E0A00080E0C00080E0E000C0000000C0002000C0004000C0006000C0008000C000A000C000C000C000E000C0200000C0202000C0204000C0206000C0208000C020A000C020C000C020E000C0400000C0402000C0404000C0406000C0
310
408000C040A000C040C000C040E000C0600000C0602000C0604000C0606000C0608000C060A000C060C000C060E000C0800000C0802000C0804000C0806000C0808000C080A000C080C000C080E000C0A00000C0A02000C0A04000C0A06000C0A08000C0A0A000C0A0C000C0A0E000C0C00000C0C02000C0C04000C0C06000
310
C0C08000C0C0A000F0FBFF00A4A0A000808080000000FF0000FF000000FFFF00FF000000FF00FF00FFFF0000FFFFFF00FFFFFFFFFFFFFFFFFFFFFFFFFFFFFFFFFFFFFFFFFFFFFFFFFFFFFFFFFFFFFFFFFFFFFFFFFFFFFFFFFFFFFFFFFFFFFF0000FFFFFFFFFFFFFFFFFFFFFFFFFFFFFFFFFFFFFFFFFFFFFFFFFFFFFFFFFFFF
310
0000FFFFFFFFFFFFFFFFFFFFFFFFFFFFFFFFFFFFFFFFFFFFFFFFFFFFFFFFFFFF0000FFFFFFFFFFFFFFFFFFFFFFFFFFFFFFFFFFFFFFFFFFFFFFFFFFFFFFFFFFFF0000FFFFFFFFFFFFFFFFFFFFFFFFFFFFFFFFFFFFFFFFFFFFFFFFFFFFFFFFFFFF0000FFFFFFFFFFFFFFFFFFFFFFFFFFFFFFFFFFFFFFFFFFFFFFFFFFFFFFFFFF
310
FF0000FFFFFFFFFFFFFFFFFFFFFFFFFFFFFFFFFFFFFFFFFFFFFFFFFFFFFFFFFFFF0000FFFFFFFFFFFFFFFFFFFFFFFFFFFFFFFFFFFFFFFFFFFFFFFFFFFFFFFFFFFF0000FFFFFFFFFFFFFFFFFFFFFFFFFFFFFFFFFFFFFFFFFFFFFFFFFFFFFFFFFFFF0000FFFFFFFFFFFFFFFFFFFFFFFFFFFFFFFFFFFFFFFFFFFFFFFFFFFFFFFF
310
FFFF0000FFFFFFFFFFFFFFFFFFFFFFFFFFFFFFFFFFFFFFFFFFFFFFFFFFFFFFFFFFFF0000FFFFFFFFFFFFFFFFFFFFFFFFFFFFFFFFFFFFFFFFFFFFFFFFFFFFFFFFFFFF0000FFFFFFFFFFFFFFFFFFFFFFFFFFFFFFFFFFFFFFFFFFFFFFFFFFFFFFFFFFFF0000FFFFFFFFFFFFFFFFFFFFFFFFFFFFFFFFFFFFFFFFFFFFFFFFFFFFFF
310
FFFFFF0000FFFFFFFFFFFFFFFFFFFFFFFFFFFFFFFFFFFFFFFFFFFFFFFFFFFFFFFFFFFF0000FFFFFFFFFFFFFFFFFFFFFFFFFFFFFFFFFFFFFFFFFFFFFFFFFFFFFFFFFFFF0000FFFFFFFFFFFFFFFFFFFFFFFFFFFFFFFFFFFFFFFFFFFFFFFFFFFFFFFFFFFF0000FFFFFFFFFFFFFFFFFFFFFFFFFFFFFFFFFFFFFFFFFFFFFFFFFFFF
310
FFFFFFFF0000FFFFFFFFFFFFFFFFFFFFFFFFFFFFFFFFFFFFFFFFFFFFFFFFFFFFFFFFFFFF0000FFFFFFFFFFFFFFFFFFFFFFFFFFFFFFFFFFFFFFFFFFFFFFFFFFFFFFFFFFFF0000FFFFFFFFFFFFFFFFFFFFFFFFFFFFFFFFFFFFFFFFFFFFFFFFFFFFFFFFFFFF0000FFFFFFFFFFFFFFFFFFFFFFFFFFFFFFFFFFFFFFFFFFFFFFFFFF
310
FFFFFFFFFF0000FFFFFFFFFFFFFFFFFFFFFFFFFFFFFFFFFFFFFFFFFFFFFFFFFFFFFFFFFFFF0000FFFFFFFFFFFFFFFFFFFFFFFFFFFFFFFFFFFFFFFFFFFFFFFFFFFFFFFFFFFF0000FFFFFFFFFFFFFFFFFFFFFFFFFFFFFFFFFFFFFFFFFFFFFFFFFFFFFFFFFFFF0000FFFFFFFFFFFFFFFFFFFFFFFFFFFFFFFFFFFFFFFFFFFFFFFF
310
FFFFFFFFFFFF0000FFFFFFFFFFFFFFFFFFFFFFFFFFFFFFFFFFFFFFFFFFFFFFFFFFFFFFFFFFFF0000FFFFFFFFFFFFFFFFFFFFFFFFFFFFFFFFFFFFFFFFFFFFFFFFFFFFFFFFFFFF0000FFFFFFFFFFFFFFFFFFFFFFFFFFFFFFFFFFFFFFFFFFFFFFFFFFFFFFFFFFFF0000FFFFFFFFFFFFFFFFFFFFFFFFFFFFFFFFFFFFFFFFFFFFFF
310
FFFFFFFFFFFFFF0000FFFFFFFFFFFFFFFFFFFFFFFFFFFFFFFFFFFFFFFFFFFFFFFFFFFFFFFFFFFFFFFFFFFFFFFFFFFFFFFFFFFFFFFFFFFFFF
102
{BLKREFS
331
9CA
102
}
  0
BLOCK_RECORD
  5
9B4
330
5C3
100
AcDbSymbolTableRecord
100
AcDbBlockTableRecord
  2
AI9-BLK2
340
0
310
2800000020000000200000000100080000000000000400000000000000000000000000000000000000000000000080000080000000808000800000008000800080800000C0C0C000C0DCC000F0CAA6000020400000206000002080000020A0000020C0000020E00000400000004020000040400000406000004080000040A0
310
000040C0000040E00000600000006020000060400000606000006080000060A0000060C0000060E00000800000008020000080400000806000008080000080A0000080C0000080E00000A0000000A0200000A0400000A0600000A0800000A0A00000A0C00000A0E00000C0000000C0200000C0400000C0600000C0800000C0
310
A00000C0C00000C0E00000E0000000E0200000E0400000E0600000E0800000E0A00000E0C00000E0E00040000000400020004000400040006000400080004000A0004000C0004000E00040200000402020004020400040206000402080004020A0004020C0004020E000404000004040200040404000404060004040800040
310
40A0004040C0004040E00040600000406020004060400040606000406080004060A0004060C0004060E00040800000408020004080400040806000408080004080A0004080C0004080E00040A0000040A0200040A0400040A0600040A0800040A0A00040A0C00040A0E00040C0000040C0200040C0400040C0600040C08000
310
40C0A00040C0C00040C0E00040E0000040E0200040E0400040E0600040E0800040E0A00040E0C00040E0E00080000000800020008000400080006000800080008000A0008000C0008000E00080200000802020008020400080206000802080008020A0008020C0008020E00080400000804020008040400080406000804080
310
008040A0008040C0008040E00080600000806020008060400080606000806080008060A0008060C0008060E00080800000808020008080400080806000808080008080A0008080C0008080E00080A0000080A0200080A0400080A0600080A0800080A0A00080A0C00080A0E00080C0000080C0200080C0400080C0600080C0
310
800080C0A00080C0C00080C0E00080E0000080E0200080E0400080E0600080E0800080E0A00080E0C00080E0E000C0000000C0002000C0004000C0006000C0008000C000A000C000C000C000E000C0200000C0202000C0204000C0206000C0208000C020A000C020C000C020E000C0400000C0402000C0404000C0406000C0
310
408000C040A000C040C000C040E000C0600000C0602000C0604000C0606000C0608000C060A000C060C000C060E000C0800000C0802000C0804000C0806000C0808000C080A000C080C000C080E000C0A00000C0A02000C0A04000C0A06000C0A08000C0A0A000C0A0C000C0A0E000C0C00000C0C02000C0C04000C0C06000
310
C0C08000C0C0A000F0FBFF00A4A0A000808080000000FF0000FF000000FFFF00FF000000FF00FF00FFFF0000FFFFFF00FFFFFFFFFFFFFFFFFFFFFFFFFFFFFFFFFFFFFFFFFFFFFFFFFFFFFFFFFFFFFFFFFFFFFFFFFFFFFFFFFFFFFFFFFFFFFF0000FFFFFFFFFFFFFFFFFFFFFFFFFFFFFFFFFFFFFFFFFFFFFFFFFFFFFFFFFFFF
310
0000FFFFFFFFFFFFFFFFFFFFFFFFFFFFFFFFFFFFFFFFFFFFFFFFFFFFFFFFFFFF0000FFFFFFFFFFFFFFFFFFFFFFFFFFFFFFFFFFFFFFFFFFFFFFFFFFFFFFFFFF00FFFF00FFFFFFFFFFFFFFFFFFFFFFFFFFFFFFFFFFFFFFFFFFFFFFFFFFFFFFFF00FFFF00FFFFFFFFFFFFFFFFFFFFFFFFFFFFFFFFFFFFFFFFFFFFFFFFFFFFFFFF
310
00FF0000FFFFFFFFFFFFFFFFFFFFFFFFFFFFFFFFFFFFFFFFFFFFFFFFFFFFFFFF00FF0000FFFFFFFFFFFFFFFFFFFFFFFFFFFFFFFFFFFFFFFFFFFFFFFFFFFFFFFF00FF0000FFFFFFFFFFFFFFFFFFFFFFFFFFFFFFFFFFFFFFFFFFFFFFFFFFFFFFFF00000000FFFFFFFFFFFFFFFFFFFFFFFFFFFFFFFFFFFFFFFFFFFFFFFFFFFFFF
310
00FF00FF0000FFFFFFFFFFFFFFFFFFFFFFFFFFFFFFFFFFFFFFFFFFFFFFFFFFFF00FF00FF0000FFFFFFFFFFFFFFFFFFFFFFFFFFFFFFFFFFFFFFFFFFFFFFFFFFFF00FF00FF0000FFFFFFFFFFFFFFFFFFFFFFFFFFFFFFFFFFFFFFFFFFFFFFFFFFFF00FF00FF0000FFFFFFFFFFFFFFFFFFFFFFFFFFFFFFFFFFFFFFFFFFFFFFFFFF
310
FF00FF00FF0000FFFFFFFFFFFFFFFFFFFFFFFFFFFFFFFFFFFFFFFFFFFFFFFFFFFF0000FFFF0000FFFFFFFFFFFFFFFFFFFFFFFFFFFFFFFFFFFFFFFFFFFFFFFFFF00FF00FFFF00FF00FFFFFFFFFFFFFFFFFFFFFFFFFFFFFFFFFFFFFFFFFFFFFFFF00FF00FFFF00FF00FFFFFFFFFFFFFFFFFFFFFFFFFFFFFFFFFFFFFFFFFFFFFF
310
FF00FF00FFFFFF0000FFFFFFFFFFFFFFFFFFFFFFFFFFFFFFFFFFFFFFFFFFFFFFFF00FF00FFFFFF0000FFFFFFFFFFFFFFFFFFFFFFFFFFFFFFFFFFFFFFFFFFFFFFFF00FF00FFFFFF0000FFFFFFFFFFFFFFFFFFFFFFFFFFFFFFFFFFFFFFFFFFFFFFFF0000FFFFFFFF0000FFFFFFFFFFFFFFFFFFFFFFFFFFFFFFFFFFFFFFFFFFFF
310
FF00FF00FFFFFFFF00FF00FFFFFFFFFFFFFFFFFFFFFFFFFFFFFFFFFFFFFFFFFFFF00FF00FFFFFFFF00FF00FFFFFFFFFFFFFFFFFFFFFFFFFFFFFFFFFFFFFFFFFFFF00FF00FFFFFFFF00FF00FFFFFFFFFFFFFFFFFFFFFFFFFFFFFFFFFFFFFFFFFFFF00FF00FFFFFFFF00FF00FFFFFFFFFFFFFFFFFFFFFFFFFFFFFFFFFFFFFFFF
310
FFFF00FF00FFFFFFFFFF0000FFFFFFFFFFFFFFFFFFFFFFFFFFFFFFFFFFFFFFFFFFFF0000FFFFFFFFFFFF0000FFFFFFFFFFFFFFFFFFFFFFFFFFFFFFFFFFFFFFFFFF00FF00FFFFFFFFFFFF00FF00FFFFFFFFFFFFFFFFFFFFFFFFFFFFFFFFFFFFFFFF00FF00FFFFFFFFFFFF00FF00FFFFFFFFFFFFFFFFFFFFFFFFFFFFFFFFFFFF
310
FFFF000000FFFFFFFFFFFF000000FFFFFFFFFFFFFFFFFFFFFFFFFFFFFFFFFFFFFFFFFFFFFFFFFFFFFFFFFFFFFFFFFFFFFFFFFFFFFFFFFFFF
102
{BLKREFS
331
9CB
102
}
  0
BLOCK_RECORD
  5
9B9
330
5C3
100
AcDbSymbolTableRecord
100
AcDbBlockTableRecord
  2
AI9-BLK1
340
0
310
2800000020000000200000000100080000000000000400000000000000000000000000000000000000000000000080000080000000808000800000008000800080800000C0C0C000C0DCC000F0CAA6000020400000206000002080000020A0000020C0000020E00000400000004020000040400000406000004080000040A0
310
000040C0000040E00000600000006020000060400000606000006080000060A0000060C0000060E00000800000008020000080400000806000008080000080A0000080C0000080E00000A0000000A0200000A0400000A0600000A0800000A0A00000A0C00000A0E00000C0000000C0200000C0400000C0600000C0800000C0
310
A00000C0C00000C0E00000E0000000E0200000E0400000E0600000E0800000E0A00000E0C00000E0E00040000000400020004000400040006000400080004000A0004000C0004000E00040200000402020004020400040206000402080004020A0004020C0004020E000404000004040200040404000404060004040800040
310
40A0004040C0004040E00040600000406020004060400040606000406080004060A0004060C0004060E00040800000408020004080400040806000408080004080A0004080C0004080E00040A0000040A0200040A0400040A0600040A0800040A0A00040A0C00040A0E00040C0000040C0200040C0400040C0600040C08000
310
40C0A00040C0C00040C0E00040E0000040E0200040E0400040E0600040E0800040E0A00040E0C00040E0E00080000000800020008000400080006000800080008000A0008000C0008000E00080200000802020008020400080206000802080008020A0008020C0008020E00080400000804020008040400080406000804080
310
008040A0008040C0008040E00080600000806020008060400080606000806080008060A0008060C0008060E00080800000808020008080400080806000808080008080A0008080C0008080E00080A0000080A0200080A0400080A0600080A0800080A0A00080A0C00080A0E00080C0000080C0200080C0400080C0600080C0
310
800080C0A00080C0C00080C0E00080E0000080E0200080E0400080E0600080E0800080E0A00080E0C00080E0E000C0000000C0002000C0004000C0006000C0008000C000A000C000C000C000E000C0200000C0202000C0204000C0206000C0208000C020A000C020C000C020E000C0400000C0402000C0404000C0406000C0
310
408000C040A000C040C000C040E000C0600000C0602000C0604000C0606000C0608000C060A000C060C000C060E000C0800000C0802000C0804000C0806000C0808000C080A000C080C000C080E000C0A00000C0A02000C0A04000C0A06000C0A08000C0A0A000C0A0C000C0A0E000C0C00000C0C02000C0C04000C0C06000
310
C0C08000C0C0A000F0FBFF00A4A0A000808080000000FF0000FF000000FFFF00FF000000FF00FF00FFFF0000FFFFFF00FFFFFFFFFFFFFFFFFFFFFFFFFFFFFFFFFFFFFFFFFFFFFFFFFFFFFFFFFFFFFFFFFFFFFFFFFFFFFFFFFFFFFF00000000000000000000FFFFFFFFFFFFFFFFFFFFFFFFFFFFFFFFFFFFFFFFFFFF00FFFFFF
310
FFFFFFFFFF00FFFFFFFFFFFFFFFFFFFFFFFFFFFFFFFFFFFFFFFFFFFF00FFFFFFFFFFFFFFFF00FFFFFFFFFFFFFFFFFFFFFFFFFFFFFFFFFFFFFFFFFFFF00FFFFFFFFFFFFFFFF00FFFFFFFFFFFFFFFFFFFFFFFFFFFFFFFFFFFFFFFFFFFF00FF0000000000000000FFFFFFFFFFFFFFFFFFFFFFFFFFFFFFFFFFFFFFFFFFFF00FF00
310
FFFFFFFFFFFFFFFFFFFFFFFFFFFFFFFFFFFFFFFFFFFFFFFFFFFFFFFFFF00FF00FFFFFFFFFFFFFFFFFFFFFFFFFFFFFFFFFFFFFFFFFFFFFFFFFFFFFFFFFF00FF00FFFFFFFFFFFFFFFFFFFFFFFFFFFFFFFFFFFFFFFFFFFFFFFFFFFFFFFFFF00FF00FFFFFFFFFFFFFFFFFFFFFFFFFFFFFFFFFFFFFFFFFFFFFFFFFFFFFFFFFF00FF
310
00FFFFFFFFFFFFFFFFFFFFFFFFFFFFFFFFFFFFFFFFFFFFFFFFFFFFFFFFFF00FF00FFFFFFFFFFFFFFFFFFFFFFFFFFFFFFFFFFFFFFFFFFFFFFFFFFFFFFFFFF00FF00FFFFFFFFFFFFFFFFFFFFFFFFFFFFFFFFFFFFFFFFFFFFFFFFFFFFFFFFFF00FF00FFFFFFFFFFFFFFFFFFFFFFFFFFFFFFFFFFFFFFFFFFFFFFFFFFFFFFFFFF00
310
FF00000000000000FFFFFFFFFFFFFFFFFFFFFFFFFFFFFFFFFFFFFFFFFFFFFF00FFFFFFFFFFFFFF00FFFFFFFFFFFFFFFFFFFFFFFFFFFFFFFFFFFFFFFFFFFFFF00FFFFFFFFFFFFFF00FFFFFFFFFFFFFFFFFFFFFFFFFFFFFFFFFFFFFFFFFFFFFF00FFFFFFFFFFFFFF00FFFFFFFFFFFFFFFFFFFFFFFFFFFFFFFFFFFFFFFFFFFFFF
310
00FF00000000000000FFFFFFFFFFFFFFFFFFFFFFFFFFFFFFFFFFFFFFFFFFFFFF00FF00FFFFFFFFFFFFFFFFFFFFFFFFFFFFFFFFFFFFFFFFFFFFFFFFFFFFFFFFFF00FF00FFFFFFFFFFFFFFFFFFFFFFFFFFFFFFFFFFFFFFFFFFFFFFFFFFFFFFFFFF00FF00FFFFFFFFFFFFFFFFFFFFFFFFFFFFFFFFFFFFFFFFFFFFFFFFFFFFFFFF
310
FF00FF00FFFFFFFFFFFFFFFFFFFFFFFFFFFFFFFFFFFFFFFFFFFFFFFFFFFFFFFFFF00FF00FFFFFFFFFFFFFFFFFFFFFFFFFFFFFFFFFFFFFFFFFFFFFFFFFFFFFFFFFF00FF00FFFFFFFFFFFFFFFFFFFFFFFFFFFFFFFFFFFFFFFFFFFFFFFFFFFFFFFFFF00FF00FFFFFFFFFFFFFFFFFFFFFFFFFFFFFFFFFFFFFFFFFFFFFFFFFFFFFF
310
FFFF00FF0000000000000000FFFFFFFFFFFFFFFFFFFFFFFFFFFFFFFFFFFFFFFFFFFF00FFFFFFFFFFFFFFFF00FFFFFFFFFFFFFFFFFFFFFFFFFFFFFFFFFFFFFFFFFFFF00FFFFFFFFFFFFFFFF00FFFFFFFFFFFFFFFFFFFFFFFFFFFFFFFFFFFFFFFFFFFF00FFFFFFFFFFFFFFFF00FFFFFFFFFFFFFFFFFFFFFFFFFFFFFFFFFFFFFF
310
FFFFFF00000000000000000000FFFFFFFFFFFFFFFFFFFFFFFFFFFFFFFFFFFFFFFFFFFFFFFFFFFFFFFFFFFFFFFFFFFFFFFFFFFFFFFFFFFFFF
102
{BLKREFS
331
9CC
102
}
  0
BLOCK_RECORD
  5
9BE
330
5C3
100
AcDbSymbolTableRecord
100
AcDbBlockTableRecord
  2
HD_LLC_logo_OT5
340
0
310
2800000020000000200000000100080000000000000400000000000000000000000000000000000000000000000080000080000000808000800000008000800080800000C0C0C000C0DCC000F0CAA6000020400000206000002080000020A0000020C0000020E00000400000004020000040400000406000004080000040A0
310
000040C0000040E00000600000006020000060400000606000006080000060A0000060C0000060E00000800000008020000080400000806000008080000080A0000080C0000080E00000A0000000A0200000A0400000A0600000A0800000A0A00000A0C00000A0E00000C0000000C0200000C0400000C0600000C0800000C0
310
A00000C0C00000C0E00000E0000000E0200000E0400000E0600000E0800000E0A00000E0C00000E0E00040000000400020004000400040006000400080004000A0004000C0004000E00040200000402020004020400040206000402080004020A0004020C0004020E000404000004040200040404000404060004040800040
310
40A0004040C0004040E00040600000406020004060400040606000406080004060A0004060C0004060E00040800000408020004080400040806000408080004080A0004080C0004080E00040A0000040A0200040A0400040A0600040A0800040A0A00040A0C00040A0E00040C0000040C0200040C0400040C0600040C08000
310
40C0A00040C0C00040C0E00040E0000040E0200040E0400040E0600040E0800040E0A00040E0C00040E0E00080000000800020008000400080006000800080008000A0008000C0008000E00080200000802020008020400080206000802080008020A0008020C0008020E00080400000804020008040400080406000804080
310
008040A0008040C0008040E00080600000806020008060400080606000806080008060A0008060C0008060E00080800000808020008080400080806000808080008080A0008080C0008080E00080A0000080A0200080A0400080A0600080A0800080A0A00080A0C00080A0E00080C0000080C0200080C0400080C0600080C0
310
800080C0A00080C0C00080C0E00080E0000080E0200080E0400080E0600080E0800080E0A00080E0C00080E0E000C0000000C0002000C0004000C0006000C0008000C000A000C000C000C000E000C0200000C0202000C0204000C0206000C0208000C020A000C020C000C020E000C0400000C0402000C0404000C0406000C0
310
408000C040A000C040C000C040E000C0600000C0602000C0604000C0606000C0608000C060A000C060C000C060E000C0800000C0802000C0804000C0806000C0808000C080A000C080C000C080E000C0A00000C0A02000C0A04000C0A06000C0A08000C0A0A000C0A0C000C0A0E000C0C00000C0C02000C0C04000C0C06000
310
C0C08000C0C0A000F0FBFF00A4A0A000808080000000FF0000FF000000FFFF00FF000000FF00FF00FFFF0000FFFFFF00FFFFFFFFFFFFFFFFFFFFFFFFFFFFFFFFFFFFFFFFFFFFFFFFFFFFFFFFFFFFFFFFFFFFFFFFFFFFFFFFFFFFFFFFFFFFFFFFFFFFFFFFFFFFFFFFFFFFFFFFFFFFFFFFFFFFFFFFFFFFFFFFFFFFFFFFFFFFFF
310
FFFFFFFFFFFFFFFFFFFFFFFFFFFFFFFFFFFFFFFFFFFFFFFFFFFFFFFFFFFFFFFFFFFFFFFFFFFFFFFFFFFFFFFFFFFFFFFFFFFFFFFFFFFFFFFFFFFFFFFFFFFFFFFFFFFFFFFFFFFFFFFFFFFFFFFFFFFFFFFFFFFFFFFFFFFFFFFFFFFFFFFFFFFFFFFFFFFFFFFFFFFFFFFFFFFFFFFFFFFFFFFFFFFFFFFFFFFFFFFFFFFFFFFFFFFFFF
310
FFFFFFFFFFFFFFFFFFFFFFFFFFFFFFFFFFFFFFFFFFFFFFFFFFFFFFFFFFFFFFFFFFFFFFFFFFFFFFFFFFFFFFFFFFFFFFFFFFFFFFFFFFFFFFFFFFFFFFFFFFFFFFFFFFFFFFFFFFFFFFFFFFFFFFFFFFFFFFFFFFFFFFFFFFFFFFFFFFFFFFFFFFFFFFFFFFFFFFFFFFFFFFFFFFFFFFFFFFFFFFFFFFFFFFFFFFFFFFFFFFFFFFFFFFFFFF
310
FFFFFFFFFFFFFFFFFFFFFFFFFFFFFFFFFFFFFFFFFFFFFFFFFFFFFFFFFFFFFFFFFFFFFFFFFFFFFFFFFFFFFFFFFFFFFFFFFFFFFFFF0000000000000000000000000000000000000000000000000000000000FFFFFF0000000000000000000000000000000000FFFFFFFFFFFFFFFFFFFF0000FFFFFF0000000000000000000000
310
00000000000000FFFFFFFFFFFFFFFFFFFF0000FFFF000000000000000000000000000000000000FFFFFF00000000FFFFFF0000FFFF00FFFFFFFFFFFF00FFFFFF00FFFFFFFFFF00FFFFFF0000000000FFFF0000FFFF00FFFFFFFFFFFF00FFFFFF00FFFFFFFFFF00FFFFFF00FFFF0000FFFF0000FFFF00FFFFFFFFFFFF00FFFF
310
00FFFFFFFFFFFF00FFFFFF00FFFF0000FFFF0000FFFF0000000000FFFF00000000FFFFFF00000000FFFFFF00000000FFFFFF0000FFFFFFFFFFFF00FFFFFFFFFFFFFFFFFF00FFFFFFFFFFFFFFFFFFFFFFFFFF0000FFFFFFFFFFFF00FFFFFFFFFFFFFFFFFF00FFFFFFFFFFFFFFFFFFFFFFFFFF0000FFFFFFFFFFFF00FFFFFFFF
310
FFFFFFFFFF00FFFFFFFFFFFFFFFFFFFFFFFF0000FFFFFF0000000000FFFF00000000FFFFFF0000000000000000000000000000FFFFFFFF00FFFFFFFFFFFF00FFFF00FFFFFFFFFFFF00FFFFFFFFFFFFFFFFFFFFFFFFFFFF00FFFFFFFFFFFF00FFFFFF00FFFFFFFFFF00FFFFFFFFFFFFFFFFFFFFFFFFFFFF0000000000000000
310
FFFFFF00000000000000FFFFFFFFFFFFFFFFFFFFFFFFFFFFFFFFFFFFFFFFFFFFFFFFFFFFFFFFFFFFFFFFFFFFFFFFFFFFFFFFFFFFFFFFFFFFFFFFFFFFFFFFFFFFFFFFFFFFFFFFFFFFFFFFFFFFFFFFFFFFFFFFFFFFFFFFFFFFFFFFFFFFFFFFFFFFFFFFFFFFFFFFFFFFFFFFFFFFFFFFFFFFFFFFFFFFFFFFFFFFFFFFFFFFFFFFFF
310
FFFFFFFFFFFFFFFFFFFFFFFFFFFFFFFFFFFFFFFFFFFFFFFFFFFFFFFFFFFFFFFFFFFFFFFFFFFFFFFFFFFFFFFFFFFFFFFFFFFFFFFFFFFFFFFF
102
{BLKREFS
331
9E4
102
}
  0
BLOCK_RECORD
  5
9E3
330
5C3
100
AcDbSymbolTableRecord
100
AcDbBlockTableRecord
  2
HD logo-new
340
0
310
2800000020000000200000000100080000000000000400000000000000000000000000000000000000000000000080000080000000808000800000008000800080800000C0C0C000C0DCC000F0CAA6000020400000206000002080000020A0000020C0000020E00000400000004020000040400000406000004080000040A0
310
000040C0000040E00000600000006020000060400000606000006080000060A0000060C0000060E00000800000008020000080400000806000008080000080A0000080C0000080E00000A0000000A0200000A0400000A0600000A0800000A0A00000A0C00000A0E00000C0000000C0200000C0400000C0600000C0800000C0
310
A00000C0C00000C0E00000E0000000E0200000E0400000E0600000E0800000E0A00000E0C00000E0E00040000000400020004000400040006000400080004000A0004000C0004000E00040200000402020004020400040206000402080004020A0004020C0004020E000404000004040200040404000404060004040800040
310
40A0004040C0004040E00040600000406020004060400040606000406080004060A0004060C0004060E00040800000408020004080400040806000408080004080A0004080C0004080E00040A0000040A0200040A0400040A0600040A0800040A0A00040A0C00040A0E00040C0000040C0200040C0400040C0600040C08000
310
40C0A00040C0C00040C0E00040E0000040E0200040E0400040E0600040E0800040E0A00040E0C00040E0E00080000000800020008000400080006000800080008000A0008000C0008000E00080200000802020008020400080206000802080008020A0008020C0008020E00080400000804020008040400080406000804080
310
008040A0008040C0008040E00080600000806020008060400080606000806080008060A0008060C0008060E00080800000808020008080400080806000808080008080A0008080C0008080E00080A0000080A0200080A0400080A0600080A0800080A0A00080A0C00080A0E00080C0000080C0200080C0400080C0600080C0
310
800080C0A00080C0C00080C0E00080E0000080E0200080E0400080E0600080E0800080E0A00080E0C00080E0E000C0000000C0002000C0004000C0006000C0008000C000A000C000C000C000E000C0200000C0202000C0204000C0206000C0208000C020A000C020C000C020E000C0400000C0402000C0404000C0406000C0
310
408000C040A000C040C000C040E000C0600000C0602000C0604000C0606000C0608000C060A000C060C000C060E000C0800000C0802000C0804000C0806000C0808000C080A000C080C000C080E000C0A00000C0A02000C0A04000C0A06000C0A08000C0A0A000C0A0C000C0A0E000C0C00000C0C02000C0C04000C0C06000
310
C0C08000C0C0A000F0FBFF00A4A0A000808080000000FF0000FF000000FFFF00FF000000FF00FF00FFFF0000FFFFFF00FFFFFFFFFFFFFFFFFFFFFFFFFFFFFFFFFFFFFFFFFFFFFFFFFFFFFFFFFFFFFFFFFFFFFFFFFFFFFFFFFFFFFFFFFFFFFFFFFFFFFFFFFFFFFFFFFFFFFFFFFFFFFFFFFFFFFFFFFFFFFFFFFFFFFFFFFFFFFF
310
FFFFFFFFFFFFFFFFFFFFFFFFFFFFFFFFFFFFFFFFFFFFFFFFFFFFFFFFFFFFFFFFFFFFFFFFFFFFFFFFFFFFFFFFFFFFFFFFFFFFFFFFFFFFFFFFFFFFFFFFFFFFFFFFFFFFFFFFFFFFFFFFFFFFFFFFFFFFFFFFFFFFFFFFFFFFFFFFFFFFFFFFFFFFFFFFFFFFFFFFFFFFFFFFFFFFFFFFFFFFFFFFFFFFFFFFFFFFFFFFFFFFFFFFFFFFFF
310
FFFFFFFFFFFFFFFFFFFFFFFFFFFFFFFFFFFFFFFFFFFFFFFFFFFFFFFFFFFFFFFFFFFFFFFFFFFFFFFFFFFFFFFFFFFFFFFFFFFFFFFFFFFFFFFFFFFFFFFFFFFFFFFFFFFFFFFFFFFFFFFFFFFFFFFFFFFFFFFFFFFFFFFFFFFFFFFFFFFFFFFFFFFFFFFFFFFFFFFFFFFFFFFFFFFFFFFFFFFFFFFFFFFFFFFFFFFFFFFFFFFFFFFFFFFFFF
310
FFFFFFFFFFFFFFFFFFFFFFFFFFFFFFFFFFFFFFFFFFFFFFFFFFFFFFFFFFFFFFFFFFFFFFFFFFFFFFFFFFFFFFFFFFFFFFFFFFFFFFFF0000000000000000000000000000000000000000000000000000000000FFFFFF0000000000000000000000000000000000FFFFFFFFFFFFFFFFFFFF0000FFFFFF0000000000000000000000
310
00000000000000FFFFFFFFFFFFFFFFFFFF0000FFFF000000000000000000000000000000000000FFFFFF00000000FFFFFF0000FFFF00FFFFFFFFFFFF00FFFFFF00FFFFFFFFFF00FFFFFF0000000000FFFF0000FFFF00FFFFFFFFFFFF00FFFFFF00FFFFFFFFFF00FFFFFF00FFFF0000FFFF0000FFFF00FFFFFFFFFFFF00FFFF
310
00FFFFFFFFFFFF00FFFFFF00FFFF0000FFFF0000FFFF0000000000FFFF00000000FFFFFF00000000FFFFFF00000000FFFFFF0000FFFFFFFFFFFF00FFFFFFFFFFFFFFFFFF00FFFFFFFFFFFFFFFFFFFFFFFFFF0000FFFFFFFFFFFF00FFFFFFFFFFFFFFFFFF00FFFFFFFFFFFFFFFFFFFFFFFFFF0000FFFFFFFFFFFF00FFFFFFFF
310
FFFFFFFFFF00FFFFFFFFFFFFFFFFFFFFFFFF0000FFFFFF0000000000FFFF00000000FFFFFF0000000000000000000000000000FFFFFFFF00FFFFFFFFFFFF00FFFF00FFFFFFFFFFFF00FFFFFFFFFFFFFFFFFFFFFFFFFFFF00FFFFFFFFFFFF00FFFFFF00FFFFFFFFFF00FFFFFFFFFFFFFFFFFFFFFFFFFFFF0000000000000000
310
FFFFFF00000000000000FFFFFFFFFFFFFFFFFFFFFFFFFFFFFFFFFFFFFFFFFFFFFFFFFFFFFFFFFFFFFFFFFFFFFFFFFFFFFFFFFFFFFFFFFFFFFFFFFFFFFFFFFFFFFFFFFFFFFFFFFFFFFFFFFFFFFFFFFFFFFFFFFFFFFFFFFFFFFFFFFFFFFFFFFFFFFFFFFFFFFFFFFFFFFFFFFFFFFFFFFFFFFFFFFFFFFFFFFFFFFFFFFFFFFFFFFF
310
FFFFFFFFFFFFFFFFFFFFFFFFFFFFFFFFFFFFFFFFFFFFFFFFFFFFFFFFFFFFFFFFFFFFFFFFFFFFFFFFFFFFFFFFFFFFFFFFFFFFFFFFFFFFFFFF
102
{BLKREFS
331
9E8
102
}
  0
BLOCK_RECORD
  5
9E7
330
5C3
100
AcDbSymbolTableRecord
100
AcDbBlockTableRecord
  2
HD Logo
340
0
310
2800000020000000200000000100080000000000000400000000000000000000000000000000000000000000000080000080000000808000800000008000800080800000C0C0C000C0DCC000F0CAA6000020400000206000002080000020A0000020C0000020E00000400000004020000040400000406000004080000040A0
310
000040C0000040E00000600000006020000060400000606000006080000060A0000060C0000060E00000800000008020000080400000806000008080000080A0000080C0000080E00000A0000000A0200000A0400000A0600000A0800000A0A00000A0C00000A0E00000C0000000C0200000C0400000C0600000C0800000C0
310
A00000C0C00000C0E00000E0000000E0200000E0400000E0600000E0800000E0A00000E0C00000E0E00040000000400020004000400040006000400080004000A0004000C0004000E00040200000402020004020400040206000402080004020A0004020C0004020E000404000004040200040404000404060004040800040
310
40A0004040C0004040E00040600000406020004060400040606000406080004060A0004060C0004060E00040800000408020004080400040806000408080004080A0004080C0004080E00040A0000040A0200040A0400040A0600040A0800040A0A00040A0C00040A0E00040C0000040C0200040C0400040C0600040C08000
310
40C0A00040C0C00040C0E00040E0000040E0200040E0400040E0600040E0800040E0A00040E0C00040E0E00080000000800020008000400080006000800080008000A0008000C0008000E00080200000802020008020400080206000802080008020A0008020C0008020E00080400000804020008040400080406000804080
310
008040A0008040C0008040E00080600000806020008060400080606000806080008060A0008060C0008060E00080800000808020008080400080806000808080008080A0008080C0008080E00080A0000080A0200080A0400080A0600080A0800080A0A00080A0C00080A0E00080C0000080C0200080C0400080C0600080C0
310
800080C0A00080C0C00080C0E00080E0000080E0200080E0400080E0600080E0800080E0A00080E0C00080E0E000C0000000C0002000C0004000C0006000C0008000C000A000C000C000C000E000C0200000C0202000C0204000C0206000C0208000C020A000C020C000C020E000C0400000C0402000C0404000C0406000C0
310
408000C040A000C040C000C040E000C0600000C0602000C0604000C0606000C0608000C060A000C060C000C060E000C0800000C0802000C0804000C0806000C0808000C080A000C080C000C080E000C0A00000C0A02000C0A04000C0A06000C0A08000C0A0A000C0A0C000C0A0E000C0C00000C0C02000C0C04000C0C06000
310
C0C08000C0C0A000F0FBFF00A4A0A000808080000000FF0000FF000000FFFF00FF000000FF00FF00FFFF0000FFFFFF00FFFFFFFFFFFFFFFFFFFFFFFFFFFFFFFFFFFFFFFFFFFFFFFFFFFFFFFFFFFFFFFFFFFFFFFFFFFFFFFFFFFFFFFFFFFFFFFFFFFFFFFFFFFFFFFFFFFFFFFFFFFFFFFFFFFFFFFFFFFFFFFFFFFFFFFFFFFFFF
310
FFFFFFFFFFFFFFFFFFFFFFFFFFFFFFFFFFFFFFFFFFFFFFFFFFFFFFFFFFFFFFFFFFFFFFFFFFFFFFFFFFFFFFFFFFFFFFFFFFFFFFFFFFFFFFFFFFFFFFFFFFFFFFFFFFFFFFFFFFFFFFFFFFFFFFFFFFFFFFFFFFFFFFFFFFFFFFFFFFFFFFFFFFFFFFFFFFFFFFFFFFFFFFFFFFFFFFFFFFFFFFFFFFFFFFFFFFFFFFFFFFFFFFFFFFFFFF
310
FFFFFFFFFFFFFFFFFFFFFFFFFFFFFFFFFFFFFFFFFFFFFFFFFFFFFFFFFFFFFFFFFFFFFFFFFFFFFFFFFFFFFFFFFFFFFFFFFFFFFFFFFFFFFFFFFFFFFFFFFFFFFFFFFFFFFFFFFFFFFFFFFFFFFFFFFFFFFFFFFFFFFFFFFFFFFFFFFFFFFFFFFFFFFFFFFFFFFFFFFFFFFFFFFFFFFFFFFFFFFFFFFFFFFFFFFFFFFFFFFFFFFFFFFFFFFF
310
FFFFFFFFFFFFFFFFFFFFFFFFFFFFFFFFFFFFFFFFFFFFFFFFFFFFFFFFFFFFFFFFFFFFFFFFFFFFFFFFFFFFFFFFFFFFFFFFFFFFFFFF0000000000000000000000000000000000000000000000000000000000FFFFFF0000000000000000000000000000000000FFFFFFFFFFFFFFFFFFFF0000FFFFFF0000000000000000000000
310
00000000000000FFFFFFFFFFFFFFFFFFFF0000FFFF000000000000000000000000000000000000FFFFFF00000000FFFFFF0000FFFF00FFFFFFFFFFFF00FFFFFF00FFFFFFFFFF00FFFFFF0000000000FFFF0000FFFF00FFFFFFFFFFFF00FFFFFF00FFFFFFFFFF00FFFFFF00FFFF0000FFFF0000FFFF00FFFFFFFFFFFF00FFFF
310
00FFFFFFFFFFFF00FFFFFF00FFFF0000FFFF0000FFFF0000000000FFFF00000000FFFFFF00000000FFFFFF00000000FFFFFF0000FFFFFFFFFFFF00FFFFFFFFFFFFFFFFFF00FFFFFFFFFFFFFFFFFFFFFFFFFF0000FFFFFFFFFFFF00FFFFFFFFFFFFFFFFFF00FFFFFFFFFFFFFFFFFFFFFFFFFF0000FFFFFFFFFFFF00FFFFFFFF
310
FFFFFFFFFF00FFFFFFFFFFFFFFFFFFFFFFFF0000FFFFFF0000000000FFFF00000000FFFFFF0000000000000000000000000000FFFFFFFF00FFFFFFFFFFFF00FFFF00FFFFFFFFFFFF00FFFFFFFFFFFFFFFFFFFFFFFFFFFF00FFFFFFFFFFFF00FFFFFF00FFFFFFFFFF00FFFFFFFFFFFFFFFFFFFFFFFFFFFF0000000000000000
310
FFFFFF00000000000000FFFFFFFFFFFFFFFFFFFFFFFFFFFFFFFFFFFFFFFFFFFFFFFFFFFFFFFFFFFFFFFFFFFFFFFFFFFFFFFFFFFFFFFFFFFFFFFFFFFFFFFFFFFFFFFFFFFFFFFFFFFFFFFFFFFFFFFFFFFFFFFFFFFFFFFFFFFFFFFFFFFFFFFFFFFFFFFFFFFFFFFFFFFFFFFFFFFFFFFFFFFFFFFFFFFFFFFFFFFFFFFFFFFFFFFFFF
310
FFFFFFFFFFFFFFFFFFFFFFFFFFFFFFFFFFFFFFFFFFFFFFFFFFFFFFFFFFFFFFFFFFFFFFFFFFFFFFFFFFFFFFFFFFFFFFFFFFFFFFFFFFFFFFFF
102
{BLKREFS
331
9EE
331
9F2
102
}
  0
BLOCK_RECORD
  5
9FF
330
5C3
100
AcDbSymbolTableRecord
100
AcDbBlockTableRecord
  2
Harmonic Drive LLC
340
0
310
2800000020000000200000000100080000000000000400000000000000000000000000000000000000000000000080000080000000808000800000008000800080800000C0C0C000C0DCC000F0CAA6000020400000206000002080000020A0000020C0000020E00000400000004020000040400000406000004080000040A0
310
000040C0000040E00000600000006020000060400000606000006080000060A0000060C0000060E00000800000008020000080400000806000008080000080A0000080C0000080E00000A0000000A0200000A0400000A0600000A0800000A0A00000A0C00000A0E00000C0000000C0200000C0400000C0600000C0800000C0
310
A00000C0C00000C0E00000E0000000E0200000E0400000E0600000E0800000E0A00000E0C00000E0E00040000000400020004000400040006000400080004000A0004000C0004000E00040200000402020004020400040206000402080004020A0004020C0004020E000404000004040200040404000404060004040800040
310
40A0004040C0004040E00040600000406020004060400040606000406080004060A0004060C0004060E00040800000408020004080400040806000408080004080A0004080C0004080E00040A0000040A0200040A0400040A0600040A0800040A0A00040A0C00040A0E00040C0000040C0200040C0400040C0600040C08000
310
40C0A00040C0C00040C0E00040E0000040E0200040E0400040E0600040E0800040E0A00040E0C00040E0E00080000000800020008000400080006000800080008000A0008000C0008000E00080200000802020008020400080206000802080008020A0008020C0008020E00080400000804020008040400080406000804080
310
008040A0008040C0008040E00080600000806020008060400080606000806080008060A0008060C0008060E00080800000808020008080400080806000808080008080A0008080C0008080E00080A0000080A0200080A0400080A0600080A0800080A0A00080A0C00080A0E00080C0000080C0200080C0400080C0600080C0
310
800080C0A00080C0C00080C0E00080E0000080E0200080E0400080E0600080E0800080E0A00080E0C00080E0E000C0000000C0002000C0004000C0006000C0008000C000A000C000C000C000E000C0200000C0202000C0204000C0206000C0208000C020A000C020C000C020E000C0400000C0402000C0404000C0406000C0
310
408000C040A000C040C000C040E000C0600000C0602000C0604000C0606000C0608000C060A000C060C000C060E000C0800000C0802000C0804000C0806000C0808000C080A000C080C000C080E000C0A00000C0A02000C0A04000C0A06000C0A08000C0A0A000C0A0C000C0A0E000C0C00000C0C02000C0C04000C0C06000
310
C0C08000C0C0A000F0FBFF00A4A0A000808080000000FF0000FF000000FFFF00FF000000FF00FF00FFFF0000FFFFFF00FFFFFFFFFFFFFFFFFFFFFFFFFFFFFFFFFFFFFFFFFFFFFFFFFFFFFFFFFFFFFFFFFFFFFFFFFFFFFFFFFFFFFFFFFFFFFFFFFFFFFFFFFFFFFFFFFFFFFFFFFFFFFFFFFFFFFFFFFFFFFFFFFFFFFFFFFFFFFF
310
FFFFFFFFFFFFFFFFFFFFFFFFFFFFFFFFFFFFFFFFFFFFFFFFFFFFFFFFFFFFFFFFFFFFFFFFFFFFFFFFFFFFFFFFFFFFFFFFFFFFFFFFFFFFFFFFFFFFFFFFFFFFFFFFFFFFFFFFFFFFFFFFFFFFFFFFFFFFFFFFFFFFFFFFFFFFFFFFFFFFFFFFFFFFFFFFFFFFFFFFFFFFFFFFFFFFFFFFFFFFFFFFFFFFFFFFFFFFFFFFFFFFFFFFFFFFFF
310
FFFFFFFFFFFFFFFFFFFFFFFFFFFFFFFFFFFFFFFFFFFFFFFFFFFFFFFFFFFFFFFFFFFFFFFFFFFFFFFFFFFFFFFFFFFFFFFFFFFFFFFFFFFFFFFFFFFFFFFFFFFFFFFFFFFFFFFFFFFFFFFFFFFFFFFFFFFFFFFFFFFFFFFFFFFFFFFFFFFFFFFFFFFFFFFFFFFFFFFFFFFFFFFFFFFFFFFFFFFFFFFFFFFFFFFFFFFFFFFFFFFFFFFFFFFFFF
310
FFFFFFFFFFFFFFFFFFFFFFFFFFFFFFFFFFFFFFFFFFFFFFFFFFFFFFFFFFFFFFFFFFFFFFFFFFFFFFFFFFFFFFFFFFFFFFFFFFFFFFFFFFFFFFFFFFFFFFFFFFFFFFFFFFFFFFFFFFFFFFFFFFFFFFFFFFFFFFFFFFFFFFFFFFFFFFFFFFFFFFFF0000000000000000000000000000FFFFFFFFFFFFFFFFFFFFFFFFFFFFFFFFFFFF000000
310
0000000000000000000000FFFFFFFFFFFFFFFFFFFFFFFFFFFFFFFFFFFFFFFFFF000000000000000000FFFFFFFFFFFFFFFFFFFFFFFFFFFFFFFFFFFFFFFFFFFFFF000000000000000000FFFFFFFFFFFFFFFFFFFFFFFFFFFFFFFFFFFFFFFFFF000000000000000000000000FFFFFFFFFFFFFFFFFFFFFFFFFFFFFFFFFFFFFFFF00
310
FFFFFF00FF0000FF000000FFFFFFFFFFFFFFFFFFFFFFFFFFFFFFFFFFFFFFFFFFFFFFFFFFFFFFFFFFFFFFFFFFFFFFFFFFFFFFFFFFFFFFFFFFFFFFFFFFFFFFFFFFFFFFFFFFFFFFFFFFFFFFFFFFFFFFFFFFFFFFFFFFFFFFFFFFFFFFFFFFFFFFFFFFFFFFFFFFFFFFFFFFFFFFFFFFFFFFFFFFFFFFFFFFFFFFFFFFFFFFFFFFFFFFFF
310
FFFFFFFFFFFFFFFFFFFFFFFFFFFFFFFFFFFFFFFFFFFFFFFFFFFFFFFFFFFFFFFFFFFFFFFFFFFFFFFFFFFFFFFFFFFFFFFFFFFFFFFFFFFFFFFFFFFFFFFFFFFFFFFFFFFFFFFFFFFFFFFFFFFFFFFFFFFFFFFFFFFFFFFFFFFFFFFFFFFFFFFFFFFFFFFFFFFFFFFFFFFFFFFFFFFFFFFFFFFFFFFFFFFFFFFFFFFFFFFFFFFFFFFFFFFFFF
310
FFFFFFFFFFFFFFFFFFFFFFFFFFFFFFFFFFFFFFFFFFFFFFFFFFFFFFFFFFFFFFFFFFFFFFFFFFFFFFFFFFFFFFFFFFFFFFFFFFFFFFFFFFFFFFFFFFFFFFFFFFFFFFFFFFFFFFFFFFFFFFFFFFFFFFFFFFFFFFFFFFFFFFFFFFFFFFFFFFFFFFFFFFFFFFFFFFFFFFFFFFFFFFFFFFFFFFFFFFFFFFFFFFFFFFFFFFFFFFFFFFFFFFFFFFFFFF
310
FFFFFFFFFFFFFFFFFFFFFFFFFFFFFFFFFFFFFFFFFFFFFFFFFFFFFFFFFFFFFFFFFFFFFFFFFFFFFFFFFFFFFFFFFFFFFFFFFFFFFFFFFFFFFFFF
102
{BLKREFS
331
A04
331
A09
102
}
  0
BLOCK_RECORD
  5
A13
330
5C3
100
AcDbSymbolTableRecord
100
AcDbBlockTableRecord
  2
NTC
340
0
310
2800000020000000200000000100080000000000000400000000000000000000000000000000000000000000000080000080000000808000800000008000800080800000C0C0C000C0DCC000F0CAA6000020400000206000002080000020A0000020C0000020E00000400000004020000040400000406000004080000040A0
310
000040C0000040E00000600000006020000060400000606000006080000060A0000060C0000060E00000800000008020000080400000806000008080000080A0000080C0000080E00000A0000000A0200000A0400000A0600000A0800000A0A00000A0C00000A0E00000C0000000C0200000C0400000C0600000C0800000C0
310
A00000C0C00000C0E00000E0000000E0200000E0400000E0600000E0800000E0A00000E0C00000E0E00040000000400020004000400040006000400080004000A0004000C0004000E00040200000402020004020400040206000402080004020A0004020C0004020E000404000004040200040404000404060004040800040
310
40A0004040C0004040E00040600000406020004060400040606000406080004060A0004060C0004060E00040800000408020004080400040806000408080004080A0004080C0004080E00040A0000040A0200040A0400040A0600040A0800040A0A00040A0C00040A0E00040C0000040C0200040C0400040C0600040C08000
310
40C0A00040C0C00040C0E00040E0000040E0200040E0400040E0600040E0800040E0A00040E0C00040E0E00080000000800020008000400080006000800080008000A0008000C0008000E00080200000802020008020400080206000802080008020A0008020C0008020E00080400000804020008040400080406000804080
310
008040A0008040C0008040E00080600000806020008060400080606000806080008060A0008060C0008060E00080800000808020008080400080806000808080008080A0008080C0008080E00080A0000080A0200080A0400080A0600080A0800080A0A00080A0C00080A0E00080C0000080C0200080C0400080C0600080C0
310
800080C0A00080C0C00080C0E00080E0000080E0200080E0400080E0600080E0800080E0A00080E0C00080E0E000C0000000C0002000C0004000C0006000C0008000C000A000C000C000C000E000C0200000C0202000C0204000C0206000C0208000C020A000C020C000C020E000C0400000C0402000C0404000C0406000C0
310
408000C040A000C040C000C040E000C0600000C0602000C0604000C0606000C0608000C060A000C060C000C060E000C0800000C0802000C0804000C0806000C0808000C080A000C080C000C080E000C0A00000C0A02000C0A04000C0A06000C0A08000C0A0A000C0A0C000C0A0E000C0C00000C0C02000C0C04000C0C06000
310
C0C08000C0C0A000F0FBFF00A4A0A000808080000000FF0000FF000000FFFF00FF000000FF00FF00FFFF0000FFFFFF00FFFFFFFFFFFFFFFFFFFFFFFFFFFFFFFFFFFFFFFFFFFFFFFFFFFFFFFFFFFFFFFFFFFFFFFFFFFFFFFFFFFFFFFFFFFFFFFFFFFFFFFFFFFFFFFFFFFFFFFFFFFFFFFFFFFFFFFFFFFFFFFFFFFFFFFFFFFFFF
310
FFFFFFFFFFFFFFFFFFFFFFFFFFFFFFFFFFFFFFFFFFFFFFFFFFFFFFFFFFFFFFFFFFFFFFFFFFFFFFFFFFFFFFFFFFFFFFFFFFFFFFFFFFFFFFFFFFFFFFFFFFFFFFFFFFFFFFFFFFFFFFFFFFFFFFFFFFFFFFFFFFFFFFFFFFFFFFFFFFFFFFFFFFFFFFFFFFFFFFFFFFFFFFFFFFFFFFFFFFFFFFFFFFFFFFFFFFFFFFFFFFFFFFFFFFFFFF
310
FFFFFFFFFFFFFFFFFFFFFFFFFFFFFFFFFFFFFFFFFFFFFFFFFFFFFFFFFFFFFFFFFFFFFFFFFFFFFFFFFFFFFFFFFFFFFFFFFFFFFFFFFFFFFFFFFFFFFFFFFFFFFFFFFFFFFFFFFFFFFFFFFFFFFFFFFFFFFFFFFFFFFFFFFFFFFFFFFFFFFFFFFFFFFFFFFFFFFFFFFFFFFFFFFFFFFFFFFFFFFFFFFFFFFFFFFFFFFFFFFFFFFFFFFFFFFF
310
FFFFFFFFFFFFFFFFFFFFFFFFFFFFFFFFFFFFFFFF000000000000000000000000000000000000000000000000000000000000FFFF00FF0000000000000000FFFFFFFFFFFFFFFFFFFFFFFFFFFFFFFFFFFFFF00FFFF00FF0000000000000000FFFFFFFFFFFFFFFFFFFFFFFFFFFFFFFFFFFFFF00FFFF00FF000000000000000000
310
00000000000000000000000000FFFFFFFFFF00FFFF00FF0000000000000000000000000000000000000000000000000000FF00FFFF00FF0000000000000000000000000000000000000000000000000000FF00FFFF00FF0000000000000000000000000000000000000000000000000000FF00FFFF00FF0000000000000000
310
00000000000000000000000000000000FFFFFF00FFFF00FF0000000000FFFFFFFFFFFFFFFFFFFFFFFFFFFFFFFFFFFFFFFFFFFF00FFFF000000000000000000000000000000000000000000000000000000000000FFFFFFFFFFFFFFFFFFFFFFFFFFFFFFFFFFFFFFFFFFFFFFFFFFFFFFFFFFFFFFFFFFFFFFFFFFFFFFFFFFFFFF
310
FFFFFFFFFFFFFFFFFFFFFFFFFFFFFFFFFFFFFFFFFFFFFFFFFFFFFFFFFFFFFFFFFFFFFFFFFFFFFFFFFFFFFFFFFFFFFFFFFFFFFFFFFFFFFFFFFFFFFFFFFFFFFFFFFFFFFFFFFFFFFFFFFFFFFFFFFFFFFFFFFFFFFFFFFFFFFFFFFFFFFFFFFFFFFFFFFFFFFFFFFFFFFFFFFFFFFFFFFFFFFFFFFFFFFFFFFFFFFFFFFFFFFFFFFFFFFF
310
FFFFFFFFFFFFFFFFFFFFFFFFFFFFFFFFFFFFFFFFFFFFFFFFFFFFFFFFFFFFFFFFFFFFFFFFFFFFFFFFFFFFFFFFFFFFFFFFFFFFFFFFFFFFFFFFFFFFFFFFFFFFFFFFFFFFFFFFFFFFFFFFFFFFFFFFFFFFFFFFFFFFFFFFFFFFFFFFFFFFFFFFFFFFFFFFFFFFFFFFFFFFFFFFFFFFFFFFFFFFFFFFFFFFFFFFFFFFFFFFFFFFFFFFFFFFFF
310
FFFFFFFFFFFFFFFFFFFFFFFFFFFFFFFFFFFFFFFFFFFFFFFFFFFFFFFFFFFFFFFFFFFFFFFFFFFFFFFFFFFFFFFFFFFFFFFFFFFFFFFFFFFFFFFF
102
{BLKREFS
331
A19
331
A1E
102
}
  0
ENDTAB
  0
ENDSEC
  0
SECTION
  2
BLOCKS
  0
BLOCK
  5
5E1
330
5E0
100
AcDbEntity
  8
0
100
AcDbBlockBegin
  2
*Model_Space
 70
     0
 10
0.0
 20
0.0
 30
0.0
  3
*Model_Space
  1

  0
ENDBLK
  5
5E2
330
5E0
100
AcDbEntity
  8
0
100
AcDbBlockEnd
  0
BLOCK
  5
5DD
330
5DC
100
AcDbEntity
 67
     1
  8
0
100
AcDbBlockBegin
  2
*Paper_Space
 70
     0
 10
0.0
 20
0.0
 30
0.0
  3
*Paper_Space
  1

  0
ENDBLK
  5
5DE
330
5DC
100
AcDbEntity
 67
     1
  8
0
100
AcDbBlockEnd
  0
BLOCK
  5
5EF
330
5EE
100
AcDbEntity
  8
0
100
AcDbBlockBegin
  2
$MODEL_SPACE
 70
     0
 10
0.0
 20
0.0
 30
0.0
  3
$MODEL_SPACE
  1

  0
ENDBLK
  5
5F0
330
5EE
100
AcDbEntity
  8
0
100
AcDbBlockEnd
  0
BLOCK
  5
5F2
330
5F1
100
AcDbEntity
  8
0
100
AcDbBlockBegin
  2
$PAPER_SPACE
 70
     0
 10
0.0
 20
0.0
 30
0.0
  3
$PAPER_SPACE
  1

  0
ENDBLK
  5
5F3
330
5F1
100
AcDbEntity
  8
0
100
AcDbBlockEnd
  0
BLOCK
  5
5F5
330
5F4
100
AcDbEntity
  8
0
100
AcDbBlockBegin
  2
WB_025_R
 70
     0
 10
892.2095329999999
 20
-1566.483086
 30
0.0
  3
WB_025_R
  1

  0
ARC
  5
5F6
330
5F4
100
AcDbEntity
  8
1
 62
     7
100
AcDbCircle
 10
560.7601499999998
 20
-1875.400953999999
 30
0.0
 40
2.778125
100
AcDbArc
 50
207.3105079999999
 51
227.765756
  0
ARC
  5
5F7
330
5F4
100
AcDbEntity
  8
1
 62
     7
100
AcDbCircle
 10
560.7601499999998
 20
-1875.400953999999
 30
0.0
 40
2.778125
100
AcDbArc
 50
100.7262309999999
 51
127.449755
  0
ARC
  5
5F8
330
5F4
100
AcDbEntity
  8
1
 62
     7
100
AcDbCircle
 10
560.7601499999998
 20
-1875.400953999999
 30
0.0
 40
2.778125
100
AcDbArc
 50
280.9298959999999
 51
301.3851439999999
  0
ARC
  5
5F9
330
5F4
100
AcDbEntity
  8
1
 62
     7
100
AcDbCircle
 10
567.4157299999998
 20
-1878.29188
 30
0.0
 40
2.778125
100
AcDbArc
 50
265.277722
 51
285.73297
  0
ARC
  5
5FA
330
5F4
100
AcDbEntity
  8
1
 62
     7
100
AcDbCircle
 10
567.4157299999998
 20
-1878.29188
 30
0.0
 40
2.778125
100
AcDbArc
 50
85.07405699999997
 51
111.797581
  0
ARC
  5
5FB
330
5F4
100
AcDbEntity
  8
1
 62
     7
100
AcDbCircle
 10
560.7601499999998
 20
-1875.400953999999
 30
0.0
 40
2.778125
100
AcDbArc
 50
21.245898
 51
47.969421
  0
ARC
  5
5FC
330
5F4
100
AcDbEntity
  8
1
 62
     7
100
AcDbCircle
 10
567.4157299999998
 20
-1878.29188
 30
0.0
 40
2.778125
100
AcDbArc
 50
191.6583339999999
 51
212.1135819999999
  0
ARC
  5
5FD
330
5F4
100
AcDbEntity
  8
1
 62
     7
100
AcDbCircle
 10
567.4157299999998
 20
-1878.29188
 30
0.0
 40
2.778125
100
AcDbArc
 50
265.277722
 51
285.73297
  0
ARC
  5
5FE
330
5F4
100
AcDbEntity
  8
1
 62
     7
100
AcDbCircle
 10
573.0445399999998
 20
-1882.871257
 30
0.0
 40
2.778125
100
AcDbArc
 50
249.625548
 51
270.080796
  0
ARC
  5
5FF
330
5F4
100
AcDbEntity
  8
1
 62
     7
100
AcDbCircle
 10
573.0445399999998
 20
-1882.871257
 30
0.0
 40
2.778125
100
AcDbArc
 50
69.42188299999999
 51
96.145407
  0
ARC
  5
600
330
5F4
100
AcDbEntity
  8
1
 62
     7
100
AcDbCircle
 10
567.4157299999998
 20
-1878.29188
 30
0.0
 40
2.778125
100
AcDbArc
 50
5.593723999999999
 51
32.317248
  0
ARC
  5
601
330
5F4
100
AcDbEntity
  8
1
 62
     7
100
AcDbCircle
 10
573.0445399999998
 20
-1882.871257
 30
0.0
 40
2.778125
100
AcDbArc
 50
176.00616
 51
196.461408
  0
ARC
  5
602
330
5F4
100
AcDbEntity
  8
1
 62
     7
100
AcDbCircle
 10
573.0445399999998
 20
-1882.871257
 30
0.0
 40
2.778125
100
AcDbArc
 50
249.625548
 51
270.080796
  0
ARC
  5
603
330
5F4
100
AcDbEntity
  8
1
 62
     7
100
AcDbCircle
 10
577.2291169999999
 20
-1888.799451999999
 30
0.0
 40
2.778125
100
AcDbArc
 50
233.9733749999999
 51
254.428622
  0
ARC
  5
604
330
5F4
100
AcDbEntity
  8
1
 62
     7
100
AcDbCircle
 10
577.2291169999999
 20
-1888.799451999999
 30
0.0
 40
2.778125
100
AcDbArc
 50
53.76970899999999
 51
80.49323299999997
  0
ARC
  5
605
330
5F4
100
AcDbEntity
  8
1
 62
     7
100
AcDbCircle
 10
573.0445399999998
 20
-1882.871257
 30
0.0
 40
2.778125
100
AcDbArc
 50
349.94155
 51
16.665074
  0
ARC
  5
606
330
5F4
100
AcDbEntity
  8
1
 62
     7
100
AcDbCircle
 10
577.2291169999999
 20
-1888.799451999999
 30
0.0
 40
2.778125
100
AcDbArc
 50
160.353986
 51
180.8092339999999
  0
ARC
  5
607
330
5F4
100
AcDbEntity
  8
1
 62
     7
100
AcDbCircle
 10
577.2291169999999
 20
-1888.799451999999
 30
0.0
 40
2.778125
100
AcDbArc
 50
233.9733749999999
 51
254.428622
  0
ARC
  5
608
330
5F4
100
AcDbEntity
  8
1
 62
     7
100
AcDbCircle
 10
579.659111
 20
-1895.6368
 30
0.0
 40
2.778125
100
AcDbArc
 50
218.3212009999999
 51
238.776448
  0
ARC
  5
609
330
5F4
100
AcDbEntity
  8
1
 62
     7
100
AcDbCircle
 10
579.659111
 20
-1895.6368
 30
0.0
 40
2.778125
100
AcDbArc
 50
38.117535
 51
64.841059
  0
ARC
  5
60A
330
5F4
100
AcDbEntity
  8
1
 62
     7
100
AcDbCircle
 10
577.2291169999999
 20
-1888.799451999999
 30
0.0
 40
2.778125
100
AcDbArc
 50
334.2893759999999
 51
1.012899999999999
  0
ARC
  5
60B
330
5F4
100
AcDbEntity
  8
1
 62
     7
100
AcDbCircle
 10
579.659111
 20
-1895.6368
 30
0.0
 40
2.778125
100
AcDbArc
 50
144.7018129999999
 51
165.15706
  0
ARC
  5
60C
330
5F4
100
AcDbEntity
  8
1
 62
     7
100
AcDbCircle
 10
579.659111
 20
-1895.6368
 30
0.0
 40
2.778125
100
AcDbArc
 50
218.3212009999999
 51
238.776448
  0
ARC
  5
60D
330
5F4
100
AcDbEntity
  8
1
 62
     7
100
AcDbCircle
 10
580.1543
 20
-1902.876204
 30
0.0
 40
2.778125
100
AcDbArc
 50
202.669027
 51
223.124274
  0
ARC
  5
60E
330
5F4
100
AcDbEntity
  8
1
 62
     7
100
AcDbCircle
 10
580.1543
 20
-1902.876204
 30
0.0
 40
2.778125
100
AcDbArc
 50
22.46536099999999
 51
49.188885
  0
ARC
  5
60F
330
5F4
100
AcDbEntity
  8
1
 62
     7
100
AcDbCircle
 10
579.659111
 20
-1895.6368
 30
0.0
 40
2.778125
100
AcDbArc
 50
318.637202
 51
345.360726
  0
ARC
  5
610
330
5F4
100
AcDbEntity
  8
1
 62
     7
100
AcDbCircle
 10
580.1543
 20
-1902.876204
 30
0.0
 40
2.778125
100
AcDbArc
 50
129.0496389999999
 51
149.5048859999999
  0
ARC
  5
611
330
5F4
100
AcDbEntity
  8
1
 62
     7
100
AcDbCircle
 10
580.1543
 20
-1902.876204
 30
0.0
 40
2.778125
100
AcDbArc
 50
202.669027
 51
223.124274
  0
ARC
  5
612
330
5F4
100
AcDbEntity
  8
1
 62
     7
100
AcDbCircle
 10
578.677958
 20
-1909.980752
 30
0.0
 40
2.778125
100
AcDbArc
 50
187.0168529999999
 51
207.4721
  0
ARC
  5
613
330
5F4
100
AcDbEntity
  8
1
 62
     7
100
AcDbCircle
 10
578.677958
 20
-1909.980752
 30
0.0
 40
2.778125
100
AcDbArc
 50
6.813186999999997
 51
33.53671099999999
  0
ARC
  5
614
330
5F4
100
AcDbEntity
  8
1
 62
     7
100
AcDbCircle
 10
580.1543
 20
-1902.876204
 30
0.0
 40
2.778125
100
AcDbArc
 50
302.985028
 51
329.7085519999999
  0
ARC
  5
615
330
5F4
100
AcDbEntity
  8
1
 62
     7
100
AcDbCircle
 10
578.677958
 20
-1909.980752
 30
0.0
 40
2.778125
100
AcDbArc
 50
113.397465
 51
133.852712
  0
ARC
  5
616
330
5F4
100
AcDbEntity
  8
1
 62
     7
100
AcDbCircle
 10
578.677958
 20
-1909.980752
 30
0.0
 40
2.778125
100
AcDbArc
 50
187.0168529999999
 51
207.4721
  0
ARC
  5
617
330
5F4
100
AcDbEntity
  8
1
 62
     7
100
AcDbCircle
 10
575.339578
 20
-1916.423531999999
 30
0.0
 40
2.778125
100
AcDbArc
 50
171.364679
 51
191.819927
  0
ARC
  5
618
330
5F4
100
AcDbEntity
  8
1
 62
     7
100
AcDbCircle
 10
575.339578
 20
-1916.423531999999
 30
0.0
 40
2.778125
100
AcDbArc
 50
351.161013
 51
17.88453699999999
  0
ARC
  5
619
330
5F4
100
AcDbEntity
  8
1
 62
     7
100
AcDbCircle
 10
578.677958
 20
-1909.980752
 30
0.0
 40
2.778125
100
AcDbArc
 50
287.332854
 51
314.0563779999999
  0
ARC
  5
61A
330
5F4
100
AcDbEntity
  8
1
 62
     7
100
AcDbCircle
 10
575.339578
 20
-1916.423531999999
 30
0.0
 40
2.778125
100
AcDbArc
 50
97.74529100000002
 51
118.200539
  0
ARC
  5
61B
330
5F4
100
AcDbEntity
  8
1
 62
     7
100
AcDbCircle
 10
575.339578
 20
-1916.423531999999
 30
0.0
 40
2.778125
100
AcDbArc
 50
171.364679
 51
191.819927
  0
ARC
  5
61C
330
5F4
100
AcDbEntity
  8
1
 62
     7
100
AcDbCircle
 10
570.386754
 20
-1921.726712
 30
0.0
 40
2.778125
100
AcDbArc
 50
155.7125049999999
 51
176.167753
  0
ARC
  5
61D
330
5F4
100
AcDbEntity
  8
1
 62
     7
100
AcDbCircle
 10
570.386754
 20
-1921.726712
 30
0.0
 40
2.778125
100
AcDbArc
 50
335.508839
 51
2.232363
  0
ARC
  5
61E
330
5F4
100
AcDbEntity
  8
1
 62
     7
100
AcDbCircle
 10
575.339578
 20
-1916.423531999999
 30
0.0
 40
2.778125
100
AcDbArc
 50
271.68068
 51
298.4042039999998
  0
ARC
  5
61F
330
5F4
100
AcDbEntity
  8
1
 62
     7
100
AcDbCircle
 10
570.386754
 20
-1921.726712
 30
0.0
 40
2.778125
100
AcDbArc
 50
82.093117
 51
102.5483649999999
  0
ARC
  5
620
330
5F4
100
AcDbEntity
  8
1
 62
     7
100
AcDbCircle
 10
570.386754
 20
-1921.726712
 30
0.0
 40
2.778125
100
AcDbArc
 50
155.7125049999999
 51
176.167753
  0
ARC
  5
621
330
5F4
100
AcDbEntity
  8
1
 62
     7
100
AcDbCircle
 10
564.186812
 20
-1925.49698
 30
0.0
 40
2.778125
100
AcDbArc
 50
140.060331
 51
160.5155789999999
  0
ARC
  5
622
330
5F4
100
AcDbEntity
  8
1
 62
     7
100
AcDbCircle
 10
564.186812
 20
-1925.49698
 30
0.0
 40
2.778125
100
AcDbArc
 50
319.8566649999999
 51
346.580189
  0
ARC
  5
623
330
5F4
100
AcDbEntity
  8
1
 62
     7
100
AcDbCircle
 10
570.386754
 20
-1921.726712
 30
0.0
 40
2.778125
100
AcDbArc
 50
256.028506
 51
282.7520299999998
  0
ARC
  5
624
330
5F4
100
AcDbEntity
  8
1
 62
     7
100
AcDbCircle
 10
564.186812
 20
-1925.49698
 30
0.0
 40
2.778125
100
AcDbArc
 50
66.440943
 51
86.89619099999999
  0
ARC
  5
625
330
5F4
100
AcDbEntity
  8
1
 62
     7
100
AcDbCircle
 10
564.186812
 20
-1925.49698
 30
0.0
 40
2.778125
100
AcDbArc
 50
140.060331
 51
160.5155789999999
  0
ARC
  5
626
330
5F4
100
AcDbEntity
  8
1
 62
     7
100
AcDbCircle
 10
557.199576
 20
-1927.454712
 30
0.0
 40
2.778125
100
AcDbArc
 50
124.408157
 51
144.863405
  0
ARC
  5
627
330
5F4
100
AcDbEntity
  8
1
 62
     7
100
AcDbCircle
 10
557.199576
 20
-1927.454712
 30
0.0
 40
2.778125
100
AcDbArc
 50
304.204492
 51
330.928016
  0
ARC
  5
628
330
5F4
100
AcDbEntity
  8
1
 62
     7
100
AcDbCircle
 10
564.186812
 20
-1925.49698
 30
0.0
 40
2.778125
100
AcDbArc
 50
240.376332
 51
267.099856
  0
ARC
  5
629
330
5F4
100
AcDbEntity
  8
1
 62
     7
100
AcDbCircle
 10
557.199576
 20
-1927.454712
 30
0.0
 40
2.778125
100
AcDbArc
 50
50.788769
 51
71.24401699999999
  0
ARC
  5
62A
330
5F4
100
AcDbEntity
  8
1
 62
     7
100
AcDbCircle
 10
557.199576
 20
-1927.454712
 30
0.0
 40
2.778125
100
AcDbArc
 50
124.408157
 51
144.863405
  0
ARC
  5
62B
330
5F4
100
AcDbEntity
  8
1
 62
     7
100
AcDbCircle
 10
549.943255
 20
-1927.454712
 30
0.0
 40
2.778125
100
AcDbArc
 50
108.755983
 51
129.211231
  0
ARC
  5
62C
330
5F4
100
AcDbEntity
  8
1
 62
     7
100
AcDbCircle
 10
549.943255
 20
-1927.454712
 30
0.0
 40
2.778125
100
AcDbArc
 50
288.552318
 51
315.275842
  0
ARC
  5
62D
330
5F4
100
AcDbEntity
  8
1
 62
     7
100
AcDbCircle
 10
557.199576
 20
-1927.454712
 30
0.0
 40
2.778125
100
AcDbArc
 50
224.724158
 51
251.447682
  0
ARC
  5
62E
330
5F4
100
AcDbEntity
  8
1
 62
     7
100
AcDbCircle
 10
549.943255
 20
-1927.454712
 30
0.0
 40
2.778125
100
AcDbArc
 50
35.136595
 51
55.591843
  0
ARC
  5
62F
330
5F4
100
AcDbEntity
  8
1
 62
     7
100
AcDbCircle
 10
549.943255
 20
-1927.454712
 30
0.0
 40
2.778125
100
AcDbArc
 50
108.755983
 51
129.211231
  0
ARC
  5
630
330
5F4
100
AcDbEntity
  8
1
 62
     7
100
AcDbCircle
 10
542.956018
 20
-1925.49698
 30
0.0
 40
2.778125
100
AcDbArc
 50
93.103809
 51
113.559057
  0
ARC
  5
631
330
5F4
100
AcDbEntity
  8
1
 62
     7
100
AcDbCircle
 10
542.956018
 20
-1925.49698
 30
0.0
 40
2.778125
100
AcDbArc
 50
272.900144
 51
299.623668
  0
ARC
  5
632
330
5F4
100
AcDbEntity
  8
1
 62
     7
100
AcDbCircle
 10
549.943255
 20
-1927.454712
 30
0.0
 40
2.778125
100
AcDbArc
 50
209.071984
 51
235.795508
  0
ARC
  5
633
330
5F4
100
AcDbEntity
  8
1
 62
     7
100
AcDbCircle
 10
542.956018
 20
-1925.49698
 30
0.0
 40
2.778125
100
AcDbArc
 50
19.48442099999998
 51
39.939669
  0
ARC
  5
634
330
5F4
100
AcDbEntity
  8
1
 62
     7
100
AcDbCircle
 10
542.956018
 20
-1925.49698
 30
0.0
 40
2.778125
100
AcDbArc
 50
93.103809
 51
113.559057
  0
ARC
  5
635
330
5F4
100
AcDbEntity
  8
1
 62
     7
100
AcDbCircle
 10
536.7560769999998
 20
-1921.726712
 30
0.0
 40
2.778125
100
AcDbArc
 50
77.451635
 51
97.90688299999999
  0
ARC
  5
636
330
5F4
100
AcDbEntity
  8
1
 62
     7
100
AcDbCircle
 10
536.7560769999998
 20
-1921.726712
 30
0.0
 40
2.778125
100
AcDbArc
 50
257.24797
 51
283.9714939999998
  0
ARC
  5
637
330
5F4
100
AcDbEntity
  8
1
 62
     7
100
AcDbCircle
 10
542.956018
 20
-1925.49698
 30
0.0
 40
2.778125
100
AcDbArc
 50
193.419811
 51
220.143335
  0
ARC
  5
638
330
5F4
100
AcDbEntity
  8
1
 62
     7
100
AcDbCircle
 10
536.7560769999998
 20
-1921.726712
 30
0.0
 40
2.778125
100
AcDbArc
 50
3.832247
 51
24.287495
  0
ARC
  5
639
330
5F4
100
AcDbEntity
  8
1
 62
     7
100
AcDbCircle
 10
536.7560769999998
 20
-1921.726712
 30
0.0
 40
2.778125
100
AcDbArc
 50
77.451635
 51
97.90688299999999
  0
ARC
  5
63A
330
5F4
100
AcDbEntity
  8
1
 62
     7
100
AcDbCircle
 10
531.803253
 20
-1916.423531999999
 30
0.0
 40
2.778125
100
AcDbArc
 50
61.799461
 51
82.25470899999997
  0
ARC
  5
63B
330
5F4
100
AcDbEntity
  8
1
 62
     7
100
AcDbCircle
 10
531.803253
 20
-1916.423531999999
 30
0.0
 40
2.778125
100
AcDbArc
 50
241.595796
 51
268.31932
  0
ARC
  5
63C
330
5F4
100
AcDbEntity
  8
1
 62
     7
100
AcDbCircle
 10
536.7560769999998
 20
-1921.726712
 30
0.0
 40
2.778125
100
AcDbArc
 50
177.767637
 51
204.491161
  0
ARC
  5
63D
330
5F4
100
AcDbEntity
  8
1
 62
     7
100
AcDbCircle
 10
531.803253
 20
-1916.423531999999
 30
0.0
 40
2.778125
100
AcDbArc
 50
348.1800729999998
 51
8.635321000000001
  0
ARC
  5
63E
330
5F4
100
AcDbEntity
  8
1
 62
     7
100
AcDbCircle
 10
531.803253
 20
-1916.423531999999
 30
0.0
 40
2.778125
100
AcDbArc
 50
61.799461
 51
82.25470899999997
  0
ARC
  5
63F
330
5F4
100
AcDbEntity
  8
1
 62
     7
100
AcDbCircle
 10
528.4648729999998
 20
-1909.980752
 30
0.0
 40
2.778125
100
AcDbArc
 50
46.147288
 51
66.602535
  0
ARC
  5
640
330
5F4
100
AcDbEntity
  8
1
 62
     7
100
AcDbCircle
 10
528.4648729999998
 20
-1909.980752
 30
0.0
 40
2.778125
100
AcDbArc
 50
225.943622
 51
252.667146
  0
ARC
  5
641
330
5F4
100
AcDbEntity
  8
1
 62
     7
100
AcDbCircle
 10
531.803253
 20
-1916.423531999999
 30
0.0
 40
2.778125
100
AcDbArc
 50
162.1154629999999
 51
188.838987
  0
ARC
  5
642
330
5F4
100
AcDbEntity
  8
1
 62
     7
100
AcDbCircle
 10
528.4648729999998
 20
-1909.980752
 30
0.0
 40
2.778125
100
AcDbArc
 50
332.5279
 51
352.983147
  0
ARC
  5
643
330
5F4
100
AcDbEntity
  8
1
 62
     7
100
AcDbCircle
 10
528.4648729999998
 20
-1909.980752
 30
0.0
 40
2.778125
100
AcDbArc
 50
46.147288
 51
66.602535
  0
ARC
  5
644
330
5F4
100
AcDbEntity
  8
1
 62
     7
100
AcDbCircle
 10
526.9885309999998
 20
-1902.876204
 30
0.0
 40
2.778125
100
AcDbArc
 50
30.495114
 51
50.950361
  0
ARC
  5
645
330
5F4
100
AcDbEntity
  8
1
 62
     7
100
AcDbCircle
 10
526.9885309999998
 20
-1902.876204
 30
0.0
 40
2.778125
100
AcDbArc
 50
210.2914479999999
 51
237.014972
  0
ARC
  5
646
330
5F4
100
AcDbEntity
  8
1
 62
     7
100
AcDbCircle
 10
528.4648729999998
 20
-1909.980752
 30
0.0
 40
2.778125
100
AcDbArc
 50
146.463289
 51
173.186813
  0
ARC
  5
647
330
5F4
100
AcDbEntity
  8
1
 62
     7
100
AcDbCircle
 10
526.9885309999998
 20
-1902.876204
 30
0.0
 40
2.778125
100
AcDbArc
 50
316.875726
 51
337.3309729999999
  0
ARC
  5
648
330
5F4
100
AcDbEntity
  8
1
 62
     7
100
AcDbCircle
 10
526.9885309999998
 20
-1902.876204
 30
0.0
 40
2.778125
100
AcDbArc
 50
30.495114
 51
50.950361
  0
ARC
  5
649
330
5F4
100
AcDbEntity
  8
1
 62
     7
100
AcDbCircle
 10
527.48372
 20
-1895.6368
 30
0.0
 40
2.778125
100
AcDbArc
 50
14.84294
 51
35.29818699999999
  0
ARC
  5
64A
330
5F4
100
AcDbEntity
  8
1
 62
     7
100
AcDbCircle
 10
527.48372
 20
-1895.6368
 30
0.0
 40
2.778125
100
AcDbArc
 50
194.639274
 51
221.362798
  0
ARC
  5
64B
330
5F4
100
AcDbEntity
  8
1
 62
     7
100
AcDbCircle
 10
526.9885309999998
 20
-1902.876204
 30
0.0
 40
2.778125
100
AcDbArc
 50
130.811115
 51
157.5346389999999
  0
ARC
  5
64C
330
5F4
100
AcDbEntity
  8
1
 62
     7
100
AcDbCircle
 10
527.48372
 20
-1895.6368
 30
0.0
 40
2.778125
100
AcDbArc
 50
301.2235519999998
 51
321.678799
  0
ARC
  5
64D
330
5F4
100
AcDbEntity
  8
1
 62
     7
100
AcDbCircle
 10
527.48372
 20
-1895.6368
 30
0.0
 40
2.778125
100
AcDbArc
 50
14.84294
 51
35.29818699999999
  0
ARC
  5
64E
330
5F4
100
AcDbEntity
  8
1
 62
     7
100
AcDbCircle
 10
529.9137139999998
 20
-1888.799451999999
 30
0.0
 40
2.778125
100
AcDbArc
 50
359.1907659999998
 51
19.646014
  0
ARC
  5
64F
330
5F4
100
AcDbEntity
  8
1
 62
     7
100
AcDbCircle
 10
529.9137139999998
 20
-1888.799451999999
 30
0.0
 40
2.778125
100
AcDbArc
 50
178.9870999999999
 51
205.7106239999999
  0
ARC
  5
650
330
5F4
100
AcDbEntity
  8
1
 62
     7
100
AcDbCircle
 10
527.48372
 20
-1895.6368
 30
0.0
 40
2.778125
100
AcDbArc
 50
115.1589409999999
 51
141.8824649999999
  0
ARC
  5
651
330
5F4
100
AcDbEntity
  8
1
 62
     7
100
AcDbCircle
 10
529.9137139999998
 20
-1888.799451999999
 30
0.0
 40
2.778125
100
AcDbArc
 50
285.5713779999998
 51
306.026625
  0
ARC
  5
652
330
5F4
100
AcDbEntity
  8
1
 62
     7
100
AcDbCircle
 10
529.9137139999998
 20
-1888.799451999999
 30
0.0
 40
2.778125
100
AcDbArc
 50
359.1907659999998
 51
19.646014
  0
ARC
  5
653
330
5F4
100
AcDbEntity
  8
1
 62
     7
100
AcDbCircle
 10
534.098291
 20
-1882.871257
 30
0.0
 40
2.778125
100
AcDbArc
 50
343.5385919999998
 51
3.99384
  0
ARC
  5
654
330
5F4
100
AcDbEntity
  8
1
 62
     7
100
AcDbCircle
 10
534.098291
 20
-1882.871257
 30
0.0
 40
2.778125
100
AcDbArc
 50
163.3349259999999
 51
190.0584499999999
  0
ARC
  5
655
330
5F4
100
AcDbEntity
  8
1
 62
     7
100
AcDbCircle
 10
529.9137139999998
 20
-1888.799451999999
 30
0.0
 40
2.778125
100
AcDbArc
 50
99.50676700000002
 51
126.230291
  0
ARC
  5
656
330
5F4
100
AcDbEntity
  8
1
 62
     7
100
AcDbCircle
 10
534.098291
 20
-1882.871257
 30
0.0
 40
2.778125
100
AcDbArc
 50
269.9192039999999
 51
290.374452
  0
ARC
  5
657
330
5F4
100
AcDbEntity
  8
1
 62
     7
100
AcDbCircle
 10
534.098291
 20
-1882.871257
 30
0.0
 40
2.778125
100
AcDbArc
 50
343.5385919999998
 51
3.99384
  0
ARC
  5
658
330
5F4
100
AcDbEntity
  8
1
 62
     7
100
AcDbCircle
 10
539.7271009999998
 20
-1878.29188
 30
0.0
 40
2.778125
100
AcDbArc
 50
327.8864179999998
 51
348.341666
  0
ARC
  5
659
330
5F4
100
AcDbEntity
  8
1
 62
     7
100
AcDbCircle
 10
539.7271009999998
 20
-1878.29188
 30
0.0
 40
2.778125
100
AcDbArc
 50
147.682752
 51
174.406276
  0
ARC
  5
65A
330
5F4
100
AcDbEntity
  8
1
 62
     7
100
AcDbCircle
 10
534.098291
 20
-1882.871257
 30
0.0
 40
2.778125
100
AcDbArc
 50
83.854593
 51
110.5781169999999
  0
ARC
  5
65B
330
5F4
100
AcDbEntity
  8
1
 62
     7
100
AcDbCircle
 10
539.7271009999998
 20
-1878.29188
 30
0.0
 40
2.778125
100
AcDbArc
 50
254.2670299999999
 51
274.7222779999999
  0
ARC
  5
65C
330
5F4
100
AcDbEntity
  8
1
 62
     7
100
AcDbCircle
 10
539.7271009999998
 20
-1878.29188
 30
0.0
 40
2.778125
100
AcDbArc
 50
327.8864179999998
 51
348.341666
  0
ARC
  5
65D
330
5F4
100
AcDbEntity
  8
1
 62
     7
100
AcDbCircle
 10
546.3826799999998
 20
-1875.400953999999
 30
0.0
 40
2.778125
100
AcDbArc
 50
312.234244
 51
332.6894919999998
  0
ARC
  5
65E
330
5F4
100
AcDbEntity
  8
1
 62
     7
100
AcDbCircle
 10
546.3826799999998
 20
-1875.400953999999
 30
0.0
 40
2.778125
100
AcDbArc
 50
132.030579
 51
158.7541019999999
  0
ARC
  5
65F
330
5F4
100
AcDbEntity
  8
1
 62
     7
100
AcDbCircle
 10
539.7271009999998
 20
-1878.29188
 30
0.0
 40
2.778125
100
AcDbArc
 50
68.20241899999999
 51
94.925943
  0
ARC
  5
660
330
5F4
100
AcDbEntity
  8
1
 62
     7
100
AcDbCircle
 10
546.3826799999998
 20
-1875.400953999999
 30
0.0
 40
2.778125
100
AcDbArc
 50
238.6148559999999
 51
259.070104
  0
ARC
  5
661
330
5F4
100
AcDbEntity
  8
1
 62
     7
100
AcDbCircle
 10
546.3826799999998
 20
-1875.400953999999
 30
0.0
 40
2.778125
100
AcDbArc
 50
312.234244
 51
332.6894919999998
  0
ARC
  5
662
330
5F4
100
AcDbEntity
  8
1
 62
     7
100
AcDbCircle
 10
553.571415
 20
-1874.412885
 30
0.0
 40
2.778125
100
AcDbArc
 50
296.58207
 51
317.037318
  0
ARC
  5
663
330
5F4
100
AcDbEntity
  8
1
 62
     7
100
AcDbCircle
 10
553.571415
 20
-1874.412885
 30
0.0
 40
2.778125
100
AcDbArc
 50
116.3784049999999
 51
143.101929
  0
ARC
  5
664
330
5F4
100
AcDbEntity
  8
1
 62
     7
100
AcDbCircle
 10
546.3826799999998
 20
-1875.400953999999
 30
0.0
 40
2.778125
100
AcDbArc
 50
52.550245
 51
79.273769
  0
ARC
  5
665
330
5F4
100
AcDbEntity
  8
1
 62
     7
100
AcDbCircle
 10
553.571415
 20
-1874.412885
 30
0.0
 40
2.778125
100
AcDbArc
 50
222.9626819999999
 51
243.4179299999999
  0
ARC
  5
666
330
5F4
100
AcDbEntity
  8
1
 62
     7
100
AcDbCircle
 10
553.571415
 20
-1874.412885
 30
0.0
 40
2.778125
100
AcDbArc
 50
39.17721199999999
 51
63.621595
  0
CIRCLE
  5
667
330
5F4
100
AcDbEntity
  8
1
 62
     7
100
AcDbCircle
 10
553.571415
 20
-1901.057885
 30
0.0
 40
30.6705
  0
CIRCLE
  5
668
330
5F4
100
AcDbEntity
  8
1
 62
     7
100
AcDbCircle
 10
553.571415
 20
-1901.057885
 30
0.0
 40
29.16
  0
CIRCLE
  5
669
330
5F4
100
AcDbEntity
  8
1
 62
     7
100
AcDbCircle
 10
553.571415
 20
-1901.057885
 30
0.0
 40
24.19249999999999
  0
CIRCLE
  5
66A
330
5F4
100
AcDbEntity
  8
1
 62
     7
100
AcDbCircle
 10
553.571415
 20
-1901.057885
 30
0.0
 40
22.60599999999999
  0
ENDBLK
  5
66B
330
5F4
100
AcDbEntity
  8
0
100
AcDbBlockEnd
  0
BLOCK
  5
66D
330
66C
100
AcDbEntity
  8
0
100
AcDbBlockBegin
  2
SHF-25
 70
     0
 10
478.269388
 20
-1792.983082
 30
0.0
  3
SHF-25
  1

  0
INSERT
  5
66E
330
66C
100
AcDbEntity
  8
0
100
AcDbBlockReference
  2
WB_025_R
 10
892.2095329999999
 20
-1566.483086
 30
0.0
  0
ENDBLK
  5
66F
330
66C
100
AcDbEntity
  8
0
100
AcDbBlockEnd
  0
BLOCK
  5
671
330
670
100
AcDbEntity
  8
1
100
AcDbBlockBegin
  2
*X4
 70
     1
 10
0.0
 20
0.0
 30
0.0
  3
*X4
  1

  0
LINE
  5
672
330
670
100
AcDbEntity
  8
1
 62
     5
100
AcDbLine
 10
445.4074259999998
 20
-1926.228718
 30
0.0
 11
445.7432589999998
 21
-1925.892885
 31
0.0
  0
LINE
  5
673
330
670
100
AcDbEntity
  8
1
 62
     5
100
AcDbLine
 10
445.4074259999998
 20
-1928.350037999999
 30
0.0
 11
446.907426
 21
-1926.850037999999
 31
0.0
  0
LINE
  5
674
330
670
100
AcDbEntity
  8
1
 62
     5
100
AcDbLine
 10
446.4209
 20
-1929.457885
 30
0.0
 11
446.7239679999998
 21
-1929.154816
 31
0.0
  0
ENDBLK
  5
675
330
670
100
AcDbEntity
  8
0
100
AcDbBlockEnd
  0
BLOCK
  5
677
330
676
100
AcDbEntity
  8
1
100
AcDbBlockBegin
  2
*X5
 70
     1
 10
0.0
 20
0.0
 30
0.0
  3
*X5
  1

  0
LINE
  5
678
330
676
100
AcDbEntity
  8
1
 62
     5
100
AcDbLine
 10
437.827426
 20
-1927.444756999999
 30
0.0
 11
439.379298
 21
-1925.892885
 31
0.0
  0
LINE
  5
679
330
676
100
AcDbEntity
  8
1
 62
     5
100
AcDbLine
 10
437.935618
 20
-1929.457885
 30
0.0
 11
439.5274259999998
 21
-1927.866077
 31
0.0
  0
ENDBLK
  5
67A
330
676
100
AcDbEntity
  8
0
100
AcDbBlockEnd
  0
BLOCK
  5
67C
330
67B
100
AcDbEntity
  8
1
100
AcDbBlockBegin
  2
*X6
 70
     1
 10
0.0
 20
0.0
 30
0.0
  3
*X6
  1

  0
LINE
  5
67D
330
67B
100
AcDbEntity
  8
1
 62
     5
100
AcDbLine
 10
445.4074259999998
 20
-1873.195709
 30
0.0
 11
445.94525
 21
-1872.657885
 31
0.0
  0
LINE
  5
67E
330
67B
100
AcDbEntity
  8
1
 62
     5
100
AcDbLine
 10
445.4074259999998
 20
-1875.31703
 30
0.0
 11
446.807599
 21
-1873.916857
 31
0.0
  0
LINE
  5
67F
330
67B
100
AcDbEntity
  8
1
 62
     5
100
AcDbLine
 10
446.622891
 20
-1876.222885
 30
0.0
 11
446.907426
 21
-1875.93835
 31
0.0
  0
ENDBLK
  5
680
330
67B
100
AcDbEntity
  8
0
100
AcDbBlockEnd
  0
BLOCK
  5
682
330
681
100
AcDbEntity
  8
1
100
AcDbBlockBegin
  2
*X7
 70
     1
 10
0.0
 20
0.0
 30
0.0
  3
*X7
  1

  0
LINE
  5
683
330
681
100
AcDbEntity
  8
1
 62
     5
100
AcDbLine
 10
437.827426
 20
-1874.411747999999
 30
0.0
 11
439.5274259999998
 21
-1872.711748
 31
0.0
  0
LINE
  5
684
330
681
100
AcDbEntity
  8
1
 62
     5
100
AcDbLine
 10
438.1376099999997
 20
-1876.222885
 30
0.0
 11
439.5274259999998
 21
-1874.833069
 31
0.0
  0
ENDBLK
  5
685
330
681
100
AcDbEntity
  8
0
100
AcDbBlockEnd
  0
BLOCK
  5
687
330
686
100
AcDbEntity
  8
0
100
AcDbBlockBegin
  2
WBG_025_F
 70
     0
 10
442.3054480000001
 20
-1901.061385
 30
0.0
  3
WBG_025_F
  1

  0
INSERT
  5
688
330
686
100
AcDbEntity
  8
1
100
AcDbBlockReference
  2
*X4
 10
0.0
 20
0.0
 30
0.0
  0
INSERT
  5
689
330
686
100
AcDbEntity
  8
1
100
AcDbBlockReference
  2
*X5
 10
0.0
 20
0.0
 30
0.0
  0
INSERT
  5
68A
330
686
100
AcDbEntity
  8
1
100
AcDbBlockReference
  2
*X6
 10
0.0
 20
0.0
 30
0.0
  0
INSERT
  5
68B
330
686
100
AcDbEntity
  8
1
100
AcDbBlockReference
  2
*X7
 10
0.0
 20
0.0
 30
0.0
  0
LINE
  5
68C
330
686
100
AcDbEntity
  8
1
 62
     7
100
AcDbLine
 10
437.827426
 20
-1929.457885
 30
0.0
 11
437.827426
 21
-1925.892885
 31
0.0
  0
LINE
  5
68D
330
686
100
AcDbEntity
  8
1
 62
     7
100
AcDbLine
 10
439.5274259999998
 20
-1925.892885
 30
0.0
 11
437.827426
 21
-1925.892885
 31
0.0
  0
LINE
  5
68E
330
686
100
AcDbEntity
  8
1
 62
     7
100
AcDbLine
 10
439.5274259999998
 20
-1925.892885
 30
0.0
 11
439.5274259999998
 21
-1929.457885
 31
0.0
  0
LINE
  5
68F
330
686
100
AcDbEntity
  8
1
 62
     7
100
AcDbLine
 10
439.5274259999998
 20
-1929.457885
 30
0.0
 11
437.827426
 21
-1929.457885
 31
0.0
  0
LINE
  5
690
330
686
100
AcDbEntity
  8
1
 62
     7
100
AcDbLine
 10
445.4074259999998
 20
-1925.892885
 30
0.0
 11
444.416025
 21
-1925.892885
 31
0.0
  0
LINE
  5
691
330
686
100
AcDbEntity
  8
1
 62
     7
100
AcDbLine
 10
445.4074259999998
 20
-1929.457885
 30
0.0
 11
444.4561809999998
 21
-1929.457885
 31
0.0
  0
LINE
  5
692
330
686
100
AcDbEntity
  8
1
 62
     7
100
AcDbLine
 10
440.1547139999998
 20
-1929.457885
 30
0.0
 11
439.5274259999998
 21
-1929.457885
 31
0.0
  0
LINE
  5
693
330
686
100
AcDbEntity
  8
1
 62
     7
100
AcDbLine
 10
440.19487
 20
-1925.892885
 30
0.0
 11
439.5274259999998
 21
-1925.892885
 31
0.0
  0
LINE
  5
694
330
686
100
AcDbEntity
  8
1
 62
     7
100
AcDbLine
 10
446.907426
 20
-1925.892885
 30
0.0
 11
445.4074259999998
 21
-1925.892885
 31
0.0
  0
LINE
  5
695
330
686
100
AcDbEntity
  8
1
 62
     7
100
AcDbLine
 10
446.907426
 20
-1927.057885
 30
0.0
 11
446.907426
 21
-1925.892885
 31
0.0
  0
LINE
  5
696
330
686
100
AcDbEntity
  8
1
 62
     7
100
AcDbLine
 10
446.697453
 20
-1929.457885
 30
0.0
 11
446.907426
 21
-1927.057885
 31
0.0
  0
LINE
  5
697
330
686
100
AcDbEntity
  8
1
 62
     7
100
AcDbLine
 10
445.4074259999998
 20
-1929.457885
 30
0.0
 11
446.697453
 21
-1929.457885
 31
0.0
  0
LINE
  5
698
330
686
100
AcDbEntity
  8
1
 62
     7
100
AcDbLine
 10
445.4074259999998
 20
-1925.892885
 30
0.0
 11
445.4074259999998
 21
-1929.457885
 31
0.0
  0
LINE
  5
699
330
686
100
AcDbEntity
  8
1
 62
     7
100
AcDbLine
 10
437.827426
 20
-1876.222885
 30
0.0
 11
437.827426
 21
-1872.657885
 31
0.0
  0
LINE
  5
69A
330
686
100
AcDbEntity
  8
1
 62
     7
100
AcDbLine
 10
437.827426
 20
-1876.222885
 30
0.0
 11
439.5274259999998
 21
-1876.222885
 31
0.0
  0
LINE
  5
69B
330
686
100
AcDbEntity
  8
1
 62
     7
100
AcDbLine
 10
439.5274259999998
 20
-1872.657885
 30
0.0
 11
439.5274259999998
 21
-1876.222885
 31
0.0
  0
LINE
  5
69C
330
686
100
AcDbEntity
  8
1
 62
     7
100
AcDbLine
 10
437.827426
 20
-1872.657885
 30
0.0
 11
439.5274259999998
 21
-1872.657885
 31
0.0
  0
LINE
  5
69D
330
686
100
AcDbEntity
  8
1
 62
     7
100
AcDbLine
 10
444.416025
 20
-1876.222885
 30
0.0
 11
445.4074259999998
 21
-1876.222885
 31
0.0
  0
LINE
  5
69E
330
686
100
AcDbEntity
  8
1
 62
     7
100
AcDbLine
 10
444.4561809999998
 20
-1872.657885
 30
0.0
 11
445.4074259999998
 21
-1872.657885
 31
0.0
  0
LINE
  5
69F
330
686
100
AcDbEntity
  8
1
 62
     7
100
AcDbLine
 10
439.5274259999998
 20
-1872.657885
 30
0.0
 11
440.1547139999998
 21
-1872.657885
 31
0.0
  0
LINE
  5
6A0
330
686
100
AcDbEntity
  8
1
 62
     7
100
AcDbLine
 10
439.5274259999998
 20
-1876.222885
 30
0.0
 11
440.19487
 21
-1876.222885
 31
0.0
  0
LINE
  5
6A1
330
686
100
AcDbEntity
  8
1
 62
     7
100
AcDbLine
 10
445.4074259999998
 20
-1876.222885
 30
0.0
 11
446.907426
 21
-1876.222885
 31
0.0
  0
LINE
  5
6A2
330
686
100
AcDbEntity
  8
1
 62
     7
100
AcDbLine
 10
446.907426
 20
-1876.222885
 30
0.0
 11
446.907426
 21
-1875.057885
 31
0.0
  0
LINE
  5
6A3
330
686
100
AcDbEntity
  8
1
 62
     7
100
AcDbLine
 10
446.907426
 20
-1875.057885
 30
0.0
 11
446.697453
 21
-1872.657885
 31
0.0
  0
LINE
  5
6A4
330
686
100
AcDbEntity
  8
1
 62
     7
100
AcDbLine
 10
446.697453
 20
-1872.657885
 30
0.0
 11
445.4074259999998
 21
-1872.657885
 31
0.0
  0
LINE
  5
6A5
330
686
100
AcDbEntity
  8
1
 62
     7
100
AcDbLine
 10
445.4074259999998
 20
-1872.657885
 30
0.0
 11
445.4074259999998
 21
-1876.222885
 31
0.0
  0
LINE
  5
6A6
330
686
100
AcDbEntity
  8
1
 62
     7
100
AcDbLine
 10
442.3054480000001
 20
-1931.731885
 30
0.0
 11
439.630448
 21
-1931.731885
 31
0.0
  0
LINE
  5
6A7
330
686
100
AcDbEntity
  8
1
 62
     7
100
AcDbLine
 10
439.130448
 20
-1930.421385
 30
0.0
 11
439.130448
 21
-1931.44321
 31
0.0
  0
LINE
  5
6A8
330
686
100
AcDbEntity
  8
1
 62
     7
100
AcDbLine
 10
441.125298
 20
-1930.221385
 30
0.0
 11
439.330448
 21
-1930.221385
 31
0.0
  0
LINE
  5
6A9
330
686
100
AcDbEntity
  8
1
 62
     7
100
AcDbLine
 10
439.330448
 20
-1930.221385
 30
0.0
 11
439.130448
 21
-1930.421385
 31
0.0
  0
LINE
  5
6AA
330
686
100
AcDbEntity
  8
1
 62
     7
100
AcDbLine
 10
439.630448
 20
-1931.731885
 30
0.0
 11
439.130448
 21
-1931.44321
 31
0.0
  0
LINE
  5
6AB
330
686
100
AcDbEntity
  8
1
 62
     7
100
AcDbLine
 10
445.4804479999999
 20
-1931.44321
 30
0.0
 11
444.980448
 21
-1931.731885
 31
0.0
  0
LINE
  5
6AC
330
686
100
AcDbEntity
  8
1
 62
     7
100
AcDbLine
 10
445.4804479999999
 20
-1930.421385
 30
0.0
 11
445.280448
 21
-1930.221385
 31
0.0
  0
LINE
  5
6AD
330
686
100
AcDbEntity
  8
1
 62
     7
100
AcDbLine
 10
445.180448
 20
-1925.253885
 30
0.0
 11
443.610523
 21
-1925.253885
 31
0.0
  0
LINE
  5
6AE
330
686
100
AcDbEntity
  8
1
 62
     7
100
AcDbLine
 10
445.180448
 20
-1923.667385
 30
0.0
 11
442.3054480000001
 21
-1923.667385
 31
0.0
  0
LINE
  5
6AF
330
686
100
AcDbEntity
  8
1
 62
     7
100
AcDbLine
 10
445.280448
 20
-1930.221385
 30
0.0
 11
443.485597
 21
-1930.221385
 31
0.0
  0
LINE
  5
6B0
330
686
100
AcDbEntity
  8
1
 62
     7
100
AcDbLine
 10
445.4804479999999
 20
-1931.44321
 30
0.0
 11
445.4804479999999
 21
-1930.421385
 31
0.0
  0
LINE
  5
6B1
330
686
100
AcDbEntity
  8
1
 62
     7
100
AcDbLine
 10
444.980448
 20
-1931.731885
 30
0.0
 11
442.3054480000001
 21
-1931.731885
 31
0.0
  0
LINE
  5
6B2
330
686
100
AcDbEntity
  8
1
 62
     7
100
AcDbLine
 10
445.4804479999999
 20
-1923.967385
 30
0.0
 11
445.4804479999999
 21
-1924.953885
 31
0.0
  0
LINE
  5
6B3
330
686
100
AcDbEntity
  8
1
 62
     7
100
AcDbLine
 10
445.180448
 20
-1925.253885
 30
0.0
 11
445.4804479999999
 21
-1924.953885
 31
0.0
  0
LINE
  5
6B4
330
686
100
AcDbEntity
  8
1
 62
     7
100
AcDbLine
 10
445.180448
 20
-1923.667385
 30
0.0
 11
445.4804479999999
 21
-1923.967385
 31
0.0
  0
LINE
  5
6B5
330
686
100
AcDbEntity
  8
1
 62
     7
100
AcDbLine
 10
442.3054480000001
 20
-1923.667385
 30
0.0
 11
439.430448
 21
-1923.667385
 31
0.0
  0
LINE
  5
6B6
330
686
100
AcDbEntity
  8
1
 62
     7
100
AcDbLine
 10
439.130448
 20
-1923.967385
 30
0.0
 11
439.430448
 21
-1923.667385
 31
0.0
  0
LINE
  5
6B7
330
686
100
AcDbEntity
  8
1
 62
     7
100
AcDbLine
 10
439.130448
 20
-1924.953885
 30
0.0
 11
439.130448
 21
-1923.967385
 31
0.0
  0
LINE
  5
6B8
330
686
100
AcDbEntity
  8
1
 62
     7
100
AcDbLine
 10
439.130448
 20
-1924.953885
 30
0.0
 11
439.430448
 21
-1925.253885
 31
0.0
  0
LINE
  5
6B9
330
686
100
AcDbEntity
  8
1
 62
     7
100
AcDbLine
 10
441.0003719999998
 20
-1925.253885
 30
0.0
 11
439.430448
 21
-1925.253885
 31
0.0
  0
LINE
  5
6BA
330
686
100
AcDbEntity
  8
1
 62
     7
100
AcDbLine
 10
439.430448
 20
-1876.868885
 30
0.0
 11
441.0003719999998
 21
-1876.868885
 31
0.0
  0
LINE
  5
6BB
330
686
100
AcDbEntity
  8
1
 62
     7
100
AcDbLine
 10
439.430448
 20
-1876.868885
 30
0.0
 11
439.130448
 21
-1877.168885
 31
0.0
  0
LINE
  5
6BC
330
686
100
AcDbEntity
  8
1
 62
     7
100
AcDbLine
 10
439.130448
 20
-1878.155385
 30
0.0
 11
439.130448
 21
-1877.168885
 31
0.0
  0
LINE
  5
6BD
330
686
100
AcDbEntity
  8
1
 62
     7
100
AcDbLine
 10
439.430448
 20
-1878.455385
 30
0.0
 11
439.130448
 21
-1878.155385
 31
0.0
  0
LINE
  5
6BE
330
686
100
AcDbEntity
  8
1
 62
     7
100
AcDbLine
 10
439.430448
 20
-1878.455385
 30
0.0
 11
442.3054480000001
 21
-1878.455385
 31
0.0
  0
LINE
  5
6BF
330
686
100
AcDbEntity
  8
1
 62
     7
100
AcDbLine
 10
445.4804479999999
 20
-1878.155385
 30
0.0
 11
445.180448
 21
-1878.455385
 31
0.0
  0
LINE
  5
6C0
330
686
100
AcDbEntity
  8
1
 62
     7
100
AcDbLine
 10
445.4804479999999
 20
-1877.168885
 30
0.0
 11
445.180448
 21
-1876.868885
 31
0.0
  0
LINE
  5
6C1
330
686
100
AcDbEntity
  8
1
 62
     7
100
AcDbLine
 10
445.4804479999999
 20
-1877.168885
 30
0.0
 11
445.4804479999999
 21
-1878.155385
 31
0.0
  0
LINE
  5
6C2
330
686
100
AcDbEntity
  8
1
 62
     7
100
AcDbLine
 10
442.3054480000001
 20
-1870.390885
 30
0.0
 11
444.980448
 21
-1870.390885
 31
0.0
  0
LINE
  5
6C3
330
686
100
AcDbEntity
  8
1
 62
     7
100
AcDbLine
 10
445.4804479999999
 20
-1871.701385
 30
0.0
 11
445.4804479999999
 21
-1870.67956
 31
0.0
  0
LINE
  5
6C4
330
686
100
AcDbEntity
  8
1
 62
     7
100
AcDbLine
 10
443.485597
 20
-1871.901385
 30
0.0
 11
445.280448
 21
-1871.901385
 31
0.0
  0
LINE
  5
6C5
330
686
100
AcDbEntity
  8
1
 62
     7
100
AcDbLine
 10
442.3054480000001
 20
-1878.455385
 30
0.0
 11
445.180448
 21
-1878.455385
 31
0.0
  0
LINE
  5
6C6
330
686
100
AcDbEntity
  8
1
 62
     7
100
AcDbLine
 10
443.610523
 20
-1876.868885
 30
0.0
 11
445.180448
 21
-1876.868885
 31
0.0
  0
LINE
  5
6C7
330
686
100
AcDbEntity
  8
1
 62
     7
100
AcDbLine
 10
445.280448
 20
-1871.901385
 30
0.0
 11
445.4804479999999
 21
-1871.701385
 31
0.0
  0
LINE
  5
6C8
330
686
100
AcDbEntity
  8
1
 62
     7
100
AcDbLine
 10
444.980448
 20
-1870.390885
 30
0.0
 11
445.4804479999999
 21
-1870.67956
 31
0.0
  0
LINE
  5
6C9
330
686
100
AcDbEntity
  8
1
 62
     7
100
AcDbLine
 10
439.130448
 20
-1870.67956
 30
0.0
 11
439.630448
 21
-1870.390885
 31
0.0
  0
LINE
  5
6CA
330
686
100
AcDbEntity
  8
1
 62
     7
100
AcDbLine
 10
439.130448
 20
-1871.701385
 30
0.0
 11
439.330448
 21
-1871.901385
 31
0.0
  0
LINE
  5
6CB
330
686
100
AcDbEntity
  8
1
 62
     7
100
AcDbLine
 10
439.330448
 20
-1871.901385
 30
0.0
 11
441.125298
 21
-1871.901385
 31
0.0
  0
LINE
  5
6CC
330
686
100
AcDbEntity
  8
1
 62
     7
100
AcDbLine
 10
439.130448
 20
-1870.67956
 30
0.0
 11
439.130448
 21
-1871.701385
 31
0.0
  0
LINE
  5
6CD
330
686
100
AcDbEntity
  8
1
 62
     7
100
AcDbLine
 10
439.630448
 20
-1870.390885
 30
0.0
 11
442.3054480000001
 21
-1870.390885
 31
0.0
  0
ARC
  5
6CE
330
686
100
AcDbEntity
  8
1
 62
     7
100
AcDbCircle
 10
442.3054480000001
 20
-1927.706385
 30
0.0
 40
2.778125
100
AcDbArc
 50
244.8619429999999
 51
270.0
  0
ARC
  5
6CF
330
686
100
AcDbEntity
  8
1
 62
     7
100
AcDbCircle
 10
442.3054480000001
 20
-1927.706385
 30
0.0
 40
2.778125
100
AcDbArc
 50
90.0
 51
244.8619429999999
  0
ARC
  5
6D0
330
686
100
AcDbEntity
  8
1
 62
     7
100
AcDbCircle
 10
442.3054480000001
 20
-1927.706385
 30
0.0
 40
2.778125
100
AcDbArc
 50
61.98073
 51
90.0
  0
ARC
  5
6D1
330
686
100
AcDbEntity
  8
1
 62
     7
100
AcDbCircle
 10
442.3054480000001
 20
-1927.706385
 30
0.0
 40
2.778125
100
AcDbArc
 50
295.1380569999999
 51
61.98073
  0
ARC
  5
6D2
330
686
100
AcDbEntity
  8
1
 62
     7
100
AcDbCircle
 10
442.3054480000001
 20
-1927.706385
 30
0.0
 40
2.778125
100
AcDbArc
 50
270.0
 51
295.1380569999999
  0
ARC
  5
6D3
330
686
100
AcDbEntity
  8
1
 62
     7
100
AcDbCircle
 10
442.3054480000001
 20
-1874.416385
 30
0.0
 40
2.778125
100
AcDbArc
 50
64.86194300000001
 51
90.0
  0
ARC
  5
6D4
330
686
100
AcDbEntity
  8
1
 62
     7
100
AcDbCircle
 10
442.3054480000001
 20
-1874.416385
 30
0.0
 40
2.778125
100
AcDbArc
 50
298.0192699999999
 51
64.86194300000001
  0
ARC
  5
6D5
330
686
100
AcDbEntity
  8
1
 62
     7
100
AcDbCircle
 10
442.3054480000001
 20
-1874.416385
 30
0.0
 40
2.778125
100
AcDbArc
 50
270.0
 51
298.0192699999999
  0
ARC
  5
6D6
330
686
100
AcDbEntity
  8
1
 62
     7
100
AcDbCircle
 10
442.3054480000001
 20
-1874.416385
 30
0.0
 40
2.778125
100
AcDbArc
 50
115.138057
 51
270.0
  0
ARC
  5
6D7
330
686
100
AcDbEntity
  8
1
 62
     7
100
AcDbCircle
 10
442.3054480000001
 20
-1874.416385
 30
0.0
 40
2.778125
100
AcDbArc
 50
90.0
 51
115.138057
  0
ENDBLK
  5
6D8
330
686
100
AcDbEntity
  8
0
100
AcDbBlockEnd
  0
BLOCK
  5
6DA
330
6D9
100
AcDbEntity
  8
1
100
AcDbBlockBegin
  2
*D9
 70
     1
 10
0.0
 20
0.0
 30
0.0
  3
*D9
  1

  0
LINE
  5
6DB
330
6D9
100
AcDbEntity
  8
1
 62
     2
100
AcDbLine
 10
447.380448
 20
-1963.557884
 30
0.0
 11
474.088911
 21
-1963.557884
 31
0.0
  0
LINE
  5
6DC
330
6D9
100
AcDbEntity
  8
1
 62
     2
100
AcDbLine
 10
445.880448
 20
-1963.557884
 30
0.0
 11
447.380448
 21
-1963.557884
 31
0.0
  0
LINE
  5
6DD
330
6D9
100
AcDbEntity
  8
1
 62
     2
100
AcDbLine
 10
437.880448
 20
-1963.557884
 30
0.0
 11
445.880448
 21
-1963.557884
 31
0.0
  0
LINE
  5
6DE
330
6D9
100
AcDbEntity
  8
1
 62
     2
100
AcDbLine
 10
447.380448
 20
-1935.057885
 30
0.0
 11
447.380448
 21
-1964.557884
 31
0.0
  0
LINE
  5
6DF
330
6D9
100
AcDbEntity
  8
1
 62
     2
100
AcDbLine
 10
445.880448
 20
-1944.157884
 30
0.0
 11
445.880448
 21
-1964.557884
 31
0.0
  0
SOLID
  5
6E0
330
6D9
100
AcDbEntity
  8
1
 62
     2
100
AcDbTrace
 10
445.880448
 20
-1963.557884
 30
0.0
 11
441.880448
 21
-1964.077883999999
 31
0.0
 12
441.880448
 22
-1963.037884
 32
0.0
 13
441.880448
 23
-1963.037884
 33
0.0
  0
SOLID
  5
6E1
330
6D9
100
AcDbEntity
  8
1
 62
     2
100
AcDbTrace
 10
447.380448
 20
-1963.557884
 30
0.0
 11
451.3804480000001
 21
-1963.037884
 31
0.0
 12
451.3804480000001
 22
-1964.077883999999
 32
0.0
 13
451.3804480000001
 23
-1964.077883999999
 33
0.0
  0
TEXT
  5
6E2
330
6D9
100
AcDbEntity
  8
1
 62
     2
100
AcDbText
 10
467.888911
 20
-1962.457883999999
 30
0.0
 40
4.0
  1
1.5
 41
0.9
100
AcDbText
  0
TEXT
  5
6E3
330
6D9
100
AcDbEntity
  8
1
 62
     2
100
AcDbText
 10
451.188911
 20
-1962.457883999999
 30
0.0
 40
4.0
  1
M.H.C.
 41
0.9
100
AcDbText
  0
ENDBLK
  5
6E4
330
6D9
100
AcDbEntity
  8
0
100
AcDbBlockEnd
  0
BLOCK
  5
6E6
330
6E5
100
AcDbEntity
  8
1
100
AcDbBlockBegin
  2
*D10
 70
     1
 10
0.0
 20
0.0
 30
0.0
  3
*D10
  1

  0
LINE
  5
6E7
330
6E5
100
AcDbEntity
  8
1
 62
     2
100
AcDbLine
 10
428.880448
 20
-1968.557884
 30
0.0
 11
403.1121999999998
 21
-1968.557884
 31
0.0
  0
LINE
  5
6E8
330
6E5
100
AcDbEntity
  8
1
 62
     2
100
AcDbLine
 10
428.880448
 20
-1968.557884
 30
0.0
 11
438.8804480000001
 21
-1968.557884
 31
0.0
  0
LINE
  5
6E9
330
6E5
100
AcDbEntity
  8
1
 62
     2
100
AcDbLine
 10
446.8804480000001
 20
-1968.557884
 30
0.0
 11
438.8804480000001
 21
-1968.557884
 31
0.0
  0
LINE
  5
6EA
330
6E5
100
AcDbEntity
  8
1
 62
     2
100
AcDbLine
 10
438.8804480000001
 20
-1941.807885
 30
0.0
 11
438.8804480000001
 21
-1969.557884
 31
0.0
  0
LINE
  5
6EB
330
6E5
100
AcDbEntity
  8
1
 62
     2
100
AcDbLine
 10
428.880448
 20
-1935.057885
 30
0.0
 11
428.880448
 21
-1969.557884
 31
0.0
  0
SOLID
  5
6EC
330
6E5
100
AcDbEntity
  8
1
 62
     2
100
AcDbTrace
 10
428.880448
 20
-1968.557884
 30
0.0
 11
424.880448
 21
-1969.077884
 31
0.0
 12
424.880448
 22
-1968.037884
 32
0.0
 13
424.880448
 23
-1968.037884
 33
0.0
  0
SOLID
  5
6ED
330
6E5
100
AcDbEntity
  8
1
 62
     2
100
AcDbTrace
 10
438.8804480000001
 20
-1968.557884
 30
0.0
 11
442.8804480000001
 21
-1968.037884
 31
0.0
 12
442.8804480000001
 22
-1969.077884
 32
0.0
 13
442.8804480000001
 23
-1969.077884
 33
0.0
  0
TEXT
  5
6EE
330
6E5
100
AcDbEntity
  8
1
 62
     2
100
AcDbText
 10
419.8122
 20
-1967.457883999999
 30
0.0
 40
4.0
  1
10
 41
0.9
100
AcDbText
  0
TEXT
  5
6EF
330
6E5
100
AcDbEntity
  8
1
 62
     2
100
AcDbText
 10
403.1121999999998
 20
-1967.457883999999
 30
0.0
 40
4.0
  1
M.H.C.
 41
0.9
100
AcDbText
  0
ENDBLK
  5
6F0
330
6E5
100
AcDbEntity
  8
0
100
AcDbBlockEnd
  0
BLOCK
  5
6F2
330
6F1
100
AcDbEntity
  8
1
100
AcDbBlockBegin
  2
*D11
 70
     1
 10
0.0
 20
0.0
 30
0.0
  3
*D11
  1

  0
LINE
  5
6F3
330
6F1
100
AcDbEntity
  8
1
 62
     2
100
AcDbLine
 10
428.880448
 20
-1818.557885999999
 30
0.0
 11
445.880448
 21
-1818.557885999999
 31
0.0
  0
LINE
  5
6F4
330
6F1
100
AcDbEntity
  8
1
 62
     2
100
AcDbLine
 10
428.880448
 20
-1880.357885
 30
0.0
 11
428.880448
 21
-1817.557886
 31
0.0
  0
LINE
  5
6F5
330
6F1
100
AcDbEntity
  8
1
 62
     2
100
AcDbLine
 10
445.880448
 20
-1857.957885999999
 30
0.0
 11
445.880448
 21
-1817.557886
 31
0.0
  0
SOLID
  5
6F6
330
6F1
100
AcDbEntity
  8
1
 62
     2
100
AcDbTrace
 10
428.880448
 20
-1818.557885999999
 30
0.0
 11
432.880448
 21
-1818.037885999999
 31
0.0
 12
432.880448
 22
-1819.077886
 32
0.0
 13
432.880448
 23
-1819.077886
 33
0.0
  0
SOLID
  5
6F7
330
6F1
100
AcDbEntity
  8
1
 62
     2
100
AcDbTrace
 10
445.880448
 20
-1818.557885999999
 30
0.0
 11
441.880448
 21
-1819.077886
 31
0.0
 12
441.880448
 22
-1818.037885999999
 32
0.0
 13
441.880448
 23
-1818.037885999999
 33
0.0
  0
TEXT
  5
6F8
330
6F1
100
AcDbEntity
  8
1
 62
     2
100
AcDbText
 10
435.1901429999998
 20
-1817.557886
 30
0.0
 40
4.0
  1
17
 41
0.9
100
AcDbText
  0
ENDBLK
  5
6F9
330
6F1
100
AcDbEntity
  8
0
100
AcDbBlockEnd
  0
BLOCK
  5
6FB
330
6FA
100
AcDbEntity
  8
1
100
AcDbBlockBegin
  2
*D12
 70
     1
 10
0.0
 20
0.0
 30
0.0
  3
*D12
  1

  0
LINE
  5
6FC
330
6FA
100
AcDbEntity
  8
1
 62
     2
100
AcDbLine
 10
445.880448
 20
-1828.557886
 30
0.0
 11
453.880448
 21
-1828.557886
 31
0.0
  0
LINE
  5
6FD
330
6FA
100
AcDbEntity
  8
1
 62
     2
100
AcDbLine
 10
438.8804480000001
 20
-1828.557886
 30
0.0
 11
445.880448
 21
-1828.557886
 31
0.0
  0
LINE
  5
6FE
330
6FA
100
AcDbEntity
  8
1
 62
     2
100
AcDbLine
 10
438.8804480000001
 20
-1828.557886
 30
0.0
 11
438.8804480000001
 21
-1828.557886
 31
0.0
  0
LINE
  5
6FF
330
6FA
100
AcDbEntity
  8
1
 62
     2
100
AcDbLine
 10
445.880448
 20
-1857.957885999999
 30
0.0
 11
445.880448
 21
-1827.557886
 31
0.0
  0
LINE
  5
700
330
6FA
100
AcDbEntity
  8
1
 62
     2
100
AcDbLine
 10
438.8804480000001
 20
-1857.957885999999
 30
0.0
 11
438.8804480000001
 21
-1827.557886
 31
0.0
  0
SOLID
  5
701
330
6FA
100
AcDbEntity
  8
1
 62
     2
100
AcDbTrace
 10
445.880448
 20
-1828.557886
 30
0.0
 11
449.880448
 21
-1828.037885999999
 31
0.0
 12
449.880448
 22
-1829.077886
 32
0.0
 13
449.880448
 23
-1829.077886
 33
0.0
  0
TEXT
  5
702
330
6FA
100
AcDbEntity
  8
1
 62
     2
100
AcDbText
 10
450.2315369999998
 20
-1827.557886
 30
0.0
 40
4.0
  1
7
 41
0.9
100
AcDbText
  0
ENDBLK
  5
703
330
6FA
100
AcDbEntity
  8
0
100
AcDbBlockEnd
  0
BLOCK
  5
705
330
704
100
AcDbEntity
  8
1
100
AcDbBlockBegin
  2
*D13
 70
     1
 10
0.0
 20
0.0
 30
0.0
  3
*D13
  1

  0
LINE
  5
706
330
704
100
AcDbEntity
  8
1
 62
     2
100
AcDbLine
 10
428.880448
 20
-1828.557886
 30
0.0
 11
438.8804480000001
 21
-1828.557886
 31
0.0
  0
LINE
  5
707
330
704
100
AcDbEntity
  8
1
 62
     2
100
AcDbLine
 10
428.880448
 20
-1828.557886
 30
0.0
 11
413.4357849999998
 21
-1828.557886
 31
0.0
  0
LINE
  5
708
330
704
100
AcDbEntity
  8
1
 62
     2
100
AcDbLine
 10
428.880448
 20
-1880.357885
 30
0.0
 11
428.880448
 21
-1827.557886
 31
0.0
  0
LINE
  5
709
330
704
100
AcDbEntity
  8
1
 62
     2
100
AcDbLine
 10
438.8804480000001
 20
-1857.957885999999
 30
0.0
 11
438.8804480000001
 21
-1827.557886
 31
0.0
  0
SOLID
  5
70A
330
704
100
AcDbEntity
  8
1
 62
     2
100
AcDbTrace
 10
428.880448
 20
-1828.557886
 30
0.0
 11
424.880448
 21
-1829.077886
 31
0.0
 12
424.880448
 22
-1828.037885999999
 32
0.0
 13
424.880448
 23
-1828.037885999999
 33
0.0
  0
CIRCLE
  5
70B
330
704
100
AcDbEntity
  8
1
 62
     2
100
AcDbCircle
 10
438.8804480000001
 20
-1828.557886
 30
0.0
 40
0.75
  0
TEXT
  5
70C
330
704
100
AcDbEntity
  8
1
 62
     2
100
AcDbText
 10
413.4357849999998
 20
-1826.482886
 30
0.0
 40
4.0
  1
10
 41
0.9
100
AcDbText
  0
TEXT
  5
70D
330
704
100
AcDbEntity
  8
1
 62
     2
100
AcDbText
 10
420.2357849999998
 20
-1823.807886
 30
0.0
 40
2.399999999999999
  1
+0.3
 41
0.9
100
AcDbText
  0
TEXT
  5
70E
330
704
100
AcDbEntity
  8
1
 62
     2
100
AcDbText
 10
420.2357849999998
 20
-1827.557886
 30
0.0
 40
2.399999999999999
  1
 0
 41
0.9
100
AcDbText
  0
ENDBLK
  5
70F
330
704
100
AcDbEntity
  8
0
100
AcDbBlockEnd
  0
BLOCK
  5
711
330
710
100
AcDbEntity
  8
1
100
AcDbBlockBegin
  2
*D14
 70
     1
 10
0.0
 20
0.0
 30
0.0
  3
*D14
  1

  0
LINE
  5
712
330
710
100
AcDbEntity
  8
1
 62
     2
100
AcDbLine
 10
438.8804480000001
 20
-1838.557886
 30
0.0
 11
430.880448
 21
-1838.557886
 31
0.0
  0
LINE
  5
713
330
710
100
AcDbEntity
  8
1
 62
     2
100
AcDbLine
 10
428.880448
 20
-1838.557886
 30
0.0
 11
430.880448
 21
-1838.557886
 31
0.0
  0
LINE
  5
714
330
710
100
AcDbEntity
  8
1
 62
     2
100
AcDbLine
 10
428.880448
 20
-1838.557886
 30
0.0
 11
420.1697599999998
 21
-1838.557886
 31
0.0
  0
LINE
  5
715
330
710
100
AcDbEntity
  8
1
 62
     2
100
AcDbLine
 10
428.880448
 20
-1880.357885
 30
0.0
 11
428.880448
 21
-1837.557886
 31
0.0
  0
LINE
  5
716
330
710
100
AcDbEntity
  8
1
 62
     2
100
AcDbLine
 10
430.880448
 20
-1870.953885
 30
0.0
 11
430.880448
 21
-1837.557886
 31
0.0
  0
SOLID
  5
717
330
710
100
AcDbEntity
  8
1
 62
     2
100
AcDbTrace
 10
428.880448
 20
-1838.557886
 30
0.0
 11
424.880448
 21
-1839.077886
 31
0.0
 12
424.880448
 22
-1838.037886
 32
0.0
 13
424.880448
 23
-1838.037886
 33
0.0
  0
SOLID
  5
718
330
710
100
AcDbEntity
  8
1
 62
     2
100
AcDbTrace
 10
430.880448
 20
-1838.557886
 30
0.0
 11
434.880448
 21
-1838.037886
 31
0.0
 12
434.880448
 22
-1839.077886
 32
0.0
 13
434.880448
 23
-1839.077886
 33
0.0
  0
TEXT
  5
719
330
710
100
AcDbEntity
  8
1
 62
     2
100
AcDbText
 10
420.1697599999998
 20
-1837.557886
 30
0.0
 40
4.0
  1
2
 41
0.9
100
AcDbText
  0
ENDBLK
  5
71A
330
710
100
AcDbEntity
  8
0
100
AcDbBlockEnd
  0
BLOCK
  5
71C
330
71B
100
AcDbEntity
  8
1
100
AcDbBlockBegin
  2
*D15
 70
     1
 10
0.0
 20
0.0
 30
0.0
  3
*D15
  1

  0
LINE
  5
71D
330
71B
100
AcDbEntity
  8
1
 62
     2
100
AcDbLine
 10
485.880448
 20
-1943.557884
 30
0.0
 11
485.880448
 21
-1858.557886
 31
0.0
  0
LINE
  5
71E
330
71B
100
AcDbEntity
  8
1
 62
     2
100
AcDbLine
 10
446.480448
 20
-1858.557886
 30
0.0
 11
486.880448
 21
-1858.557886
 31
0.0
  0
LINE
  5
71F
330
71B
100
AcDbEntity
  8
1
 62
     2
100
AcDbLine
 10
446.480448
 20
-1943.557884
 30
0.0
 11
486.880448
 21
-1943.557884
 31
0.0
  0
SOLID
  5
720
330
71B
100
AcDbEntity
  8
1
 62
     2
100
AcDbTrace
 10
485.880448
 20
-1858.557886
 30
0.0
 11
486.400448
 21
-1862.557886
 31
0.0
 12
485.360448
 22
-1862.557886
 32
0.0
 13
485.360448
 23
-1862.557886
 33
0.0
  0
SOLID
  5
721
330
71B
100
AcDbEntity
  8
1
 62
     2
100
AcDbTrace
 10
485.880448
 20
-1943.557884
 30
0.0
 11
485.360448
 21
-1939.557884
 31
0.0
 12
486.400448
 22
-1939.557884
 32
0.0
 13
486.400448
 23
-1939.557884
 33
0.0
  0
TEXT
  5
722
330
71B
100
AcDbEntity
  8
1
 62
     2
100
AcDbText
 10
483.8054480000001
 20
-1913.197884999999
 30
0.0
 40
4.0
  1
85 h7
 50
90.0
 41
0.9
100
AcDbText
  0
TEXT
  5
723
330
71B
100
AcDbEntity
  8
1
 62
     2
100
AcDbText
 10
481.190448
 20
-1894.797885
 30
0.0
 40
2.399999999999999
  1
 0
 50
90.0
 41
0.9
100
AcDbText
  0
TEXT
  5
724
330
71B
100
AcDbEntity
  8
1
 62
     2
100
AcDbText
 10
484.820448
 20
-1894.797885
 30
0.0
 40
2.399999999999999
  1
-0.035
 50
90.0
 41
0.9
100
AcDbText
  0
TEXT
  5
725
330
71B
100
AcDbEntity
  8
1
 62
     2
100
AcDbText
 10
483.8054480000001
 20
-1917.997885
 30
0.0
 40
4.0
  1
%%c
 50
90.0
 41
0.9
100
AcDbText
  0
ENDBLK
  5
726
330
71B
100
AcDbEntity
  8
0
100
AcDbBlockEnd
  0
BLOCK
  5
728
330
727
100
AcDbEntity
  8
1
100
AcDbBlockBegin
  2
*D16
 70
     1
 10
0.0
 20
0.0
 30
0.0
  3
*D16
  1

  0
LINE
  5
729
330
727
100
AcDbEntity
  8
1
 62
     2
100
AcDbLine
 10
398.880448
 20
-1921.057885
 30
0.0
 11
398.880448
 21
-1881.057885
 31
0.0
  0
LINE
  5
72A
330
727
100
AcDbEntity
  8
1
 62
     2
100
AcDbLine
 10
428.180448
 20
-1881.057885
 30
0.0
 11
410.651983
 21
-1881.057885
 31
0.0
  0
LINE
  5
72B
330
727
100
AcDbEntity
  8
1
 62
     2
100
AcDbLine
 10
400.8594529999998
 20
-1881.057885
 30
0.0
 11
397.8804479999998
 21
-1881.057885
 31
0.0
  0
LINE
  5
72C
330
727
100
AcDbEntity
  8
1
 62
     2
100
AcDbLine
 10
428.180448
 20
-1921.057885
 30
0.0
 11
397.8804479999998
 21
-1921.057885
 31
0.0
  0
SOLID
  5
72D
330
727
100
AcDbEntity
  8
1
 62
     2
100
AcDbTrace
 10
398.880448
 20
-1881.057885
 30
0.0
 11
399.400448
 21
-1885.057885
 31
0.0
 12
398.360448
 22
-1885.057885
 32
0.0
 13
398.360448
 23
-1885.057885
 33
0.0
  0
SOLID
  5
72E
330
727
100
AcDbEntity
  8
1
 62
     2
100
AcDbTrace
 10
398.880448
 20
-1921.057885
 30
0.0
 11
398.360448
 21
-1917.057885
 31
0.0
 12
399.400448
 22
-1917.057885
 32
0.0
 13
399.400448
 23
-1917.057885
 33
0.0
  0
TEXT
  5
72F
330
727
100
AcDbEntity
  8
1
 62
     2
100
AcDbText
 10
397.8804479999998
 20
-1901.657885
 30
0.0
 40
4.0
  1
40
 50
90.0
 41
0.9
100
AcDbText
  0
TEXT
  5
730
330
727
100
AcDbEntity
  8
1
 62
     2
100
AcDbText
 10
397.8804479999998
 20
-1906.457885
 30
0.0
 40
4.0
  1
%%c
 50
90.0
 41
0.9
100
AcDbText
  0
ENDBLK
  5
731
330
727
100
AcDbEntity
  8
0
100
AcDbBlockEnd
  0
BLOCK
  5
733
330
732
100
AcDbEntity
  8
1
100
AcDbBlockBegin
  2
*D17
 70
     1
 10
0.0
 20
0.0
 30
0.0
  3
*D17
  1

  0
LINE
  5
734
330
732
100
AcDbEntity
  8
1
 62
     2
100
AcDbLine
 10
445.4804479999999
 20
-1883.163769999999
 30
0.0
 11
458.555478
 21
-1883.163769999999
 31
0.0
  0
LINE
  5
735
330
732
100
AcDbEntity
  8
1
 62
     2
100
AcDbLine
 10
439.130448
 20
-1883.163769999999
 30
0.0
 11
445.4804479999999
 21
-1883.163769999999
 31
0.0
  0
LINE
  5
736
330
732
100
AcDbEntity
  8
1
 62
     2
100
AcDbLine
 10
431.130448
 20
-1883.163769999999
 30
0.0
 11
439.130448
 21
-1883.163769999999
 31
0.0
  0
LINE
  5
737
330
732
100
AcDbEntity
  8
1
 62
     2
100
AcDbLine
 10
445.4804479999999
 20
-1879.455385
 30
0.0
 11
445.4804479999999
 21
-1884.163769999998
 31
0.0
  0
LINE
  5
738
330
732
100
AcDbEntity
  8
1
 62
     2
100
AcDbLine
 10
439.130448
 20
-1879.455385
 30
0.0
 11
439.130448
 21
-1884.163769999998
 31
0.0
  0
SOLID
  5
739
330
732
100
AcDbEntity
  8
1
 62
     2
100
AcDbTrace
 10
439.130448
 20
-1883.163769999999
 30
0.0
 11
435.130448
 21
-1883.68377
 31
0.0
 12
435.130448
 22
-1882.643769999998
 32
0.0
 13
435.130448
 23
-1882.643769999998
 33
0.0
  0
SOLID
  5
73A
330
732
100
AcDbEntity
  8
1
 62
     2
100
AcDbTrace
 10
445.4804479999999
 20
-1883.163769999999
 30
0.0
 11
449.4804479999998
 21
-1882.643769999998
 31
0.0
 12
449.4804479999998
 22
-1883.68377
 32
0.0
 13
449.4804479999998
 23
-1883.68377
 33
0.0
  0
TEXT
  5
73B
330
732
100
AcDbEntity
  8
1
 62
     2
100
AcDbText
 10
447.555478
 20
-1882.06377
 30
0.0
 40
4.0
  1
(6.3)
 41
0.9
100
AcDbText
  0
ENDBLK
  5
73C
330
732
100
AcDbEntity
  8
0
100
AcDbBlockEnd
  0
BLOCK
  5
73E
330
73D
100
AcDbEntity
  8
1
100
AcDbBlockBegin
  2
*D18
 70
     1
 10
0.0
 20
0.0
 30
0.0
  3
*D18
  1

  0
LINE
  5
73F
330
73D
100
AcDbEntity
  8
1
 62
     2
100
AcDbLine
 10
445.880448
 20
-1921.796548
 30
0.0
 11
456.0669269999998
 21
-1921.796548
 31
0.0
  0
LINE
  5
740
330
73D
100
AcDbEntity
  8
1
 62
     2
100
AcDbLine
 10
445.4804479999999
 20
-1921.796548
 30
0.0
 11
445.880448
 21
-1921.796548
 31
0.0
  0
LINE
  5
741
330
73D
100
AcDbEntity
  8
1
 62
     2
100
AcDbLine
 10
437.480448
 20
-1921.796548
 30
0.0
 11
445.4804479999999
 21
-1921.796548
 31
0.0
  0
LINE
  5
742
330
73D
100
AcDbEntity
  8
1
 62
     2
100
AcDbLine
 10
445.880448
 20
-1922.667385
 30
0.0
 11
445.880448
 21
-1920.796548
 31
0.0
  0
LINE
  5
743
330
73D
100
AcDbEntity
  8
1
 62
     2
100
AcDbLine
 10
445.880448
 20
-1930.777293
 30
0.0
 11
445.880448
 21
-1930.777293
 31
0.0
  0
LINE
  5
744
330
73D
100
AcDbEntity
  8
1
 62
     2
100
AcDbLine
 10
445.4804479999999
 20
-1922.667385
 30
0.0
 11
445.4804479999999
 21
-1920.796548
 31
0.0
  0
SOLID
  5
745
330
73D
100
AcDbEntity
  8
1
 62
     2
100
AcDbTrace
 10
445.4804479999999
 20
-1921.796548
 30
0.0
 11
441.4804479999999
 21
-1922.316548
 31
0.0
 12
441.4804479999999
 22
-1921.276548
 32
0.0
 13
441.4804479999999
 23
-1921.276548
 33
0.0
  0
SOLID
  5
746
330
73D
100
AcDbEntity
  8
1
 62
     2
100
AcDbTrace
 10
445.880448
 20
-1921.796548
 30
0.0
 11
449.880448
 21
-1921.276548
 31
0.0
 12
449.880448
 22
-1922.316548
 32
0.0
 13
449.880448
 23
-1922.316548
 33
0.0
  0
TEXT
  5
747
330
73D
100
AcDbEntity
  8
1
 62
     2
100
AcDbText
 10
448.6669269999999
 20
-1920.696548
 30
0.0
 40
4.0
  1
0.4
 41
0.9
100
AcDbText
  0
ENDBLK
  5
748
330
73D
100
AcDbEntity
  8
0
100
AcDbBlockEnd
  0
BLOCK
  5
74A
330
749
100
AcDbEntity
  8
1
100
AcDbBlockBegin
  2
*D19
 70
     1
 10
0.0
 20
0.0
 30
0.0
  3
*D19
  1

  0
LINE
  5
74B
330
749
100
AcDbEntity
  8
1
 62
     2
100
AcDbLine
 10
434.580448
 20
-1848.557886
 30
0.0
 11
442.580448
 21
-1848.557886
 31
0.0
  0
LINE
  5
74C
330
749
100
AcDbEntity
  8
1
 62
     2
100
AcDbLine
 10
442.580448
 20
-1848.557886
 30
0.0
 11
445.880448
 21
-1848.557886
 31
0.0
  0
LINE
  5
74D
330
749
100
AcDbEntity
  8
1
 62
     2
100
AcDbLine
 10
445.880448
 20
-1848.557886
 30
0.0
 11
456.315497
 21
-1848.557886
 31
0.0
  0
LINE
  5
74E
330
749
100
AcDbEntity
  8
1
 62
     2
100
AcDbLine
 10
442.580448
 20
-1859.307885
 30
0.0
 11
442.580448
 21
-1847.557886
 31
0.0
  0
LINE
  5
74F
330
749
100
AcDbEntity
  8
1
 62
     2
100
AcDbLine
 10
445.880448
 20
-1857.957885999999
 30
0.0
 11
445.880448
 21
-1847.557886
 31
0.0
  0
SOLID
  5
750
330
749
100
AcDbEntity
  8
1
 62
     2
100
AcDbTrace
 10
442.580448
 20
-1848.557886
 30
0.0
 11
438.580448
 21
-1849.077886
 31
0.0
 12
438.580448
 22
-1848.037886
 32
0.0
 13
438.580448
 23
-1848.037886
 33
0.0
  0
SOLID
  5
751
330
749
100
AcDbEntity
  8
1
 62
     2
100
AcDbTrace
 10
445.880448
 20
-1848.557886
 30
0.0
 11
449.880448
 21
-1848.037886
 31
0.0
 12
449.880448
 22
-1849.077886
 32
0.0
 13
449.880448
 23
-1849.077886
 33
0.0
  0
TEXT
  5
752
330
749
100
AcDbEntity
  8
1
 62
     2
100
AcDbText
 10
448.9154969999998
 20
-1847.457886
 30
0.0
 40
4.0
  1
3.3
 41
0.9
100
AcDbText
  0
ENDBLK
  5
753
330
749
100
AcDbEntity
  8
0
100
AcDbBlockEnd
  0
BLOCK
  5
755
330
754
100
AcDbEntity
  8
1
100
AcDbBlockBegin
  2
*D20
 70
     1
 10
0.0
 20
0.0
 30
0.0
  3
*D20
  1

  0
LINE
  5
756
330
754
100
AcDbEntity
  8
1
 62
     2
100
AcDbLine
 10
465.880448
 20
-1874.807885
 30
0.0
 11
465.880448
 21
-1866.807885
 31
0.0
  0
LINE
  5
757
330
754
100
AcDbEntity
  8
1
 62
     2
100
AcDbLine
 10
465.880448
 20
-1866.807885
 30
0.0
 11
465.880448
 21
-1860.307885
 31
0.0
  0
LINE
  5
758
330
754
100
AcDbEntity
  8
1
 62
     2
100
AcDbLine
 10
465.880448
 20
-1860.307885
 30
0.0
 11
465.880448
 21
-1844.267628
 31
0.0
  0
LINE
  5
759
330
754
100
AcDbEntity
  8
1
 62
     2
100
AcDbLine
 10
446.8804480000001
 20
-1866.807885
 30
0.0
 11
466.880448
 21
-1866.807885
 31
0.0
  0
LINE
  5
75A
330
754
100
AcDbEntity
  8
1
 62
     2
100
AcDbLine
 10
446.8804480000001
 20
-1860.307885
 30
0.0
 11
466.880448
 21
-1860.307885
 31
0.0
  0
SOLID
  5
75B
330
754
100
AcDbEntity
  8
1
 62
     2
100
AcDbTrace
 10
465.880448
 20
-1860.307885
 30
0.0
 11
465.360448
 21
-1856.307885
 31
0.0
 12
466.400448
 22
-1856.307885
 32
0.0
 13
466.400448
 23
-1856.307885
 33
0.0
  0
SOLID
  5
75C
330
754
100
AcDbEntity
  8
1
 62
     2
100
AcDbTrace
 10
465.880448
 20
-1866.807885
 30
0.0
 11
466.400448
 21
-1870.807885
 31
0.0
 12
465.360448
 22
-1870.807885
 32
0.0
 13
465.360448
 23
-1870.807885
 33
0.0
  0
TEXT
  5
75D
330
754
100
AcDbEntity
  8
1
 62
     2
100
AcDbText
 10
464.780448
 20
-1851.667628
 30
0.0
 40
4.0
  1
6.5
 50
90.0
 41
0.9
100
AcDbText
  0
TEXT
  5
75E
330
754
100
AcDbEntity
  8
1
 62
     2
100
AcDbText
 10
464.780448
 20
-1856.467628
 30
0.0
 40
4.0
  1
%%c
 50
90.0
 41
0.9
100
AcDbText
  0
ENDBLK
  5
75F
330
754
100
AcDbEntity
  8
0
100
AcDbBlockEnd
  0
BLOCK
  5
761
330
760
100
AcDbEntity
  8
1
100
AcDbBlockBegin
  2
*D21
 70
     1
 10
0.0
 20
0.0
 30
0.0
  3
*D21
  1

  0
LINE
  5
762
330
760
100
AcDbEntity
  8
1
 62
     2
100
AcDbLine
 10
475.8804480000002
 20
-1934.057885
 30
0.0
 11
475.8804480000002
 21
-1886.157885
 31
0.0
  0
LINE
  5
763
330
760
100
AcDbEntity
  8
1
 62
     2
100
AcDbLine
 10
448.380448
 20
-1934.057885
 30
0.0
 11
476.880448
 21
-1934.057885
 31
0.0
  0
SOLID
  5
764
330
760
100
AcDbEntity
  8
1
 62
     2
100
AcDbTrace
 10
475.8804480000002
 20
-1934.057885
 30
0.0
 11
475.3604479999999
 21
-1930.057885
 31
0.0
 12
476.400448
 22
-1930.057885
 32
0.0
 13
476.400448
 23
-1930.057885
 33
0.0
  0
TEXT
  5
765
330
760
100
AcDbEntity
  8
1
 62
     2
100
AcDbText
 10
474.780448
 20
-1892.157884999999
 30
0.0
 40
4.0
  1
66
 50
90.0
 41
0.9
100
AcDbText
  0
TEXT
  5
766
330
760
100
AcDbEntity
  8
1
 62
     2
100
AcDbText
 10
474.780448
 20
-1915.957885
 30
0.0
 40
4.0
  1
M.H.C. %%c
 50
90.0
 41
0.9
100
AcDbText
  0
ENDBLK
  5
767
330
760
100
AcDbEntity
  8
0
100
AcDbBlockEnd
  0
BLOCK
  5
769
330
768
100
AcDbEntity
  8
1
100
AcDbBlockBegin
  2
*D22
 70
     1
 10
0.0
 20
0.0
 30
0.0
  3
*D22
  1

  0
LINE
  5
76A
330
768
100
AcDbEntity
  8
1
 62
     2
100
AcDbLine
 10
388.880448
 20
-1934.057885
 30
0.0
 11
388.880448
 21
-1886.157885
 31
0.0
  0
LINE
  5
76B
330
768
100
AcDbEntity
  8
1
 62
     2
100
AcDbLine
 10
427.880448
 20
-1934.057885
 30
0.0
 11
387.8804479999998
 21
-1934.057885
 31
0.0
  0
SOLID
  5
76C
330
768
100
AcDbEntity
  8
1
 62
     2
100
AcDbTrace
 10
388.880448
 20
-1934.057885
 30
0.0
 11
388.360448
 21
-1930.057885
 31
0.0
 12
389.4004479999998
 22
-1930.057885
 32
0.0
 13
389.4004479999998
 23
-1930.057885
 33
0.0
  0
TEXT
  5
76D
330
768
100
AcDbEntity
  8
1
 62
     2
100
AcDbText
 10
387.7804479999998
 20
-1892.157884999999
 30
0.0
 40
4.0
  1
66
 50
90.0
 41
0.9
100
AcDbText
  0
TEXT
  5
76E
330
768
100
AcDbEntity
  8
1
 62
     2
100
AcDbText
 10
387.7804479999998
 20
-1915.957885
 30
0.0
 40
4.0
  1
M.H.C. %%c
 50
90.0
 41
0.9
100
AcDbText
  0
ENDBLK
  5
76F
330
768
100
AcDbEntity
  8
0
100
AcDbBlockEnd
  0
BLOCK
  5
771
330
770
100
AcDbEntity
  8
1
100
AcDbBlockBegin
  2
*D23
 70
     1
 10
0.0
 20
0.0
 30
0.0
  3
*D23
  1

  0
LINE
  5
772
330
770
100
AcDbEntity
  8
1
 62
     2
100
AcDbLine
 10
465.880448
 20
-1889.057885
 30
0.0
 11
465.880448
 21
-1924.956937999999
 31
0.0
  0
LINE
  5
773
330
770
100
AcDbEntity
  8
1
 62
     2
100
AcDbLine
 10
446.480448
 20
-1889.057885
 30
0.0
 11
466.880448
 21
-1889.057885
 31
0.0
  0
SOLID
  5
774
330
770
100
AcDbEntity
  8
1
 62
     2
100
AcDbTrace
 10
465.880448
 20
-1889.057885
 30
0.0
 11
466.400448
 21
-1893.057885
 31
0.0
 12
465.360448
 22
-1893.057885
 32
0.0
 13
465.360448
 23
-1893.057885
 33
0.0
  0
TEXT
  5
775
330
770
100
AcDbEntity
  8
1
 62
     2
100
AcDbText
 10
463.805448
 20
-1920.156937999999
 30
0.0
 40
4.0
  1
24 H7
 50
90.0
 41
0.9
100
AcDbText
  0
TEXT
  5
776
330
770
100
AcDbEntity
  8
1
 62
     2
100
AcDbText
 10
461.130448
 20
-1901.356938
 30
0.0
 40
2.399999999999999
  1
+0.021
 50
90.0
 41
0.9
100
AcDbText
  0
TEXT
  5
777
330
770
100
AcDbEntity
  8
1
 62
     2
100
AcDbText
 10
464.880448
 20
-1901.356938
 30
0.0
 40
2.399999999999999
  1
 0
 50
90.0
 41
0.9
100
AcDbText
  0
TEXT
  5
778
330
770
100
AcDbEntity
  8
1
 62
     2
100
AcDbText
 10
463.805448
 20
-1924.956937999999
 30
0.0
 40
4.0
  1
%%c
 50
90.0
 41
0.9
100
AcDbText
  0
ENDBLK
  5
779
330
770
100
AcDbEntity
  8
0
100
AcDbBlockEnd
  0
BLOCK
  5
77B
330
77A
100
AcDbEntity
  8
1
100
AcDbBlockBegin
  2
*D24
 70
     1
 10
0.0
 20
0.0
 30
0.0
  3
*D24
  1

  0
LINE
  5
77C
330
77A
100
AcDbEntity
  8
1
 62
     2
100
AcDbLine
 10
408.880448
 20
-1911.057885
 30
0.0
 11
408.880448
 21
-1873.035413
 31
0.0
  0
LINE
  5
77D
330
77A
100
AcDbEntity
  8
1
 62
     2
100
AcDbLine
 10
428.180448
 20
-1911.057885
 30
0.0
 11
407.880448
 21
-1911.057885
 31
0.0
  0
SOLID
  5
77E
330
77A
100
AcDbEntity
  8
1
 62
     2
100
AcDbTrace
 10
408.880448
 20
-1911.057885
 30
0.0
 11
408.3604479999998
 21
-1907.057885
 31
0.0
 12
409.4004479999998
 22
-1907.057885
 32
0.0
 13
409.4004479999998
 23
-1907.057885
 33
0.0
  0
TEXT
  5
77F
330
77A
100
AcDbEntity
  8
1
 62
     2
100
AcDbText
 10
406.8054479999998
 20
-1901.795413
 30
0.0
 40
4.0
  1
20 H6
 50
90.0
 41
0.9
100
AcDbText
  0
TEXT
  5
780
330
77A
100
AcDbEntity
  8
1
 62
     2
100
AcDbText
 10
404.1304479999998
 20
-1882.995413
 30
0.0
 40
2.399999999999999
  1
+0.013
 50
90.0
 41
0.9
100
AcDbText
  0
TEXT
  5
781
330
77A
100
AcDbEntity
  8
1
 62
     2
100
AcDbText
 10
407.880448
 20
-1882.995413
 30
0.0
 40
2.399999999999999
  1
 0
 50
90.0
 41
0.9
100
AcDbText
  0
TEXT
  5
782
330
77A
100
AcDbEntity
  8
1
 62
     2
100
AcDbText
 10
406.8054479999998
 20
-1906.595413
 30
0.0
 40
4.0
  1
%%c
 50
90.0
 41
0.9
100
AcDbText
  0
ENDBLK
  5
783
330
77A
100
AcDbEntity
  8
0
100
AcDbBlockEnd
  0
BLOCK
  5
785
330
784
100
AcDbEntity
  8
1
100
AcDbBlockBegin
  2
*D25
 70
     1
 10
0.0
 20
0.0
 30
0.0
  3
*D25
  1

  0
LINE
  5
786
330
784
100
AcDbEntity
  8
1
 62
     2
100
AcDbLine
 10
335.446987
 20
-1906.055098999999
 30
0.0
 11
268.305597
 21
-1882.331913
 31
0.0
  0
SOLID
  5
787
330
784
100
AcDbEntity
  8
1
 62
     2
100
AcDbTrace
 10
307.160746
 20
-1896.060671
 30
0.0
 11
311.105481
 21
-1896.902967
 31
0.0
 12
310.759008
 22
-1897.883557
 32
0.0
 13
310.759008
 23
-1897.883557
 33
0.0
  0
SOLID
  5
788
330
784
100
AcDbEntity
  8
1
 62
     2
100
AcDbTrace
 10
335.446987
 20
-1906.055098999999
 30
0.0
 11
331.5022509999999
 21
-1905.212803
 31
0.0
 12
331.8487249999999
 22
-1904.232214
 32
0.0
 13
331.8487249999999
 23
-1904.232214
 33
0.0
  0
TEXT
  5
789
330
784
100
AcDbEntity
  8
1
 62
     2
100
AcDbText
 10
273.164543
 20
-1882.988147
 30
0.0
 40
4.0
  1
30
 50
340.5400669999999
 41
0.9
100
AcDbText
  0
TEXT
  5
78A
330
784
100
AcDbEntity
  8
1
 62
     2
100
AcDbText
 10
268.6387439999999
 20
-1881.389038
 30
0.0
 40
4.0
  1
%%c
 50
340.5400669999999
 41
0.9
100
AcDbText
  0
ENDBLK
  5
78B
330
784
100
AcDbEntity
  8
0
100
AcDbBlockEnd
  0
BLOCK
  5
78D
330
78C
100
AcDbEntity
  8
1
100
AcDbBlockBegin
  2
*D26
 70
     1
 10
0.0
 20
0.0
 30
0.0
  3
*D26
  1

  0
LINE
  5
78E
330
78C
100
AcDbEntity
  8
1
 62
     2
100
AcDbLine
 10
539.3879809999998
 20
-1896.176266
 30
0.0
 11
606.251675
 21
-1919.189245
 31
0.0
  0
SOLID
  5
78F
330
78C
100
AcDbEntity
  8
1
 62
     2
100
AcDbTrace
 10
567.754849
 20
-1905.939504
 30
0.0
 11
563.803371
 21
-1905.129430999999
 31
0.0
 12
564.14183
 22
-1904.146047
 32
0.0
 13
564.14183
 23
-1904.146047
 33
0.0
  0
SOLID
  5
790
330
78C
100
AcDbEntity
  8
1
 62
     2
100
AcDbTrace
 10
539.3879809999998
 20
-1896.176266
 30
0.0
 11
543.3394599999997
 21
-1896.986339
 31
0.0
 12
543.001001
 22
-1897.969724
 32
0.0
 13
543.001001
 23
-1897.969724
 33
0.0
  0
TEXT
  5
791
330
78C
100
AcDbEntity
  8
1
 62
     2
100
AcDbText
 10
600.9037429999998
 20
-1916.291035
 30
0.0
 40
4.0
  1
30
 50
341.0076899999999
 41
0.9
100
AcDbText
  0
TEXT
  5
792
330
78C
100
AcDbEntity
  8
1
 62
     2
100
AcDbText
 10
596.365044
 20
-1914.728917
 30
0.0
 40
4.0
  1
%%c
 50
341.0076899999999
 41
0.9
100
AcDbText
  0
ENDBLK
  5
793
330
78C
100
AcDbEntity
  8
0
100
AcDbBlockEnd
  0
BLOCK
  5
795
330
794
100
AcDbEntity
  8
1
100
AcDbBlockBegin
  2
*D27
 70
     1
 10
0.0
 20
0.0
 30
0.0
  3
*D27
  1

  0
LINE
  5
796
330
794
100
AcDbEntity
  8
1
 62
     2
100
AcDbLine
 10
518.676021
 20
-1914.789653
 30
0.0
 11
605.876631
 21
-1880.475137999999
 31
0.0
  0
SOLID
  5
797
330
794
100
AcDbEntity
  8
1
 62
     2
100
AcDbTrace
 10
588.4668099999998
 20
-1887.326118
 30
0.0
 11
584.935048
 21
-1889.274722
 31
0.0
 12
584.5542209999998
 22
-1888.306957
 32
0.0
 13
584.5542209999998
 23
-1888.306957
 33
0.0
  0
SOLID
  5
798
330
794
100
AcDbEntity
  8
1
 62
     2
100
AcDbTrace
 10
518.676021
 20
-1914.789653
 30
0.0
 11
522.207782
 21
-1912.841047999999
 31
0.0
 12
522.58861
 22
-1913.808814
 32
0.0
 13
522.58861
 23
-1913.808814
 33
0.0
  0
TEXT
  5
799
330
794
100
AcDbEntity
  8
1
 62
     2
100
AcDbText
 10
599.927188
 20
-1881.741677
 30
0.0
 40
4.0
  1
75
 50
21.480249
 41
0.9
100
AcDbText
  0
TEXT
  5
79A
330
794
100
AcDbEntity
  8
1
 62
     2
100
AcDbText
 10
595.4605769999998
 20
-1883.499344
 30
0.0
 40
4.0
  1
%%c
 50
21.480249
 41
0.9
100
AcDbText
  0
ENDBLK
  5
79B
330
794
100
AcDbEntity
  8
0
100
AcDbBlockEnd
  0
BLOCK
  5
79D
330
79C
100
AcDbEntity
  8
1
100
AcDbBlockBegin
  2
*D28
 70
     1
 10
0.0
 20
0.0
 30
0.0
  3
*D28
  1

  0
LINE
  5
79E
330
79C
100
AcDbEntity
  8
1
 62
     2
100
AcDbLine
 10
553.571415
 20
-1845.633233
 30
0.0
 11
553.571415
 21
-1844.633232999998
 31
0.0
  0
LINE
  5
79F
330
79C
100
AcDbEntity
  8
1
 62
     2
100
AcDbLine
 10
539.2264599999998
 20
-1847.521782
 30
0.0
 11
538.967641
 21
-1846.555856
 31
0.0
  0
LINE
  5
7A0
330
79C
100
AcDbEntity
  8
1
 62
     2
100
AcDbLine
 10
553.571415
 20
-1857.682885
 30
0.0
 11
553.571415
 21
-1845.633233
 31
0.0
  0
LINE
  5
7A1
330
79C
100
AcDbEntity
  8
1
 62
     2
100
AcDbLine
 10
543.024539
 20
-1861.696408
 30
0.0
 11
539.2264599999998
 21
-1847.521782
 31
0.0
  0
ARC
  5
7A2
330
79C
100
AcDbEntity
  8
1
 62
     2
100
AcDbCircle
 10
553.571415
 20
-1901.057885
 30
0.0
 40
55.424652
100
AcDbArc
 50
83.79744100000001
 51
117.9254239999999
  0
SOLID
  5
7A3
330
79C
100
AcDbEntity
  8
1
 62
     2
100
AcDbTrace
 10
553.571415
 20
-1845.633233
 30
0.0
 11
557.5875719999998
 21
-1845.25788
 31
0.0
 12
557.5500509999998
 22
-1846.297202999999
 32
0.0
 13
557.5500509999998
 23
-1846.297202999999
 33
0.0
  0
SOLID
  5
7A4
330
79C
100
AcDbEntity
  8
1
 62
     2
100
AcDbTrace
 10
539.2264599999998
 20
-1847.521782
 30
0.0
 11
535.555241
 21
-1849.192874999999
 31
0.0
 12
535.2500019999999
 22
-1848.198677
 32
0.0
 13
535.2500019999999
 23
-1848.198677
 33
0.0
  0
TEXT
  5
7A5
330
79C
100
AcDbEntity
  8
1
 62
     2
100
AcDbText
 10
527.0866559999998
 20
-1851.090507
 30
0.0
 40
4.0
  1
15%%d
 50
24.072574
 41
0.9
100
AcDbText
  0
ENDBLK
  5
7A6
330
79C
100
AcDbEntity
  8
0
100
AcDbBlockEnd
  0
BLOCK
  5
7A8
330
7A7
100
AcDbEntity
  8
0
100
AcDbBlockBegin
  2
*X29
 70
     1
 10
0.0
 20
0.0
 30
0.0
  3
*X29
  1

  0
LINE
  5
7A9
330
7A7
100
AcDbEntity
  8
0
 62
     0
100
AcDbLine
 10
0.196425
 20
-0.367493
 30
0.0
 11
0.211156
 21
-0.352761
 31
0.0
  0
LINE
  5
7AA
330
7A7
100
AcDbEntity
  8
0
 62
     0
100
AcDbLine
 10
0.211658
 20
-0.352259
 30
0.0
 11
0.218522
 21
-0.345396
 31
0.0
  0
LINE
  5
7AB
330
7A7
100
AcDbEntity
  8
0
 62
     0
100
AcDbLine
 10
0.195541
 20
-0.367493
 30
0.0
 11
0.210272
 21
-0.352761
 31
0.0
  0
LINE
  5
7AC
330
7A7
100
AcDbEntity
  8
0
 62
     0
100
AcDbLine
 10
0.211658
 20
-0.351375
 30
0.0
 11
0.217638
 21
-0.345396
 31
0.0
  0
LINE
  5
7AD
330
7A7
100
AcDbEntity
  8
0
 62
     0
100
AcDbLine
 10
0.194657
 20
-0.367493
 30
0.0
 11
0.209388
 21
-0.352761
 31
0.0
  0
LINE
  5
7AE
330
7A7
100
AcDbEntity
  8
0
 62
     0
100
AcDbLine
 10
0.211658
 20
-0.350492
 30
0.0
 11
0.216754
 21
-0.345396
 31
0.0
  0
LINE
  5
7AF
330
7A7
100
AcDbEntity
  8
0
 62
     0
100
AcDbLine
 10
0.193773
 20
-0.367493
 30
0.0
 11
0.208505
 21
-0.352761
 31
0.0
  0
LINE
  5
7B0
330
7A7
100
AcDbEntity
  8
0
 62
     0
100
AcDbLine
 10
0.211658
 20
-0.349608
 30
0.0
 11
0.21587
 21
-0.345396
 31
0.0
  0
LINE
  5
7B1
330
7A7
100
AcDbEntity
  8
0
 62
     0
100
AcDbLine
 10
0.192889
 20
-0.367493
 30
0.0
 11
0.207621
 21
-0.352761
 31
0.0
  0
LINE
  5
7B2
330
7A7
100
AcDbEntity
  8
0
 62
     0
100
AcDbLine
 10
0.211658
 20
-0.348724
 30
0.0
 11
0.214986
 21
-0.345396
 31
0.0
  0
LINE
  5
7B3
330
7A7
100
AcDbEntity
  8
0
 62
     0
100
AcDbLine
 10
0.192005
 20
-0.367493
 30
0.0
 11
0.206737
 21
-0.352761
 31
0.0
  0
LINE
  5
7B4
330
7A7
100
AcDbEntity
  8
0
 62
     0
100
AcDbLine
 10
0.211658
 20
-0.34784
 30
0.0
 11
0.214103
 21
-0.345396
 31
0.0
  0
LINE
  5
7B5
330
7A7
100
AcDbEntity
  8
0
 62
     0
100
AcDbLine
 10
0.191771
 20
-0.366843
 30
0.0
 11
0.198487
 21
-0.3601269999999999
 31
0.0
  0
LINE
  5
7B6
330
7A7
100
AcDbEntity
  8
0
 62
     0
100
AcDbLine
 10
0.211658
 20
-0.346956
 30
0.0
 11
0.213219
 21
-0.345396
 31
0.0
  0
LINE
  5
7B7
330
7A7
100
AcDbEntity
  8
0
 62
     0
100
AcDbLine
 10
0.199137
 20
-0.359478
 30
0.0
 11
0.205853
 21
-0.352761
 31
0.0
  0
LINE
  5
7B8
330
7A7
100
AcDbEntity
  8
0
 62
     0
100
AcDbLine
 10
0.191771
 20
-0.36596
 30
0.0
 11
0.197603
 21
-0.3601269999999999
 31
0.0
  0
LINE
  5
7B9
330
7A7
100
AcDbEntity
  8
0
 62
     0
100
AcDbLine
 10
0.211658
 20
-0.346072
 30
0.0
 11
0.212335
 21
-0.345396
 31
0.0
  0
LINE
  5
7BA
330
7A7
100
AcDbEntity
  8
0
 62
     0
100
AcDbLine
 10
0.199137
 20
-0.358594
 30
0.0
 11
0.205029
 21
-0.3527010000000001
 31
0.0
  0
LINE
  5
7BB
330
7A7
100
AcDbEntity
  8
0
 62
     0
100
AcDbLine
 10
0.191771
 20
-0.365076
 30
0.0
 11
0.196719
 21
-0.3601269999999999
 31
0.0
  0
LINE
  5
7BC
330
7A7
100
AcDbEntity
  8
0
 62
     0
100
AcDbLine
 10
0.199137
 20
-0.35771
 30
0.0
 11
0.205029
 21
-0.351817
 31
0.0
  0
LINE
  5
7BD
330
7A7
100
AcDbEntity
  8
0
 62
     0
100
AcDbLine
 10
0.191771
 20
-0.364192
 30
0.0
 11
0.195836
 21
-0.3601269999999999
 31
0.0
  0
LINE
  5
7BE
330
7A7
100
AcDbEntity
  8
0
 62
     0
100
AcDbLine
 10
0.199137
 20
-0.356826
 30
0.0
 11
0.205029
 21
-0.350934
 31
0.0
  0
LINE
  5
7BF
330
7A7
100
AcDbEntity
  8
0
 62
     0
100
AcDbLine
 10
0.191771
 20
-0.363308
 30
0.0
 11
0.194952
 21
-0.3601269999999999
 31
0.0
  0
LINE
  5
7C0
330
7A7
100
AcDbEntity
  8
0
 62
     0
100
AcDbLine
 10
0.199137
 20
-0.355942
 30
0.0
 11
0.205029
 21
-0.35005
 31
0.0
  0
LINE
  5
7C1
330
7A7
100
AcDbEntity
  8
0
 62
     0
100
AcDbLine
 10
0.191771
 20
-0.3624239999999999
 30
0.0
 11
0.194068
 21
-0.3601269999999999
 31
0.0
  0
LINE
  5
7C2
330
7A7
100
AcDbEntity
  8
0
 62
     0
100
AcDbLine
 10
0.199137
 20
-0.355058
 30
0.0
 11
0.205029
 21
-0.3491659999999999
 31
0.0
  0
LINE
  5
7C3
330
7A7
100
AcDbEntity
  8
0
 62
     0
100
AcDbLine
 10
0.191771
 20
-0.36154
 30
0.0
 11
0.193184
 21
-0.3601269999999999
 31
0.0
  0
LINE
  5
7C4
330
7A7
100
AcDbEntity
  8
0
 62
     0
100
AcDbLine
 10
0.199137
 20
-0.354174
 30
0.0
 11
0.205029
 21
-0.348282
 31
0.0
  0
LINE
  5
7C5
330
7A7
100
AcDbEntity
  8
0
 62
     0
100
AcDbLine
 10
0.191771
 20
-0.360656
 30
0.0
 11
0.1923
 21
-0.3601269999999999
 31
0.0
  0
LINE
  5
7C6
330
7A7
100
AcDbEntity
  8
0
 62
     0
100
AcDbLine
 10
0.199137
 20
-0.353291
 30
0.0
 11
0.205029
 21
-0.347398
 31
0.0
  0
LINE
  5
7C7
330
7A7
100
AcDbEntity
  8
0
 62
     0
100
AcDbLine
 10
0.198782
 20
-0.352761
 30
0.0
 11
0.205029
 21
-0.346514
 31
0.0
  0
LINE
  5
7C8
330
7A7
100
AcDbEntity
  8
0
 62
     0
100
AcDbLine
 10
0.197898
 20
-0.352761
 30
0.0
 11
0.205029
 21
-0.34563
 31
0.0
  0
LINE
  5
7C9
330
7A7
100
AcDbEntity
  8
0
 62
     0
100
AcDbLine
 10
0.197014
 20
-0.352761
 30
0.0
 11
0.20438
 21
-0.345396
 31
0.0
  0
LINE
  5
7CA
330
7A7
100
AcDbEntity
  8
0
 62
     0
100
AcDbLine
 10
0.19613
 20
-0.352761
 30
0.0
 11
0.203496
 21
-0.345396
 31
0.0
  0
LINE
  5
7CB
330
7A7
100
AcDbEntity
  8
0
 62
     0
100
AcDbLine
 10
0.195246
 20
-0.352761
 30
0.0
 11
0.202612
 21
-0.345396
 31
0.0
  0
LINE
  5
7CC
330
7A7
100
AcDbEntity
  8
0
 62
     0
100
AcDbLine
 10
0.194362
 20
-0.352761
 30
0.0
 11
0.201728
 21
-0.345396
 31
0.0
  0
LINE
  5
7CD
330
7A7
100
AcDbEntity
  8
0
 62
     0
100
AcDbLine
 10
0.193479
 20
-0.352761
 30
0.0
 11
0.200844
 21
-0.345396
 31
0.0
  0
LINE
  5
7CE
330
7A7
100
AcDbEntity
  8
0
 62
     0
100
AcDbLine
 10
0.192595
 20
-0.352761
 30
0.0
 11
0.19996
 21
-0.345396
 31
0.0
  0
LINE
  5
7CF
330
7A7
100
AcDbEntity
  8
0
 62
     0
100
AcDbLine
 10
0.191771
 20
-0.3527010000000001
 30
0.0
 11
0.199077
 21
-0.345396
 31
0.0
  0
LINE
  5
7D0
330
7A7
100
AcDbEntity
  8
0
 62
     0
100
AcDbLine
 10
0.191771
 20
-0.351817
 30
0.0
 11
0.198193
 21
-0.345396
 31
0.0
  0
LINE
  5
7D1
330
7A7
100
AcDbEntity
  8
0
 62
     0
100
AcDbLine
 10
0.191771
 20
-0.350934
 30
0.0
 11
0.197309
 21
-0.345396
 31
0.0
  0
LINE
  5
7D2
330
7A7
100
AcDbEntity
  8
0
 62
     0
100
AcDbLine
 10
0.191771
 20
-0.35005
 30
0.0
 11
0.196425
 21
-0.345396
 31
0.0
  0
LINE
  5
7D3
330
7A7
100
AcDbEntity
  8
0
 62
     0
100
AcDbLine
 10
0.191771
 20
-0.3491659999999999
 30
0.0
 11
0.195541
 21
-0.345396
 31
0.0
  0
LINE
  5
7D4
330
7A7
100
AcDbEntity
  8
0
 62
     0
100
AcDbLine
 10
0.191771
 20
-0.348282
 30
0.0
 11
0.194657
 21
-0.345396
 31
0.0
  0
LINE
  5
7D5
330
7A7
100
AcDbEntity
  8
0
 62
     0
100
AcDbLine
 10
0.191771
 20
-0.347398
 30
0.0
 11
0.193773
 21
-0.345396
 31
0.0
  0
LINE
  5
7D6
330
7A7
100
AcDbEntity
  8
0
 62
     0
100
AcDbLine
 10
0.191771
 20
-0.346514
 30
0.0
 11
0.192889
 21
-0.345396
 31
0.0
  0
LINE
  5
7D7
330
7A7
100
AcDbEntity
  8
0
 62
     0
100
AcDbLine
 10
0.191771
 20
-0.34563
 30
0.0
 11
0.192005
 21
-0.345396
 31
0.0
  0
LINE
  5
7D8
330
7A7
100
AcDbEntity
  8
0
 62
     0
100
AcDbLine
 10
0.197309
 20
-0.367493
 30
0.0
 11
0.219406
 21
-0.345396
 31
0.0
  0
LINE
  5
7D9
330
7A7
100
AcDbEntity
  8
0
 62
     0
100
AcDbLine
 10
0.198193
 20
-0.367493
 30
0.0
 11
0.205029
 21
-0.360656
 31
0.0
  0
LINE
  5
7DA
330
7A7
100
AcDbEntity
  8
0
 62
     0
100
AcDbLine
 10
0.205558
 20
-0.3601269999999999
 30
0.0
 11
0.22029
 21
-0.345396
 31
0.0
  0
LINE
  5
7DB
330
7A7
100
AcDbEntity
  8
0
 62
     0
100
AcDbLine
 10
0.199076
 20
-0.367493
 30
0.0
 11
0.205029
 21
-0.36154
 31
0.0
  0
LINE
  5
7DC
330
7A7
100
AcDbEntity
  8
0
 62
     0
100
AcDbLine
 10
0.206442
 20
-0.3601269999999999
 30
0.0
 11
0.221174
 21
-0.345396
 31
0.0
  0
LINE
  5
7DD
330
7A7
100
AcDbEntity
  8
0
 62
     0
100
AcDbLine
 10
0.19996
 20
-0.367493
 30
0.0
 11
0.205029
 21
-0.3624239999999999
 31
0.0
  0
LINE
  5
7DE
330
7A7
100
AcDbEntity
  8
0
 62
     0
100
AcDbLine
 10
0.207326
 20
-0.3601269999999999
 30
0.0
 11
0.222058
 21
-0.345396
 31
0.0
  0
LINE
  5
7DF
330
7A7
100
AcDbEntity
  8
0
 62
     0
100
AcDbLine
 10
0.200844
 20
-0.367493
 30
0.0
 11
0.205029
 21
-0.363308
 31
0.0
  0
LINE
  5
7E0
330
7A7
100
AcDbEntity
  8
0
 62
     0
100
AcDbLine
 10
0.20821
 20
-0.3601269999999999
 30
0.0
 11
0.222941
 21
-0.345396
 31
0.0
  0
LINE
  5
7E1
330
7A7
100
AcDbEntity
  8
0
 62
     0
100
AcDbLine
 10
0.201728
 20
-0.367493
 30
0.0
 11
0.205029
 21
-0.364192
 31
0.0
  0
LINE
  5
7E2
330
7A7
100
AcDbEntity
  8
0
 62
     0
100
AcDbLine
 10
0.209094
 20
-0.3601269999999999
 30
0.0
 11
0.223825
 21
-0.345396
 31
0.0
  0
LINE
  5
7E3
330
7A7
100
AcDbEntity
  8
0
 62
     0
100
AcDbLine
 10
0.202612
 20
-0.367493
 30
0.0
 11
0.205029
 21
-0.365076
 31
0.0
  0
LINE
  5
7E4
330
7A7
100
AcDbEntity
  8
0
 62
     0
100
AcDbLine
 10
0.209978
 20
-0.3601269999999999
 30
0.0
 11
0.224709
 21
-0.345396
 31
0.0
  0
LINE
  5
7E5
330
7A7
100
AcDbEntity
  8
0
 62
     0
100
AcDbLine
 10
0.203496
 20
-0.367493
 30
0.0
 11
0.205029
 21
-0.36596
 31
0.0
  0
LINE
  5
7E6
330
7A7
100
AcDbEntity
  8
0
 62
     0
100
AcDbLine
 10
0.210862
 20
-0.3601269999999999
 30
0.0
 11
0.224917
 21
-0.346072
 31
0.0
  0
LINE
  5
7E7
330
7A7
100
AcDbEntity
  8
0
 62
     0
100
AcDbLine
 10
0.20438
 20
-0.367493
 30
0.0
 11
0.205029
 21
-0.366843
 31
0.0
  0
LINE
  5
7E8
330
7A7
100
AcDbEntity
  8
0
 62
     0
100
AcDbLine
 10
0.211658
 20
-0.360214
 30
0.0
 11
0.224917
 21
-0.346956
 31
0.0
  0
LINE
  5
7E9
330
7A7
100
AcDbEntity
  8
0
 62
     0
100
AcDbLine
 10
0.211658
 20
-0.361098
 30
0.0
 11
0.219392
 21
-0.353364
 31
0.0
  0
LINE
  5
7EA
330
7A7
100
AcDbEntity
  8
0
 62
     0
100
AcDbLine
 10
0.219995
 20
-0.352761
 30
0.0
 11
0.224917
 21
-0.34784
 31
0.0
  0
LINE
  5
7EB
330
7A7
100
AcDbEntity
  8
0
 62
     0
100
AcDbLine
 10
0.211658
 20
-0.361982
 30
0.0
 11
0.219392
 21
-0.354248
 31
0.0
  0
LINE
  5
7EC
330
7A7
100
AcDbEntity
  8
0
 62
     0
100
AcDbLine
 10
0.220879
 20
-0.352761
 30
0.0
 11
0.224917
 21
-0.348724
 31
0.0
  0
LINE
  5
7ED
330
7A7
100
AcDbEntity
  8
0
 62
     0
100
AcDbLine
 10
0.211658
 20
-0.3628659999999999
 30
0.0
 11
0.219392
 21
-0.355132
 31
0.0
  0
LINE
  5
7EE
330
7A7
100
AcDbEntity
  8
0
 62
     0
100
AcDbLine
 10
0.221763
 20
-0.352761
 30
0.0
 11
0.224917
 21
-0.349608
 31
0.0
  0
LINE
  5
7EF
330
7A7
100
AcDbEntity
  8
0
 62
     0
100
AcDbLine
 10
0.211658
 20
-0.36375
 30
0.0
 11
0.219392
 21
-0.356016
 31
0.0
  0
LINE
  5
7F0
330
7A7
100
AcDbEntity
  8
0
 62
     0
100
AcDbLine
 10
0.222647
 20
-0.352761
 30
0.0
 11
0.224917
 21
-0.350491
 31
0.0
  0
LINE
  5
7F1
330
7A7
100
AcDbEntity
  8
0
 62
     0
100
AcDbLine
 10
0.211658
 20
-0.364634
 30
0.0
 11
0.219392
 21
-0.3569
 31
0.0
  0
LINE
  5
7F2
330
7A7
100
AcDbEntity
  8
0
 62
     0
100
AcDbLine
 10
0.223531
 20
-0.352761
 30
0.0
 11
0.224917
 21
-0.351375
 31
0.0
  0
LINE
  5
7F3
330
7A7
100
AcDbEntity
  8
0
 62
     0
100
AcDbLine
 10
0.211658
 20
-0.365518
 30
0.0
 11
0.219392
 21
-0.357784
 31
0.0
  0
LINE
  5
7F4
330
7A7
100
AcDbEntity
  8
0
 62
     0
100
AcDbLine
 10
0.224415
 20
-0.352761
 30
0.0
 11
0.224917
 21
-0.352259
 31
0.0
  0
LINE
  5
7F5
330
7A7
100
AcDbEntity
  8
0
 62
     0
100
AcDbLine
 10
0.211658
 20
-0.366401
 30
0.0
 11
0.219392
 21
-0.358667
 31
0.0
  0
LINE
  5
7F6
330
7A7
100
AcDbEntity
  8
0
 62
     0
100
AcDbLine
 10
0.211658
 20
-0.3672849999999999
 30
0.0
 11
0.219392
 21
-0.359551
 31
0.0
  0
LINE
  5
7F7
330
7A7
100
AcDbEntity
  8
0
 62
     0
100
AcDbLine
 10
0.212335
 20
-0.367493
 30
0.0
 11
0.2197
 21
-0.3601269999999999
 31
0.0
  0
LINE
  5
7F8
330
7A7
100
AcDbEntity
  8
0
 62
     0
100
AcDbLine
 10
0.213219
 20
-0.367493
 30
0.0
 11
0.220584
 21
-0.3601269999999999
 31
0.0
  0
LINE
  5
7F9
330
7A7
100
AcDbEntity
  8
0
 62
     0
100
AcDbLine
 10
0.214102
 20
-0.367493
 30
0.0
 11
0.2214679999999999
 21
-0.3601269999999999
 31
0.0
  0
LINE
  5
7FA
330
7A7
100
AcDbEntity
  8
0
 62
     0
100
AcDbLine
 10
0.214986
 20
-0.367493
 30
0.0
 11
0.222352
 21
-0.3601269999999999
 31
0.0
  0
LINE
  5
7FB
330
7A7
100
AcDbEntity
  8
0
 62
     0
100
AcDbLine
 10
0.21587
 20
-0.367493
 30
0.0
 11
0.223236
 21
-0.3601269999999999
 31
0.0
  0
LINE
  5
7FC
330
7A7
100
AcDbEntity
  8
0
 62
     0
100
AcDbLine
 10
0.216754
 20
-0.367493
 30
0.0
 11
0.22412
 21
-0.3601269999999999
 31
0.0
  0
LINE
  5
7FD
330
7A7
100
AcDbEntity
  8
0
 62
     0
100
AcDbLine
 10
0.217638
 20
-0.367493
 30
0.0
 11
0.224917
 21
-0.360214
 31
0.0
  0
LINE
  5
7FE
330
7A7
100
AcDbEntity
  8
0
 62
     0
100
AcDbLine
 10
0.218522
 20
-0.367493
 30
0.0
 11
0.224917
 21
-0.361098
 31
0.0
  0
LINE
  5
7FF
330
7A7
100
AcDbEntity
  8
0
 62
     0
100
AcDbLine
 10
0.219406
 20
-0.367493
 30
0.0
 11
0.224917
 21
-0.361982
 31
0.0
  0
LINE
  5
800
330
7A7
100
AcDbEntity
  8
0
 62
     0
100
AcDbLine
 10
0.22029
 20
-0.367493
 30
0.0
 11
0.224917
 21
-0.3628659999999999
 31
0.0
  0
LINE
  5
801
330
7A7
100
AcDbEntity
  8
0
 62
     0
100
AcDbLine
 10
0.221174
 20
-0.367493
 30
0.0
 11
0.224917
 21
-0.36375
 31
0.0
  0
LINE
  5
802
330
7A7
100
AcDbEntity
  8
0
 62
     0
100
AcDbLine
 10
0.222057
 20
-0.367493
 30
0.0
 11
0.224917
 21
-0.364634
 31
0.0
  0
LINE
  5
803
330
7A7
100
AcDbEntity
  8
0
 62
     0
100
AcDbLine
 10
0.222941
 20
-0.367493
 30
0.0
 11
0.224917
 21
-0.365518
 31
0.0
  0
LINE
  5
804
330
7A7
100
AcDbEntity
  8
0
 62
     0
100
AcDbLine
 10
0.223825
 20
-0.367493
 30
0.0
 11
0.224917
 21
-0.366401
 31
0.0
  0
LINE
  5
805
330
7A7
100
AcDbEntity
  8
0
 62
     0
100
AcDbLine
 10
0.224709
 20
-0.367493
 30
0.0
 11
0.224917
 21
-0.3672849999999999
 31
0.0
  0
ENDBLK
  5
806
330
7A7
100
AcDbEntity
  8
0
100
AcDbBlockEnd
  0
BLOCK
  5
808
330
807
100
AcDbEntity
  8
0
100
AcDbBlockBegin
  2
PROPRIETARYDRAWINGNOTICE
 70
     0
 10
0.0
 20
0.0
 30
0.0
  3
PROPRIETARYDRAWINGNOTICE
  1

  0
TEXT
  5
809
330
807
100
AcDbEntity
  8
TITLEBOX
100
AcDbText
 10
-0.06467
 20
0.00182
 30
0.0
 40
0.003969
  1
shall not be traced, otherwise copied
100
AcDbText
  0
TEXT
  5
80A
330
807
100
AcDbEntity
  8
TITLEBOX
100
AcDbText
 10
-0.06467
 20
-0.01141
 30
0.0
 40
0.003969
  1
agreed upon, nor communicated to any
100
AcDbText
  0
TEXT
  5
80B
330
807
100
AcDbEntity
  8
TITLEBOX
100
AcDbText
 10
-0.06467
 20
-0.018025
 30
0.0
 40
0.003969
  1
third party without written permission
100
AcDbText
  0
TEXT
  5
80C
330
807
100
AcDbEntity
  8
TITLEBOX
100
AcDbText
 10
-0.06467
 20
0.01505
 30
0.0
 40
0.003969
  1
This drawing (document) is the 
100
AcDbText
  0
TEXT
  5
80D
330
807
100
AcDbEntity
  8
TITLEBOX
100
AcDbText
 10
-0.06467
 20
-0.02464
 30
0.0
 40
0.003969
  1
from HD Systems, Inc.
100
AcDbText
  0
TEXT
  5
80E
330
807
100
AcDbEntity
  8
TITLEBOX
100
AcDbText
 10
-0.064139
 20
0.023629
 30
0.0
 40
0.006075
  1
PROPRIETARY DRAWING
100
AcDbText
  0
TEXT
  5
80F
330
807
100
AcDbEntity
  8
TITLEBOX
100
AcDbText
 10
-0.06467
 20
-0.004795
 30
0.0
 40
0.003969
  1
or used for purposes other than
100
AcDbText
  0
TEXT
  5
810
330
807
100
AcDbEntity
  8
TITLEBOX
100
AcDbText
 10
-0.06467
 20
0.008435
 30
0.0
 40
0.003969
  1
property of HD Systems, Inc. and 
100
AcDbText
  0
LINE
  5
811
330
807
100
AcDbEntity
  8
TITLEBOX
100
AcDbLine
 10
-0.069021
 20
-0.028775
 30
0.0
 11
-0.069021
 21
0.033374
 31
0.0
  0
LINE
  5
812
330
807
100
AcDbEntity
  8
TITLEBOX
100
AcDbLine
 10
-0.069021
 20
0.033374
 30
0.0
 11
0.082382
 21
0.033374
 31
0.0
  0
LINE
  5
813
330
807
100
AcDbEntity
  8
TITLEBOX
100
AcDbLine
 10
0.082382
 20
0.033374
 30
0.0
 11
0.082382
 21
-0.028775
 31
0.0
  0
LINE
  5
814
330
807
100
AcDbEntity
  8
TITLEBOX
100
AcDbLine
 10
0.082382
 20
-0.028775
 30
0.0
 11
-0.069021
 21
-0.028775
 31
0.0
  0
ENDBLK
  5
815
330
807
100
AcDbEntity
  8
0
100
AcDbBlockEnd
  0
BLOCK
  5
982
330
97F
100
AcDbEntity
  8
0
 62
     7
100
AcDbBlockBegin
  2
AI9-BLK14
 70
     0
 10
0.0
 20
0.0
 30
0.0
  3
AI9-BLK14
  1

  0
SPLINE
  5
980
330
97F
100
AcDbEntity
  8
LAYER_1
 62
     7
100
AcDbSpline
210
0.0
220
0.0
230
1.0
 70
    11
 71
     3
 72
    23
 73
    19
 74
     0
 42
0.0000000001
 43
0.0000000001
 40
0.0
 40
0.0
 40
0.0
 40
0.0
 40
1.0
 40
1.0
 40
1.0
 40
2.0
 40
2.0
 40
2.0
 40
3.0
 40
3.0
 40
3.0
 40
4.0
 40
4.0
 40
4.0
 40
5.0
 40
5.0
 40
5.0
 40
6.0
 40
6.0
 40
6.0
 40
6.0
 10
-10.90321044921874
 20
10.88107571072048
 30
0.0
 10
-10.90321044921874
 20
10.88107571072048
 30
0.0
 10
-10.90321044921874
 20
-10.88107571072048
 30
0.0
 10
-10.90321044921874
 20
-10.88107571072048
 30
0.0
 10
-10.90321044921874
 20
-10.88107571072048
 30
0.0
 10
1.752692328559025
 20
-10.88107571072048
 30
0.0
 10
1.752692328559025
 20
-10.88107571072048
 30
0.0
 10
3.280592176649305
 20
-10.88107571072048
 30
0.0
 10
10.90321044921874
 20
-10.32383151584201
 30
0.0
 10
10.90321044921874
 20
0.6792867024739583
 30
0.0
 10
10.90321044921874
 20
10.61700914171006
 30
0.0
 10
2.773129611545138
 20
10.87952541775172
 30
0.0
 10
2.691136338975693
 20
10.88090345594618
 30
0.0
 10
2.691136338975693
 20
10.88090345594618
 30
0.0
 10
-9.903099229600693
 20
10.88107571072048
 30
0.0
 10
-9.903099229600693
 20
10.88107571072048
 30
0.0
 10
-9.903099229600693
 20
10.88107571072048
 30
0.0
 10
-10.90321044921874
 20
10.88107571072048
 30
0.0
 10
-10.90321044921874
 20
10.88107571072048
 30
0.0
  0
SPLINE
  5
981
330
97F
100
AcDbEntity
  8
LAYER_1
 62
     7
100
AcDbSpline
210
0.0
220
0.0
230
1.0
 70
    11
 71
     3
 72
    20
 73
    16
 74
     0
 42
0.0000000001
 43
0.0000000001
 40
0.0
 40
0.0
 40
0.0
 40
0.0
 40
1.0
 40
1.0
 40
1.0
 40
2.0
 40
2.0
 40
2.0
 40
3.0
 40
3.0
 40
3.0
 40
4.0
 40
4.0
 40
4.0
 40
5.0
 40
5.0
 40
5.0
 40
5.0
 10
2.672877332899305
 20
8.881197781032986
 30
0.0
 10
2.905421278211805
 20
8.874307590060762
 30
0.0
 10
8.902988009982637
 20
8.616442192925347
 30
0.0
 10
8.902988009982637
 20
0.6792867024739583
 30
0.0
 10
8.902988009982637
 20
-8.191661919487842
 30
0.0
 10
3.430109320746526
 20
-8.881197781032986
 30
0.0
 10
1.752692328559025
 20
-8.881197781032986
 30
0.0
 10
1.752692328559025
 20
-8.881197781032986
 30
0.0
 10
-7.231427680121528
 20
-8.881197781032986
 30
0.0
 10
-8.902988009982637
 20
-8.881197781032986
 30
0.0
 10
-8.902988009982637
 20
-7.174497477213541
 30
0.0
 10
-8.902988009982637
 20
7.174497477213541
 30
0.0
 10
-8.902988009982637
 20
8.881197781032986
 30
0.0
 10
-7.208690049913191
 20
8.881197781032986
 30
0.0
 10
2.672877332899305
 20
8.881197781032986
 30
0.0
 10
2.672877332899305
 20
8.881197781032986
 30
0.0
  0
ENDBLK
  5
983
330
97F
100
AcDbEntity
  8
0
100
AcDbBlockEnd
  0
BLOCK
  5
987
330
984
100
AcDbEntity
  8
0
 62
     7
100
AcDbBlockBegin
  2
AI9-BLK13
 70
     0
 10
0.0
 20
0.0
 30
0.0
  3
AI9-BLK13
  1

  0
LWPOLYLINE
  5
985
330
984
100
AcDbEntity
  8
LAYER_1
 62
     7
100
AcDbPolyline
 90
       12
 70
     1
 43
0.0
 10
-3.792361111111108
 20
10.7376736111111
 10
-2.469444444444443
 20
10.7376736111111
 10
-2.469444444444443
 20
1.874131944444444
 10
2.469444444444443
 20
1.874131944444444
 10
2.469444444444443
 20
10.7376736111111
 10
3.792361111111108
 20
10.7376736111111
 10
3.792361111111108
 20
-10.7376736111111
 10
2.469444444444443
 20
-10.7376736111111
 10
2.469444444444443
 20
-0.6835069444444444
 10
-2.469444444444443
 20
-0.6835069444444444
 10
-2.469444444444443
 20
-10.7376736111111
 10
-3.792361111111108
 20
-10.7376736111111
  0
HATCH
  5
986
330
984
100
AcDbEntity
  8
LAYER_1
 62
     7
100
AcDbHatch
 10
0.0
 20
0.0
 30
0.0
210
0.0
220
0.0
230
1.0
  2
SOLID
 70
     1
 71
     0
 91
        1
 92
        3
 72
     0
 73
     1
 93
       12
 10
-3.792361111111108
 20
10.7376736111111
 10
-2.469444444444443
 20
10.7376736111111
 10
-2.469444444444443
 20
1.874131944444444
 10
2.469444444444443
 20
1.874131944444444
 10
2.469444444444443
 20
10.7376736111111
 10
3.792361111111108
 20
10.7376736111111
 10
3.792361111111108
 20
-10.7376736111111
 10
2.469444444444443
 20
-10.7376736111111
 10
2.469444444444443
 20
-0.6835069444444444
 10
-2.469444444444443
 20
-0.6835069444444444
 10
-2.469444444444443
 20
-10.7376736111111
 10
-3.792361111111108
 20
-10.7376736111111
 97
        0
 75
     2
 76
     1
 98
        1
 10
0.0
 20
0.0
  0
ENDBLK
  5
988
330
984
100
AcDbEntity
  8
0
100
AcDbBlockEnd
  0
BLOCK
  5
98C
330
989
100
AcDbEntity
  8
0
 62
     7
100
AcDbBlockBegin
  2
AI9-BLK11
 70
     0
 10
0.0
 20
0.0
 30
0.0
  3
AI9-BLK11
  1

  0
SPLINE
  5
98A
330
989
100
AcDbEntity
  8
LAYER_1
 62
     7
100
AcDbSpline
210
0.0
220
0.0
230
1.0
 70
    11
 71
     3
 72
    26
 73
    22
 74
     0
 42
0.0000000001
 43
0.0000000001
 40
0.0
 40
0.0
 40
0.0
 40
0.0
 40
1.0
 40
1.0
 40
1.0
 40
2.0
 40
2.0
 40
2.0
 40
3.0
 40
3.0
 40
3.0
 40
4.0
 40
4.0
 40
4.0
 40
5.0
 40
5.0
 40
5.0
 40
6.0
 40
6.0
 40
6.0
 40
7.0
 40
7.0
 40
7.0
 40
7.0
 10
-2.645833333333333
 20
0.9039930555555551
 30
0.0
 10
-2.645833333333333
 20
0.9039930555555551
 30
0.0
 10
-2.645833333333333
 20
8.180034722222217
 30
0.0
 10
-2.645833333333333
 20
8.180034722222217
 30
0.0
 10
-2.645833333333333
 20
8.180034722222217
 30
0.0
 10
0.465087890625
 20
8.180034722222217
 30
0.0
 10
0.465087890625
 20
8.180034722222217
 30
0.0
 10
0.9026150173611108
 20
8.180034722222217
 30
0.0
 10
1.24988064236111
 20
8.034651692708331
 30
0.0
 10
1.506884765625
 20
7.745263671874997
 30
0.0
 10
2.001600477430554
 20
7.194048394097221
 30
0.0
 10
2.248958333333332
 20
6.160519748263887
 30
0.0
 10
2.248958333333332
 20
4.643299696180553
 30
0.0
 10
2.248958333333332
 20
3.232188585069443
 30
0.0
 10
2.072569444444444
 20
2.256537543402775
 30
0.0
 10
1.720480685763888
 20
1.715657552083333
 30
0.0
 10
1.368391927083333
 20
1.174088541666665
 30
0.0
 10
0.8929687499999998
 20
0.9039930555555551
 30
0.0
 10
0.2942111545138888
 20
0.9039930555555551
 30
0.0
 10
0.2942111545138888
 20
0.9039930555555551
 30
0.0
 10
-2.645833333333333
 20
0.9039930555555551
 30
0.0
 10
-2.645833333333333
 20
0.9039930555555551
 30
0.0
  0
SPLINE
  5
98B
330
989
100
AcDbEntity
  8
LAYER_1
 62
     7
100
AcDbSpline
210
0.0
220
0.0
230
1.0
 70
    11
 71
     3
 72
    68
 73
    64
 74
     0
 42
0.0000000001
 43
0.0000000001
 40
0.0
 40
0.0
 40
0.0
 40
0.0
 40
1.0
 40
1.0
 40
1.0
 40
2.0
 40
2.0
 40
2.0
 40
3.0
 40
3.0
 40
3.0
 40
4.0
 40
4.0
 40
4.0
 40
5.0
 40
5.0
 40
5.0
 40
6.0
 40
6.0
 40
6.0
 40
7.0
 40
7.0
 40
7.0
 40
8.0
 40
8.0
 40
8.0
 40
9.0
 40
9.0
 40
9.0
 40
10.0
 40
10.0
 40
10.0
 40
11.0
 40
11.0
 40
11.0
 40
12.0
 40
12.0
 40
12.0
 40
13.0
 40
13.0
 40
13.0
 40
14.0
 40
14.0
 40
14.0
 40
15.0
 40
15.0
 40
15.0
 40
16.0
 40
16.0
 40
16.0
 40
17.0
 40
17.0
 40
17.0
 40
18.0
 40
18.0
 40
18.0
 40
19.0
 40
19.0
 40
19.0
 40
20.0
 40
20.0
 40
20.0
 40
21.0
 40
21.0
 40
21.0
 40
21.0
 10
-3.968749999999998
 20
-10.7376736111111
 30
0.0
 10
-3.968749999999998
 20
-10.7376736111111
 30
0.0
 10
-2.645833333333333
 20
-10.7376736111111
 30
0.0
 10
-2.645833333333333
 20
-10.7376736111111
 30
0.0
 10
-2.645833333333333
 20
-10.7376736111111
 30
0.0
 10
-2.645833333333333
 20
-1.521354166666665
 30
0.0
 10
-2.645833333333333
 20
-1.521354166666665
 30
0.0
 10
-2.645833333333333
 20
-1.521354166666665
 30
0.0
 10
0.2390896267361111
 20
-1.521354166666665
 30
0.0
 10
0.2390896267361111
 20
-1.521354166666665
 30
0.0
 10
0.7599880642361111
 20
-1.521354166666665
 30
0.0
 10
1.143771701388887
 20
-1.65295681423611
 30
0.0
 10
1.390440538194444
 20
-1.916162109374999
 30
0.0
 10
1.816254340277775
 20
-2.39434136284722
 30
0.0
 10
2.04363064236111
 20
-3.335541449652775
 30
0.0
 10
2.072569444444444
 20
-4.739762369791666
 30
0.0
 10
2.072569444444444
 20
-4.739762369791666
 30
0.0
 10
2.160763888888888
 20
-8.324039713541665
 30
0.0
 10
2.160763888888888
 20
-8.324039713541665
 30
0.0
 10
2.18005642361111
 20
-9.163264973958332
 30
0.0
 10
2.202794053819443
 20
-9.728949652777775
 30
0.0
 10
2.227598741319444
 20
-10.02109374999998
 30
0.0
 10
2.252403428819443
 20
-10.31392686631944
 30
0.0
 10
2.28892144097222
 20
-10.55301649305555
 30
0.0
 10
2.33853081597222
 20
-10.7376736111111
 30
0.0
 10
2.33853081597222
 20
-10.7376736111111
 30
0.0
 10
3.968749999999998
 20
-10.7376736111111
 30
0.0
 10
3.968749999999998
 20
-10.7376736111111
 30
0.0
 10
3.968749999999998
 20
-10.7376736111111
 30
0.0
 10
3.968749999999998
 20
-10.25260416666666
 30
0.0
 10
3.968749999999998
 20
-10.25260416666666
 30
0.0
 10
3.766867404513888
 20
-10.05830078125
 30
0.0
 10
3.625618489583333
 20
-9.621462673611112
 30
0.0
 10
3.545692274305555
 20
-8.942089843749997
 30
0.0
 10
3.49470486111111
 20
-8.543836805555555
 30
0.0
 10
3.459564887152775
 20
-7.937499999999999
 30
0.0
 10
3.439583333333333
 20
-7.121701388888887
 30
0.0
 10
3.439583333333333
 20
-7.121701388888887
 30
0.0
 10
3.395486111111108
 20
-4.232644314236108
 30
0.0
 10
3.395486111111108
 20
-4.232644314236108
 30
0.0
 10
3.375504557291666
 20
-2.981385633680555
 30
0.0
 10
3.26870659722222
 20
-2.077392578125
 30
0.0
 10
3.075781249999999
 20
-1.522043185763888
 30
0.0
 10
2.882166883680555
 20
-0.9666937934027776
 30
0.0
 10
2.592089843749999
 20
-0.5188313802083333
 30
0.0
 10
2.204861111111108
 20
-0.1770779079861111
 30
0.0
 10
2.63618706597222
 20
0.3197048611111111
 30
0.0
 10
2.971739366319443
 20
0.9770290798611107
 30
0.0
 10
3.211518012152775
 20
1.79558376736111
 30
0.0
 10
3.451296657986108
 20
2.613449435763888
 30
0.0
 10
3.571874999999999
 20
3.66558159722222
 30
0.0
 10
3.571874999999999
 20
4.951291232638888
 30
0.0
 10
3.571874999999999
 20
7.415912543402777
 30
0.0
 10
3.124701605902775
 20
9.106076388888887
 30
0.0
 10
2.231043836805555
 20
10.02178276909722
 30
0.0
 10
1.759754774305553
 20
10.498583984375
 30
0.0
 10
1.163753255208332
 20
10.7376736111111
 30
0.0
 10
0.443039279513889
 20
10.7376736111111
 30
0.0
 10
0.443039279513889
 20
10.7376736111111
 30
0.0
 10
-3.968749999999998
 20
10.7376736111111
 30
0.0
 10
-3.968749999999998
 20
10.7376736111111
 30
0.0
 10
-3.968749999999998
 20
10.7376736111111
 30
0.0
 10
-3.968749999999998
 20
-10.7376736111111
 30
0.0
 10
-3.968749999999998
 20
-10.7376736111111
 30
0.0
  0
ENDBLK
  5
98D
330
989
100
AcDbEntity
  8
0
100
AcDbBlockEnd
  0
BLOCK
  5
990
330
98E
100
AcDbEntity
  8
0
 62
     7
100
AcDbBlockBegin
  2
AI9-BLK10
 70
     0
 10
0.0
 20
0.0
 30
0.0
  3
AI9-BLK10
  1

  0
SPLINE
  5
98F
330
98E
100
AcDbEntity
  8
LAYER_1
 62
     7
100
AcDbSpline
210
0.0
220
0.0
230
1.0
 70
    11
 71
     3
 72
    59
 73
    55
 74
     0
 42
0.0000000001
 43
0.0000000001
 40
0.0
 40
0.0
 40
0.0
 40
0.0
 40
1.0
 40
1.0
 40
1.0
 40
2.0
 40
2.0
 40
2.0
 40
3.0
 40
3.0
 40
3.0
 40
4.0
 40
4.0
 40
4.0
 40
5.0
 40
5.0
 40
5.0
 40
6.0
 40
6.0
 40
6.0
 40
7.0
 40
7.0
 40
7.0
 40
8.0
 40
8.0
 40
8.0
 40
9.0
 40
9.0
 40
9.0
 40
10.0
 40
10.0
 40
10.0
 40
11.0
 40
11.0
 40
11.0
 40
12.0
 40
12.0
 40
12.0
 40
13.0
 40
13.0
 40
13.0
 40
14.0
 40
14.0
 40
14.0
 40
15.0
 40
15.0
 40
15.0
 40
16.0
 40
16.0
 40
16.0
 40
17.0
 40
17.0
 40
17.0
 40
18.0
 40
18.0
 40
18.0
 40
18.0
 10
-4.652256944444443
 20
10.7376736111111
 30
0.0
 10
-4.652256944444443
 20
10.7376736111111
 30
0.0
 10
-2.798795572916666
 20
10.7376736111111
 30
0.0
 10
-2.798795572916666
 20
10.7376736111111
 30
0.0
 10
-2.798795572916666
 20
10.7376736111111
 30
0.0
 10
0.0
 20
-7.419357638888887
 30
0.0
 10
0.0
 20
-7.419357638888887
 30
0.0
 10
0.0
 20
-7.419357638888887
 30
0.0
 10
2.793283420138888
 20
10.7376736111111
 30
0.0
 10
2.793283420138888
 20
10.7376736111111
 30
0.0
 10
2.793283420138888
 20
10.7376736111111
 30
0.0
 10
4.652256944444443
 20
10.7376736111111
 30
0.0
 10
4.652256944444443
 20
10.7376736111111
 30
0.0
 10
4.652256944444443
 20
10.7376736111111
 30
0.0
 10
4.652256944444443
 20
-10.7376736111111
 30
0.0
 10
4.652256944444443
 20
-10.7376736111111
 30
0.0
 10
4.652256944444443
 20
-10.7376736111111
 30
0.0
 10
3.41753472222222
 20
-10.7376736111111
 30
0.0
 10
3.41753472222222
 20
-10.7376736111111
 30
0.0
 10
3.41753472222222
 20
-10.7376736111111
 30
0.0
 10
3.41753472222222
 20
1.936832682291665
 30
0.0
 10
3.41753472222222
 20
1.936832682291665
 30
0.0
 10
3.41753472222222
 20
2.375048828124999
 30
0.0
 10
3.424424913194443
 20
3.101274956597221
 30
0.0
 10
3.439583333333333
 20
4.11482204861111
 30
0.0
 10
3.454052734374998
 20
5.128369140624998
 30
0.0
 10
3.461631944444443
 20
6.214952256944441
 30
0.0
 10
3.461631944444443
 20
7.375260416666666
 30
0.0
 10
3.461631944444443
 20
7.375260416666666
 30
0.0
 10
0.6538791232638889
 20
-10.7376736111111
 30
0.0
 10
0.6538791232638889
 20
-10.7376736111111
 30
0.0
 10
0.6538791232638889
 20
-10.7376736111111
 30
0.0
 10
-0.6628363715277778
 20
-10.7376736111111
 30
0.0
 10
-0.6628363715277778
 20
-10.7376736111111
 30
0.0
 10
-0.6628363715277778
 20
-10.7376736111111
 30
0.0
 10
-3.461631944444443
 20
7.375260416666666
 30
0.0
 10
-3.461631944444443
 20
7.375260416666666
 30
0.0
 10
-3.461631944444443
 20
7.375260416666666
 30
0.0
 10
-3.461631944444443
 20
6.717247178819441
 30
0.0
 10
-3.461631944444443
 20
6.717247178819441
 30
0.0
 10
-3.461631944444443
 20
6.190836588541666
 30
0.0
 10
-3.45474175347222
 20
5.389507378472222
 30
0.0
 10
-3.439583333333333
 20
4.312570529513888
 30
0.0
 10
-3.425113932291666
 20
3.235633680555555
 30
0.0
 10
-3.41753472222222
 20
2.44395073784722
 30
0.0
 10
-3.41753472222222
 20
1.936832682291665
 30
0.0
 10
-3.41753472222222
 20
1.936832682291665
 30
0.0
 10
-3.41753472222222
 20
-10.7376736111111
 30
0.0
 10
-3.41753472222222
 20
-10.7376736111111
 30
0.0
 10
-3.41753472222222
 20
-10.7376736111111
 30
0.0
 10
-4.652256944444443
 20
-10.7376736111111
 30
0.0
 10
-4.652256944444443
 20
-10.7376736111111
 30
0.0
 10
-4.652256944444443
 20
-10.7376736111111
 30
0.0
 10
-4.652256944444443
 20
10.7376736111111
 30
0.0
 10
-4.652256944444443
 20
10.7376736111111
 30
0.0
  0
ENDBLK
  5
991
330
98E
100
AcDbEntity
  8
0
100
AcDbBlockEnd
  0
BLOCK
  5
995
330
992
100
AcDbEntity
  8
0
 62
     7
100
AcDbBlockBegin
  2
AI9-BLK9
 70
     0
 10
0.0
 20
0.0
 30
0.0
  3
AI9-BLK9
  1

  0
SPLINE
  5
993
330
992
100
AcDbEntity
  8
LAYER_1
 62
     7
100
AcDbSpline
210
0.0
220
0.0
230
1.0
 70
    11
 71
     3
 72
    29
 73
    25
 74
     0
 42
0.0000000001
 43
0.0000000001
 40
0.0
 40
0.0
 40
0.0
 40
0.0
 40
1.0
 40
1.0
 40
1.0
 40
2.0
 40
2.0
 40
2.0
 40
3.0
 40
3.0
 40
3.0
 40
4.0
 40
4.0
 40
4.0
 40
5.0
 40
5.0
 40
5.0
 40
6.0
 40
6.0
 40
6.0
 40
7.0
 40
7.0
 40
7.0
 40
8.0
 40
8.0
 40
8.0
 40
8.0
 10
0.0668348524305556
 20
-8.753298611111111
 30
0.0
 10
-0.9067491319444444
 20
-8.753298611111111
 30
0.0
 10
-1.60954861111111
 20
-7.936810980902778
 30
0.0
 10
-2.041563585069444
 20
-6.30383572048611
 30
0.0
 10
-2.474267578124999
 20
-4.670860460069443
 30
0.0
 10
-2.689930555555555
 20
-2.664436848958333
 30
0.0
 10
-2.689930555555555
 20
-0.28525390625
 30
0.0
 10
-2.689930555555555
 20
2.68855251736111
 30
0.0
 10
-2.439127604166666
 20
4.938199869791666
 30
0.0
 10
-1.937521701388888
 20
6.464377170138886
 30
0.0
 10
-1.43591579861111
 20
7.989865451388887
 30
0.0
 10
-0.7827256944444444
 20
8.753298611111111
 30
0.0
 10
0.0220486111111111
 20
8.753298611111111
 30
0.0
 10
0.8468044704861108
 20
8.753298611111111
 30
0.0
 10
1.49792751736111
 20
7.982975260416663
 30
0.0
 10
1.974728732638888
 20
6.442328559027776
 30
0.0
 10
2.451529947916665
 20
4.901681857638886
 30
0.0
 10
2.689930555555555
 20
2.868386501736111
 30
0.0
 10
2.689930555555555
 20
0.3438205295138888
 30
0.0
 10
2.689930555555555
 20
-2.045697699652775
 30
0.0
 10
2.483224826388886
 20
-4.15891927083333
 30
0.0
 10
2.071191406249999
 20
-5.996533203124998
 30
0.0
 10
1.65915798611111
 20
-7.834836154513887
 30
0.0
 10
0.9908094618055557
 20
-8.753298611111111
 30
0.0
 10
0.0668348524305556
 20
-8.753298611111111
 30
0.0
  0
SPLINE
  5
994
330
992
100
AcDbEntity
  8
LAYER_1
 62
     7
100
AcDbSpline
210
0.0
220
0.0
230
1.0
 70
    11
 71
     3
 72
    29
 73
    25
 74
     0
 42
0.0000000001
 43
0.0000000001
 40
0.0
 40
0.0
 40
0.0
 40
0.0
 40
1.0
 40
1.0
 40
1.0
 40
2.0
 40
2.0
 40
2.0
 40
3.0
 40
3.0
 40
3.0
 40
4.0
 40
4.0
 40
4.0
 40
5.0
 40
5.0
 40
5.0
 40
6.0
 40
6.0
 40
6.0
 40
7.0
 40
7.0
 40
7.0
 40
8.0
 40
8.0
 40
8.0
 40
8.0
 10
-0.0289388020833333
 20
11.35503472222222
 30
0.0
 10
-1.317404513888887
 20
11.35503472222222
 30
0.0
 10
-2.28892144097222
 20
10.02798394097222
 30
0.0
 10
-2.94280056423611
 20
7.374571397569441
 30
0.0
 10
-3.450607638888888
 20
5.30613606770833
 30
0.0
 10
-3.704166666666666
 20
2.81877712673611
 30
0.0
 10
-3.704166666666666
 20
-0.0881944444444445
 30
0.0
 10
-3.704166666666666
 20
-3.307291666666666
 30
0.0
 10
-3.406510416666666
 20
-5.970350477430553
 30
0.0
 10
-2.811197916666666
 20
-8.077370876736106
 30
0.0
 10
-2.147672526041664
 20
-10.26293945312499
 30
0.0
 10
-1.229899088541666
 20
-11.35503472222222
 30
0.0
 10
-0.0585666232638889
 20
-11.35503472222222
 30
0.0
 10
1.20027126736111
 20
-11.35503472222222
 30
0.0
 10
2.166276041666665
 20
-10.10653211805555
 30
0.0
 10
2.840136718749998
 20
-7.609526909722221
 30
0.0
 10
3.416156684027776
 20
-5.483213975694441
 30
0.0
 10
3.704166666666666
 20
-2.814643012152775
 30
0.0
 10
3.704166666666666
 20
0.3948079427083333
 30
0.0
 10
3.704166666666666
 20
3.360346137152776
 30
0.0
 10
3.449918619791666
 20
5.793961588541666
 30
0.0
 10
2.94280056423611
 20
7.696343315972222
 30
0.0
 10
2.298567708333333
 20
10.13547092013888
 30
0.0
 10
1.307758246527777
 20
11.35503472222222
 30
0.0
 10
-0.0289388020833333
 20
11.35503472222222
 30
0.0
  0
ENDBLK
  5
996
330
992
100
AcDbEntity
  8
0
100
AcDbBlockEnd
  0
BLOCK
  5
99A
330
997
100
AcDbEntity
  8
0
 62
     7
100
AcDbBlockBegin
  2
AI9-BLK8
 70
     0
 10
0.0
 20
0.0
 30
0.0
  3
AI9-BLK8
  1

  0
LWPOLYLINE
  5
998
330
997
100
AcDbEntity
  8
LAYER_1
 62
     7
100
AcDbPolyline
 90
       10
 70
     1
 43
0.0
 10
-3.792361111111108
 20
10.7376736111111
 10
-2.268939887152775
 20
10.7376736111111
 10
2.557638888888888
 20
-6.505718315972222
 10
2.557638888888888
 20
10.7376736111111
 10
3.792361111111108
 20
10.7376736111111
 10
3.792361111111108
 20
-10.7376736111111
 10
2.32612847222222
 20
-10.7376736111111
 10
-2.557638888888888
 20
6.549815538194441
 10
-2.557638888888888
 20
-10.7376736111111
 10
-3.792361111111108
 20
-10.7376736111111
  0
HATCH
  5
999
330
997
100
AcDbEntity
  8
LAYER_1
 62
     7
100
AcDbHatch
 10
0.0
 20
0.0
 30
0.0
210
0.0
220
0.0
230
1.0
  2
SOLID
 70
     1
 71
     0
 91
        1
 92
        3
 72
     0
 73
     1
 93
       10
 10
-3.792361111111108
 20
10.7376736111111
 10
-2.268939887152775
 20
10.7376736111111
 10
2.557638888888888
 20
-6.505718315972222
 10
2.557638888888888
 20
10.7376736111111
 10
3.792361111111108
 20
10.7376736111111
 10
3.792361111111108
 20
-10.7376736111111
 10
2.32612847222222
 20
-10.7376736111111
 10
-2.557638888888888
 20
6.549815538194441
 10
-2.557638888888888
 20
-10.7376736111111
 10
-3.792361111111108
 20
-10.7376736111111
 97
        0
 75
     2
 76
     1
 98
        1
 10
0.0
 20
0.0
  0
ENDBLK
  5
99B
330
997
100
AcDbEntity
  8
0
100
AcDbBlockEnd
  0
BLOCK
  5
99F
330
99C
100
AcDbEntity
  8
0
 62
     7
100
AcDbBlockBegin
  2
AI9-BLK7
 70
     0
 10
0.0
 20
0.0
 30
0.0
  3
AI9-BLK7
  1

  0
LWPOLYLINE
  5
99D
330
99C
100
AcDbEntity
  8
LAYER_1
 62
     7
100
AcDbPolyline
 90
        4
 70
     1
 43
0.0
 10
-0.6614583333333333
 20
10.7376736111111
 10
0.6614583333333333
 20
10.7376736111111
 10
0.6614583333333333
 20
-10.7376736111111
 10
-0.6614583333333333
 20
-10.7376736111111
  0
HATCH
  5
99E
330
99C
100
AcDbEntity
  8
LAYER_1
 62
     7
100
AcDbHatch
 10
0.0
 20
0.0
 30
0.0
210
0.0
220
0.0
230
1.0
  2
SOLID
 70
     1
 71
     0
 91
        1
 92
        3
 72
     0
 73
     1
 93
        4
 10
-0.6614583333333333
 20
10.7376736111111
 10
0.6614583333333333
 20
10.7376736111111
 10
0.6614583333333333
 20
-10.7376736111111
 10
-0.6614583333333333
 20
-10.7376736111111
 97
        0
 75
     2
 76
     1
 98
        1
 10
0.0
 20
0.0
  0
ENDBLK
  5
9A0
330
99C
100
AcDbEntity
  8
0
100
AcDbBlockEnd
  0
BLOCK
  5
9A3
330
9A1
100
AcDbEntity
  8
0
 62
     7
100
AcDbBlockBegin
  2
AI9-BLK6
 70
     0
 10
0.0
 20
0.0
 30
0.0
  3
AI9-BLK6
  1

  0
SPLINE
  5
9A2
330
9A1
100
AcDbEntity
  8
LAYER_1
 62
     7
100
AcDbSpline
210
0.0
220
0.0
230
1.0
 70
    11
 71
     3
 72
    59
 73
    55
 74
     0
 42
0.0000000001
 43
0.0000000001
 40
0.0
 40
0.0
 40
0.0
 40
0.0
 40
1.0
 40
1.0
 40
1.0
 40
2.0
 40
2.0
 40
2.0
 40
3.0
 40
3.0
 40
3.0
 40
4.0
 40
4.0
 40
4.0
 40
5.0
 40
5.0
 40
5.0
 40
6.0
 40
6.0
 40
6.0
 40
7.0
 40
7.0
 40
7.0
 40
8.0
 40
8.0
 40
8.0
 40
9.0
 40
9.0
 40
9.0
 40
10.0
 40
10.0
 40
10.0
 40
11.0
 40
11.0
 40
11.0
 40
12.0
 40
12.0
 40
12.0
 40
13.0
 40
13.0
 40
13.0
 40
14.0
 40
14.0
 40
14.0
 40
15.0
 40
15.0
 40
15.0
 40
16.0
 40
16.0
 40
16.0
 40
17.0
 40
17.0
 40
17.0
 40
18.0
 40
18.0
 40
18.0
 40
18.0
 10
3.062689887152775
 20
9.168088107638887
 30
0.0
 10
3.735172526041666
 20
7.739062499999997
 30
0.0
 10
4.110687934027776
 20
6.116422526041666
 30
0.0
 10
4.189236111111108
 20
4.299479166666666
 30
0.0
 10
4.189236111111108
 20
4.299479166666666
 30
0.0
 10
2.866319444444443
 20
4.299479166666666
 30
0.0
 10
2.866319444444443
 20
4.299479166666666
 30
0.0
 10
2.720936414930555
 20
5.667871093749997
 30
0.0
 10
2.435682508680555
 20
6.752387152777776
 30
0.0
 10
2.00986870659722
 20
7.553027343749997
 30
0.0
 10
1.584054904513888
 20
8.352978515624997
 30
0.0
 10
0.9839192708333332
 20
8.753298611111111
 30
0.0
 10
0.2101508246527778
 20
8.753298611111111
 30
0.0
 10
-0.7386284722222222
 20
8.753298611111111
 30
0.0
 10
-1.503439670138888
 20
8.010536024305555
 30
0.0
 10
-2.083593749999999
 20
6.526388888888886
 30
0.0
 10
-2.664436848958333
 20
5.042241753472221
 30
0.0
 10
-2.954513888888888
 20
2.767100694444443
 30
0.0
 10
-2.954513888888888
 20
-0.2990342881944444
 30
0.0
 10
-2.954513888888888
 20
-2.811197916666666
 30
0.0
 10
-2.693375651041666
 20
-4.847938368055555
 30
0.0
 10
-2.17041015625
 20
-6.409944661458332
 30
0.0
 10
-1.648133680555553
 20
-7.972639973958332
 30
0.0
 10
-0.8640299479166666
 20
-8.753298611111111
 30
0.0
 10
0.1812120225694444
 20
-8.753298611111111
 30
0.0
 10
1.138948567708333
 20
-8.753298611111111
 30
0.0
 10
1.865174696180553
 20
-7.927853732638887
 30
0.0
 10
2.359201388888886
 20
-6.275585937499998
 30
0.0
 10
2.62998589409722
 20
-5.406043836805555
 30
0.0
 10
2.828423394097221
 20
-4.262272135416666
 30
0.0
 10
2.954513888888888
 20
-2.844270833333331
 30
0.0
 10
2.954513888888888
 20
-2.844270833333331
 30
0.0
 10
4.277430555555555
 20
-2.844270833333331
 30
0.0
 10
4.277430555555555
 20
-2.844270833333331
 30
0.0
 10
4.169943576388888
 20
-5.109765624999997
 30
0.0
 10
3.795117187499998
 20
-7.009391276041665
 30
0.0
 10
3.151573350694443
 20
-8.542458767361106
 30
0.0
 10
2.381249999999999
 20
-10.38834092881943
 30
0.0
 10
1.347721354166665
 20
-11.3109375
 30
0.0
 10
0.0509874131944445
 20
-11.3109375
 30
0.0
 10
-1.07004665798611
 20
-11.3109375
 30
0.0
 10
-2.010557725694444
 20
-10.55577256944443
 30
0.0
 10
-2.771234809027776
 20
-9.04475368923611
 30
0.0
 10
-3.775824652777775
 20
-7.046598307291666
 30
0.0
 10
-4.277430555555555
 20
-3.961170789930555
 30
0.0
 10
-4.277430555555555
 20
0.2115288628472222
 30
0.0
 10
-4.277430555555555
 20
3.379638671874998
 30
0.0
 10
-3.902604166666666
 20
5.977929687499997
 30
0.0
 10
-3.151573350694443
 20
8.005712890624996
 30
0.0
 10
-2.333018663194443
 20
10.20919596354165
 30
0.0
 10
-1.20647243923611
 20
11.3109375
 30
0.0
 10
0.2266872829861111
 20
11.3109375
 30
0.0
 10
1.444873046875
 20
11.3109375
 30
0.0
 10
2.390207248263886
 20
10.59642469618055
 30
0.0
 10
3.062689887152775
 20
9.168088107638887
 30
0.0
  0
ENDBLK
  5
9A4
330
9A1
100
AcDbEntity
  8
0
100
AcDbBlockEnd
  0
BLOCK
  5
9A8
330
9A5
100
AcDbEntity
  8
0
 62
     7
100
AcDbBlockBegin
  2
AI9-BLK5
 70
     0
 10
0.0
 20
0.0
 30
0.0
  3
AI9-BLK5
  1

  0
SPLINE
  5
9A6
330
9A5
100
AcDbEntity
  8
LAYER_1
 62
     7
100
AcDbSpline
210
0.0
220
0.0
230
1.0
 70
    11
 71
     3
 72
    32
 73
    28
 74
     0
 42
0.0000000001
 43
0.0000000001
 40
0.0
 40
0.0
 40
0.0
 40
0.0
 40
1.0
 40
1.0
 40
1.0
 40
2.0
 40
2.0
 40
2.0
 40
3.0
 40
3.0
 40
3.0
 40
4.0
 40
4.0
 40
4.0
 40
5.0
 40
5.0
 40
5.0
 40
6.0
 40
6.0
 40
6.0
 40
7.0
 40
7.0
 40
7.0
 40
8.0
 40
8.0
 40
8.0
 40
9.0
 40
9.0
 40
9.0
 40
9.0
 10
-2.62378472222222
 20
-8.268229166666666
 30
0.0
 10
-2.62378472222222
 20
-8.268229166666666
 30
0.0
 10
-2.62378472222222
 20
8.180034722222217
 30
0.0
 10
-2.62378472222222
 20
8.180034722222217
 30
0.0
 10
-2.62378472222222
 20
8.180034722222217
 30
0.0
 10
-0.3376193576388888
 20
8.180034722222217
 30
0.0
 10
-0.3376193576388888
 20
8.180034722222217
 30
0.0
 10
0.6972873263888888
 20
8.180034722222217
 30
0.0
 10
1.449007161458333
 20
7.445540364583332
 30
0.0
 10
1.918918185763886
 20
5.977929687499997
 30
0.0
 10
2.388829210069443
 20
4.510319010416666
 30
0.0
 10
2.62378472222222
 20
2.449462890624999
 30
0.0
 10
2.62378472222222
 20
-0.204638671875
 30
0.0
 10
2.62378472222222
 20
-0.8950358072916666
 30
0.0
 10
2.590022786458332
 20
-1.643310546874999
 30
0.0
 10
2.523187934027775
 20
-2.45015190972222
 30
0.0
 10
2.408121744791666
 20
-3.80200737847222
 30
0.0
 10
2.226220703124999
 20
-4.909950086805555
 30
0.0
 10
1.976795789930553
 20
-5.774669053819441
 30
0.0
 10
1.659847005208333
 20
-6.853672960069442
 30
0.0
 10
1.252636718749998
 20
-7.583344184027778
 30
0.0
 10
0.7544759114583333
 20
-7.962304687499997
 30
0.0
 10
0.4664659288194444
 20
-8.166254340277777
 30
0.0
 10
0.1074869791666666
 20
-8.268229166666666
 30
0.0
 10
-0.3231499565972222
 20
-8.268229166666666
 30
0.0
 10
-0.3231499565972222
 20
-8.268229166666666
 30
0.0
 10
-2.62378472222222
 20
-8.268229166666666
 30
0.0
 10
-2.62378472222222
 20
-8.268229166666666
 30
0.0
  0
SPLINE
  5
9A7
330
9A5
100
AcDbEntity
  8
LAYER_1
 62
     7
100
AcDbSpline
210
0.0
220
0.0
230
1.0
 70
    11
 71
     3
 72
    26
 73
    22
 74
     0
 42
0.0000000001
 43
0.0000000001
 40
0.0
 40
0.0
 40
0.0
 40
0.0
 40
1.0
 40
1.0
 40
1.0
 40
2.0
 40
2.0
 40
2.0
 40
3.0
 40
3.0
 40
3.0
 40
4.0
 40
4.0
 40
4.0
 40
5.0
 40
5.0
 40
5.0
 40
6.0
 40
6.0
 40
6.0
 40
7.0
 40
7.0
 40
7.0
 40
7.0
 10
-3.946701388888888
 20
-10.7376736111111
 30
0.0
 10
-3.946701388888888
 20
-10.7376736111111
 30
0.0
 10
-0.0943956163194444
 20
-10.7376736111111
 30
0.0
 10
-0.0943956163194444
 20
-10.7376736111111
 30
0.0
 10
1.546847873263886
 20
-10.7376736111111
 30
0.0
 10
2.705777994791666
 20
-9.11021050347222
 30
0.0
 10
3.381705729166666
 20
-5.854595269097222
 30
0.0
 10
3.757910156249999
 20
-4.01284722222222
 30
0.0
 10
3.946701388888888
 20
-1.951991102430555
 30
0.0
 10
3.946701388888888
 20
0.328662109375
 30
0.0
 10
3.946701388888888
 20
3.281797960069443
 30
0.0
 10
3.622862413194443
 20
5.703700086805553
 30
0.0
 10
2.976562499999998
 20
7.594368489583332
 30
0.0
 10
2.25171440972222
 20
9.689675564236106
 30
0.0
 10
1.233344184027777
 20
10.7376736111111
 30
0.0
 10
-0.0799262152777778
 20
10.7376736111111
 30
0.0
 10
-0.0799262152777778
 20
10.7376736111111
 30
0.0
 10
-3.946701388888888
 20
10.7376736111111
 30
0.0
 10
-3.946701388888888
 20
10.7376736111111
 30
0.0
 10
-3.946701388888888
 20
10.7376736111111
 30
0.0
 10
-3.946701388888888
 20
-10.7376736111111
 30
0.0
 10
-3.946701388888888
 20
-10.7376736111111
 30
0.0
  0
ENDBLK
  5
9A9
330
9A5
100
AcDbEntity
  8
0
100
AcDbBlockEnd
  0
BLOCK
  5
9AD
330
9AA
100
AcDbEntity
  8
0
 62
     7
100
AcDbBlockBegin
  2
AI9-BLK4
 70
     0
 10
0.0
 20
0.0
 30
0.0
  3
AI9-BLK4
  1

  0
SPLINE
  5
9AB
330
9AA
100
AcDbEntity
  8
LAYER_1
 62
     7
100
AcDbSpline
210
0.0
220
0.0
230
1.0
 70
    11
 71
     3
 72
    26
 73
    22
 74
     0
 42
0.0000000001
 43
0.0000000001
 40
0.0
 40
0.0
 40
0.0
 40
0.0
 40
1.0
 40
1.0
 40
1.0
 40
2.0
 40
2.0
 40
2.0
 40
3.0
 40
3.0
 40
3.0
 40
4.0
 40
4.0
 40
4.0
 40
5.0
 40
5.0
 40
5.0
 40
6.0
 40
6.0
 40
6.0
 40
7.0
 40
7.0
 40
7.0
 40
7.0
 10
-2.645833333333333
 20
0.9039930555555551
 30
0.0
 10
-2.645833333333333
 20
0.9039930555555551
 30
0.0
 10
-2.645833333333333
 20
8.180034722222217
 30
0.0
 10
-2.645833333333333
 20
8.180034722222217
 30
0.0
 10
-2.645833333333333
 20
8.180034722222217
 30
0.0
 10
0.465087890625
 20
8.180034722222217
 30
0.0
 10
0.465087890625
 20
8.180034722222217
 30
0.0
 10
0.9026150173611108
 20
8.180034722222217
 30
0.0
 10
1.24988064236111
 20
8.034651692708331
 30
0.0
 10
1.506884765625
 20
7.745263671874997
 30
0.0
 10
2.001600477430554
 20
7.194048394097221
 30
0.0
 10
2.248958333333332
 20
6.160519748263887
 30
0.0
 10
2.248958333333332
 20
4.643299696180553
 30
0.0
 10
2.248958333333332
 20
3.232188585069443
 30
0.0
 10
2.072569444444444
 20
2.256537543402775
 30
0.0
 10
1.720480685763888
 20
1.715657552083333
 30
0.0
 10
1.368391927083333
 20
1.174088541666665
 30
0.0
 10
0.8929687499999998
 20
0.9039930555555551
 30
0.0
 10
0.2942111545138888
 20
0.9039930555555551
 30
0.0
 10
0.2942111545138888
 20
0.9039930555555551
 30
0.0
 10
-2.645833333333333
 20
0.9039930555555551
 30
0.0
 10
-2.645833333333333
 20
0.9039930555555551
 30
0.0
  0
SPLINE
  5
9AC
330
9AA
100
AcDbEntity
  8
LAYER_1
 62
     7
100
AcDbSpline
210
0.0
220
0.0
230
1.0
 70
    11
 71
     3
 72
    68
 73
    64
 74
     0
 42
0.0000000001
 43
0.0000000001
 40
0.0
 40
0.0
 40
0.0
 40
0.0
 40
1.0
 40
1.0
 40
1.0
 40
2.0
 40
2.0
 40
2.0
 40
3.0
 40
3.0
 40
3.0
 40
4.0
 40
4.0
 40
4.0
 40
5.0
 40
5.0
 40
5.0
 40
6.0
 40
6.0
 40
6.0
 40
7.0
 40
7.0
 40
7.0
 40
8.0
 40
8.0
 40
8.0
 40
9.0
 40
9.0
 40
9.0
 40
10.0
 40
10.0
 40
10.0
 40
11.0
 40
11.0
 40
11.0
 40
12.0
 40
12.0
 40
12.0
 40
13.0
 40
13.0
 40
13.0
 40
14.0
 40
14.0
 40
14.0
 40
15.0
 40
15.0
 40
15.0
 40
16.0
 40
16.0
 40
16.0
 40
17.0
 40
17.0
 40
17.0
 40
18.0
 40
18.0
 40
18.0
 40
19.0
 40
19.0
 40
19.0
 40
20.0
 40
20.0
 40
20.0
 40
21.0
 40
21.0
 40
21.0
 40
21.0
 10
-3.968749999999998
 20
-10.7376736111111
 30
0.0
 10
-3.968749999999998
 20
-10.7376736111111
 30
0.0
 10
-2.645833333333333
 20
-10.7376736111111
 30
0.0
 10
-2.645833333333333
 20
-10.7376736111111
 30
0.0
 10
-2.645833333333333
 20
-10.7376736111111
 30
0.0
 10
-2.645833333333333
 20
-1.521354166666665
 30
0.0
 10
-2.645833333333333
 20
-1.521354166666665
 30
0.0
 10
-2.645833333333333
 20
-1.521354166666665
 30
0.0
 10
0.2390896267361111
 20
-1.521354166666665
 30
0.0
 10
0.2390896267361111
 20
-1.521354166666665
 30
0.0
 10
0.7599880642361111
 20
-1.521354166666665
 30
0.0
 10
1.143771701388887
 20
-1.65295681423611
 30
0.0
 10
1.390440538194444
 20
-1.916162109374999
 30
0.0
 10
1.816254340277775
 20
-2.39434136284722
 30
0.0
 10
2.04363064236111
 20
-3.335541449652775
 30
0.0
 10
2.072569444444444
 20
-4.739762369791666
 30
0.0
 10
2.072569444444444
 20
-4.739762369791666
 30
0.0
 10
2.160763888888888
 20
-8.324039713541665
 30
0.0
 10
2.160763888888888
 20
-8.324039713541665
 30
0.0
 10
2.18005642361111
 20
-9.163264973958332
 30
0.0
 10
2.202794053819443
 20
-9.728949652777775
 30
0.0
 10
2.227598741319444
 20
-10.02109374999998
 30
0.0
 10
2.252403428819443
 20
-10.31392686631944
 30
0.0
 10
2.28892144097222
 20
-10.55301649305555
 30
0.0
 10
2.33853081597222
 20
-10.7376736111111
 30
0.0
 10
2.33853081597222
 20
-10.7376736111111
 30
0.0
 10
3.968749999999998
 20
-10.7376736111111
 30
0.0
 10
3.968749999999998
 20
-10.7376736111111
 30
0.0
 10
3.968749999999998
 20
-10.7376736111111
 30
0.0
 10
3.968749999999998
 20
-10.25260416666666
 30
0.0
 10
3.968749999999998
 20
-10.25260416666666
 30
0.0
 10
3.766867404513888
 20
-10.05830078125
 30
0.0
 10
3.625618489583333
 20
-9.621462673611112
 30
0.0
 10
3.545692274305555
 20
-8.942089843749997
 30
0.0
 10
3.49470486111111
 20
-8.543836805555555
 30
0.0
 10
3.459564887152775
 20
-7.937499999999999
 30
0.0
 10
3.439583333333333
 20
-7.121701388888887
 30
0.0
 10
3.439583333333333
 20
-7.121701388888887
 30
0.0
 10
3.395486111111108
 20
-4.232644314236108
 30
0.0
 10
3.395486111111108
 20
-4.232644314236108
 30
0.0
 10
3.375504557291666
 20
-2.981385633680555
 30
0.0
 10
3.26870659722222
 20
-2.077392578125
 30
0.0
 10
3.075781249999999
 20
-1.522043185763888
 30
0.0
 10
2.882166883680555
 20
-0.9666937934027776
 30
0.0
 10
2.592089843749999
 20
-0.5188313802083333
 30
0.0
 10
2.204861111111108
 20
-0.1770779079861111
 30
0.0
 10
2.63618706597222
 20
0.3197048611111111
 30
0.0
 10
2.971739366319443
 20
0.9770290798611107
 30
0.0
 10
3.211518012152775
 20
1.79558376736111
 30
0.0
 10
3.451296657986108
 20
2.613449435763888
 30
0.0
 10
3.571874999999999
 20
3.66558159722222
 30
0.0
 10
3.571874999999999
 20
4.951291232638888
 30
0.0
 10
3.571874999999999
 20
7.415912543402777
 30
0.0
 10
3.124701605902775
 20
9.106076388888887
 30
0.0
 10
2.231043836805555
 20
10.02178276909722
 30
0.0
 10
1.759754774305553
 20
10.498583984375
 30
0.0
 10
1.163753255208332
 20
10.7376736111111
 30
0.0
 10
0.443039279513889
 20
10.7376736111111
 30
0.0
 10
0.443039279513889
 20
10.7376736111111
 30
0.0
 10
-3.968749999999998
 20
10.7376736111111
 30
0.0
 10
-3.968749999999998
 20
10.7376736111111
 30
0.0
 10
-3.968749999999998
 20
10.7376736111111
 30
0.0
 10
-3.968749999999998
 20
-10.7376736111111
 30
0.0
 10
-3.968749999999998
 20
-10.7376736111111
 30
0.0
  0
ENDBLK
  5
9AE
330
9AA
100
AcDbEntity
  8
0
100
AcDbBlockEnd
  0
BLOCK
  5
9B2
330
9AF
100
AcDbEntity
  8
0
 62
     7
100
AcDbBlockBegin
  2
AI9-BLK3
 70
     0
 10
0.0
 20
0.0
 30
0.0
  3
AI9-BLK3
  1

  0
LWPOLYLINE
  5
9B0
330
9AF
100
AcDbEntity
  8
LAYER_1
 62
     7
100
AcDbPolyline
 90
        4
 70
     1
 43
0.0
 10
-0.6613722059461808
 20
10.7376736111111
 10
0.6613722059461808
 20
10.7376736111111
 10
0.6613722059461808
 20
-10.7376736111111
 10
-0.6613722059461808
 20
-10.7376736111111
  0
HATCH
  5
9B1
330
9AF
100
AcDbEntity
  8
LAYER_1
 62
     7
100
AcDbHatch
 10
0.0
 20
0.0
 30
0.0
210
0.0
220
0.0
230
1.0
  2
SOLID
 70
     1
 71
     0
 91
        1
 92
        3
 72
     0
 73
     1
 93
        4
 10
-0.6613722059461808
 20
10.7376736111111
 10
0.6613722059461808
 20
10.7376736111111
 10
0.6613722059461808
 20
-10.7376736111111
 10
-0.6613722059461808
 20
-10.7376736111111
 97
        0
 75
     2
 76
     1
 98
        1
 10
0.0
 20
0.0
  0
ENDBLK
  5
9B3
330
9AF
100
AcDbEntity
  8
0
100
AcDbBlockEnd
  0
BLOCK
  5
9B7
330
9B4
100
AcDbEntity
  8
0
 62
     7
100
AcDbBlockBegin
  2
AI9-BLK2
 70
     0
 10
0.0
 20
0.0
 30
0.0
  3
AI9-BLK2
  1

  0
LWPOLYLINE
  5
9B5
330
9B4
100
AcDbEntity
  8
LAYER_1
 62
     7
100
AcDbPolyline
 90
        7
 70
     1
 43
0.0
 10
-2.785704210069443
 20
10.7376736111111
 10
0.0
 20
-7.550960286458332
 10
2.771234809027776
 20
10.7376736111111
 10
4.233333333333331
 20
10.7376736111111
 10
0.6910861545138888
 20
-10.7376736111111
 10
-0.7055555555555558
 20
-10.7376736111111
 10
-4.233333333333331
 20
10.7376736111111
  0
HATCH
  5
9B6
330
9B4
100
AcDbEntity
  8
LAYER_1
 62
     7
100
AcDbHatch
 10
0.0
 20
0.0
 30
0.0
210
0.0
220
0.0
230
1.0
  2
SOLID
 70
     1
 71
     0
 91
        1
 92
        3
 72
     0
 73
     1
 93
        7
 10
-2.785704210069443
 20
10.7376736111111
 10
0.0
 20
-7.550960286458332
 10
2.771234809027776
 20
10.7376736111111
 10
4.233333333333331
 20
10.7376736111111
 10
0.6910861545138888
 20
-10.7376736111111
 10
-0.7055555555555558
 20
-10.7376736111111
 10
-4.233333333333331
 20
10.7376736111111
 97
        0
 75
     2
 76
     1
 98
        1
 10
0.0
 20
0.0
  0
ENDBLK
  5
9B8
330
9B4
100
AcDbEntity
  8
0
100
AcDbBlockEnd
  0
BLOCK
  5
9BC
330
9B9
100
AcDbEntity
  8
0
 62
     7
100
AcDbBlockBegin
  2
AI9-BLK1
 70
     0
 10
0.0
 20
0.0
 30
0.0
  3
AI9-BLK1
  1

  0
LWPOLYLINE
  5
9BA
330
9B9
100
AcDbEntity
  8
LAYER_1
 62
     7
100
AcDbPolyline
 90
       12
 70
     1
 43
0.0
 10
-3.571874999999999
 20
10.7376736111111
 10
3.483680555555555
 20
10.7376736111111
 10
3.483680555555555
 20
8.091840277777777
 10
-2.248958333333332
 20
8.091840277777777
 10
-2.248958333333332
 20
1.565451388888888
 10
3.042708333333333
 20
1.565451388888888
 10
3.042708333333333
 20
-0.9039930555555551
 10
-2.248958333333332
 20
-0.9039930555555551
 10
-2.248958333333332
 20
-8.180034722222217
 10
3.571874999999999
 20
-8.180034722222217
 10
3.571874999999999
 20
-10.7376736111111
 10
-3.571874999999999
 20
-10.7376736111111
  0
HATCH
  5
9BB
330
9B9
100
AcDbEntity
  8
LAYER_1
 62
     7
100
AcDbHatch
 10
0.0
 20
0.0
 30
0.0
210
0.0
220
0.0
230
1.0
  2
SOLID
 70
     1
 71
     0
 91
        1
 92
        3
 72
     0
 73
     1
 93
       12
 10
-3.571874999999999
 20
10.7376736111111
 10
3.483680555555555
 20
10.7376736111111
 10
3.483680555555555
 20
8.091840277777777
 10
-2.248958333333332
 20
8.091840277777777
 10
-2.248958333333332
 20
1.565451388888888
 10
3.042708333333333
 20
1.565451388888888
 10
3.042708333333333
 20
-0.9039930555555551
 10
-2.248958333333332
 20
-0.9039930555555551
 10
-2.248958333333332
 20
-8.180034722222217
 10
3.571874999999999
 20
-8.180034722222217
 10
3.571874999999999
 20
-10.7376736111111
 10
-3.571874999999999
 20
-10.7376736111111
 97
        0
 75
     2
 76
     1
 98
        1
 10
0.0
 20
0.0
  0
ENDBLK
  5
9BD
330
9B9
100
AcDbEntity
  8
0
100
AcDbBlockEnd
  0
BLOCK
  5
9E1
330
9BE
100
AcDbEntity
  8
0
100
AcDbBlockBegin
  2
HD_LLC_logo_OT5
 70
     0
 10
0.0
 20
0.0
 30
0.0
  3
HD_LLC_logo_OT5
  1

  0
SPLINE
  5
9BF
102
{ACAD_REACTORS
330
9DF
102
}
330
9BE
100
AcDbEntity
  8
LAYER_1
 62
     7
100
AcDbSpline
210
0.0
220
0.0
230
1.0
 70
    11
 71
     3
 72
   113
 73
   109
 74
     0
 42
0.0000000001
 43
0.0000000001
 40
0.0
 40
0.0
 40
0.0
 40
0.0
 40
1.0
 40
1.0
 40
1.0
 40
2.0
 40
2.0
 40
2.0
 40
3.0
 40
3.0
 40
3.0
 40
4.0
 40
4.0
 40
4.0
 40
5.0
 40
5.0
 40
5.0
 40
6.0
 40
6.0
 40
6.0
 40
7.0
 40
7.0
 40
7.0
 40
8.0
 40
8.0
 40
8.0
 40
9.0
 40
9.0
 40
9.0
 40
10.0
 40
10.0
 40
10.0
 40
11.0
 40
11.0
 40
11.0
 40
12.0
 40
12.0
 40
12.0
 40
13.0
 40
13.0
 40
13.0
 40
14.0
 40
14.0
 40
14.0
 40
15.0
 40
15.0
 40
15.0
 40
16.0
 40
16.0
 40
16.0
 40
17.0
 40
17.0
 40
17.0
 40
18.0
 40
18.0
 40
18.0
 40
19.0
 40
19.0
 40
19.0
 40
20.0
 40
20.0
 40
20.0
 40
21.0
 40
21.0
 40
21.0
 40
22.0
 40
22.0
 40
22.0
 40
23.0
 40
23.0
 40
23.0
 40
24.0
 40
24.0
 40
24.0
 40
25.0
 40
25.0
 40
25.0
 40
26.0
 40
26.0
 40
26.0
 40
27.0
 40
27.0
 40
27.0
 40
28.0
 40
28.0
 40
28.0
 40
29.0
 40
29.0
 40
29.0
 40
30.0
 40
30.0
 40
30.0
 40
31.0
 40
31.0
 40
31.0
 40
32.0
 40
32.0
 40
32.0
 40
33.0
 40
33.0
 40
33.0
 40
34.0
 40
34.0
 40
34.0
 40
35.0
 40
35.0
 40
35.0
 40
36.0
 40
36.0
 40
36.0
 40
36.0
 10
193.3039632161458
 20
186.1548733181423
 30
0.0
 10
193.3039632161458
 20
186.1860514322916
 30
0.0
 10
193.3039632161458
 20
219.6932223849826
 30
0.0
 10
193.3039632161458
 20
219.6932223849826
 30
0.0
 10
193.3039632161458
 20
219.6932223849826
 30
0.0
 10
193.297417534722
 20
219.7488606770833
 30
0.0
 10
193.297417534722
 20
219.7488606770833
 30
0.0
 10
191.5293945312499
 20
235.455740017361
 30
0.0
 10
175.1458984374999
 20
235.2467949761284
 30
0.0
 10
174.9808783637151
 20
235.2428331163193
 30
0.0
 10
174.9808783637151
 20
235.2428331163193
 30
0.0
 10
125.8827555338541
 20
235.2430053710937
 30
0.0
 10
125.8827555338541
 20
235.2430053710937
 30
0.0
 10
125.8827555338541
 20
235.2430053710937
 30
0.0
 10
125.8827555338541
 20
255.5278998480901
 30
0.0
 10
125.8827555338541
 20
255.5278998480901
 30
0.0
 10
125.8827555338541
 20
255.5278998480901
 30
0.0
 10
84.5626247829861
 20
255.5278998480901
 30
0.0
 10
84.5626247829861
 20
255.5278998480901
 30
0.0
 10
84.5626247829861
 20
255.5278998480901
 30
0.0
 10
84.55711263020829
 20
233.7919311523436
 30
0.0
 10
84.55711263020829
 20
233.7919311523436
 30
0.0
 10
84.55711263020829
 20
233.7919311523436
 30
0.0
 10
64.42052951388888
 20
233.7919311523436
 30
0.0
 10
64.42052951388888
 20
233.7919311523436
 30
0.0
 10
64.42052951388888
 20
233.7919311523436
 30
0.0
 10
64.41501736111111
 20
255.5278998480901
 30
0.0
 10
64.41501736111111
 20
255.5278998480901
 30
0.0
 10
64.41501736111111
 20
255.5278998480901
 30
0.0
 10
23.91757541232637
 20
255.5278998480901
 30
0.0
 10
23.91757541232637
 20
255.5278998480901
 30
0.0
 10
23.91757541232637
 20
255.5278998480901
 30
0.0
 10
23.91757541232637
 20
233.2393378363715
 30
0.0
 10
23.91757541232637
 20
233.2393378363715
 30
0.0
 10
23.91757541232637
 20
233.2393378363715
 30
0.0
 10
43.65624999999999
 20
233.2393378363715
 30
0.0
 10
43.65624999999999
 20
233.2393378363715
 30
0.0
 10
43.65624999999999
 20
233.2393378363715
 30
0.0
 10
43.65624999999999
 20
211.5188720703125
 30
0.0
 10
43.65624999999999
 20
211.5188720703125
 30
0.0
 10
43.65624999999999
 20
211.5188720703125
 30
0.0
 10
23.91757541232637
 20
211.5188720703125
 30
0.0
 10
23.91757541232637
 20
211.5188720703125
 30
0.0
 10
23.91757541232637
 20
211.5188720703125
 30
0.0
 10
23.91757541232637
 20
189.2303100585936
 30
0.0
 10
23.91757541232637
 20
189.2303100585936
 30
0.0
 10
23.91757541232637
 20
189.2303100585936
 30
0.0
 10
64.41501736111111
 20
189.2303100585936
 30
0.0
 10
64.41501736111111
 20
189.2303100585936
 30
0.0
 10
64.41501736111111
 20
189.2303100585936
 30
0.0
 10
64.42052951388888
 20
211.069976128472
 30
0.0
 10
64.42052951388888
 20
211.069976128472
 30
0.0
 10
64.42052951388888
 20
211.069976128472
 30
0.0
 10
84.55711263020829
 20
211.069976128472
 30
0.0
 10
84.55711263020829
 20
211.069976128472
 30
0.0
 10
84.55711263020829
 20
211.069976128472
 30
0.0
 10
84.5626247829861
 20
189.2303100585936
 30
0.0
 10
84.5626247829861
 20
189.2303100585936
 30
0.0
 10
84.5626247829861
 20
189.2303100585936
 30
0.0
 10
125.8827555338541
 20
189.2303100585936
 30
0.0
 10
125.8827555338541
 20
189.2303100585936
 30
0.0
 10
125.8827555338541
 20
189.2303100585936
 30
0.0
 10
125.8827555338541
 20
211.5188720703125
 30
0.0
 10
125.8827555338541
 20
211.5188720703125
 30
0.0
 10
125.8827555338541
 20
211.5188720703125
 30
0.0
 10
105.3213921440971
 20
211.5188720703125
 30
0.0
 10
105.3213921440971
 20
211.5188720703125
 30
0.0
 10
105.3213921440971
 20
211.5188720703125
 30
0.0
 10
105.3213921440971
 20
233.2393378363715
 30
0.0
 10
105.3213921440971
 20
233.2393378363715
 30
0.0
 10
105.3213921440971
 20
233.2393378363715
 30
0.0
 10
175.0046495225693
 20
233.243127441406
 30
0.0
 10
175.0046495225693
 20
233.243127441406
 30
0.0
 10
175.6268337673611
 20
233.2560465494791
 30
0.0
 10
189.7165852864583
 20
233.3962619357638
 30
0.0
 10
191.3037407769094
 20
219.5690266927083
 30
0.0
 10
191.3037407769094
 20
219.4332899305555
 30
0.0
 10
191.3037407769094
 20
186.1142211914062
 30
0.0
 10
191.3037407769094
 20
186.1142211914062
 30
0.0
 10
191.3037407769094
 20
186.1142211914062
 30
0.0
 10
191.3051188151039
 20
186.0880384657115
 30
0.0
 10
191.3051188151039
 20
186.0880384657115
 30
0.0
 10
191.3054633246526
 20
186.0787367078991
 30
0.0
 10
191.3109754774304
 20
185.9566080729166
 30
0.0
 10
191.3109754774304
 20
185.7399115668401
 30
0.0
 10
191.3109754774304
 20
184.2090833875865
 30
0.0
 10
191.0488037109374
 20
177.9643310546874
 30
0.0
 10
186.9866916232638
 20
173.5652886284722
 30
0.0
 10
184.2540418836804
 20
170.6064683702255
 30
0.0
 10
180.3224989149304
 20
169.0308539496526
 30
0.0
 10
175.300927734375
 20
168.8825425889756
 30
0.0
 10
175.300927734375
 20
168.8825425889756
 30
0.0
 10
107.0094889322916
 20
168.8828870985243
 30
0.0
 10
107.0094889322916
 20
168.8828870985243
 30
0.0
 10
107.0094889322916
 20
168.8828870985243
 30
0.0
 10
107.0094889322916
 20
166.8830091688368
 30
0.0
 10
107.0094889322916
 20
166.8830091688368
 30
0.0
 10
107.0094889322916
 20
166.8830091688368
 30
0.0
 10
175.3305555555555
 20
166.8830091688368
 30
0.0
 10
175.3305555555555
 20
166.8830091688368
 30
0.0
 10
180.9467502170138
 20
167.0485460069444
 30
0.0
 10
185.3571614583333
 20
168.8448187934026
 30
0.0
 10
188.4687717013888
 20
172.2223904079861
 30
0.0
 10
192.9649658203124
 20
177.1034016927083
 30
0.0
 10
193.3136094835069
 20
183.7202243381076
 30
0.0
 10
193.3136094835069
 20
185.6520616319443
 30
0.0
 10
193.3136094835069
 20
185.9247409396701
 30
0.0
 10
193.3070638020833
 20
186.0868326822916
 30
0.0
 10
193.3039632161458
 20
186.1548733181423
 30
0.0
  0
INSERT
  5
9C0
102
{ACAD_REACTORS
330
9E0
102
}
330
9BE
100
AcDbEntity
  8
LAYER_1
 62
     7
100
AcDbBlockReference
  2
AI9-BLK14
 10
159.5625257703993
 20
200.5118781195744
 30
0.0
  0
INSERT
  5
9C1
330
9BE
100
AcDbEntity
  8
LAYER_1
 62
     7
100
AcDbBlockReference
  2
AI9-BLK13
 10
27.69615614149305
 20
179.2145562065971
 30
0.0
 42
0.9200000000000001
  0
INSERT
  5
9C2
102
{ACAD_REACTORS
330
9CD
102
}
330
9BE
100
AcDbEntity
  8
LAYER_1
 62
     7
100
AcDbBlockReference
  2
AI9-BLK11
 10
44.76591525607638
 20
179.2145562065971
 30
0.0
 42
0.9200000000000001
  0
INSERT
  5
9C3
102
{ACAD_REACTORS
330
9DB
102
}
330
9BE
100
AcDbEntity
  8
LAYER_1
 62
     7
100
AcDbBlockReference
  2
AI9-BLK10
 10
54.04665798611111
 20
179.2145562065971
 30
0.0
 42
0.9200000000000001
  0
INSERT
  5
9C4
102
{ACAD_REACTORS
330
9DA
102
}
330
9BE
100
AcDbEntity
  8
LAYER_1
 62
     7
100
AcDbBlockReference
  2
AI9-BLK9
 10
62.79013807508679
 20
179.2145562065971
 30
0.0
 42
0.9
  0
INSERT
  5
9C5
330
9BE
100
AcDbEntity
  8
LAYER_1
 62
     7
100
AcDbBlockReference
  2
AI9-BLK8
 10
71.03046196831595
 20
179.2145562065971
 30
0.0
 42
0.9200000000000001
  0
INSERT
  5
9C6
330
9BE
100
AcDbEntity
  8
LAYER_1
 62
     7
100
AcDbBlockReference
  2
AI9-BLK7
 10
76.93793945312498
 20
179.2145562065971
 30
0.0
 42
0.9200000000000001
  0
INSERT
  5
9C7
102
{ACAD_REACTORS
330
9CE
102
}
330
9BE
100
AcDbEntity
  8
LAYER_1
 62
     7
100
AcDbBlockReference
  2
AI9-BLK6
 10
82.55602891710069
 20
179.2145562065971
 30
0.0
 42
0.9
  0
INSERT
  5
9C8
102
{ACAD_REACTORS
330
9DC
102
}
330
9BE
100
AcDbEntity
  8
LAYER_1
 62
     7
100
AcDbBlockReference
  2
AI9-BLK5
 10
94.32430284288193
 20
179.2145562065971
 30
0.0
 42
0.9200000000000001
  0
INSERT
  5
9C9
102
{ACAD_REACTORS
330
9DD
102
}
330
9BE
100
AcDbEntity
  8
LAYER_1
 62
     7
100
AcDbBlockReference
  2
AI9-BLK4
 10
103.2081705729166
 20
179.2145562065971
 30
0.0
 42
0.9200000000000001
  0
INSERT
  5
9CA
330
9BE
100
AcDbEntity
  8
LAYER_1
 62
     7
100
AcDbBlockReference
  2
AI9-BLK3
 10
108.850978597005
 20
179.2145562065971
 30
0.0
 42
0.9200000000000001
  0
INSERT
  5
9CB
330
9BE
100
AcDbEntity
  8
LAYER_1
 62
     7
100
AcDbBlockReference
  2
AI9-BLK2
 10
114.2045708550346
 20
179.2145562065971
 30
0.0
 42
0.9200000000000001
  0
INSERT
  5
9CC
330
9BE
100
AcDbEntity
  8
LAYER_1
 62
     7
100
AcDbBlockReference
  2
AI9-BLK1
 10
122.4125108506944
 20
179.2145562065971
 30
0.0
 42
0.9200000000000001
  0
HATCH
  5
9CD
330
9BE
100
AcDbEntity
  8
0
  6
Continuous
100
AcDbHatch
 10
0.0
 20
0.0
 30
0.0
210
0.0
220
0.0
230
1.0
  2
SOLID
 70
     1
 71
     1
 91
        2
 92
       16
 93
        1
 72
     4
 94
        3
 73
     0
 74
     0
 95
       26
 96
       22
 40
0.0
 40
0.0
 40
0.0
 40
0.0
 40
1.0
 40
1.0
 40
1.0
 40
2.0
 40
2.0
 40
2.0
 40
3.0
 40
3.0
 40
3.0
 40
4.0
 40
4.0
 40
4.0
 40
5.0
 40
5.0
 40
5.0
 40
6.0
 40
6.0
 40
6.0
 40
7.0
 40
7.0
 40
7.0
 40
7.0
 10
42.12008192274304
 20
180.0462298177081
 10
42.12008192274304
 20
180.0462298177081
 10
42.12008192274304
 20
186.7401881510414
 10
42.12008192274304
 20
186.7401881510414
 10
42.12008192274304
 20
186.7401881510414
 10
45.23100314670138
 20
186.7401881510414
 10
45.23100314670138
 20
186.7401881510414
 10
45.66853027343749
 20
186.7401881510414
 10
46.01579589843749
 20
186.6064357638888
 10
46.27280002170138
 20
186.340198784722
 10
46.76751573350694
 20
185.8330807291665
 10
47.01487358940972
 20
184.8822343749999
 10
47.01487358940972
 20
183.4863919270832
 10
47.01487358940972
 20
182.188169704861
 10
46.83848470052082
 20
181.2905707465276
 10
46.48639594184028
 20
180.7929611545138
 10
46.13430718315971
 20
180.2947176649304
 10
45.65888400607638
 20
180.0462298177081
 10
45.06012641059028
 20
180.0462298177081
 10
45.06012641059028
 20
180.0462298177081
 10
42.12008192274304
 20
180.0462298177081
 10
42.12008192274304
 20
180.0462298177081
 97
        1
330
9C2
 92
        1
 93
        1
 72
     4
 94
        3
 73
     0
 74
     0
 95
       68
 96
       64
 40
0.0
 40
0.0
 40
0.0
 40
0.0
 40
1.0
 40
1.0
 40
1.0
 40
2.0
 40
2.0
 40
2.0
 40
3.0
 40
3.0
 40
3.0
 40
4.0
 40
4.0
 40
4.0
 40
5.0
 40
5.0
 40
5.0
 40
6.0
 40
6.0
 40
6.0
 40
7.0
 40
7.0
 40
7.0
 40
8.0
 40
8.0
 40
8.0
 40
9.0
 40
9.0
 40
9.0
 40
10.0
 40
10.0
 40
10.0
 40
11.0
 40
11.0
 40
11.0
 40
12.0
 40
12.0
 40
12.0
 40
13.0
 40
13.0
 40
13.0
 40
14.0
 40
14.0
 40
14.0
 40
15.0
 40
15.0
 40
15.0
 40
16.0
 40
16.0
 40
16.0
 40
17.0
 40
17.0
 40
17.0
 40
18.0
 40
18.0
 40
18.0
 40
19.0
 40
19.0
 40
19.0
 40
20.0
 40
20.0
 40
20.0
 40
21.0
 40
21.0
 40
21.0
 40
21.0
 10
40.79716525607638
 20
169.3358964843748
 10
40.79716525607638
 20
169.3358964843748
 10
42.12008192274304
 20
169.3358964843748
 10
42.12008192274304
 20
169.3358964843748
 10
42.12008192274304
 20
169.3358964843748
 10
42.12008192274304
 20
177.8149103732638
 10
42.12008192274304
 20
177.8149103732638
 10
42.12008192274304
 20
177.8149103732638
 10
45.00500488281249
 20
177.8149103732638
 10
45.00500488281249
 20
177.8149103732638
 10
45.52590332031249
 20
177.8149103732638
 10
45.90968695746528
 20
177.6938359374999
 10
46.15635579427083
 20
177.451687065972
 10
46.58216959635416
 20
177.0117621527776
 10
46.80954589843749
 20
176.1458580729166
 10
46.83848470052082
 20
174.8539748263888
 10
46.83848470052082
 20
174.8539748263888
 10
46.92667914496527
 20
171.5564396701388
 10
46.92667914496527
 20
171.5564396701388
 10
46.94597167968749
 20
170.7843524305554
 10
46.96870930989581
 20
170.2639225260416
 10
46.99351399739582
 20
169.9951499565971
 10
47.01831868489581
 20
169.7257434895831
 10
47.0548366970486
 20
169.5057810329859
 10
47.10444607204859
 20
169.3358964843748
 10
47.10444607204859
 20
169.3358964843748
 10
48.73466525607638
 20
169.3358964843748
 10
48.73466525607638
 20
169.3358964843748
 10
48.73466525607638
 20
169.3358964843748
 10
48.73466525607638
 20
169.7821603732638
 10
48.73466525607638
 20
169.7821603732638
 10
48.53278266059028
 20
169.9609194878471
 10
48.39153374565971
 20
170.3628105468748
 10
48.31160753038194
 20
170.9878335503471
 10
48.26062011718749
 20
171.3542263454859
 10
48.22548014322916
 20
171.9120562065971
 10
48.20549858940971
 20
172.6625909288193
 10
48.20549858940971
 20
172.6625909288193
 10
48.16140136718749
 20
175.3205234374999
 10
48.16140136718749
 20
175.3205234374999
 10
48.14141981336803
 20
176.4716814236109
 10
48.03462185329859
 20
177.303355034722
 10
47.84169650607638
 20
177.8142764756942
 10
47.64808213975693
 20
178.3251979166666
 10
47.35800509982638
 20
178.7372313368055
 10
46.97077636718749
 20
179.0516445312499
 10
47.4021023220486
 20
179.5086846788193
 10
47.73765462239582
 20
180.1134229600693
 10
47.97743326822916
 20
180.8664932725692
 10
48.2172119140625
 20
181.6189296874999
 10
48.33779025607638
 20
182.5868912760416
 10
48.33779025607638
 20
183.7697441406249
 10
48.33779025607638
 20
186.0371957465276
 10
47.89061686197916
 20
187.5921464843749
 10
46.99695909288194
 20
188.4345963541666
 10
46.52567003038194
 20
188.8732534722221
 10
45.92966851128472
 20
189.0932159288193
 10
45.20895453559027
 20
189.0932159288193
 10
45.20895453559027
 20
189.0932159288193
 10
40.79716525607638
 20
189.0932159288193
 10
40.79716525607638
 20
189.0932159288193
 10
40.79716525607638
 20
189.0932159288193
 10
40.79716525607638
 20
169.3358964843748
 10
40.79716525607638
 20
169.3358964843748
 97
        0
 75
     0
 76
     1
 98
        0
  0
HATCH
  5
9CE
330
9BE
100
AcDbEntity
  8
0
  6
Continuous
100
AcDbHatch
 10
0.0
 20
0.0
 30
0.0
210
0.0
220
0.0
230
1.0
  2
SOLID
 70
     1
 71
     1
 91
        1
 92
        1
 93
        1
 72
     4
 94
        3
 73
     0
 74
     0
 95
       59
 96
       55
 40
0.0
 40
0.0
 40
0.0
 40
0.0
 40
1.0
 40
1.0
 40
1.0
 40
2.0
 40
2.0
 40
2.0
 40
3.0
 40
3.0
 40
3.0
 40
4.0
 40
4.0
 40
4.0
 40
5.0
 40
5.0
 40
5.0
 40
6.0
 40
6.0
 40
6.0
 40
7.0
 40
7.0
 40
7.0
 40
8.0
 40
8.0
 40
8.0
 40
9.0
 40
9.0
 40
9.0
 40
10.0
 40
10.0
 40
10.0
 40
11.0
 40
11.0
 40
11.0
 40
12.0
 40
12.0
 40
12.0
 40
13.0
 40
13.0
 40
13.0
 40
14.0
 40
14.0
 40
14.0
 40
15.0
 40
15.0
 40
15.0
 40
16.0
 40
16.0
 40
16.0
 40
17.0
 40
17.0
 40
17.0
 40
18.0
 40
18.0
 40
18.0
 40
18.0
 10
85.61871880425345
 20
187.4658355034721
 10
86.29120144314233
 20
186.1797124565971
 10
86.66671685112847
 20
184.7193364800346
 10
86.7452650282118
 20
183.084087456597
 10
86.7452650282118
 20
183.084087456597
 10
85.42234836154511
 20
183.084087456597
 10
85.42234836154511
 20
183.084087456597
 10
85.27696533203123
 20
184.315640190972
 10
84.99171142578125
 20
185.2917046440971
 10
84.56589762369791
 20
186.012280815972
 10
84.14008382161458
 20
186.7322368706595
 10
83.53994818793401
 20
187.092524956597
 10
82.76617974175344
 20
187.092524956597
 10
81.81740044487847
 20
187.092524956597
 10
81.05258924696178
 20
186.4240386284721
 10
80.47243516710068
 20
185.0883062065971
 10
79.89159206814234
 20
183.752573784722
 10
79.6015150282118
 20
181.7049468315971
 10
79.6015150282118
 20
178.9454253472221
 10
79.6015150282118
 20
176.684478081597
 10
79.86265326605901
 20
174.8514116753471
 10
80.38561876085069
 20
173.4456060112846
 10
80.90789523654512
 20
172.0391802300345
 10
81.69199896918403
 20
171.3365874565971
 10
82.73724093967013
 20
171.3365874565971
 10
83.69497748480901
 20
171.3365874565971
 10
84.42120361328125
 20
172.0794878472221
 10
84.91523030598958
 20
173.566528862847
 10
85.18601481119791
 20
174.349116753472
 10
85.38445231119791
 20
175.3785112847221
 10
85.51054280598959
 20
176.6547124565971
 10
85.51054280598959
 20
176.6547124565971
 10
86.83345947265625
 20
176.6547124565971
 10
86.83345947265625
 20
176.6547124565971
 10
86.72597249348957
 20
174.6157671440971
 10
86.35114610460069
 20
172.9061040581596
 10
85.70760226779514
 20
171.526343315972
 10
84.93727891710069
 20
169.8650493706596
 10
83.90375027126735
 20
169.0347124565971
 10
82.60701633029514
 20
169.0347124565971
 10
81.48598225911458
 20
169.0347124565971
 10
80.54547119140625
 20
169.7143608940971
 10
79.78479410807292
 20
171.0742778862845
 10
78.78020426432292
 20
172.8726177300345
 10
78.27859836154512
 20
175.6495024956596
 10
78.27859836154512
 20
179.4049321831595
 10
78.27859836154512
 20
182.2562310112846
 10
78.65342475043402
 20
184.594692925347
 10
79.40445556640622
 20
186.4196978081596
 10
80.22301025390625
 20
188.4028325737846
 10
81.34955647786458
 20
189.3943999565971
 10
82.78271620008679
 20
189.3943999565971
 10
84.00090196397568
 20
189.3943999565971
 10
84.94623616536458
 20
188.7513384331595
 10
85.61871880425345
 20
187.4658355034721
 97
        1
330
9C7
 75
     0
 76
     1
 98
        1
 10
0.0
 20
0.0
  0
LINE
  5
9CF
102
{ACAD_REACTORS
330
9DE
102
}
330
9BE
100
AcDbEntity
  8
LAYER_1
 62
     7
100
AcDbLine
 10
34.65766059027778
 20
177.4497853732638
 30
0.0
 11
36.19830729166666
 21
186.1658769531249
 31
0.0
  0
LINE
  5
9D0
102
{ACAD_REACTORS
330
9DE
102
}
330
9BE
100
AcDbEntity
  8
LAYER_1
 62
     7
100
AcDbLine
 10
36.19830729166666
 20
186.1658769531249
 30
0.0
 11
37.67556423611111
 21
177.4497853732638
 31
0.0
  0
LINE
  5
9D1
102
{ACAD_REACTORS
330
9DE
102
}
330
9BE
100
AcDbEntity
  8
LAYER_1
 62
     7
100
AcDbLine
 10
37.67556423611111
 20
177.4497853732638
 30
0.0
 11
34.65766059027778
 21
177.4497853732638
 31
0.0
  0
LINE
  5
9D2
102
{ACAD_REACTORS
330
9DE
102
}
330
9BE
100
AcDbEntity
  8
LAYER_1
 62
     7
100
AcDbLine
 10
31.83957248263888
 20
169.3358964843748
 30
0.0
 11
33.22450086805555
 21
169.3358964843748
 31
0.0
  0
LINE
  5
9D3
102
{ACAD_REACTORS
330
9DE
102
}
330
9BE
100
AcDbEntity
  8
LAYER_1
 62
     7
100
AcDbLine
 10
33.22450086805555
 20
169.3358964843748
 30
0.0
 11
34.27043185763887
 21
175.2590353732638
 31
0.0
  0
LINE
  5
9D4
102
{ACAD_REACTORS
330
9DE
102
}
330
9BE
100
AcDbEntity
  8
LAYER_1
 62
     7
100
AcDbLine
 10
34.27043185763887
 20
175.2590353732638
 30
0.0
 11
38.04694552951389
 21
175.2590353732638
 31
0.0
  0
LINE
  5
9D5
102
{ACAD_REACTORS
330
9DE
102
}
330
9BE
100
AcDbEntity
  8
LAYER_1
 62
     7
100
AcDbLine
 10
38.04694552951389
 20
175.2590353732638
 30
0.0
 11
39.05015733506942
 21
169.3358964843748
 31
0.0
  0
LINE
  5
9D6
102
{ACAD_REACTORS
330
9DE
102
}
330
9BE
100
AcDbEntity
  8
LAYER_1
 62
     7
100
AcDbLine
 10
39.05015733506942
 20
169.3358964843748
 30
0.0
 11
40.43508572048611
 21
169.3358964843748
 31
0.0
  0
LINE
  5
9D7
102
{ACAD_REACTORS
330
9DE
102
}
330
9BE
100
AcDbEntity
  8
LAYER_1
 62
     7
100
AcDbLine
 10
40.43508572048611
 20
169.3358964843748
 30
0.0
 11
36.952783203125
 21
189.0932159288193
 31
0.0
  0
LINE
  5
9D8
102
{ACAD_REACTORS
330
9DE
102
}
330
9BE
100
AcDbEntity
  8
LAYER_1
 62
     7
100
AcDbLine
 10
36.952783203125
 20
189.0932159288193
 30
0.0
 11
35.47828233506943
 21
189.0932159288193
 31
0.0
  0
LINE
  5
9D9
102
{ACAD_REACTORS
330
9DE
102
}
330
9BE
100
AcDbEntity
  8
LAYER_1
 62
     7
100
AcDbLine
 10
35.47828233506943
 20
189.0932159288193
 30
0.0
 11
31.83957248263888
 21
169.3358964843748
 31
0.0
  0
HATCH
  5
9DA
330
9BE
100
AcDbEntity
  8
0
  6
Continuous
100
AcDbHatch
 10
0.0
 20
0.0
 30
0.0
210
0.0
220
0.0
230
1.0
  2
SOLID
 70
     1
 71
     1
 91
        2
 92
       16
 93
        1
 72
     4
 94
        3
 73
     0
 74
     0
 95
       29
 96
       25
 40
0.0
 40
0.0
 40
0.0
 40
0.0
 40
1.0
 40
1.0
 40
1.0
 40
2.0
 40
2.0
 40
2.0
 40
3.0
 40
3.0
 40
3.0
 40
4.0
 40
4.0
 40
4.0
 40
5.0
 40
5.0
 40
5.0
 40
6.0
 40
6.0
 40
6.0
 40
7.0
 40
7.0
 40
7.0
 40
8.0
 40
8.0
 40
8.0
 40
8.0
 10
62.85697292751734
 20
171.3365874565971
 10
61.88338894314235
 20
171.3365874565971
 10
61.18058946397567
 20
172.0714263237845
 10
60.74857449001735
 20
173.5411040581595
 10
60.31587049696178
 20
175.0107817925345
 10
60.10020751953124
 20
176.8165630425345
 10
60.10020751953124
 20
178.9578276909721
 10
60.10020751953124
 20
181.6342534722221
 10
60.35101047092013
 20
183.6589360894095
 10
60.85261637369789
 20
185.032495659722
 10
61.35422227647567
 20
186.4054351128471
 10
62.00741238064235
 20
187.092524956597
 10
62.81218668619789
 20
187.092524956597
 10
63.63694254557291
 20
187.092524956597
 10
64.2880655924479
 20
186.3992339409721
 10
64.76486680772568
 20
185.0126519097221
 10
65.24166802300347
 20
183.626069878472
 10
65.48006863064235
 20
181.7961040581595
 10
65.48006863064235
 20
179.5239946831596
 10
65.48006863064235
 20
177.3734282769096
 10
65.27336290147568
 20
175.471528862847
 10
64.86132948133678
 20
173.8176763237846
 10
64.4492960611979
 20
172.1632036675345
 10
63.78094753689235
 20
171.3365874565971
 10
62.85697292751734
 20
171.3365874565971
 97
        1
330
9C4
 92
        1
 93
        1
 72
     4
 94
        3
 73
     0
 74
     0
 95
       29
 96
       25
 40
0.0
 40
0.0
 40
0.0
 40
0.0
 40
1.0
 40
1.0
 40
1.0
 40
2.0
 40
2.0
 40
2.0
 40
3.0
 40
3.0
 40
3.0
 40
4.0
 40
4.0
 40
4.0
 40
5.0
 40
5.0
 40
5.0
 40
6.0
 40
6.0
 40
6.0
 40
7.0
 40
7.0
 40
7.0
 40
8.0
 40
8.0
 40
8.0
 40
8.0
 10
62.76119927300346
 20
189.4340874565971
 10
61.47273356119789
 20
189.4340874565971
 10
60.50121663411457
 20
188.239741753472
 10
59.84733751085069
 20
185.8516704644095
 10
59.33953043619791
 20
183.9900786675345
 10
59.08597140842013
 20
181.7514556206596
 10
59.08597140842013
 20
179.1351812065971
 10
59.08597140842013
 20
176.2379937065971
 10
59.38362765842011
 20
173.8412407769095
 10
59.97894015842013
 20
171.9449224175346
 10
60.64246554904514
 20
169.9779106987846
 10
61.56023898654513
 20
168.9950249565971
 10
62.73157145182291
 20
168.9950249565971
 10
63.99040934244791
 20
168.9950249565971
 10
64.95641411675348
 20
170.118677300347
 10
65.63027479383679
 20
172.3659819878471
 10
66.20629475911457
 20
174.279663628472
 10
66.49430474175346
 20
176.6813774956595
 10
66.49430474175346
 20
179.5698833550345
 10
66.49430474175346
 20
182.2388677300345
 10
66.24005669487846
 20
184.4291216362845
 10
65.73293863932291
 20
186.141265190972
 10
65.08870578342011
 20
188.336480034722
 10
64.09789632161457
 20
189.4340874565971
 10
62.76119927300346
 20
189.4340874565971
 97
        0
 75
     0
 76
     1
 98
        0
  0
HATCH
  5
9DB
330
9BE
100
AcDbEntity
  8
0
  6
Continuous
100
AcDbHatch
 10
0.0
 20
0.0
 30
0.0
210
0.0
220
0.0
230
1.0
  2
SOLID
 70
     1
 71
     1
 91
        1
 92
        1
 93
        1
 72
     4
 94
        3
 73
     0
 74
     0
 95
       59
 96
       55
 40
0.0
 40
0.0
 40
0.0
 40
0.0
 40
1.0
 40
1.0
 40
1.0
 40
2.0
 40
2.0
 40
2.0
 40
3.0
 40
3.0
 40
3.0
 40
4.0
 40
4.0
 40
4.0
 40
5.0
 40
5.0
 40
5.0
 40
6.0
 40
6.0
 40
6.0
 40
7.0
 40
7.0
 40
7.0
 40
8.0
 40
8.0
 40
8.0
 40
9.0
 40
9.0
 40
9.0
 40
10.0
 40
10.0
 40
10.0
 40
11.0
 40
11.0
 40
11.0
 40
12.0
 40
12.0
 40
12.0
 40
13.0
 40
13.0
 40
13.0
 40
14.0
 40
14.0
 40
14.0
 40
15.0
 40
15.0
 40
15.0
 40
16.0
 40
16.0
 40
16.0
 40
17.0
 40
17.0
 40
17.0
 40
18.0
 40
18.0
 40
18.0
 40
18.0
 10
49.39440104166666
 20
189.0932159288193
 10
49.39440104166666
 20
189.0932159288193
 10
51.24786241319444
 20
189.0932159288193
 10
51.24786241319444
 20
189.0932159288193
 10
51.24786241319444
 20
189.0932159288193
 10
54.04665798611111
 20
172.3887471788193
 10
54.04665798611111
 20
172.3887471788193
 10
54.04665798611111
 20
172.3887471788193
 10
56.83994140624999
 20
189.0932159288193
 10
56.83994140624999
 20
189.0932159288193
 10
56.83994140624999
 20
189.0932159288193
 10
58.69891493055554
 20
189.0932159288193
 10
58.69891493055554
 20
189.0932159288193
 10
58.69891493055554
 20
189.0932159288193
 10
58.69891493055554
 20
169.3358964843748
 10
58.69891493055554
 20
169.3358964843748
 10
58.69891493055554
 20
169.3358964843748
 10
57.46419270833333
 20
169.3358964843748
 10
57.46419270833333
 20
169.3358964843748
 10
57.46419270833333
 20
169.3358964843748
 10
57.46419270833333
 20
180.9964422743055
 10
57.46419270833333
 20
180.9964422743055
 10
57.46419270833333
 20
181.3996011284721
 10
57.47108289930555
 20
182.0677291666664
 10
57.48624131944444
 20
183.0001924913193
 10
57.50071072048609
 20
183.9326558159721
 10
57.50828993055554
 20
184.932312282986
 10
57.50828993055554
 20
185.9997957899304
 10
57.50828993055554
 20
185.9997957899304
 10
54.700537109375
 20
169.3358964843748
 10
54.700537109375
 20
169.3358964843748
 10
54.700537109375
 20
169.3358964843748
 10
53.38382161458333
 20
169.3358964843748
 10
53.38382161458333
 20
169.3358964843748
 10
53.38382161458333
 20
169.3358964843748
 10
50.58502604166665
 20
185.9997957899304
 10
50.58502604166665
 20
185.9997957899304
 10
50.58502604166665
 20
185.9997957899304
 10
50.58502604166665
 20
185.3944236111109
 10
50.58502604166665
 20
185.3944236111109
 10
50.58502604166665
 20
184.9101258680555
 10
50.59191623263888
 20
184.1729029947916
 10
50.60707465277777
 20
183.1821210937499
 10
50.62154405381943
 20
182.1913391927082
 10
50.62912326388889
 20
181.4629908854166
 10
50.62912326388889
 20
180.9964422743055
 10
50.62912326388889
 20
180.9964422743055
 10
50.62912326388889
 20
169.3358964843748
 10
50.62912326388889
 20
169.3358964843748
 10
50.62912326388889
 20
169.3358964843748
 10
49.39440104166666
 20
169.3358964843748
 10
49.39440104166666
 20
169.3358964843748
 10
49.39440104166666
 20
169.3358964843748
 10
49.39440104166666
 20
189.0932159288193
 10
49.39440104166666
 20
189.0932159288193
 97
        1
330
9C3
 75
     0
 76
     1
 98
        1
 10
0.0
 20
0.0
  0
HATCH
  5
9DC
330
9BE
100
AcDbEntity
  8
0
  6
Continuous
100
AcDbHatch
 10
0.0
 20
0.0
 30
0.0
210
0.0
220
0.0
230
1.0
  2
SOLID
 70
     1
 71
     1
 91
        2
 92
       16
 93
        1
 72
     4
 94
        3
 73
     0
 74
     0
 95
       32
 96
       28
 40
0.0
 40
0.0
 40
0.0
 40
0.0
 40
1.0
 40
1.0
 40
1.0
 40
2.0
 40
2.0
 40
2.0
 40
3.0
 40
3.0
 40
3.0
 40
4.0
 40
4.0
 40
4.0
 40
5.0
 40
5.0
 40
5.0
 40
6.0
 40
6.0
 40
6.0
 40
7.0
 40
7.0
 40
7.0
 40
8.0
 40
8.0
 40
8.0
 40
9.0
 40
9.0
 40
9.0
 40
9.0
 10
91.70051812065969
 20
171.6077853732638
 10
91.70051812065969
 20
171.6077853732638
 10
91.70051812065969
 20
186.7401881510414
 10
91.70051812065969
 20
186.7401881510414
 10
91.70051812065969
 20
186.7401881510414
 10
93.98668348524305
 20
186.7401881510414
 10
93.98668348524305
 20
186.7401881510414
 10
95.02159016927082
 20
186.7401881510414
 10
95.77331000434028
 20
186.0644533420138
 10
96.24322102864582
 20
184.714251519097
 10
96.71313205295138
 20
183.3640496961804
 10
96.94808756510417
 20
181.4680620659721
 10
96.94808756510417
 20
179.026288628472
 10
96.94808756510417
 20
178.3911232638888
 10
96.91432562934028
 20
177.7027105034721
 10
96.84749077690971
 20
176.9604164496526
 10
96.7324245876736
 20
175.7167094184026
 10
96.55052354600693
 20
174.6974021267359
 10
96.30109863281248
 20
173.9018606770831
 10
95.98414984809028
 20
172.9091770833332
 10
95.57693956163193
 20
172.2378795572915
 10
95.07877875434026
 20
171.8892358940971
 10
94.79076877170138
 20
171.7016022135416
 10
94.43178982204859
 20
171.6077853732638
 10
94.00115288628471
 20
171.6077853732638
 10
94.00115288628471
 20
171.6077853732638
 10
91.70051812065969
 20
171.6077853732638
 10
91.70051812065969
 20
171.6077853732638
 97
        1
330
9C8
 92
        1
 93
        1
 72
     4
 94
        3
 73
     0
 74
     0
 95
       26
 96
       22
 40
0.0
 40
0.0
 40
0.0
 40
0.0
 40
1.0
 40
1.0
 40
1.0
 40
2.0
 40
2.0
 40
2.0
 40
3.0
 40
3.0
 40
3.0
 40
4.0
 40
4.0
 40
4.0
 40
5.0
 40
5.0
 40
5.0
 40
6.0
 40
6.0
 40
6.0
 40
7.0
 40
7.0
 40
7.0
 40
7.0
 10
90.37760145399305
 20
169.3358964843748
 10
90.37760145399305
 20
169.3358964843748
 10
94.22990722656248
 20
169.3358964843748
 10
94.22990722656248
 20
169.3358964843748
 10
95.87115071614581
 20
169.3358964843748
 10
97.03008083767359
 20
170.8331625434027
 10
97.70600857204859
 20
173.8283285590276
 10
98.08221299913194
 20
175.5227367621526
 10
98.27100423177082
 20
177.4187243923609
 10
98.27100423177082
 20
179.5169253472221
 10
98.27100423177082
 20
182.233810329861
 10
97.94716525607638
 20
184.4619602864582
 10
97.30086534288195
 20
186.2013752170138
 10
96.57601725260416
 20
188.1290577256944
 10
95.5576470269097
 20
189.0932159288193
 10
94.24437662760416
 20
189.0932159288193
 10
94.24437662760416
 20
189.0932159288193
 10
90.37760145399305
 20
189.0932159288193
 10
90.37760145399305
 20
189.0932159288193
 10
90.37760145399305
 20
189.0932159288193
 10
90.37760145399305
 20
169.3358964843748
 10
90.37760145399305
 20
169.3358964843748
 97
        0
 75
     0
 76
     1
 98
        0
  0
HATCH
  5
9DD
330
9BE
100
AcDbEntity
  8
0
  6
Continuous
100
AcDbHatch
 10
0.0
 20
0.0
 30
0.0
210
0.0
220
0.0
230
1.0
  2
SOLID
 70
     1
 71
     1
 91
        2
 92
       16
 93
        1
 72
     4
 94
        3
 73
     0
 74
     0
 95
       26
 96
       22
 40
0.0
 40
0.0
 40
0.0
 40
0.0
 40
1.0
 40
1.0
 40
1.0
 40
2.0
 40
2.0
 40
2.0
 40
3.0
 40
3.0
 40
3.0
 40
4.0
 40
4.0
 40
4.0
 40
5.0
 40
5.0
 40
5.0
 40
6.0
 40
6.0
 40
6.0
 40
7.0
 40
7.0
 40
7.0
 40
7.0
 10
100.5623372395832
 20
180.0462298177081
 10
100.5623372395832
 20
180.0462298177081
 10
100.5623372395832
 20
186.7401881510414
 10
100.5623372395832
 20
186.7401881510414
 10
100.5623372395832
 20
186.7401881510414
 10
103.6732584635416
 20
186.7401881510414
 10
103.6732584635416
 20
186.7401881510414
 10
104.1107855902777
 20
186.7401881510414
 10
104.4580512152777
 20
186.6064357638888
 10
104.7150553385415
 20
186.340198784722
 10
105.2097710503471
 20
185.8330807291665
 10
105.4571289062498
 20
184.8822343749999
 10
105.4571289062498
 20
183.4863919270832
 10
105.4571289062498
 20
182.188169704861
 10
105.280740017361
 20
181.2905707465276
 10
104.9286512586804
 20
180.7929611545138
 10
104.5765624999999
 20
180.2947176649304
 10
104.1011393229166
 20
180.0462298177081
 10
103.5023817274304
 20
180.0462298177081
 10
103.5023817274304
 20
180.0462298177081
 10
100.5623372395832
 20
180.0462298177081
 10
100.5623372395832
 20
180.0462298177081
 97
        1
330
9C9
 92
        1
 93
        1
 72
     4
 94
        3
 73
     0
 74
     0
 95
       68
 96
       64
 40
0.0
 40
0.0
 40
0.0
 40
0.0
 40
1.0
 40
1.0
 40
1.0
 40
2.0
 40
2.0
 40
2.0
 40
3.0
 40
3.0
 40
3.0
 40
4.0
 40
4.0
 40
4.0
 40
5.0
 40
5.0
 40
5.0
 40
6.0
 40
6.0
 40
6.0
 40
7.0
 40
7.0
 40
7.0
 40
8.0
 40
8.0
 40
8.0
 40
9.0
 40
9.0
 40
9.0
 40
10.0
 40
10.0
 40
10.0
 40
11.0
 40
11.0
 40
11.0
 40
12.0
 40
12.0
 40
12.0
 40
13.0
 40
13.0
 40
13.0
 40
14.0
 40
14.0
 40
14.0
 40
15.0
 40
15.0
 40
15.0
 40
16.0
 40
16.0
 40
16.0
 40
17.0
 40
17.0
 40
17.0
 40
18.0
 40
18.0
 40
18.0
 40
19.0
 40
19.0
 40
19.0
 40
20.0
 40
20.0
 40
20.0
 40
21.0
 40
21.0
 40
21.0
 40
21.0
 10
99.23942057291661
 20
169.3358964843748
 10
99.23942057291661
 20
169.3358964843748
 10
100.5623372395832
 20
169.3358964843748
 10
100.5623372395832
 20
169.3358964843748
 10
100.5623372395832
 20
169.3358964843748
 10
100.5623372395832
 20
177.8149103732638
 10
100.5623372395832
 20
177.8149103732638
 10
100.5623372395832
 20
177.8149103732638
 10
103.4472601996527
 20
177.8149103732638
 10
103.4472601996527
 20
177.8149103732638
 10
103.9681586371527
 20
177.8149103732638
 10
104.3519422743053
 20
177.6938359374999
 10
104.5986111111109
 20
177.451687065972
 10
105.0244249131943
 20
177.0117621527776
 10
105.2518012152777
 20
176.1458580729166
 10
105.280740017361
 20
174.8539748263888
 10
105.280740017361
 20
174.8539748263888
 10
105.3689344618053
 20
171.5564396701388
 10
105.3689344618053
 20
171.5564396701388
 10
105.3882269965277
 20
170.7843524305554
 10
105.4109646267359
 20
170.2639225260416
 10
105.4357693142359
 20
169.9951499565971
 10
105.4605740017359
 20
169.7257434895831
 10
105.4970920138888
 20
169.5057810329859
 10
105.5467013888887
 20
169.3358964843748
 10
105.5467013888887
 20
169.3358964843748
 10
107.1769205729166
 20
169.3358964843748
 10
107.1769205729166
 20
169.3358964843748
 10
107.1769205729166
 20
169.3358964843748
 10
107.1769205729166
 20
169.7821603732638
 10
107.1769205729166
 20
169.7821603732638
 10
106.9750379774303
 20
169.9609194878471
 10
106.8337890624998
 20
170.3628105468748
 10
106.7538628472221
 20
170.9878335503471
 10
106.7028754340275
 20
171.3542263454859
 10
106.6677354600692
 20
171.9120562065971
 10
106.6477539062498
 20
172.6625909288193
 10
106.6477539062498
 20
172.6625909288193
 10
106.6036566840277
 20
175.3205234374999
 10
106.6036566840277
 20
175.3205234374999
 10
106.5836751302082
 20
176.4716814236109
 10
106.4768771701387
 20
177.303355034722
 10
106.2839518229166
 20
177.8142764756942
 10
106.0903374565971
 20
178.3251979166666
 10
105.8002604166666
 20
178.7372313368055
 10
105.4130316840277
 20
179.0516445312499
 10
105.8443576388887
 20
179.5086846788193
 10
106.179909939236
 20
180.1134229600693
 10
106.4196885850692
 20
180.8664932725692
 10
106.6594672309027
 20
181.6189296874999
 10
106.7800455729166
 20
182.5868912760416
 10
106.7800455729166
 20
183.7697441406249
 10
106.7800455729166
 20
186.0371957465276
 10
106.3328721788193
 20
187.5921464843749
 10
105.4392144097221
 20
188.4345963541666
 10
104.9679253472221
 20
188.8732534722221
 10
104.3719238281249
 20
189.0932159288193
 10
103.6512098524303
 20
189.0932159288193
 10
103.6512098524303
 20
189.0932159288193
 10
99.23942057291661
 20
189.0932159288193
 10
99.23942057291661
 20
189.0932159288193
 10
99.23942057291661
 20
189.0932159288193
 10
99.23942057291661
 20
169.3358964843748
 10
99.23942057291661
 20
169.3358964843748
 97
        0
 75
     0
 76
     1
 98
        0
  0
HATCH
  5
9DE
330
9BE
100
AcDbEntity
  8
0
  6
Continuous
100
AcDbHatch
 10
0.0
 20
0.0
 30
0.0
210
0.0
220
0.0
230
1.0
  2
SOLID
 70
     1
 71
     1
 91
        2
 92
        1
 93
        8
 72
     1
 10
35.47828233506943
 20
189.0932159288193
 11
31.83957248263888
 21
169.3358964843748
 72
     1
 10
31.83957248263888
 20
169.3358964843748
 11
33.22450086805555
 21
169.3358964843748
 72
     1
 10
33.22450086805555
 20
169.3358964843748
 11
34.27043185763887
 21
175.2590353732638
 72
     1
 10
34.27043185763887
 20
175.2590353732638
 11
38.04694552951389
 21
175.2590353732638
 72
     1
 10
38.04694552951389
 20
175.2590353732638
 11
39.05015733506942
 21
169.3358964843748
 72
     1
 10
39.05015733506942
 20
169.3358964843748
 11
40.43508572048611
 21
169.3358964843748
 72
     1
 10
40.43508572048611
 20
169.3358964843748
 11
36.952783203125
 21
189.0932159288193
 72
     1
 10
36.952783203125
 20
189.0932159288193
 11
35.47828233506943
 21
189.0932159288193
 97
        8
330
9D9
330
9D2
330
9D3
330
9D4
330
9D5
330
9D6
330
9D7
330
9D8
 92
       16
 93
        3
 72
     1
 10
37.67556423611111
 20
177.4497853732638
 11
34.65766059027778
 21
177.4497853732638
 72
     1
 10
34.65766059027778
 20
177.4497853732638
 11
36.19830729166666
 21
186.1658769531249
 72
     1
 10
36.19830729166666
 20
186.1658769531249
 11
37.67556423611111
 21
177.4497853732638
 97
        3
330
9D1
330
9CF
330
9D0
 75
     0
 76
     1
 98
        1
 10
0.0
 20
0.0
  0
HATCH
  5
9DF
330
9BE
100
AcDbEntity
  8
0
  6
Continuous
100
AcDbHatch
 10
0.0
 20
0.0
 30
0.0
210
0.0
220
0.0
230
1.0
  2
SOLID
 70
     1
 71
     1
 91
        1
 92
        1
 93
        1
 72
     4
 94
        3
 73
     0
 74
     0
 95
      113
 96
      109
 40
0.0
 40
0.0
 40
0.0
 40
0.0
 40
1.0
 40
1.0
 40
1.0
 40
2.0
 40
2.0
 40
2.0
 40
3.0
 40
3.0
 40
3.0
 40
4.0
 40
4.0
 40
4.0
 40
5.0
 40
5.0
 40
5.0
 40
6.0
 40
6.0
 40
6.0
 40
7.0
 40
7.0
 40
7.0
 40
8.0
 40
8.0
 40
8.0
 40
9.0
 40
9.0
 40
9.0
 40
10.0
 40
10.0
 40
10.0
 40
11.0
 40
11.0
 40
11.0
 40
12.0
 40
12.0
 40
12.0
 40
13.0
 40
13.0
 40
13.0
 40
14.0
 40
14.0
 40
14.0
 40
15.0
 40
15.0
 40
15.0
 40
16.0
 40
16.0
 40
16.0
 40
17.0
 40
17.0
 40
17.0
 40
18.0
 40
18.0
 40
18.0
 40
19.0
 40
19.0
 40
19.0
 40
20.0
 40
20.0
 40
20.0
 40
21.0
 40
21.0
 40
21.0
 40
22.0
 40
22.0
 40
22.0
 40
23.0
 40
23.0
 40
23.0
 40
24.0
 40
24.0
 40
24.0
 40
25.0
 40
25.0
 40
25.0
 40
26.0
 40
26.0
 40
26.0
 40
27.0
 40
27.0
 40
27.0
 40
28.0
 40
28.0
 40
28.0
 40
29.0
 40
29.0
 40
29.0
 40
30.0
 40
30.0
 40
30.0
 40
31.0
 40
31.0
 40
31.0
 40
32.0
 40
32.0
 40
32.0
 40
33.0
 40
33.0
 40
33.0
 40
34.0
 40
34.0
 40
34.0
 40
35.0
 40
35.0
 40
35.0
 40
36.0
 40
36.0
 40
36.0
 40
36.0
 10
193.3039632161458
 20
186.1548733181423
 10
193.3039632161458
 20
186.1860514322916
 10
193.3039632161458
 20
219.6932223849826
 10
193.3039632161458
 20
219.6932223849826
 10
193.3039632161458
 20
219.6932223849826
 10
193.297417534722
 20
219.7488606770833
 10
193.297417534722
 20
219.7488606770833
 10
191.5293945312499
 20
235.455740017361
 10
175.1458984374999
 20
235.2467949761284
 10
174.9808783637151
 20
235.2428331163193
 10
174.9808783637151
 20
235.2428331163193
 10
125.8827555338541
 20
235.2430053710937
 10
125.8827555338541
 20
235.2430053710937
 10
125.8827555338541
 20
235.2430053710937
 10
125.8827555338541
 20
255.5278998480901
 10
125.8827555338541
 20
255.5278998480901
 10
125.8827555338541
 20
255.5278998480901
 10
84.5626247829861
 20
255.5278998480901
 10
84.5626247829861
 20
255.5278998480901
 10
84.5626247829861
 20
255.5278998480901
 10
84.55711263020829
 20
233.7919311523436
 10
84.55711263020829
 20
233.7919311523436
 10
84.55711263020829
 20
233.7919311523436
 10
64.42052951388888
 20
233.7919311523436
 10
64.42052951388888
 20
233.7919311523436
 10
64.42052951388888
 20
233.7919311523436
 10
64.41501736111111
 20
255.5278998480901
 10
64.41501736111111
 20
255.5278998480901
 10
64.41501736111111
 20
255.5278998480901
 10
23.91757541232637
 20
255.5278998480901
 10
23.91757541232637
 20
255.5278998480901
 10
23.91757541232637
 20
255.5278998480901
 10
23.91757541232637
 20
233.2393378363715
 10
23.91757541232637
 20
233.2393378363715
 10
23.91757541232637
 20
233.2393378363715
 10
43.65624999999999
 20
233.2393378363715
 10
43.65624999999999
 20
233.2393378363715
 10
43.65624999999999
 20
233.2393378363715
 10
43.65624999999999
 20
211.5188720703125
 10
43.65624999999999
 20
211.5188720703125
 10
43.65624999999999
 20
211.5188720703125
 10
23.91757541232637
 20
211.5188720703125
 10
23.91757541232637
 20
211.5188720703125
 10
23.91757541232637
 20
211.5188720703125
 10
23.91757541232637
 20
189.2303100585936
 10
23.91757541232637
 20
189.2303100585936
 10
23.91757541232637
 20
189.2303100585936
 10
64.41501736111111
 20
189.2303100585936
 10
64.41501736111111
 20
189.2303100585936
 10
64.41501736111111
 20
189.2303100585936
 10
64.42052951388888
 20
211.069976128472
 10
64.42052951388888
 20
211.069976128472
 10
64.42052951388888
 20
211.069976128472
 10
84.55711263020829
 20
211.069976128472
 10
84.55711263020829
 20
211.069976128472
 10
84.55711263020829
 20
211.069976128472
 10
84.5626247829861
 20
189.2303100585936
 10
84.5626247829861
 20
189.2303100585936
 10
84.5626247829861
 20
189.2303100585936
 10
125.8827555338541
 20
189.2303100585936
 10
125.8827555338541
 20
189.2303100585936
 10
125.8827555338541
 20
189.2303100585936
 10
125.8827555338541
 20
211.5188720703125
 10
125.8827555338541
 20
211.5188720703125
 10
125.8827555338541
 20
211.5188720703125
 10
105.3213921440971
 20
211.5188720703125
 10
105.3213921440971
 20
211.5188720703125
 10
105.3213921440971
 20
211.5188720703125
 10
105.3213921440971
 20
233.2393378363715
 10
105.3213921440971
 20
233.2393378363715
 10
105.3213921440971
 20
233.2393378363715
 10
175.0046495225693
 20
233.243127441406
 10
175.0046495225693
 20
233.243127441406
 10
175.6268337673611
 20
233.2560465494791
 10
189.7165852864583
 20
233.3962619357638
 10
191.3037407769094
 20
219.5690266927083
 10
191.3037407769094
 20
219.4332899305555
 10
191.3037407769094
 20
186.1142211914062
 10
191.3037407769094
 20
186.1142211914062
 10
191.3037407769094
 20
186.1142211914062
 10
191.3051188151039
 20
186.0880384657115
 10
191.3051188151039
 20
186.0880384657115
 10
191.3054633246526
 20
186.0787367078991
 10
191.3109754774304
 20
185.9566080729166
 10
191.3109754774304
 20
185.7399115668401
 10
191.3109754774304
 20
184.2090833875865
 10
191.0488037109374
 20
177.9643310546874
 10
186.9866916232638
 20
173.5652886284722
 10
184.2540418836804
 20
170.6064683702255
 10
180.3224989149304
 20
169.0308539496526
 10
175.300927734375
 20
168.8825425889756
 10
175.300927734375
 20
168.8825425889756
 10
107.0094889322916
 20
168.8828870985243
 10
107.0094889322916
 20
168.8828870985243
 10
107.0094889322916
 20
168.8828870985243
 10
107.0094889322916
 20
166.8830091688368
 10
107.0094889322916
 20
166.8830091688368
 10
107.0094889322916
 20
166.8830091688368
 10
175.3305555555555
 20
166.8830091688368
 10
175.3305555555555
 20
166.8830091688368
 10
180.9467502170138
 20
167.0485460069444
 10
185.3571614583333
 20
168.8448187934026
 10
188.4687717013888
 20
172.2223904079861
 10
192.9649658203124
 20
177.1034016927083
 10
193.3136094835069
 20
183.7202243381076
 10
193.3136094835069
 20
185.6520616319443
 10
193.3136094835069
 20
185.9247409396701
 10
193.3070638020833
 20
186.0868326822916
 10
193.3039632161458
 20
186.1548733181423
 97
        1
330
9BF
 75
     0
 76
     1
 98
        1
 10
0.0
 20
0.0
  0
HATCH
  5
9E0
330
9BE
100
AcDbEntity
  8
0
  6
Continuous
100
AcDbHatch
 10
0.0
 20
0.0
 30
0.0
210
0.0
220
0.0
230
1.0
  2
SOLID
 70
     1
 71
     1
 91
        2
 92
        1
 93
        1
 72
     4
 94
        3
 73
     0
 74
     0
 95
       23
 96
       19
 40
0.0
 40
0.0
 40
0.0
 40
0.0
 40
1.0
 40
1.0
 40
1.0
 40
2.0
 40
2.0
 40
2.0
 40
3.0
 40
3.0
 40
3.0
 40
4.0
 40
4.0
 40
4.0
 40
5.0
 40
5.0
 40
5.0
 40
6.0
 40
6.0
 40
6.0
 40
6.0
 10
148.6593153211804
 20
211.3929538302949
 10
148.6593153211804
 20
211.3929538302949
 10
148.6593153211804
 20
189.6308024088541
 10
148.6593153211804
 20
189.6308024088541
 10
148.6593153211804
 20
189.6308024088541
 10
161.3152180989583
 20
189.6308024088541
 10
161.3152180989583
 20
189.6308024088541
 10
162.8431179470484
 20
189.6308024088541
 10
170.4657362196179
 20
190.1880466037324
 10
170.4657362196179
 20
201.1911648220485
 10
170.4657362196179
 20
211.1288872612846
 10
162.3356553819444
 20
211.3914035373263
 10
162.2536621093749
 20
211.3927815755206
 10
162.2536621093749
 20
211.3927815755206
 10
149.6594265407986
 20
211.3929538302949
 10
149.6594265407986
 20
211.3929538302949
 10
149.6594265407986
 20
211.3929538302949
 10
148.6593153211804
 20
211.3929538302949
 10
148.6593153211804
 20
211.3929538302949
 97
        1
330
9C0
 92
       16
 93
        1
 72
     4
 94
        3
 73
     0
 74
     0
 95
       20
 96
       16
 40
0.0
 40
0.0
 40
0.0
 40
0.0
 40
1.0
 40
1.0
 40
1.0
 40
2.0
 40
2.0
 40
2.0
 40
3.0
 40
3.0
 40
3.0
 40
4.0
 40
4.0
 40
4.0
 40
5.0
 40
5.0
 40
5.0
 40
5.0
 10
162.2354031032985
 20
209.3930759006076
 10
162.467947048611
 20
209.3861857096353
 10
168.4655137803819
 20
209.1283203124999
 10
168.4655137803819
 20
201.1911648220485
 10
168.4655137803819
 20
192.3202162000866
 10
162.9926350911458
 20
191.6306803385414
 10
161.3152180989583
 20
191.6306803385414
 10
161.3152180989583
 20
191.6306803385414
 10
152.3310980902776
 20
191.6306803385414
 10
150.6595377604166
 20
191.6306803385414
 10
150.6595377604166
 20
193.3373806423609
 10
150.6595377604166
 20
207.6863755967881
 10
150.6595377604166
 20
209.3930759006076
 10
152.353835720486
 20
209.3930759006076
 10
162.2354031032985
 20
209.3930759006076
 10
162.2354031032985
 20
209.3930759006076
 97
        0
 75
     0
 76
     1
 98
        0
  0
ENDBLK
  5
9E2
330
9BE
100
AcDbEntity
  8
0
100
AcDbBlockEnd
  0
BLOCK
  5
9E5
330
9E3
100
AcDbEntity
  8
0
100
AcDbBlockBegin
  2
HD logo-new
 70
     0
 10
0.0
 20
0.0
 30
0.0
  3
HD logo-new
  1

  0
INSERT
  5
9E4
330
9E3
100
AcDbEntity
  8
0
 62
     3
100
AcDbBlockReference
  2
HD_LLC_logo_OT5
 10
-27.1607188578505
 20
-68.37367811463031
 30
0.0
 41
0.2999999999999971
 42
0.3000000000000007
 43
0.3
  0
ENDBLK
  5
9E6
330
9E3
100
AcDbEntity
  8
0
100
AcDbBlockEnd
  0
BLOCK
  5
9E9
330
9E7
100
AcDbEntity
  8
0
100
AcDbBlockBegin
  2
HD Logo
 70
     0
 10
0.0
 20
0.0
 30
0.0
  3
HD Logo
  1

  0
INSERT
  5
9E8
330
9E7
100
AcDbEntity
  8
0
100
AcDbBlockReference
  2
HD logo-new
 10
0.9700256734946606
 20
7.273795608420527
 30
0.0
  0
ENDBLK
  5
9EA
330
9E7
100
AcDbEntity
  8
0
100
AcDbBlockEnd
  0
BLOCK
  5
A01
330
9FF
100
AcDbEntity
  8
0
100
AcDbBlockBegin
  2
Harmonic Drive LLC
 70
     0
 10
0.0
 20
0.0
 30
0.0
  3
Harmonic Drive LLC
  1

  0
MTEXT
  5
A00
330
9FF
100
AcDbEntity
  8
0
100
AcDbMText
 10
8.730232253264317
 20
-1.454758693481394
 30
0.0
 40
5.25
 41
158.5992
 71
     5
 72
     5
  1
{\fArial|b0|i0|c0|p34;Harmonic Drive LLC\P800-921-3332\Pwww.harmonicdrive.net}
 73
     1
 44
1.0
  0
ENDBLK
  5
A02
330
9FF
100
AcDbEntity
  8
0
100
AcDbBlockEnd
  0
BLOCK
  5
A16
330
A13
100
AcDbEntity
  8
0
100
AcDbBlockBegin
  2
NTC
 70
     0
 10
0.0
 20
0.0
 30
0.0
  3
NTC
  1

  0
LWPOLYLINE
  5
A14
330
A13
100
AcDbEntity
  8
0
100
AcDbPolyline
 90
        8
 70
     1
 43
0.0
 10
4.581008201925953
 20
-10.78862239032818
 10
319.3921777697513
 20
-10.78862239032818
 42
-0.4142135623730951
 10
324.9046777697513
 20
-16.30112239032816
 10
324.9046777697513
 20
-117.4075202476924
 42
-0.4142135623730951
 10
319.3921777697513
 20
-122.9200202476925
 10
4.581008201925838
 20
-122.9200202476925
 42
-0.4142135623730951
 10
-0.9314917980741483
 20
-117.4075202476924
 10
-0.9314917980740915
 20
-16.30112239032816
 42
-0.4142135623730951
  0
MTEXT
  5
A15
330
A13
100
AcDbEntity
  8
0
  6
Continuous
370
    30
100
AcDbMText
 10
21.65307678143926
 20
-17.4535155144544
 30
0.0
 40
8.75
 41
294.5432999999998
 71
     1
 72
     5
  3
{\fTxt|b1|i0|c0|p2;Notice:\P\Ftxt.shx;\H0.5714x;All specifications and dimensions shown in the drawing are subject to change without notice. This drawing is the property of Harmonic Drive LLC.   This data is believed to be accurate, however, Harmonic
  1
 Drive LLC assumes no liability for any errors or omissions in the specifications, models, or drawings.\P\PHarmonic Drive LLC\PTel: 800-921-3332\Pwww.harmonicdrive.net}
 73
     1
 44
1.0
  0
ENDBLK
  5
A17
330
A13
100
AcDbEntity
  8
0
100
AcDbBlockEnd
  0
ENDSEC
  0
SECTION
  2
ENTITIES
  0
LINE
  5
816
330
5E0
100
AcDbEntity
  8
1
  6
CENTER
 62
     3
100
AcDbLine
 10
341.328866
 20
-1866.373568
 30
0.0
 11
338.778866
 21
-1870.790297
 31
0.0
  0
LINE
  5
817
330
5E0
100
AcDbEntity
  8
1
  6
CENTER
 62
     3
100
AcDbLine
 10
355.988184
 20
-1881.032885
 30
0.0
 11
351.571454
 21
-1883.582885
 31
0.0
  0
LINE
  5
818
330
5E0
100
AcDbEntity
  8
1
  6
CENTER
 62
     3
100
AcDbLine
 10
355.988184
 20
-1921.082885
 30
0.0
 11
351.571454
 21
-1918.532885
 31
0.0
  0
LINE
  5
819
330
5E0
100
AcDbEntity
  8
1
  6
CENTER
 62
     3
100
AcDbLine
 10
341.328866
 20
-1935.742203
 30
0.0
 11
338.778866
 21
-1931.325473
 31
0.0
  0
LINE
  5
81A
330
5E0
100
AcDbEntity
  8
1
  6
CENTER
 62
     3
100
AcDbLine
 10
301.278866
 20
-1935.742203
 30
0.0
 11
303.828866
 21
-1931.325473
 31
0.0
  0
LINE
  5
81B
330
5E0
100
AcDbEntity
  8
1
  6
CENTER
 62
     3
100
AcDbLine
 10
286.6195489999999
 20
-1921.082885
 30
0.0
 11
291.0362779999998
 21
-1918.532885
 31
0.0
  0
LINE
  5
81C
330
5E0
100
AcDbEntity
  8
1
  6
CENTER
 62
     3
100
AcDbLine
 10
286.6195489999999
 20
-1881.032885
 30
0.0
 11
291.0362779999998
 21
-1883.582885
 31
0.0
  0
LINE
  5
81D
330
5E0
100
AcDbEntity
  8
1
  6
CENTER
 62
     3
100
AcDbLine
 10
301.278866
 20
-1866.373568
 30
0.0
 11
303.828866
 21
-1870.790297
 31
0.0
  0
LINE
  5
81E
330
5E0
100
AcDbEntity
  8
1
  6
CENTER
 62
     3
100
AcDbLine
 10
321.303866
 20
-1863.557885
 30
0.0
 11
321.303866
 21
-1891.057885
 31
0.0
  0
LINE
  5
81F
330
5E0
100
AcDbEntity
  8
1
  6
CENTER
 62
     3
100
AcDbLine
 10
340.138314
 20
-1897.736864
 30
0.0
 11
332.0136499999998
 21
-1899.169460999999
 31
0.0
  0
LINE
  5
820
330
5E0
100
AcDbEntity
  8
1
  6
CENTER
 62
     3
100
AcDbLine
 10
337.866602
 20
-1910.620385
 30
0.0
 11
330.7218919999999
 21
-1906.495385
 31
0.0
  0
LINE
  5
821
330
5E0
100
AcDbEntity
  8
1
  6
CENTER
 62
     3
100
AcDbLine
 10
327.8450009999999
 20
-1919.029506
 30
0.0
 11
325.023335
 21
-1911.277042
 31
0.0
  0
LINE
  5
822
330
5E0
100
AcDbEntity
  8
1
  6
CENTER
 62
     3
100
AcDbLine
 10
314.762731
 20
-1919.029506
 30
0.0
 11
317.584397
 21
-1911.277042
 31
0.0
  0
LINE
  5
823
330
5E0
100
AcDbEntity
  8
1
  6
CENTER
 62
     3
100
AcDbLine
 10
304.74113
 20
-1910.620385
 30
0.0
 11
311.8858399999998
 21
-1906.495385
 31
0.0
  0
LINE
  5
824
330
5E0
100
AcDbEntity
  8
1
  6
CENTER
 62
     3
100
AcDbLine
 10
302.469418
 20
-1897.736864
 30
0.0
 11
310.5940819999998
 21
-1899.169460999999
 31
0.0
  0
LINE
  5
825
330
5E0
100
AcDbEntity
  8
1
  6
CENTER
 62
     3
100
AcDbLine
 10
312.180495
 20
-1935.106769999999
 30
0.0
 11
311.015809
 21
-1939.453437
 31
0.0
  0
LINE
  5
826
330
5E0
100
AcDbEntity
  8
1
  6
CENTER
 62
     3
100
AcDbLine
 10
330.427238
 20
-1867.009
 30
0.0
 11
331.5919229999999
 21
-1862.662333999999
 31
0.0
  0
LINE
  5
827
330
5E0
100
AcDbEntity
  8
1
  6
CENTER
 62
     3
100
AcDbLine
 10
321.303866
 20
-1855.326877999999
 30
0.0
 11
321.303866
 21
-1863.557885
 31
0.0
  0
LINE
  5
828
330
5E0
100
AcDbEntity
  8
1
  6
CENTER
 62
     3
100
AcDbLine
 10
309.0105529999998
 20
-1886.407285
 30
0.0
 11
314.3135509999999
 21
-1892.727152
 31
0.0
  0
LINE
  5
829
330
5E0
100
AcDbEntity
  8
1
  6
CENTER
 62
     3
100
AcDbLine
 10
321.303866
 20
-1946.788892
 30
0.0
 11
321.303866
 21
-1901.057885
 31
0.0
  0
LINE
  5
82A
330
5E0
100
AcDbEntity
  8
1
  6
CENTER
 62
     3
100
AcDbLine
 10
333.5971789999998
 20
-1886.407285
 30
0.0
 11
328.294181
 21
-1892.727152
 31
0.0
  0
LINE
  5
82B
330
5E0
100
AcDbEntity
  8
1
  6
CENTER
 62
     3
100
AcDbLine
 10
275.5728589999999
 20
-1901.057885
 30
0.0
 11
321.303866
 21
-1901.057885
 31
0.0
  0
LINE
  5
82C
330
5E0
100
AcDbEntity
  8
1
  6
CENTER
 62
     3
100
AcDbLine
 10
367.034873
 20
-1901.057885
 30
0.0
 11
321.303866
 21
-1901.057885
 31
0.0
  0
LINE
  5
82D
330
5E0
100
AcDbEntity
  8
1
  6
CENTER
 62
     3
100
AcDbLine
 10
321.303866
 20
-1891.057885
 30
0.0
 11
321.303866
 21
-1901.057885
 31
0.0
  0
LINE
  5
82E
330
5E0
100
AcDbEntity
  8
1
 62
     7
100
AcDbLine
 10
430.880448
 20
-1898.142766
 30
0.0
 11
430.880448
 21
-1901.057885
 31
0.0
  0
LINE
  5
82F
330
5E0
100
AcDbEntity
  8
1
 62
     7
100
AcDbLine
 10
428.880448
 20
-1898.142766
 30
0.0
 11
428.880448
 21
-1901.057885
 31
0.0
  0
LINE
  5
830
330
5E0
100
AcDbEntity
  8
1
  6
DASHED
 62
     4
100
AcDbLine
 10
428.880448
 20
-1934.057885
 30
0.0
 11
432.380448
 21
-1934.057885
 31
0.0
  0
LINE
  5
831
330
5E0
100
AcDbEntity
  8
1
  6
DASHED
 62
     4
100
AcDbLine
 10
428.880448
 20
-1921.671764
 30
0.0
 11
428.880448
 21
-1934.057885
 31
0.0
  0
LINE
  5
832
330
5E0
100
AcDbEntity
  8
1
  6
DASHED
 62
     4
100
AcDbLine
 10
447.380448
 20
-1934.057885
 30
0.0
 11
447.380448
 21
-1925.830815999999
 31
0.0
  0
LINE
  5
833
330
5E0
100
AcDbEntity
  8
1
 62
     7
100
AcDbLine
 10
445.880448
 20
-1934.057885
 30
0.0
 11
445.880448
 21
-1933.060885
 31
0.0
  0
LINE
  5
834
330
5E0
100
AcDbEntity
  8
1
  6
DASHED
 62
     4
100
AcDbLine
 10
445.880448
 20
-1934.057885
 30
0.0
 11
447.380448
 21
-1934.057885
 31
0.0
  0
LINE
  5
835
330
5E0
100
AcDbEntity
  8
1
 62
     7
100
AcDbLine
 10
430.880448
 20
-1890.757885
 30
0.0
 11
430.580448
 21
-1891.057885
 31
0.0
  0
LINE
  5
836
330
5E0
100
AcDbEntity
  8
1
 62
     7
100
AcDbLine
 10
428.880448
 20
-1891.057885
 30
0.0
 11
428.880448
 21
-1890.757885
 31
0.0
  0
LINE
  5
837
330
5E0
100
AcDbEntity
  8
1
 62
     7
100
AcDbLine
 10
429.180448
 20
-1891.057885
 30
0.0
 11
428.880448
 21
-1890.757885
 31
0.0
  0
LINE
  5
838
330
5E0
100
AcDbEntity
  8
1
 62
     7
100
AcDbLine
 10
429.180448
 20
-1891.057885
 30
0.0
 11
430.580448
 21
-1891.057885
 31
0.0
  0
LINE
  5
839
330
5E0
100
AcDbEntity
  8
1
  6
CENTER
 62
     3
100
AcDbLine
 10
427.380448
 20
-1886.057885
 30
0.0
 11
432.380448
 21
-1886.057885
 31
0.0
  0
LINE
  5
83A
330
5E0
100
AcDbEntity
  8
1
 62
     7
100
AcDbLine
 10
430.880448
 20
-1883.307885
 30
0.0
 11
428.880448
 21
-1883.307885
 31
0.0
  0
LINE
  5
83B
330
5E0
100
AcDbEntity
  8
1
 62
     7
100
AcDbLine
 10
428.880448
 20
-1885.057885
 30
0.0
 11
428.880448
 21
-1883.307885
 31
0.0
  0
LINE
  5
83C
330
5E0
100
AcDbEntity
  8
1
 62
     7
100
AcDbLine
 10
430.880448
 20
-1888.807885
 30
0.0
 11
430.880448
 21
-1883.307885
 31
0.0
  0
LINE
  5
83D
330
5E0
100
AcDbEntity
  8
1
 62
     7
100
AcDbLine
 10
430.880448
 20
-1888.807885
 30
0.0
 11
428.880448
 21
-1888.807885
 31
0.0
  0
LINE
  5
83E
330
5E0
100
AcDbEntity
  8
1
 62
     7
100
AcDbLine
 10
428.880448
 20
-1888.807885
 30
0.0
 11
428.880448
 21
-1885.057885
 31
0.0
  0
LINE
  5
83F
330
5E0
100
AcDbEntity
  8
1
  6
CENTER
 62
     3
100
AcDbLine
 10
553.571415
 20
-1876.222885
 30
0.0
 11
553.571415
 21
-1883.807885
 31
0.0
  0
LINE
  5
840
330
5E0
100
AcDbEntity
  8
1
  6
CENTER
 62
     3
100
AcDbLine
 10
553.571415
 20
-1872.657885
 30
0.0
 11
553.571415
 21
-1876.222885
 31
0.0
  0
LINE
  5
841
330
5E0
100
AcDbEntity
  8
1
  6
CENTER
 62
     3
100
AcDbLine
 10
553.571415
 20
-1869.307885
 30
0.0
 11
553.571415
 21
-1872.657885
 31
0.0
  0
LINE
  5
842
330
5E0
100
AcDbEntity
  8
1
  6
CENTER
 62
     3
100
AcDbLine
 10
553.571415
 20
-1869.054885
 30
0.0
 11
553.571415
 21
-1869.307885
 31
0.0
  0
LINE
  5
843
330
5E0
100
AcDbEntity
  8
1
  6
CENTER
 62
     3
100
AcDbLine
 10
553.571415
 20
-1883.807885
 30
0.0
 11
553.571415
 21
-1933.682885
 31
0.0
  0
LINE
  5
844
330
5E0
100
AcDbEntity
  8
1
  6
CENTER
 62
     3
100
AcDbLine
 10
568.5714149999999
 20
-1901.057885
 30
0.0
 11
586.196415
 21
-1901.057885
 31
0.0
  0
LINE
  5
845
330
5E0
100
AcDbEntity
  8
1
  6
CENTER
 62
     3
100
AcDbLine
 10
553.571415
 20
-1858.682885
 30
0.0
 11
553.571415
 21
-1869.054885
 31
0.0
  0
LINE
  5
846
330
5E0
100
AcDbEntity
  8
1
  6
CENTER
 62
     3
100
AcDbLine
 10
532.383915
 20
-1864.360059
 30
0.0
 11
537.258915
 21
-1872.803806
 31
0.0
  0
LINE
  5
847
330
5E0
100
AcDbEntity
  8
1
  6
CENTER
 62
     3
100
AcDbLine
 10
516.8735889999998
 20
-1879.870385
 30
0.0
 11
525.317337
 21
-1884.745385
 31
0.0
  0
LINE
  5
848
330
5E0
100
AcDbEntity
  8
1
  6
CENTER
 62
     3
100
AcDbLine
 10
511.196415
 20
-1901.057885
 30
0.0
 11
565.571415
 21
-1901.057885
 31
0.0
  0
LINE
  5
849
330
5E0
100
AcDbEntity
  8
1
  6
CENTER
 62
     3
100
AcDbLine
 10
516.8735889999998
 20
-1922.245385
 30
0.0
 11
525.317337
 21
-1917.370385
 31
0.0
  0
LINE
  5
84A
330
5E0
100
AcDbEntity
  8
1
  6
CENTER
 62
     3
100
AcDbLine
 10
532.383915
 20
-1937.755712
 30
0.0
 11
537.258915
 21
-1929.311964
 31
0.0
  0
LINE
  5
84B
330
5E0
100
AcDbEntity
  8
1
  6
CENTER
 62
     3
100
AcDbLine
 10
553.571415
 20
-1943.432885
 30
0.0
 11
553.571415
 21
-1933.682885
 31
0.0
  0
LINE
  5
84C
330
5E0
100
AcDbEntity
  8
1
  6
CENTER
 62
     3
100
AcDbLine
 10
574.758915
 20
-1937.755712
 30
0.0
 11
569.883915
 21
-1929.311964
 31
0.0
  0
LINE
  5
84D
330
5E0
100
AcDbEntity
  8
1
  6
CENTER
 62
     3
100
AcDbLine
 10
590.269242
 20
-1922.245385
 30
0.0
 11
581.825494
 21
-1917.370385
 31
0.0
  0
LINE
  5
84E
330
5E0
100
AcDbEntity
  8
1
  6
CENTER
 62
     3
100
AcDbLine
 10
595.946415
 20
-1901.057885
 30
0.0
 11
586.196415
 21
-1901.057885
 31
0.0
  0
LINE
  5
84F
330
5E0
100
AcDbEntity
  8
1
  6
CENTER
 62
     3
100
AcDbLine
 10
590.269242
 20
-1879.870385
 30
0.0
 11
581.825494
 21
-1884.745385
 31
0.0
  0
LINE
  5
850
330
5E0
100
AcDbEntity
  8
1
  6
CENTER
 62
     3
100
AcDbLine
 10
574.758915
 20
-1864.360059
 30
0.0
 11
569.883915
 21
-1872.803806
 31
0.0
  0
LINE
  5
851
330
5E0
100
AcDbEntity
  8
1
  6
CENTER
 62
     3
100
AcDbLine
 10
543.283358
 20
-1862.662333999999
 30
0.0
 11
544.4480440000002
 21
-1867.009
 31
0.0
  0
LINE
  5
852
330
5E0
100
AcDbEntity
  8
1
  6
CENTER
 62
     3
100
AcDbLine
 10
563.8594719999998
 20
-1939.453437
 30
0.0
 11
562.694787
 21
-1935.106769999999
 31
0.0
  0
LINE
  5
853
330
5E0
100
AcDbEntity
  8
1
  6
CENTER
 62
     3
100
AcDbLine
 10
446.4724269999998
 20
-1869.307885
 30
0.0
 11
438.26187
 21
-1869.307885
 31
0.0
  0
LINE
  5
854
330
5E0
100
AcDbEntity
  8
1
  6
CENTER
 62
     3
100
AcDbLine
 10
438.26187
 20
-1932.807885
 30
0.0
 11
446.4724269999998
 21
-1932.807885
 31
0.0
  0
LINE
  5
855
330
5E0
100
AcDbEntity
  8
1
 62
     7
100
AcDbLine
 10
440.4801400000001
 20
-1933.060885
 30
0.0
 11
438.8804480000001
 21
-1933.060885
 31
0.0
  0
LINE
  5
856
330
5E0
100
AcDbEntity
  8
0
 62
     7
100
AcDbLine
 10
445.880448
 20
-1937.357885
 30
0.0
 11
445.880448
 21
-1937.057885
 31
0.0
  0
LINE
  5
857
330
5E0
100
AcDbEntity
  8
0
 62
     7
100
AcDbLine
 10
438.8804480000001
 20
-1937.357885
 30
0.0
 11
438.8804480000001
 21
-1937.057885
 31
0.0
  0
LINE
  5
858
330
5E0
100
AcDbEntity
  8
1
 62
     7
100
AcDbLine
 10
438.8804480000001
 20
-1937.357885
 30
0.0
 11
445.880448
 21
-1937.357885
 31
0.0
  0
LINE
  5
859
330
5E0
100
AcDbEntity
  8
0
 62
     7
100
AcDbLine
 10
445.880448
 20
-1939.757885
 30
0.0
 11
445.880448
 21
-1937.357885
 31
0.0
  0
LINE
  5
85A
330
5E0
100
AcDbEntity
  8
0
 62
     7
100
AcDbLine
 10
438.8804480000001
 20
-1939.757885
 30
0.0
 11
438.8804480000001
 21
-1937.357885
 31
0.0
  0
LINE
  5
85B
330
5E0
100
AcDbEntity
  8
1
 62
     7
100
AcDbLine
 10
438.8804480000001
 20
-1939.757885
 30
0.0
 11
445.880448
 21
-1939.757885
 31
0.0
  0
LINE
  5
85C
330
5E0
100
AcDbEntity
  8
1
  6
CENTER
 62
     3
100
AcDbLine
 10
437.480448
 20
-1938.557885
 30
0.0
 11
447.280448
 21
-1938.557885
 31
0.0
  0
LINE
  5
85D
330
5E0
100
AcDbEntity
  8
0
 62
     7
100
AcDbLine
 10
445.880448
 20
-1937.057885
 30
0.0
 11
445.880448
 21
-1936.307885
 31
0.0
  0
LINE
  5
85E
330
5E0
100
AcDbEntity
  8
0
 62
     7
100
AcDbLine
 10
438.8804480000001
 20
-1937.057885
 30
0.0
 11
438.8804480000001
 21
-1936.307885
 31
0.0
  0
LINE
  5
85F
330
5E0
100
AcDbEntity
  8
1
 62
     3
100
AcDbLine
 10
438.8804480000001
 20
-1937.057885
 30
0.0
 11
445.880448
 21
-1937.057885
 31
0.0
  0
LINE
  5
860
330
5E0
100
AcDbEntity
  8
0
 62
     7
100
AcDbLine
 10
445.880448
 20
-1940.057885
 30
0.0
 11
445.880448
 21
-1939.757885
 31
0.0
  0
LINE
  5
861
330
5E0
100
AcDbEntity
  8
0
 62
     7
100
AcDbLine
 10
438.8804480000001
 20
-1940.057885
 30
0.0
 11
438.8804480000001
 21
-1939.757885
 31
0.0
  0
LINE
  5
862
330
5E0
100
AcDbEntity
  8
1
 62
     3
100
AcDbLine
 10
438.8804480000001
 20
-1940.057885
 30
0.0
 11
445.880448
 21
-1940.057885
 31
0.0
  0
LINE
  5
863
330
5E0
100
AcDbEntity
  8
1
 62
     7
100
AcDbLine
 10
438.8804480000001
 20
-1865.257885
 30
0.0
 11
442.580448
 21
-1865.257885
 31
0.0
  0
LINE
  5
864
330
5E0
100
AcDbEntity
  8
1
 62
     7
100
AcDbLine
 10
438.8804480000001
 20
-1861.857885
 30
0.0
 11
442.580448
 21
-1861.857885
 31
0.0
  0
LINE
  5
865
330
5E0
100
AcDbEntity
  8
1
 62
     7
100
AcDbLine
 10
442.580448
 20
-1860.307885
 30
0.0
 11
445.880448
 21
-1860.307885
 31
0.0
  0
LINE
  5
866
330
5E0
100
AcDbEntity
  8
1
 62
     7
100
AcDbLine
 10
442.580448
 20
-1860.307885
 30
0.0
 11
442.580448
 21
-1866.807885
 31
0.0
  0
LINE
  5
867
330
5E0
100
AcDbEntity
  8
1
 62
     7
100
AcDbLine
 10
442.580448
 20
-1866.807885
 30
0.0
 11
442.580448
 21
-1866.807885
 31
0.0
  0
LINE
  5
868
330
5E0
100
AcDbEntity
  8
1
 62
     7
100
AcDbLine
 10
442.580448
 20
-1860.307885
 30
0.0
 11
442.580448
 21
-1866.807885
 31
0.0
  0
LINE
  5
869
330
5E0
100
AcDbEntity
  8
1
 62
     7
100
AcDbLine
 10
442.580448
 20
-1866.807885
 30
0.0
 11
445.880448
 21
-1866.807885
 31
0.0
  0
LINE
  5
86A
330
5E0
100
AcDbEntity
  8
1
 62
     7
100
AcDbLine
 10
445.4804479999999
 20
-1884.857885
 30
0.0
 11
445.4804479999999
 21
-1884.557885
 31
0.0
  0
LINE
  5
86B
330
5E0
100
AcDbEntity
  8
1
 62
     7
100
AcDbLine
 10
439.130448
 20
-1884.857885
 30
0.0
 11
439.130448
 21
-1887.257885
 31
0.0
  0
LINE
  5
86C
330
5E0
100
AcDbEntity
  8
1
 62
     7
100
AcDbLine
 10
445.4804479999999
 20
-1917.257885
 30
0.0
 11
439.130448
 21
-1917.257885
 31
0.0
  0
LINE
  5
86D
330
5E0
100
AcDbEntity
  8
1
 62
     7
100
AcDbLine
 10
439.130448
 20
-1887.257885
 30
0.0
 11
439.130448
 21
-1887.557885
 31
0.0
  0
LINE
  5
86E
330
5E0
100
AcDbEntity
  8
1
 62
     7
100
AcDbLine
 10
445.4804479999999
 20
-1887.257885
 30
0.0
 11
445.4804479999999
 21
-1884.857885
 31
0.0
  0
LINE
  5
86F
330
5E0
100
AcDbEntity
  8
1
 62
     7
100
AcDbLine
 10
445.4804479999999
 20
-1914.857885
 30
0.0
 11
439.130448
 21
-1914.857885
 31
0.0
  0
LINE
  5
870
330
5E0
100
AcDbEntity
  8
1
  6
CENTER
 62
     3
100
AcDbLine
 10
446.820448
 20
-1916.057885
 30
0.0
 11
437.8104480000001
 21
-1916.057885
 31
0.0
  0
LINE
  5
871
330
5E0
100
AcDbEntity
  8
1
 62
     7
100
AcDbLine
 10
445.4804479999999
 20
-1884.557885
 30
0.0
 11
445.4804479999999
 21
-1878.455385
 31
0.0
  0
LINE
  5
872
330
5E0
100
AcDbEntity
  8
1
 62
     7
100
AcDbLine
 10
439.130448
 20
-1884.557885
 30
0.0
 11
439.130448
 21
-1884.857885
 31
0.0
  0
LINE
  5
873
330
5E0
100
AcDbEntity
  8
1
 62
     3
100
AcDbLine
 10
445.4804479999999
 20
-1917.557885
 30
0.0
 11
439.130448
 21
-1917.557885
 31
0.0
  0
LINE
  5
874
330
5E0
100
AcDbEntity
  8
1
 62
     7
100
AcDbLine
 10
439.130448
 20
-1887.557885
 30
0.0
 11
439.130448
 21
-1889.057885
 31
0.0
  0
LINE
  5
875
330
5E0
100
AcDbEntity
  8
1
 62
     7
100
AcDbLine
 10
445.4804479999999
 20
-1887.557885
 30
0.0
 11
445.4804479999999
 21
-1887.257885
 31
0.0
  0
LINE
  5
876
330
5E0
100
AcDbEntity
  8
1
 62
     3
100
AcDbLine
 10
445.4804479999999
 20
-1914.557885
 30
0.0
 11
439.130448
 21
-1914.557885
 31
0.0
  0
LINE
  5
877
330
5E0
100
AcDbEntity
  8
1
 62
     7
100
AcDbLine
 10
430.880448
 20
-1883.307885
 30
0.0
 11
430.880448
 21
-1871.953885
 31
0.0
  0
LINE
  5
878
330
5E0
100
AcDbEntity
  8
1
 62
     7
100
AcDbLine
 10
428.880448
 20
-1883.307885
 30
0.0
 11
428.880448
 21
-1881.357885
 31
0.0
  0
LINE
  5
879
330
5E0
100
AcDbEntity
  8
1
 62
     7
100
AcDbLine
 10
430.504448
 20
-1930.287885
 30
0.0
 11
430.504448
 21
-1921.307885
 31
0.0
  0
LINE
  5
87A
330
5E0
100
AcDbEntity
  8
1
 62
     7
100
AcDbLine
 10
430.504448
 20
-1880.807885
 30
0.0
 11
430.504448
 21
-1871.827885
 31
0.0
  0
LINE
  5
87B
330
5E0
100
AcDbEntity
  8
1
 62
     7
100
AcDbLine
 10
430.880448
 20
-1888.757885
 30
0.0
 11
430.880448
 21
-1892.714241
 31
0.0
  0
LINE
  5
87C
330
5E0
100
AcDbEntity
  8
1
 62
     7
100
AcDbLine
 10
428.880448
 20
-1888.757885
 30
0.0
 11
428.880448
 21
-1892.714241
 31
0.0
  0
LINE
  5
87D
330
5E0
100
AcDbEntity
  8
1
 62
     7
100
AcDbLine
 10
430.880448
 20
-1911.357885
 30
0.0
 11
430.880448
 21
-1901.057885
 31
0.0
  0
LINE
  5
87E
330
5E0
100
AcDbEntity
  8
1
 62
     7
100
AcDbLine
 10
430.580448
 20
-1911.057885
 30
0.0
 11
430.880448
 21
-1911.357885
 31
0.0
  0
LINE
  5
87F
330
5E0
100
AcDbEntity
  8
1
 62
     7
100
AcDbLine
 10
428.880448
 20
-1911.357885
 30
0.0
 11
428.880448
 21
-1911.057885
 31
0.0
  0
LINE
  5
880
330
5E0
100
AcDbEntity
  8
1
 62
     7
100
AcDbLine
 10
428.880448
 20
-1911.057885
 30
0.0
 11
428.880448
 21
-1901.057885
 31
0.0
  0
LINE
  5
881
330
5E0
100
AcDbEntity
  8
1
 62
     7
100
AcDbLine
 10
428.880448
 20
-1911.357885
 30
0.0
 11
429.180448
 21
-1911.057885
 31
0.0
  0
LINE
  5
882
330
5E0
100
AcDbEntity
  8
0
 62
     7
100
AcDbLine
 10
438.8804480000001
 20
-1936.307885
 30
0.0
 11
438.8804469999998
 21
-1932.876885
 31
0.0
  0
LINE
  5
883
330
5E0
100
AcDbEntity
  8
0
 62
     7
100
AcDbLine
 10
445.880448
 20
-1940.807885
 30
0.0
 11
445.880448
 21
-1940.057885
 31
0.0
  0
LINE
  5
884
330
5E0
100
AcDbEntity
  8
0
 62
     7
100
AcDbLine
 10
438.8804480000001
 20
-1940.807885
 30
0.0
 11
438.8804480000001
 21
-1940.057885
 31
0.0
  0
LINE
  5
885
330
5E0
100
AcDbEntity
  8
0
 62
     7
100
AcDbLine
 10
445.880448
 20
-1861.307885
 30
0.0
 11
445.880448
 21
-1858.957885999998
 31
0.0
  0
LINE
  5
886
330
5E0
100
AcDbEntity
  8
0
 62
     7
100
AcDbLine
 10
438.8804480000001
 20
-1861.307885
 30
0.0
 11
438.8804480000001
 21
-1865.157885
 31
0.0
  0
LINE
  5
887
330
5E0
100
AcDbEntity
  8
0
 62
     7
100
AcDbLine
 10
445.880448
 20
-1865.807885
 30
0.0
 11
445.880448
 21
-1865.807885
 31
0.0
  0
LINE
  5
888
330
5E0
100
AcDbEntity
  8
0
 62
     7
100
AcDbLine
 10
445.880448
 20
-1865.807885
 30
0.0
 11
445.880448
 21
-1865.807885
 31
0.0
  0
LINE
  5
889
330
5E0
100
AcDbEntity
  8
0
 62
     7
100
AcDbLine
 10
438.8804480000001
 20
-1865.807885
 30
0.0
 11
438.8804480000001
 21
-1869.238885
 31
0.0
  0
LINE
  5
88A
330
5E0
100
AcDbEntity
  8
1
  6
DASHDOT
 62
     3
100
AcDbLine
 10
437.3804469999998
 20
-1863.557885
 30
0.0
 11
447.380448
 21
-1863.557885
 31
0.0
  0
LINE
  5
88B
330
5E0
100
AcDbEntity
  8
0
 62
     7
100
AcDbLine
 10
438.8804480000001
 20
-1865.157885
 30
0.0
 11
438.8804480000001
 21
-1865.207885
 31
0.0
  0
LINE
  5
88C
330
5E0
100
AcDbEntity
  8
0
 62
     7
100
AcDbLine
 10
438.8804480000001
 20
-1865.557885
 30
0.0
 11
438.8804480000001
 21
-1865.807885
 31
0.0
  0
LINE
  5
88D
330
5E0
100
AcDbEntity
  8
0
 62
     7
100
AcDbLine
 10
445.880448
 20
-1865.807885
 30
0.0
 11
445.880448
 21
-1865.807885
 31
0.0
  0
LINE
  5
88E
330
5E0
100
AcDbEntity
  8
0
 62
     7
100
AcDbLine
 10
438.8804480000001
 20
-1865.207885
 30
0.0
 11
438.8804480000001
 21
-1865.557885
 31
0.0
  0
LINE
  5
88F
330
5E0
100
AcDbEntity
  8
0
 62
     7
100
AcDbLine
 10
445.880448
 20
-1943.157884
 30
0.0
 11
445.880448
 21
-1940.807885
 31
0.0
  0
LINE
  5
890
330
5E0
100
AcDbEntity
  8
0
 62
     7
100
AcDbLine
 10
438.8804480000001
 20
-1943.157884
 30
0.0
 11
438.8804480000001
 21
-1940.807885
 31
0.0
  0
LINE
  5
891
330
5E0
100
AcDbEntity
  8
0
 62
     7
100
AcDbLine
 10
439.280448
 20
-1943.557884
 30
0.0
 11
438.8804480000001
 21
-1943.157884
 31
0.0
  0
LINE
  5
892
330
5E0
100
AcDbEntity
  8
0
 62
     7
100
AcDbLine
 10
445.4804479999999
 20
-1943.557884
 30
0.0
 11
439.280448
 21
-1943.557884
 31
0.0
  0
LINE
  5
893
330
5E0
100
AcDbEntity
  8
0
 62
     7
100
AcDbLine
 10
445.880448
 20
-1943.157884
 30
0.0
 11
445.4804479999999
 21
-1943.557884
 31
0.0
  0
LINE
  5
894
330
5E0
100
AcDbEntity
  8
0
 62
     7
100
AcDbLine
 10
438.8804480000001
 20
-1858.957885999998
 30
0.0
 11
438.8804480000001
 21
-1861.307885
 31
0.0
  0
LINE
  5
895
330
5E0
100
AcDbEntity
  8
0
 62
     7
100
AcDbLine
 10
439.280448
 20
-1858.557886
 30
0.0
 11
438.8804480000001
 21
-1858.957885999998
 31
0.0
  0
LINE
  5
896
330
5E0
100
AcDbEntity
  8
0
 62
     7
100
AcDbLine
 10
445.4804479999999
 20
-1858.557886
 30
0.0
 11
439.280448
 21
-1858.557886
 31
0.0
  0
LINE
  5
897
330
5E0
100
AcDbEntity
  8
0
 62
     7
100
AcDbLine
 10
445.880448
 20
-1858.957885999998
 30
0.0
 11
445.4804479999999
 21
-1858.557886
 31
0.0
  0
LINE
  5
898
330
5E0
100
AcDbEntity
  8
1
 62
     7
100
AcDbLine
 10
445.880448
 20
-1865.807885
 30
0.0
 11
445.880448
 21
-1869.054885
 31
0.0
  0
LINE
  5
899
330
5E0
100
AcDbEntity
  8
1
 62
     7
100
AcDbLine
 10
445.880448
 20
-1865.807885
 30
0.0
 11
445.880448
 21
-1865.807885
 31
0.0
  0
LINE
  5
89A
330
5E0
100
AcDbEntity
  8
0
 62
     7
100
AcDbLine
 10
445.880448
 20
-1865.807885
 30
0.0
 11
445.880448
 21
-1861.307885
 31
0.0
  0
LINE
  5
89B
330
5E0
100
AcDbEntity
  8
1
 62
     7
100
AcDbLine
 10
445.4804479999999
 20
-1869.638885
 30
0.0
 11
439.973558
 21
-1869.638885
 31
0.0
  0
LINE
  5
89C
330
5E0
100
AcDbEntity
  8
1
 62
     7
100
AcDbLine
 10
438.8804480000001
 20
-1869.054885
 30
0.0
 11
445.880448
 21
-1869.054885
 31
0.0
  0
LINE
  5
89D
330
5E0
100
AcDbEntity
  8
1
 62
     7
100
AcDbLine
 10
445.880448
 20
-1869.054885
 30
0.0
 11
445.880448
 21
-1869.238885
 31
0.0
  0
LINE
  5
89E
330
5E0
100
AcDbEntity
  8
1
 62
     7
100
AcDbLine
 10
438.8804480000001
 20
-1869.238885
 30
0.0
 11
439.280448
 21
-1869.638885
 31
0.0
  0
LINE
  5
89F
330
5E0
100
AcDbEntity
  8
1
 62
     7
100
AcDbLine
 10
445.4804479999999
 20
-1869.638885
 30
0.0
 11
445.880448
 21
-1869.238885
 31
0.0
  0
LINE
  5
8A0
330
5E0
100
AcDbEntity
  8
1
 62
     7
100
AcDbLine
 10
445.4804479999999
 20
-1932.476885
 30
0.0
 11
439.2804469999998
 21
-1932.476885
 31
0.0
  0
LINE
  5
8A1
330
5E0
100
AcDbEntity
  8
1
 62
     7
100
AcDbLine
 10
445.4804479999999
 20
-1932.476885
 30
0.0
 11
445.880448
 21
-1932.876885
 31
0.0
  0
LINE
  5
8A2
330
5E0
100
AcDbEntity
  8
1
 62
     7
100
AcDbLine
 10
439.2804469999998
 20
-1932.476885
 30
0.0
 11
438.8804469999998
 21
-1932.876885
 31
0.0
  0
LINE
  5
8A3
330
5E0
100
AcDbEntity
  8
1
 62
     7
100
AcDbLine
 10
445.880448
 20
-1933.060885
 30
0.0
 11
445.880448
 21
-1932.876885
 31
0.0
  0
LINE
  5
8A4
330
5E0
100
AcDbEntity
  8
1
 62
     7
100
AcDbLine
 10
445.880448
 20
-1936.307885
 30
0.0
 11
445.880448
 21
-1934.057885
 31
0.0
  0
LINE
  5
8A5
330
5E0
100
AcDbEntity
  8
1
 62
     7
100
AcDbLine
 10
445.002448
 20
-1869.054885
 30
0.0
 11
445.880448
 21
-1869.932885
 31
0.0
  0
LINE
  5
8A6
330
5E0
100
AcDbEntity
  8
1
 62
     7
100
AcDbLine
 10
432.317448
 20
-1870.014885
 30
0.0
 11
437.880448
 21
-1870.014885
 31
0.0
  0
LINE
  5
8A7
330
5E0
100
AcDbEntity
  8
1
 62
     7
100
AcDbLine
 10
442.630448
 20
-1869.054885
 30
0.0
 11
439.630448
 21
-1869.054885
 31
0.0
  0
LINE
  5
8A8
330
5E0
100
AcDbEntity
  8
1
  6
CENTER
 62
     3
100
AcDbLine
 10
450.4689889999998
 20
-1901.057885
 30
0.0
 11
423.706916
 21
-1901.057885
 31
0.0
  0
LINE
  5
8A9
330
5E0
100
AcDbEntity
  8
1
 62
     7
100
AcDbLine
 10
430.254448
 20
-1881.057885
 30
0.0
 11
429.180448
 21
-1881.057885
 31
0.0
  0
LINE
  5
8AA
330
5E0
100
AcDbEntity
  8
1
 62
     7
100
AcDbLine
 10
428.880448
 20
-1881.357885
 30
0.0
 11
429.180448
 21
-1881.057885
 31
0.0
  0
LINE
  5
8AB
330
5E0
100
AcDbEntity
  8
1
 62
     7
100
AcDbLine
 10
432.443448
 20
-1870.390885
 30
0.0
 11
444.880448
 21
-1870.390885
 31
0.0
  0
LINE
  5
8AC
330
5E0
100
AcDbEntity
  8
1
 62
     7
100
AcDbLine
 10
444.880448
 20
-1870.390885
 30
0.0
 11
445.880448
 21
-1870.338476999999
 31
0.0
  0
LINE
  5
8AD
330
5E0
100
AcDbEntity
  8
1
 62
     7
100
AcDbLine
 10
445.880448
 20
-1869.932885
 30
0.0
 11
445.880448
 21
-1870.338476999999
 31
0.0
  0
LINE
  5
8AE
330
5E0
100
AcDbEntity
  8
1
 62
     7
100
AcDbLine
 10
429.180448
 20
-1921.057885
 30
0.0
 11
430.254448
 21
-1921.057885
 31
0.0
  0
LINE
  5
8AF
330
5E0
100
AcDbEntity
  8
1
 62
     7
100
AcDbLine
 10
429.180448
 20
-1921.057885
 30
0.0
 11
428.880448
 21
-1920.757885
 31
0.0
  0
LINE
  5
8B0
330
5E0
100
AcDbEntity
  8
1
 62
     7
100
AcDbLine
 10
444.880448
 20
-1931.724885
 30
0.0
 11
432.443448
 21
-1931.724885
 31
0.0
  0
LINE
  5
8B1
330
5E0
100
AcDbEntity
  8
1
 62
     7
100
AcDbLine
 10
430.580448
 20
-1911.057885
 30
0.0
 11
429.180448
 21
-1911.057885
 31
0.0
  0
LINE
  5
8B2
330
5E0
100
AcDbEntity
  8
1
 62
     7
100
AcDbLine
 10
430.880448
 20
-1930.161885
 30
0.0
 11
430.880448
 21
-1920.057885
 31
0.0
  0
LINE
  5
8B3
330
5E0
100
AcDbEntity
  8
1
 62
     7
100
AcDbLine
 10
445.880448
 20
-1931.777293
 30
0.0
 11
444.880448
 21
-1931.724885
 31
0.0
  0
LINE
  5
8B4
330
5E0
100
AcDbEntity
  8
1
 62
     7
100
AcDbLine
 10
445.880448
 20
-1931.777293
 30
0.0
 11
445.880448
 21
-1932.182885
 31
0.0
  0
LINE
  5
8B5
330
5E0
100
AcDbEntity
  8
1
 62
     7
100
AcDbLine
 10
439.973558
 20
-1869.638885
 30
0.0
 11
439.280448
 21
-1869.638885
 31
0.0
  0
LINE
  5
8B6
330
5E0
100
AcDbEntity
  8
1
 62
     7
100
AcDbLine
 10
437.880448
 20
-1932.100885
 30
0.0
 11
432.317448
 21
-1932.100885
 31
0.0
  0
LINE
  5
8B7
330
5E0
100
AcDbEntity
  8
1
 62
     7
100
AcDbLine
 10
445.880448
 20
-1933.060885
 30
0.0
 11
440.4801400000001
 21
-1933.060885
 31
0.0
  0
LINE
  5
8B8
330
5E0
100
AcDbEntity
  8
1
 62
     7
100
AcDbLine
 10
445.880448
 20
-1932.182885
 30
0.0
 11
445.002448
 21
-1933.060885
 31
0.0
  0
LINE
  5
8B9
330
5E0
100
AcDbEntity
  8
1
 62
     7
100
AcDbLine
 10
439.430448
 20
-1878.455385
 30
0.0
 11
439.130448
 21
-1878.455385
 31
0.0
  0
LINE
  5
8BA
330
5E0
100
AcDbEntity
  8
1
 62
     7
100
AcDbLine
 10
439.430448
 20
-1878.455385
 30
0.0
 11
445.4804479999999
 21
-1878.455385
 31
0.0
  0
LINE
  5
8BB
330
5E0
100
AcDbEntity
  8
1
 62
     7
100
AcDbLine
 10
439.130448
 20
-1878.455385
 30
0.0
 11
439.130448
 21
-1884.557885
 31
0.0
  0
LINE
  5
8BC
330
5E0
100
AcDbEntity
  8
1
 62
     7
100
AcDbLine
 10
439.130448
 20
-1923.667385
 30
0.0
 11
445.4804479999999
 21
-1923.667385
 31
0.0
  0
LINE
  5
8BD
330
5E0
100
AcDbEntity
  8
1
 62
     7
100
AcDbLine
 10
445.4804479999999
 20
-1923.667385
 30
0.0
 11
445.4804479999999
 21
-1913.057885
 31
0.0
  0
LINE
  5
8BE
330
5E0
100
AcDbEntity
  8
1
 62
     7
100
AcDbLine
 10
439.130448
 20
-1889.057885
 30
0.0
 11
445.4804479999999
 21
-1889.057885
 31
0.0
  0
LINE
  5
8BF
330
5E0
100
AcDbEntity
  8
1
 62
     7
100
AcDbLine
 10
439.130448
 20
-1889.057885
 30
0.0
 11
439.130448
 21
-1913.057885
 31
0.0
  0
LINE
  5
8C0
330
5E0
100
AcDbEntity
  8
1
 62
     7
100
AcDbLine
 10
445.4804479999999
 20
-1889.057885
 30
0.0
 11
445.4804479999999
 21
-1887.557885
 31
0.0
  0
LINE
  5
8C1
330
5E0
100
AcDbEntity
  8
1
 62
     7
100
AcDbLine
 10
439.130448
 20
-1913.057885
 30
0.0
 11
445.4804479999999
 21
-1913.057885
 31
0.0
  0
LINE
  5
8C2
330
5E0
100
AcDbEntity
  8
1
 62
     7
100
AcDbLine
 10
445.4804479999999
 20
-1913.057885
 30
0.0
 11
445.4804479999999
 21
-1889.057885
 31
0.0
  0
LINE
  5
8C3
330
5E0
100
AcDbEntity
  8
1
 62
     7
100
AcDbLine
 10
439.130448
 20
-1913.057885
 30
0.0
 11
439.130448
 21
-1923.667385
 31
0.0
  0
LINE
  5
8C4
330
5E0
100
AcDbEntity
  8
1
 62
     7
100
AcDbLine
 10
428.880448
 20
-1920.757885
 30
0.0
 11
428.880448
 21
-1916.057885
 31
0.0
  0
LINE
  5
8C5
330
5E0
100
AcDbEntity
  8
1
 62
     7
100
AcDbLine
 10
430.880448
 20
-1920.057885
 30
0.0
 11
430.880448
 21
-1911.357885
 31
0.0
  0
LINE
  5
8C6
330
5E0
100
AcDbEntity
  8
1
 62
     7
100
AcDbLine
 10
428.880448
 20
-1916.057885
 30
0.0
 11
428.880448
 21
-1911.357885
 31
0.0
  0
ARC
  5
8C7
330
5E0
100
AcDbEntity
  8
1
 62
     7
100
AcDbCircle
 10
437.880448
 20
-1866.014885
 30
0.0
 40
4.0
100
AcDbArc
 50
270.0
 51
310.535802
  0
ARC
  5
8C8
330
5E0
100
AcDbEntity
  8
1
 62
     7
100
AcDbCircle
 10
437.880448
 20
-1936.100885
 30
0.0
 40
4.0
100
AcDbArc
 50
49.46419800000001
 51
90.0
  0
CIRCLE
  5
8C9
330
5E0
100
AcDbEntity
  8
1
 62
     7
100
AcDbCircle
 10
340.053866
 20
-1868.581932
 30
0.0
 40
1.7
  0
CIRCLE
  5
8CA
330
5E0
100
AcDbEntity
  8
1
 62
     7
100
AcDbCircle
 10
353.7798189999998
 20
-1882.307885
 30
0.0
 40
1.7
  0
CIRCLE
  5
8CB
330
5E0
100
AcDbEntity
  8
1
 62
     7
100
AcDbCircle
 10
358.803866
 20
-1901.057885
 30
0.0
 40
1.7
  0
CIRCLE
  5
8CC
330
5E0
100
AcDbEntity
  8
1
 62
     7
100
AcDbCircle
 10
353.7798189999998
 20
-1919.807885
 30
0.0
 40
1.7
  0
CIRCLE
  5
8CD
330
5E0
100
AcDbEntity
  8
1
 62
     7
100
AcDbCircle
 10
340.053866
 20
-1933.533837999999
 30
0.0
 40
1.7
  0
CIRCLE
  5
8CE
330
5E0
100
AcDbEntity
  8
1
 62
     7
100
AcDbCircle
 10
321.303866
 20
-1938.557885
 30
0.0
 40
1.7
  0
CIRCLE
  5
8CF
330
5E0
100
AcDbEntity
  8
1
 62
     7
100
AcDbCircle
 10
302.553866
 20
-1933.533837999999
 30
0.0
 40
1.7
  0
CIRCLE
  5
8D0
330
5E0
100
AcDbEntity
  8
1
 62
     7
100
AcDbCircle
 10
288.827914
 20
-1919.807885
 30
0.0
 40
1.7
  0
CIRCLE
  5
8D1
330
5E0
100
AcDbEntity
  8
1
 62
     7
100
AcDbCircle
 10
283.803866
 20
-1901.057885
 30
0.0
 40
1.7
  0
CIRCLE
  5
8D2
330
5E0
100
AcDbEntity
  8
1
 62
     7
100
AcDbCircle
 10
288.827914
 20
-1882.307885
 30
0.0
 40
1.7
  0
CIRCLE
  5
8D3
330
5E0
100
AcDbEntity
  8
1
 62
     7
100
AcDbCircle
 10
302.553866
 20
-1868.581932
 30
0.0
 40
1.7
  0
CIRCLE
  5
8D4
330
5E0
100
AcDbEntity
  8
1
 62
     7
100
AcDbCircle
 10
321.303866
 20
-1863.557885
 30
0.0
 40
1.7
  0
CIRCLE
  5
8D5
330
5E0
100
AcDbEntity
  8
1
 62
     7
100
AcDbCircle
 10
336.075982
 20
-1898.453162
 30
0.0
 40
2.75
  0
CIRCLE
  5
8D6
330
5E0
100
AcDbEntity
  8
1
 62
     7
100
AcDbCircle
 10
334.294247
 20
-1908.557885
 30
0.0
 40
2.75
  0
CIRCLE
  5
8D7
330
5E0
100
AcDbEntity
  8
1
 62
     7
100
AcDbCircle
 10
326.434168
 20
-1915.153273999998
 30
0.0
 40
2.75
  0
CIRCLE
  5
8D8
330
5E0
100
AcDbEntity
  8
1
 62
     7
100
AcDbCircle
 10
316.1735639999998
 20
-1915.153273999998
 30
0.0
 40
2.75
  0
CIRCLE
  5
8D9
330
5E0
100
AcDbEntity
  8
1
 62
     7
100
AcDbCircle
 10
308.313485
 20
-1908.557885
 30
0.0
 40
2.75
  0
CIRCLE
  5
8DA
330
5E0
100
AcDbEntity
  8
1
 62
     7
100
AcDbCircle
 10
306.5317499999999
 20
-1898.453162
 30
0.0
 40
2.75
  0
CIRCLE
  5
8DB
330
5E0
100
AcDbEntity
  8
1
  6
CENTER
 62
     3
100
AcDbCircle
 10
321.303866
 20
-1901.057885
 30
0.0
 40
37.5
  0
CIRCLE
  5
8DC
330
5E0
100
AcDbEntity
  8
1
 62
     3
100
AcDbCircle
 10
311.598152
 20
-1937.280104
 30
0.0
 40
1.5
  0
CIRCLE
  5
8DD
330
5E0
100
AcDbEntity
  8
1
 62
     7
100
AcDbCircle
 10
311.598152
 20
-1937.280104
 30
0.0
 40
1.199999999999999
  0
CIRCLE
  5
8DE
330
5E0
100
AcDbEntity
  8
1
 62
     3
100
AcDbCircle
 10
331.0095799999998
 20
-1864.835667
 30
0.0
 40
1.5
  0
CIRCLE
  5
8DF
330
5E0
100
AcDbEntity
  8
1
 62
     7
100
AcDbCircle
 10
331.0095799999998
 20
-1864.835667
 30
0.0
 40
1.199999999999999
  0
CIRCLE
  5
8E0
330
5E0
100
AcDbEntity
  8
1
 62
     7
100
AcDbCircle
 10
321.303866
 20
-1901.057885
 30
0.0
 40
42.5
  0
CIRCLE
  5
8E1
330
5E0
100
AcDbEntity
  8
1
  6
CENTER
 62
     3
100
AcDbCircle
 10
321.303866
 20
-1901.057885
 30
0.0
 40
15.0
  0
CIRCLE
  5
8E2
330
5E0
100
AcDbEntity
  8
1
 62
     7
100
AcDbCircle
 10
321.303866
 20
-1886.057885
 30
0.0
 40
2.75
  0
CIRCLE
  5
8E3
330
5E0
100
AcDbEntity
  8
1
 62
     7
100
AcDbCircle
 10
311.662052
 20
-1889.567217999999
 30
0.0
 40
2.75
  0
CIRCLE
  5
8E4
330
5E0
100
AcDbEntity
  8
1
 62
     7
100
AcDbCircle
 10
330.9456799999998
 20
-1889.567217999999
 30
0.0
 40
2.75
  0
CIRCLE
  5
8E5
330
5E0
100
AcDbEntity
  8
1
 62
     7
100
AcDbCircle
 10
321.303866
 20
-1901.057885
 30
0.0
 40
20.0
  0
CIRCLE
  5
8E6
330
5E0
100
AcDbEntity
  8
1
 62
     7
100
AcDbCircle
 10
321.303866
 20
-1901.057885
 30
0.0
 40
10.0
  0
CIRCLE
  5
8E7
330
5E0
100
AcDbEntity
  8
1
 62
     7
100
AcDbCircle
 10
321.303866
 20
-1901.057885
 30
0.0
 40
31.043
  0
CIRCLE
  5
8E8
330
5E0
100
AcDbEntity
  8
1
 62
     7
100
AcDbCircle
 10
553.571415
 20
-1901.057885
 30
0.0
 40
24.835
  0
CIRCLE
  5
8E9
330
5E0
100
AcDbEntity
  8
1
 62
     7
100
AcDbCircle
 10
553.571415
 20
-1901.057885
 30
0.0
 40
28.39999999999999
  0
CIRCLE
  5
8EA
330
5E0
100
AcDbEntity
  8
1
  6
CENTER
 62
     3
100
AcDbCircle
 10
553.571415
 20
-1901.057885
 30
0.0
 40
31.75
  0
CIRCLE
  5
8EB
330
5E0
100
AcDbEntity
  8
1
 62
     7
100
AcDbCircle
 10
553.571415
 20
-1901.057885
 30
0.0
 40
32.003
  0
CIRCLE
  5
8EC
330
5E0
100
AcDbEntity
  8
1
 62
     7
100
AcDbCircle
 10
553.571415
 20
-1886.057885
 30
0.0
 40
1.199999999999999
  0
CIRCLE
  5
8ED
330
5E0
100
AcDbEntity
  8
1
 62
     3
100
AcDbCircle
 10
553.571415
 20
-1886.057885
 30
0.0
 40
1.5
  0
CIRCLE
  5
8EE
330
5E0
100
AcDbEntity
  8
1
 62
     7
100
AcDbCircle
 10
568.5714149999999
 20
-1901.057885
 30
0.0
 40
1.199999999999999
  0
CIRCLE
  5
8EF
330
5E0
100
AcDbEntity
  8
1
 62
     3
100
AcDbCircle
 10
568.5714149999999
 20
-1901.057885
 30
0.0
 40
1.5
  0
CIRCLE
  5
8F0
330
5E0
100
AcDbEntity
  8
1
 62
     7
100
AcDbCircle
 10
553.571415
 20
-1916.057885
 30
0.0
 40
1.199999999999999
  0
CIRCLE
  5
8F1
330
5E0
100
AcDbEntity
  8
1
 62
     3
100
AcDbCircle
 10
553.571415
 20
-1916.057885
 30
0.0
 40
1.5
  0
CIRCLE
  5
8F2
330
5E0
100
AcDbEntity
  8
1
 62
     7
100
AcDbCircle
 10
538.571415
 20
-1901.057885
 30
0.0
 40
1.199999999999999
  0
CIRCLE
  5
8F3
330
5E0
100
AcDbEntity
  8
1
 62
     3
100
AcDbCircle
 10
538.571415
 20
-1901.057885
 30
0.0
 40
1.5
  0
CIRCLE
  5
8F4
330
5E0
100
AcDbEntity
  8
1
  6
CENTER
 62
     3
100
AcDbCircle
 10
553.571415
 20
-1901.057885
 30
0.0
 40
15.0
  0
CIRCLE
  5
8F5
330
5E0
100
AcDbEntity
  8
1
 62
     7
100
AcDbCircle
 10
553.571415
 20
-1901.057885
 30
0.0
 40
12.0
  0
CIRCLE
  5
8F6
330
5E0
100
AcDbEntity
  8
1
 62
     7
100
AcDbCircle
 10
553.571415
 20
-1901.057885
 30
0.0
 40
42.5
  0
CIRCLE
  5
8F7
330
5E0
100
AcDbEntity
  8
1
  6
CENTER
 62
     3
100
AcDbCircle
 10
553.571415
 20
-1901.057885
 30
0.0
 40
37.5
  0
CIRCLE
  5
8F8
330
5E0
100
AcDbEntity
  8
1
 62
     7
100
AcDbCircle
 10
553.571415
 20
-1863.557885
 30
0.0
 40
1.7
  0
CIRCLE
  5
8F9
330
5E0
100
AcDbEntity
  8
1
 62
     7
100
AcDbCircle
 10
553.571415
 20
-1863.557885
 30
0.0
 40
3.25
  0
CIRCLE
  5
8FA
330
5E0
100
AcDbEntity
  8
1
 62
     7
100
AcDbCircle
 10
534.821415
 20
-1868.581932
 30
0.0
 40
1.7
  0
CIRCLE
  5
8FB
330
5E0
100
AcDbEntity
  8
1
 62
     7
100
AcDbCircle
 10
534.821415
 20
-1868.581932
 30
0.0
 40
3.25
  0
CIRCLE
  5
8FC
330
5E0
100
AcDbEntity
  8
1
 62
     7
100
AcDbCircle
 10
521.0954629999998
 20
-1882.307885
 30
0.0
 40
1.7
  0
CIRCLE
  5
8FD
330
5E0
100
AcDbEntity
  8
1
 62
     7
100
AcDbCircle
 10
521.0954629999998
 20
-1882.307885
 30
0.0
 40
3.25
  0
CIRCLE
  5
8FE
330
5E0
100
AcDbEntity
  8
1
 62
     7
100
AcDbCircle
 10
516.071415
 20
-1901.057885
 30
0.0
 40
1.7
  0
CIRCLE
  5
8FF
330
5E0
100
AcDbEntity
  8
1
 62
     7
100
AcDbCircle
 10
516.071415
 20
-1901.057885
 30
0.0
 40
3.25
  0
CIRCLE
  5
900
330
5E0
100
AcDbEntity
  8
1
 62
     7
100
AcDbCircle
 10
521.0954629999998
 20
-1919.807885
 30
0.0
 40
1.7
  0
CIRCLE
  5
901
330
5E0
100
AcDbEntity
  8
1
 62
     7
100
AcDbCircle
 10
521.0954629999998
 20
-1919.807885
 30
0.0
 40
3.25
  0
CIRCLE
  5
902
330
5E0
100
AcDbEntity
  8
1
 62
     7
100
AcDbCircle
 10
534.821415
 20
-1933.533837999999
 30
0.0
 40
1.7
  0
CIRCLE
  5
903
330
5E0
100
AcDbEntity
  8
1
 62
     7
100
AcDbCircle
 10
534.821415
 20
-1933.533837999999
 30
0.0
 40
3.25
  0
CIRCLE
  5
904
330
5E0
100
AcDbEntity
  8
1
 62
     7
100
AcDbCircle
 10
553.571415
 20
-1938.557885
 30
0.0
 40
1.7
  0
CIRCLE
  5
905
330
5E0
100
AcDbEntity
  8
1
 62
     7
100
AcDbCircle
 10
553.571415
 20
-1938.557885
 30
0.0
 40
3.25
  0
CIRCLE
  5
906
330
5E0
100
AcDbEntity
  8
1
 62
     7
100
AcDbCircle
 10
572.321415
 20
-1933.533837999999
 30
0.0
 40
1.7
  0
CIRCLE
  5
907
330
5E0
100
AcDbEntity
  8
1
 62
     7
100
AcDbCircle
 10
572.321415
 20
-1933.533837999999
 30
0.0
 40
3.25
  0
CIRCLE
  5
908
330
5E0
100
AcDbEntity
  8
1
 62
     7
100
AcDbCircle
 10
586.047368
 20
-1919.807885
 30
0.0
 40
1.7
  0
CIRCLE
  5
909
330
5E0
100
AcDbEntity
  8
1
 62
     7
100
AcDbCircle
 10
586.047368
 20
-1919.807885
 30
0.0
 40
3.25
  0
CIRCLE
  5
90A
330
5E0
100
AcDbEntity
  8
1
 62
     7
100
AcDbCircle
 10
591.071415
 20
-1901.057885
 30
0.0
 40
1.7
  0
CIRCLE
  5
90B
330
5E0
100
AcDbEntity
  8
1
 62
     7
100
AcDbCircle
 10
591.071415
 20
-1901.057885
 30
0.0
 40
3.25
  0
CIRCLE
  5
90C
330
5E0
100
AcDbEntity
  8
1
 62
     7
100
AcDbCircle
 10
586.047368
 20
-1882.307885
 30
0.0
 40
1.7
  0
CIRCLE
  5
90D
330
5E0
100
AcDbEntity
  8
1
 62
     7
100
AcDbCircle
 10
586.047368
 20
-1882.307885
 30
0.0
 40
3.25
  0
CIRCLE
  5
90E
330
5E0
100
AcDbEntity
  8
1
 62
     7
100
AcDbCircle
 10
572.321415
 20
-1868.581932
 30
0.0
 40
1.7
  0
CIRCLE
  5
90F
330
5E0
100
AcDbEntity
  8
1
 62
     7
100
AcDbCircle
 10
572.321415
 20
-1868.581932
 30
0.0
 40
3.25
  0
CIRCLE
  5
910
330
5E0
100
AcDbEntity
  8
1
 62
     3
100
AcDbCircle
 10
543.8657009999998
 20
-1864.835667
 30
0.0
 40
1.5
  0
CIRCLE
  5
911
330
5E0
100
AcDbEntity
  8
1
 62
     7
100
AcDbCircle
 10
543.8657009999998
 20
-1864.835667
 30
0.0
 40
1.199999999999999
  0
CIRCLE
  5
912
330
5E0
100
AcDbEntity
  8
1
 62
     3
100
AcDbCircle
 10
563.2771299999998
 20
-1937.280104
 30
0.0
 40
1.5
  0
CIRCLE
  5
913
330
5E0
100
AcDbEntity
  8
1
 62
     7
100
AcDbCircle
 10
563.2771299999998
 20
-1937.280104
 30
0.0
 40
1.199999999999999
  0
ARC
  5
914
330
5E0
100
AcDbEntity
  8
1
 62
     7
100
AcDbCircle
 10
432.317448
 20
-1871.827885
 30
0.0
 40
1.813
100
AcDbArc
 50
90.0
 51
180.0
  0
ARC
  5
915
330
5E0
100
AcDbEntity
  8
1
 62
     7
100
AcDbCircle
 10
432.317448
 20
-1930.287885
 30
0.0
 40
1.813
100
AcDbArc
 50
180.0
 51
270.0
  0
ARC
  5
916
330
5E0
100
AcDbEntity
  8
1
 62
     7
100
AcDbCircle
 10
430.254448
 20
-1921.307885
 30
0.0
 40
0.25
100
AcDbArc
 50
0.0
 51
90.0
  0
ARC
  5
917
330
5E0
100
AcDbEntity
  8
1
 62
     7
100
AcDbCircle
 10
430.254448
 20
-1880.807885
 30
0.0
 40
0.25
100
AcDbArc
 50
270.0
 51
0.0
  0
ARC
  5
918
330
5E0
100
AcDbEntity
  8
1
 62
     7
100
AcDbCircle
 10
432.443448
 20
-1871.953885
 30
0.0
 40
1.563
100
AcDbArc
 50
90.0
 51
180.0
  0
ARC
  5
919
330
5E0
100
AcDbEntity
  8
1
 62
     7
100
AcDbCircle
 10
432.443448
 20
-1930.161885
 30
0.0
 40
1.563
100
AcDbArc
 50
180.0
 51
270.0
  0
LINE
  5
91A
330
5E0
100
AcDbEntity
  8
1
 62
     3
100
AcDbLine
 10
284.244864
 20
-1848.557886
 30
0.0
 11
308.6323709999998
 21
-1848.557886
 31
0.0
  0
LINE
  5
91B
330
5E0
100
AcDbEntity
  8
1
 62
     3
100
AcDbLine
 10
308.6323709999998
 20
-1848.557886
 30
0.0
 11
320.584745
 21
-1883.403575
 31
0.0
  0
SOLID
  5
91C
330
5E0
100
AcDbEntity
  8
1
 62
     3
100
AcDbTrace
 10
319.013305
 20
-1880.24242
 30
0.0
 11
319.885017
 21
-1879.943414999999
 31
0.0
 12
320.584745
 22
-1883.403575
 32
0.0
 13
320.584745
 23
-1883.403575
 33
0.0
  0
LINE
  5
91D
330
5E0
100
AcDbEntity
  8
1
 62
     3
100
AcDbLine
 10
468.2377
 20
-1953.557884
 30
0.0
 11
428.8622
 21
-1953.557884
 31
0.0
  0
LINE
  5
91E
330
5E0
100
AcDbEntity
  8
1
 62
     3
100
AcDbLine
 10
428.8622
 20
-1953.557884
 30
0.0
 11
439.071324
 21
-1943.348761
 31
0.0
  0
SOLID
  5
91F
330
5E0
100
AcDbEntity
  8
1
 62
     3
100
AcDbTrace
 10
436.922273
 20
-1946.149458
 30
0.0
 11
436.2706269999998
 21
-1945.497811
 31
0.0
 12
439.071324
 22
-1943.348761
 32
0.0
 13
439.071324
 23
-1943.348761
 33
0.0
  0
LINE
  5
920
330
5E0
100
AcDbEntity
  8
1
 62
     3
100
AcDbLine
 10
455.887127
 20
-1953.557884
 30
0.0
 11
445.683787
 21
-1943.354543999999
 31
0.0
  0
SOLID
  5
921
330
5E0
100
AcDbEntity
  8
1
 62
     3
100
AcDbTrace
 10
448.4844849999998
 20
-1945.503594999999
 30
0.0
 11
447.8328379999998
 21
-1946.155242
 31
0.0
 12
445.683787
 22
-1943.354543999999
 32
0.0
 13
445.683787
 23
-1943.354543999999
 33
0.0
  0
LINE
  5
922
330
5E0
100
AcDbEntity
  8
1
 62
     3
100
AcDbLine
 10
413.916435
 20
-1907.540762
 30
0.0
 11
434.3760879999998
 21
-1907.540762
 31
0.0
  0
LINE
  5
923
330
5E0
100
AcDbEntity
  8
1
 62
     3
100
AcDbLine
 10
434.3760879999998
 20
-1907.540762
 30
0.0
 11
430.719706
 21
-1911.197144
 31
0.0
  0
SOLID
  5
924
330
5E0
100
AcDbEntity
  8
1
 62
     3
100
AcDbTrace
 10
432.868757
 20
-1908.396446999999
 30
0.0
 11
433.520403
 21
-1909.048093
 31
0.0
 12
430.719706
 22
-1911.197144
 32
0.0
 13
430.719706
 23
-1911.197144
 33
0.0
  0
LINE
  5
925
330
5E0
100
AcDbEntity
  8
1
 62
     3
100
AcDbLine
 10
425.350403
 20
-1907.540762
 30
0.0
 11
429.023987
 21
-1911.214345999999
 31
0.0
  0
SOLID
  5
926
330
5E0
100
AcDbEntity
  8
1
 62
     3
100
AcDbTrace
 10
426.2232899999998
 20
-1909.065294999999
 30
0.0
 11
426.874937
 21
-1908.413648999999
 31
0.0
 12
429.023987
 22
-1911.214345999999
 32
0.0
 13
429.023987
 23
-1911.214345999999
 33
0.0
  0
LINE
  5
927
330
5E0
100
AcDbEntity
  8
1
 62
     3
100
AcDbLine
 10
448.482971
 20
-1910.055361999999
 30
0.0
 11
445.4804479999999
 21
-1913.057885
 31
0.0
  0
SOLID
  5
928
330
5E0
100
AcDbEntity
  8
1
 62
     3
100
AcDbTrace
 10
447.629498
 20
-1910.257188
 30
0.0
 11
448.281145
 21
-1910.908835
 31
0.0
 12
445.4804479999999
 22
-1913.057885
 32
0.0
 13
445.4804479999999
 23
-1913.057885
 33
0.0
  0
LINE
  5
929
330
5E0
100
AcDbEntity
  8
1
 62
     3
100
AcDbLine
 10
435.549488
 20
-1892.638845
 30
0.0
 11
439.130448
 21
-1889.057885
 31
0.0
  0
SOLID
  5
92A
330
5E0
100
AcDbEntity
  8
1
 62
     3
100
AcDbTrace
 10
436.981397
 20
-1891.858582
 30
0.0
 11
436.3297499999998
 21
-1891.206936
 31
0.0
 12
439.130448
 22
-1889.057885
 32
0.0
 13
439.130448
 23
-1889.057885
 33
0.0
  0
LINE
  5
92B
330
5E0
100
AcDbEntity
  8
1
 62
     3
100
AcDbLine
 10
558.714507
 20
-1963.557884
 30
0.0
 11
536.5904259999998
 21
-1963.557884
 31
0.0
  0
LINE
  5
92C
330
5E0
100
AcDbEntity
  8
1
 62
     3
100
AcDbLine
 10
536.5904259999998
 20
-1963.557884
 30
0.0
 11
553.114942
 21
-1917.167673999999
 31
0.0
  0
SOLID
  5
92D
330
5E0
100
AcDbEntity
  8
1
 62
     3
100
AcDbTrace
 10
552.3745690000001
 20
-1920.619365
 30
0.0
 11
551.506433
 21
-1920.310128999999
 31
0.0
 12
553.114942
 22
-1917.167673999999
 32
0.0
 13
553.114942
 23
-1917.167673999999
 33
0.0
  0
LINE
  5
92E
330
5E0
100
AcDbEntity
  8
1
 62
     3
100
AcDbLine
 10
570.1240539999998
 20
-1838.557886
 30
0.0
 11
542.592975
 21
-1838.557886
 31
0.0
  0
LINE
  5
92F
330
5E0
100
AcDbEntity
  8
1
 62
     3
100
AcDbLine
 10
542.592975
 20
-1838.557886
 30
0.0
 11
552.554974
 21
-1862.195223
 31
0.0
  0
SOLID
  5
930
330
5E0
100
AcDbEntity
  8
1
 62
     3
100
AcDbTrace
 10
550.771067
 20
-1859.148914999999
 30
0.0
 11
551.620295
 21
-1858.791005999999
 31
0.0
 12
552.554974
 22
-1862.195223
 32
0.0
 13
552.554974
 23
-1862.195223
 33
0.0
  0
LINE
  5
931
330
5E0
100
AcDbEntity
  8
1
 62
     3
100
AcDbLine
 10
549.471135
 20
-1828.557886
 30
0.0
 11
529.7789659999998
 21
-1828.557886
 31
0.0
  0
LINE
  5
932
330
5E0
100
AcDbEntity
  8
1
 62
     3
100
AcDbLine
 10
529.7789659999998
 20
-1828.557886
 30
0.0
 11
543.30917
 21
-1863.772523999999
 31
0.0
  0
SOLID
  5
933
330
5E0
100
AcDbEntity
  8
1
 62
     3
100
AcDbTrace
 10
541.623738
 20
-1860.670647
 30
0.0
 11
542.4839929999998
 21
-1860.340119
 31
0.0
 12
543.30917
 22
-1863.772523999999
 32
0.0
 13
543.30917
 23
-1863.772523999999
 33
0.0
  0
TEXT
  5
934
330
5E0
100
AcDbEntity
  8
1
 62
     3
100
AcDbText
 10
288.244864
 20
-1847.557886
 30
0.0
 40
3.5
  1
9-%%c5.5
 41
0.9
100
AcDbText
  0
TEXT
  5
935
330
5E0
100
AcDbEntity
  8
1
 62
     3
100
AcDbText
 10
457.844615
 20
-1952.564523
 30
0.0
 40
3.5
  1
C0.4
 41
0.9
100
AcDbText
  0
TEXT
  5
936
330
5E0
100
AcDbEntity
  8
1
 62
     3
100
AcDbText
 10
414.523576
 20
-1906.340762
 30
0.0
 40
3.5
  1
C0.3
 41
0.9
 72
     2
 11
423.448576
 21
-1906.340762
 31
0.0
100
AcDbText
  0
TEXT
  5
937
330
5E0
100
AcDbEntity
  8
1
 62
     3
100
AcDbText
 10
426.5774129999998
 20
-1897.238012
 30
0.0
 40
3.5
  1
C0.5
 41
0.9
100
AcDbText
  0
TEXT
  5
938
330
5E0
100
AcDbEntity
  8
1
 62
     3
100
AcDbText
 10
448.119024
 20
-1908.969589999999
 30
0.0
 40
3.5
  1
C0.5
 41
0.9
100
AcDbText
  0
TEXT
  5
939
330
5E0
100
AcDbEntity
  8
1
 62
     3
100
AcDbText
 10
541.5904259999998
 20
-1962.357884
 30
0.0
 40
4.0
  1
4-M3
 41
0.9
100
AcDbText
  0
TEXT
  5
93A
330
5E0
100
AcDbEntity
  8
1
 62
     3
100
AcDbText
 10
546.5929749999998
 20
-1837.557886
 30
0.0
 40
4.0
  1
12-%%c3.4
 41
0.9
100
AcDbText
  0
TEXT
  5
93B
330
5E0
100
AcDbEntity
  8
1
 62
     3
100
AcDbText
 10
533.2176049999998
 20
-1827.495512
 30
0.0
 40
4.0
  1
2-M3
 41
0.9
100
AcDbText
  0
DIMENSION
  5
93C
330
5E0
100
AcDbEntity
  8
1
  6
Continuous
 62
     2
100
AcDbDimension
  2
*D9
 10
447.380448
 20
-1963.557884
 30
0.0
 11
462.6389109999998
 21
-1960.507884
 31
0.0
  1
M.H.C.<>
 71
     5
 42
-1.0
  3
DMST_1
100
AcDbAlignedDimension
 13
445.880448
 23
-1943.157884
 33
0.0
 14
447.380448
 24
-1934.057885
 34
0.0
100
AcDbRotatedDimension
  0
DIMENSION
  5
93D
330
5E0
100
AcDbEntity
  8
1
  6
Continuous
 62
     2
100
AcDbDimension
  2
*D10
 10
428.880448
 20
-1968.557884
 30
0.0
 11
413.8621999999998
 21
-1965.507883999999
 31
0.0
  1
M.H.C.<>
 71
     5
 42
-1.0
  3
DMST_1
100
AcDbAlignedDimension
 13
438.8804480000001
 23
-1940.807885
 33
0.0
 14
428.880448
 24
-1934.057885
 34
0.0
100
AcDbRotatedDimension
  0
DIMENSION
  5
93E
330
5E0
100
AcDbEntity
  8
1
  6
Continuous
 62
     2
100
AcDbDimension
  2
*D11
 10
445.880448
 20
-1818.557885999999
 30
0.0
 11
437.5901429999998
 21
-1815.557886
 31
0.0
 71
     5
 42
-1.0
  3
DMST_1
100
AcDbAlignedDimension
 13
428.880448
 23
-1881.357885
 33
0.0
 14
445.880448
 24
-1858.957885999998
 34
0.0
100
AcDbRotatedDimension
  0
DIMENSION
  5
93F
330
5E0
100
AcDbEntity
  8
1
  6
Continuous
 62
     2
100
AcDbDimension
  2
*D13
 10
428.880448
 20
-1828.557886
 30
0.0
 11
420.0157849999998
 21
-1824.482886
 31
0.0
 71
     5
 42
-1.0
  3
DMST_1
100
AcDbAlignedDimension
 13
438.8804480000001
 23
-1858.957885999998
 33
0.0
 14
428.880448
 24
-1881.357885
 34
0.0
100
AcDbRotatedDimension
  0
DIMENSION
  5
940
330
5E0
100
AcDbEntity
  8
1
  6
Continuous
 62
     2
100
AcDbDimension
  2
*D14
 10
428.880448
 20
-1838.557886
 30
0.0
 11
421.3697599999998
 21
-1835.557886
 31
0.0
 71
     5
 42
-1.0
  3
DMST_1
100
AcDbAlignedDimension
 13
430.880448
 23
-1871.953885
 33
0.0
 14
428.880448
 24
-1881.357885
 34
0.0
100
AcDbRotatedDimension
  0
DIMENSION
  5
941
330
5E0
100
AcDbEntity
  8
1
  6
Continuous
 62
     2
100
AcDbDimension
  2
*D15
 10
485.880448
 20
-1943.557884
 30
0.0
 11
481.805448
 21
-1901.057885
 31
0.0
  1
85 h7
 71
     5
 42
-1.0
  3
DMST_1
100
AcDbAlignedDimension
 13
445.4804479999999
 23
-1858.557886
 33
0.0
 14
445.4804479999999
 24
-1943.557884
 34
0.0
 50
90.0
100
AcDbRotatedDimension
  0
DIMENSION
  5
942
330
5E0
100
AcDbEntity
  8
1
  6
Continuous
 62
     2
100
AcDbDimension
  2
*D16
 10
398.880448
 20
-1881.057885
 30
0.0
 11
395.8804479999998
 21
-1901.057885
 31
0.0
  1
%%c<>
 71
     5
 42
-1.0
  3
DMST_1
100
AcDbAlignedDimension
 13
429.180448
 23
-1921.057885
 33
0.0
 14
429.180448
 24
-1881.057885
 34
0.0
 50
90.0
100
AcDbRotatedDimension
  0
DIMENSION
  5
943
330
5E0
100
AcDbEntity
  8
1
  6
Continuous
 62
     2
100
AcDbDimension
  2
*D17
 10
445.4804479999999
 20
-1883.163769999999
 30
0.0
 11
453.0554780000001
 21
-1880.113769999999
 31
0.0
  1
(6.3)
 71
     5
 42
-1.0
  3
DMST_1
100
AcDbAlignedDimension
 13
439.130448
 23
-1878.455385
 33
0.0
 14
445.4804479999999
 24
-1878.455385
 34
0.0
100
AcDbRotatedDimension
  0
DIMENSION
  5
944
330
5E0
100
AcDbEntity
  8
1
  6
Continuous
 62
     2
100
AcDbDimension
  2
*D19
 10
445.880448
 20
-1848.557886
 30
0.0
 11
452.6154969999998
 21
-1845.507886
 31
0.0
 71
     5
 42
-1.0
  3
DMST_1
100
AcDbAlignedDimension
 13
442.580448
 23
-1860.307885
 33
0.0
 14
445.880448
 24
-1858.957885999998
 34
0.0
100
AcDbRotatedDimension
  0
DIMENSION
  5
945
330
5E0
100
AcDbEntity
  8
1
  6
Continuous
 62
     2
100
AcDbDimension
  2
*D20
 10
465.880448
 20
-1860.307885
 30
0.0
 11
462.830448
 21
-1850.367628
 31
0.0
  1
%%c<>
 71
     5
 42
-1.0
  3
DMST_1
100
AcDbAlignedDimension
 13
445.880448
 23
-1866.807885
 33
0.0
 14
445.880448
 24
-1860.307885
 34
0.0
 50
90.0
100
AcDbRotatedDimension
  0
DIMENSION
  5
946
330
5E0
100
AcDbEntity
  8
1
  6
Continuous
 62
     2
100
AcDbDimension
  2
*D25
 10
335.446987
 20
-1906.055098999999
 30
0.0
 11
274.396563
 21
-1881.302286
 31
0.0
 70
     3
 71
     5
 42
-1.0
  3
DMST_1
100
AcDbDiametricDimension
 15
307.160746
 25
-1896.060671
 35
0.0
 40
0.0
  0
DIMENSION
  5
947
330
5E0
100
AcDbEntity
  8
1
  6
Continuous
 62
     2
100
AcDbDimension
  2
*D26
 10
539.3879809999998
 20
-1896.176266
 30
0.0
 11
602.1219629999998
 21
-1914.595176
 31
0.0
 70
     3
 71
     5
 42
-1.0
  3
DMST_1
100
AcDbDiametricDimension
 15
567.754849
 25
-1905.939504
 35
0.0
 40
0.0
  0
DIMENSION
  5
948
330
5E0
100
AcDbEntity
  8
1
  6
Continuous
 62
     2
100
AcDbDimension
  2
*D27
 10
518.676021
 20
-1914.789653
 30
0.0
 11
599.7531529999998
 21
-1879.660880999999
 31
0.0
 70
     3
 71
     5
 42
-1.0
  3
DMST_1
100
AcDbDiametricDimension
 15
588.4668099999998
 25
-1887.326118
 35
0.0
 40
0.0
  0
DIMENSION
  5
949
330
5E0
100
AcDbEntity
  8
1
  6
Continuous
 62
     2
100
AcDbDimension
  2
*D28
 10
553.571415
 20
-1858.682885
 30
0.0
 11
529.7403809999998
 21
-1847.714451999999
 31
0.0
 70
     2
 71
     5
 42
-1.0
  3
DMST_1
100
AcDb2LineAngularDimension
 13
543.283358
 23
-1862.662333999999
 33
0.0
 14
544.4480440000002
 24
-1867.009
 34
0.0
 15
553.571415
 25
-1869.054885
 35
0.0
 16
546.337047
 26
-1846.107398
 36
0.0
  0
INSERT
  5
94A
330
5E0
100
AcDbEntity
  8
0
100
AcDbBlockReference
  2
SHF-25
 10
478.269388
 20
-1792.983082
 30
0.0
  0
INSERT
  5
94B
330
5E0
100
AcDbEntity
  8
0
100
AcDbBlockReference
  2
WBG_025_F
 10
442.3054480000001
 20
-1901.061385
 30
0.0
  0
INSERT
  5
94C
330
5E0
100
AcDbEntity
  8
1
100
AcDbBlockReference
  2
*D12
 10
0.0
 20
0.0
 30
0.0
  0
INSERT
  5
94D
330
5E0
100
AcDbEntity
  8
1
100
AcDbBlockReference
  2
*D18
 10
0.0
 20
0.0
 30
0.0
  0
INSERT
  5
94E
330
5E0
100
AcDbEntity
  8
1
100
AcDbBlockReference
  2
*D21
 10
0.0
 20
0.0
 30
0.0
  0
INSERT
  5
94F
330
5E0
100
AcDbEntity
  8
1
100
AcDbBlockReference
  2
*D22
 10
0.0
 20
0.0
 30
0.0
  0
INSERT
  5
950
330
5E0
100
AcDbEntity
  8
1
100
AcDbBlockReference
  2
*D23
 10
0.0
 20
0.0
 30
0.0
  0
INSERT
  5
951
330
5E0
100
AcDbEntity
  8
1
100
AcDbBlockReference
  2
*D24
 10
0.0
 20
0.0
 30
0.0
  0
TEXT
  5
953
330
5E0
100
AcDbEntity
  8
0
100
AcDbText
 10
512.815
 20
-1981.48
 30
0.0
 40
5.74668
  1
CSD-25-XX-2A-GR
100
AcDbText
  0
INSERT
  5
9F2
330
5E0
100
AcDbEntity
  8
0
100
AcDbBlockReference
  2
HD Logo
 10
474.5606286008748
 20
-2044.227281902484
 30
0.0
  0
INSERT
  5
A09
330
5E0
100
AcDbEntity
  8
0
100
AcDbBlockReference
  2
Harmonic Drive LLC
 10
544.7662890527363
 20
-2039.94721266895
 30
0.0
  0
INSERT
  5
A1E
330
5E0
100
AcDbEntity
  8
0
100
AcDbBlockReference
  2
NTC
 10
263.9796315507175
 20
-2002.294747888976
 30
0.0
 41
0.5310000000000001
 42
0.5310000000000001
 43
0.5310000000000001
  0
ENDSEC
  0
SECTION
  2
OBJECTS
  0
DICTIONARY
  5
5CE
330
0
100
AcDbDictionary
281
     1
  3
ACAD_GROUP
350
5CF
  3
ACAD_LAYOUT
350
5DB
  3
ACAD_MLINESTYLE
350
5D8
  3
ACAD_PLOTSETTINGS
350
5DA
  3
ACAD_PLOTSTYLENAME
350
5D0
  3
AcDbVariableDictionary
350
A0A
  0
DICTIONARY
  5
5CF
102
{ACAD_REACTORS
330
5CE
102
}
330
5CE
100
AcDbDictionary
281
     1
  0
DICTIONARY
  5
5DB
102
{ACAD_REACTORS
330
5CE
102
}
330
5CE
100
AcDbDictionary
281
     1
  3
Layout1
350
5DF
  3
Model
350
5E3
  0
DICTIONARY
  5
5D8
102
{ACAD_REACTORS
330
5CE
102
}
330
5CE
100
AcDbDictionary
281
     1
  3
Standard
350
5D9
  0
DICTIONARY
  5
5DA
102
{ACAD_REACTORS
330
5CE
102
}
330
5CE
100
AcDbDictionary
281
     1
  0
ACDBDICTIONARYWDFLT
  5
5D0
102
{ACAD_REACTORS
330
5CE
102
}
330
5CE
100
AcDbDictionary
281
     1
  3
Normal
350
5D1
100
AcDbDictionaryWithDefault
340
5D1
  0
DICTIONARY
  5
A0A
102
{ACAD_REACTORS
330
5CE
102
}
330
5CE
100
AcDbDictionary
281
     1
  3
DIMASSOC
350
A0B
  0
LAYOUT
  5
5DF
102
{ACAD_REACTORS
330
5DB
102
}
330
5DB
100
AcDbPlotSettings
  1

  2
\\SERVER9\HP LaserJet 5100 PCL 5e
  4

  6

 40
0.0
 41
0.0
 42
0.0
 43
0.0
 44
0.0
 45
0.0
 46
0.0
 47
0.0
 48
0.0
 49
0.0
140
0.0
141
0.0
142
1.0
143
1.0
 70
   688
 72
     0
 73
     0
 74
     5
  7

 75
    16
147
1.0
148
0.0
149
0.0
100
AcDbLayout
  1
Layout1
 70
     1
 71
     1
 10
0.0
 20
0.0
 11
12.0
 21
9.0
 12
0.0
 22
0.0
 32
0.0
 14
1.000000000000000E+20
 24
1.000000000000000E+20
 34
1.000000000000000E+20
 15
-1.000000000000000E+20
 25
-1.000000000000000E+20
 35
-1.000000000000000E+20
146
0.0
 13
0.0
 23
0.0
 33
0.0
 16
1.0
 26
0.0
 36
0.0
 17
0.0
 27
1.0
 37
0.0
 76
     0
330
5DC
  0
LAYOUT
  5
5E3
102
{ACAD_REACTORS
330
5DB
102
}
330
5DB
100
AcDbPlotSettings
  1

  2
\\SERVER9\HP LaserJet 5100 PCL 5e
  4

  6

 40
0.0
 41
0.0
 42
0.0
 43
0.0
 44
0.0
 45
0.0
 46
0.0
 47
0.0
 48
0.0
 49
0.0
140
0.0
141
0.0
142
1.0
143
1.0
 70
  1712
 72
     0
 73
     0
 74
     0
  7

 75
     0
147
1.0
148
0.0
149
0.0
100
AcDbLayout
  1
Model
 70
     1
 71
     0
 10
0.0
 20
0.0
 11
12.0
 21
9.0
 12
0.0
 22
0.0
 32
0.0
 14
0.0
 24
0.0
 34
0.0
 15
0.0
 25
0.0
 35
0.0
146
0.0
 13
0.0
 23
0.0
 33
0.0
 16
1.0
 26
0.0
 36
0.0
 17
0.0
 27
1.0
 37
0.0
 76
     0
330
5E0
  0
MLINESTYLE
  5
5D9
102
{ACAD_REACTORS
330
5D8
102
}
330
5D8
100
AcDbMlineStyle
  2
STANDARD
 70
     0
  3

 62
   256
 51
90.0
 52
90.0
 71
     2
 49
0.5
 62
   256
  6
BYLAYER
 49
-0.5
 62
   256
  6
BYLAYER
  0
ACDBPLACEHOLDER
  5
5D1
102
{ACAD_REACTORS
330
5D0
102
}
330
5D0
  0
DICTIONARYVAR
  5
A0B
102
{ACAD_REACTORS
330
A0A
102
}
330
A0A
100
DictionaryVariables
280
     0
  1
1
  0
ENDSEC
  0
EOF
