  0
SECTION
  2
HEADER
  9
$ACADVER
  1
AC1014
  9
$ACADMAINTVER
 70
           0
  9
$DWGCODEPAGE
  3
DOS932
  9
$INSBASE
 10
0.0
 20
0.0
 30
0.0
  9
$EXTMIN
 10
1.000000000000E+20
 20
1.000000000000E+20
 30
1.000000000000E+20
  9
$EXTMAX
 10
-1.000000000000E+20
 20
-1.000000000000E+20
 30
-1.000000000000E+20
  9
$LIMMIN
 10
0.0
 20
0.0
  9
$LIMMAX
 10
0.0
 20
0.0
  9
$ORTHOMODE
 70
           0
  9
$REGENMODE
 70
           1
  9
$FILLMODE
 70
           1
  9
$QTEXTMODE
 70
           0
  9
$MIRRTEXT
 70
           1
  9
$DRAGMODE
 70
           2
  9
$LTSCALE
 40
1.0
  9
$OSMODE
 70
           0
  9
$ATTMODE
 70
           1
  9
$TEXTSIZE
 40
0.2
  9
$TRACEWID
 40
0.05
  9
$TEXTSTYLE
  7
STANDARD
  9
$CLAYER
  8
0
  9
$CELTYPE
  6
CONTINUOUS
  9
$CECOLOR
 62
         256
  9
$CELTSCALE
 40
1.0
  9
$DELOBJ
 70
           1
  9
$DISPSILH
 70
           0
  9
$DIMSCALE
 40
1.0
  9
$DIMASZ
 40
0.18
  9
$DIMEXO
 40
0.0625
  9
$DIMDLI
 40
0.38
  9
$DIMRND
 40
0.0
  9
$DIMDLE
 40
0.0
  9
$DIMEXE
 40
0.18
  9
$DIMTP
 40
0.0
  9
$DIMTM
 40
0.0
  9
$DIMTXT
 40
0.18
  9
$DIMCEN
 40
0.09
  9
$DIMTSZ
 40
0.0
  9
$DIMTOL
 70
           0
  9
$DIMLIM
 70
           0
  9
$DIMTIH
 70
           1
  9
$DIMTOH
 70
           1
  9
$DIMSE1
 70
           0
  9
$DIMSE2
 70
           0
  9
$DIMTAD
 70
           0
  9
$DIMZIN
 70
           0
  9
$DIMBLK
  1

  9
$DIMASO
 70
           1
  9
$DIMSHO
 70
           1
  9
$DIMPOST
  1

  9
$DIMAPOST
  1

  9
$DIMALT
 70
           0
  9
$DIMALTD
 70
           2
  9
$DIMALTF
 40
25.4
  9
$DIMLFAC
 40
1.0
  9
$DIMTOFL
 70
           0
  9
$DIMTVP
 40
0.0
  9
$DIMTIX
 70
           0
  9
$DIMSOXD
 70
           0
  9
$DIMSAH
 70
           0
  9
$DIMBLK1
  1

  9
$DIMBLK2
  1

  9
$DIMSTYLE
  2
STANDARD
  9
$DIMCLRD
 70
           0
  9
$DIMCLRE
 70
           0
  9
$DIMCLRT
 70
           0
  9
$DIMTFAC
 40
1.0
  9
$DIMGAP
 40
0.09
  9
$DIMJUST
 70
           0
  9
$DIMSD1
 70
           0
  9
$DIMSD2
 70
           0
  9
$DIMTOLJ
 70
           1
  9
$DIMTZIN
 70
           0
  9
$DIMALTZ
 70
           0
  9
$DIMALTTZ
 70
           0
  9
$DIMFIT
 70
           3
  9
$DIMUPT
 70
           0
  9
$DIMUNIT
 70
           2
  9
$DIMDEC
 70
           4
  9
$DIMTDEC
 70
           4
  9
$DIMALTU
 70
           2
  9
$DIMALTTD
 70
           2
  9
$DIMTXSTY
  7
STANDARD
  9
$DIMAUNIT
 70
           0
  9
$LUNITS
 70
           2
  9
$LUPREC
 70
           4
  9
$SKETCHINC
 40
0.1
  9
$FILLETRAD
 40
0.0
  9
$AUNITS
 70
           0
  9
$AUPREC
 70
           0
  9
$MENU
  1
acad
  9
$ELEVATION
 40
0.0
  9
$PELEVATION
 40
0.0
  9
$THICKNESS
 40
0.0
  9
$LIMCHECK
 70
           0
  9
$BLIPMODE
 70
           1
  9
$CHAMFERA
 40
0.0
  9
$CHAMFERB
 40
0.0
  9
$CHAMFERC
 40
0.0
  9
$CHAMFERD
 40
0.0
  9
$SKPOLY
 70
           0
  9
$TDCREATE
 40
0.000000000
  9
$TDUPDATE
 40
0.000000000
  9
$TDINDWG
 40
0.0000000000
  9
$TDUSRTIMER
 40
0.0000000000
  9
$USRTIMER
 70
           1
  9
$ANGBASE
 50
0.0
  9
$ANGDIR
 70
           0
  9
$PDMODE
 70
           0
  9
$PDSIZE
 40
0.0
  9
$PLINEWID
 40
0.0
  9
$COORDS
 70
           0
  9
$SPLFRAME
 70
           0
  9
$SPLINETYPE
 70
           6
  9
$SPLINESEGS
 70
           8
  9
$ATTDIA
 70
           0
  9
$ATTREQ
 70
           1
  9
$HANDLING
 70
           1
  9
$HANDSEED
  5
256
  9
$SURFTAB1
 70
           6
  9
$SURFTAB2
 70
           6
  9
$SURFTYPE
 70
           6
  9
$SURFU
 70
           6
  9
$SURFV
 70
           6
  9
$UCSNAME
  2

  9
$UCSORG
 10
0.0
 20
0.0
 30
0.0
  9
$UCSXDIR
 10
1.0
 20
0.0
 30
0.0
  9
$UCSYDIR
 10
0.0
 20
1.0
 30
0.0
  9
$PUCSNAME
  2

  9
$PUCSORG
 10
0.0
 20
0.0
 30
0.0
  9
$PUCSXDIR
 10
1.0
 20
0.0
 30
0.0
  9
$PUCSYDIR
 10
0.0
 20
1.0
 30
0.0
  9
$USERI1
 70
           0
  9
$USERI2
 70
           0
  9
$USERI3
 70
           0
  9
$USERI4
 70
           0
  9
$USERI5
 70
           0
  9
$USERR1
 40
0.0
  9
$USERR2
 40
0.0
  9
$USERR3
 40
0.0
  9
$USERR4
 40
0.0
  9
$USERR5
 40
0.0
  9
$WORLDVIEW
 70
           1
  9
$SHADEDGE
 70
           3
  9
$SHADEDIF
 70
          70
  9
$TILEMODE
 70
           1
  9
$MAXACTVP
 70
          16
  9
$PINSBASE
 10
0.0
 20
0.0
 30
0.0
  9
$PLIMCHECK
 70
           0
  9
$PEXTMIN
 10
1.000000000000E+20
 20
1.000000000000E+20
 30
1.000000000000E+20
  9
$PEXTMAX
 10
-1.000000000000E+20
 20
-1.000000000000E+20
 30
-1.000000000000E+20
  9
$PLIMMIN
 10
0.0
 20
0.0
  9
$PLIMMAX
 10
12.0
 20
9.0
  9
$UNITMODE
 70
           0
  9
$VISRETAIN
 70
           0
  9
$PLINEGEN
 70
           1
  9
$PSLTSCALE
 70
           0
  9
$TREEDEPTH
 70
        3020
  9
$PICKSTYLE
 70
           1
  9
$CMLSTYLE
  2
STANDARD
  9
$CMLJUST
 70
           0
  9
$CMLSCALE
 40
1.0
  9
$PROXYGRAPHICS
 70
           0
  9
$MEASUREMENT
 70
           0
  0
ENDSEC
  0
SECTION
  2
CLASSES
  0
CLASS
  1
LWPOLYLINE
  2
AcDbPolyline
  3
"AutoCAD"
 90
        0
280
           0
281
           1
  0
CLASS
  1
IMAGE
  2
AcDbRasterImage
  3
ISM
 90
      127
280
           0
281
           1
  0
CLASS
  1
OLE2FRAME
  2
AcDbOle2Frame
  3
""
 90
        0
280
           0
281
           1
  0
CLASS
  1
HATCH
  2
AcDbHatch
  3
"ACAD_SEDONA"
 90
        0
280
           0
281
           1
  0
CLASS
  1
DICTIONARYVAR
  2
AcDbDictionaryVar
  3
"AutoCAD"
 90
        0
280
           0
281
           0
  0
CLASS
  1
RASTERVARIABLES
  2
AcDbRasterVariables
  3
ISM
 90
        0
280
           0
281
           0
  0
CLASS
  1
IMAGEDEF
  2
AcDbRasterImageDef
  3
ISM
 90
        0
280
           0
281
           0
  0
CLASS
  1
IMAGEDEF_REACTOR
  2
AcDbRasterImageDefReactor
  3
ISM
 90
        1
280
           0
281
           0
  0
CLASS
  1
IDBUFFER
  2
AcDbIdBuffer
  3
"Acad"
 90
        0
280
           0
281
           0
  0
CLASS
  1
SPATIAL_FILTER
  2
AcDbSpatialFilter
  3
"Acad"
 90
        0
280
           0
281
           0
  0
CLASS
  1
XRECORD
  2
AcDbXrecord
  3
"<Built In>"
 90
        0
280
           0
281
           0
  0
CLASS
  1
SORTENTSTABLE
  2
AcDbSortentsTable
  3
"AutoCAD"
 90
        0
280
           0
281
           0
  0
CLASS
  1
LAYER_INDEX
  2
AcDbLayerIndex
  3
"Acad"
 90
        0
280
           0
281
           0
  0
CLASS
  1
SPATIAL_INDEX
  2
AcDbSpatialIndex
  3
"Acad"
 90
        0
280
           0
281
           0
  0
CLASS
  1
OBJECT_PTR
  2
CAseDLPNTableRecord
  3
"ASE-LPNTableRecord"
 90
        1
280
           0
281
           0
  0
CLASS
  1
LAYOUT
  2
AcDbLayout
  3
"AutoCAD 2000"
 90
        1
280
           0
281
           0
  0
CLASS
  1
PLOTSETTINGS
  2
AcDbPlotSettings
  3
"AutoCAD 2000"
 90
        1
280
           0
281
           0
  0
CLASS
  1
ACDBDICTIONARYWDFLT
  2
AcDbDictionaryWithDefault
  3
"AutoCAD 2000"
 90
        1
280
           0
281
           0
  0
CLASS
  1
ACDBPLACEHOLDER
  2
AcDbPlaceHolder
  3
"AutoCAD 2000"
 90
        1
280
           0
281
           0
  0
CLASS
  1
VBA_PROJECT
  2
AcDbVbaProject
  3
"acadvba"
 90
        1
280
           0
281
           0
  0
CLASS
  1
WIPEOUT
  2
AcDbWipeout
  3
WipeOut|AutoCAD Express Tool|expresstools@autodesk.com
 90
      127
280
           0
281
           1
  0
CLASS
  1
WIPEOUTVARIABLES
  2
AcDbWipeoutVariables
  3
WipeOut|AutoCAD Express Tool|expresstools@autodesk.com
 90
        0
280
           0
281
           0
  0
CLASS
  1
RTEXT
  2
RText
  3
RText|AutoCAD Express Tool|expresstools@autodesk.com
 90
        0
280
           0
281
           1
  0
CLASS
  1
ARCALIGNEDTEXT
  2
AcDbArcAlignedText
  3
ATEXT|AutoCAD Express Tool|expresstools@autodesk.com
 90
        0
280
           0
281
           1
  0
ENDSEC
  0
SECTION
  2
TABLES
  0
TABLE
  2
VPORT
  5
7
100
AcDbSymbolTable
 70
           1
  0
VPORT
  5
15
100
AcDbSymbolTableRecord
100
AcDbViewportTableRecord
  2
*ACTIVE
 70
           0
 10
0.0
 20
0.0
 11
1.0
 21
1.0
 12
6.591288
 22
4.579184
 13
0.0
 23
0.0
 14
1.0
 24
1.0
 15
0.0
 25
0.0
 16
0.0
 26
0.0
 36
1.0
 17
0.0
 27
0.0
 37
0.0
 40
9.158369
 41
0.688564
 42
50.0
 43
0.0
 44
0.0
 50
0.0
 51
0.0
 71
           0
 72
         100
 73
           1
 74
           1
 75
           0
 76
           0
 77
           0
 78
           0
  0
ENDTAB
  0
TABLE
  2
LTYPE
  5
4
100
AcDbSymbolTable
 70
          10
  0
LTYPE
  5
11
100
AcDbSymbolTableRecord
100
AcDbLinetypeTableRecord
  2
BYBLOCK
 70
          64
  3

 72
          65
 73
           0
 40
0.0
  0
LTYPE
  5
12
100
AcDbSymbolTableRecord
100
AcDbLinetypeTableRecord
  2
BYLAYER
 70
          64
  3

 72
          65
 73
           0
 40
0.0
  0
LTYPE
  5
13
100
AcDbSymbolTableRecord
100
AcDbLinetypeTableRecord
  2
CONTINUOUS
 70
          64
  3
Solid line
 72
          65
 73
           0
 40
0.0
  0
LTYPE
  5
1D
100
AcDbSymbolTableRecord
100
AcDbLinetypeTableRecord
  2
DASHED
 70
          64
  3
Dashed
 72
          65
 73
           2
 40
15.0
 49
12.0
 74
           0
 49
-3.0
 74
           0
  0
LTYPE
  5
1E
100
AcDbSymbolTableRecord
100
AcDbLinetypeTableRecord
  2
DOTTED
 70
          64
  3
Dotted
 72
          65
 73
           2
 40
3.5
 49
0.5
 74
           0
 49
-3.0
 74
           0
  0
LTYPE
  5
1F
100
AcDbSymbolTableRecord
100
AcDbLinetypeTableRecord
  2
DOT_CENTER
 70
          64
  3
Dot_Center
 72
          65
 73
           4
 40
2.0
 49
1.25
 74
           0
 49
-0.25
 74
           0
 49
0.25
 74
           0
 49
-0.25
 74
           0
  0
LTYPE
  5
20
100
AcDbSymbolTableRecord
100
AcDbLinetypeTableRecord
  2
LONG_DASHED
 70
          64
  3
Long_Dashed
 72
          65
 73
           2
 40
2.0
 49
1.5
 74
           0
 49
-0.5
 74
           0
  0
LTYPE
  5
21
100
AcDbSymbolTableRecord
100
AcDbLinetypeTableRecord
  2
DASH_CENTER
 70
          64
  3
Dash_Center
 72
          65
 73
           4
 40
36.0
 49
24.0
 74
           0
 49
-3.0
 74
           0
 49
6.0
 74
           0
 49
-3.0
 74
           0
  0
LTYPE
  5
22
100
AcDbSymbolTableRecord
100
AcDbLinetypeTableRecord
  2
PHANTOM
 70
          64
  3
Phantom
 72
          65
 73
           6
 40
2.5
 49
1.25
 74
           0
 49
-0.25
 74
           0
 49
0.25
 74
           0
 49
-0.25
 74
           0
 49
0.25
 74
           0
 49
-0.25
 74
           0
  0
LTYPE
  5
23
100
AcDbSymbolTableRecord
100
AcDbLinetypeTableRecord
  2
CENTER_DASH_DASH
 70
          64
  3
Center_Dash_Dash
 72
          65
 73
           6
 40
22.0
 49
12.0
 74
           0
 49
-3.0
 74
           0
 49
0.5
 74
           0
 49
-3.0
 74
           0
 49
0.5
 74
           0
 49
-3.0
 74
           0
  0
ENDTAB
  0
TABLE
  2
LAYER
  5
2
100
AcDbSymbolTable
 70
           2
  0
LAYER
  5
14
100
AcDbSymbolTableRecord
100
AcDbLayerTableRecord
  2
0
 70
           0
 62
           7
  6
CONTINUOUS
  0
LAYER
  5
24
100
AcDbSymbolTableRecord
100
AcDbLayerTableRecord
  2
1
 70
           0
 62
           7
  6
CONTINUOUS
  0
ENDTAB
  0
TABLE
  2
STYLE
  5
3
100
AcDbSymbolTable
 70
           3
  0
STYLE
  5
17
100
AcDbSymbolTableRecord
100
AcDbTextStyleTableRecord
  2
STANDARD
 70
           0
 40
0.0
 41
1.0
 50
0.0
 71
           0
 42
0.0
  3
txt
  4

  0
STYLE
  5
21C
100
AcDbSymbolTableRecord
100
AcDbTextStyleTableRecord
  2
CONVERTER_1
 70
           0
 40
0.0
 41
0.729
 50
0.0
 71
           0
 42
0.0
  3
txt.shx
  4

  0
STYLE
  5
22F
100
AcDbSymbolTableRecord
100
AcDbTextStyleTableRecord
  2
CONVERTER_2
 70
           0
 40
0.0
 41
0.9
 50
0.0
 71
           0
 42
0.0
  3
txt.shx
  4

  0
ENDTAB
  0
TABLE
  2
VIEW
  5
5
100
AcDbSymbolTable
 70
           0
  0
ENDTAB
  0
TABLE
  2
UCS
  5
6
100
AcDbSymbolTable
 70
           0
  0
ENDTAB
  0
TABLE
  2
APPID
  5
8
100
AcDbSymbolTable
 70
           1
  0
APPID
  5
16
100
AcDbSymbolTableRecord
100
AcDbRegAppTableRecord
  2
ACAD
 70
           0
  0
ENDTAB
  0
TABLE
  2
DIMSTYLE
  5
9
100
AcDbSymbolTable
 70
           5
  0
DIMSTYLE
105
18
100
AcDbSymbolTableRecord
100
AcDbDimStyleTableRecord
  2
STANDARD
 70
           0
  3

  4

  5

  6

  7

 40
1.0
 41
0.18
 42
0.0625
 43
0.38
 44
0.18
 45
0.0
 46
0.0
 47
0.0
 48
0.0
 71
           0
 72
           0
 73
           1
 74
           1
 75
           0
 76
           0
 77
           0
 78
           0
140
0.18
141
0.09
142
0.0
143
25.4
144
1.0
145
0.0
146
1.0
147
0.09
170
           0
171
           2
172
           0
173
           0
174
           0
175
           0
176
           0
177
           0
178
           0
270
           2
271
           4
272
           4
273
           2
274
           2
275
           0
280
           0
281
           0
282
           0
283
           1
284
           0
285
           0
286
           0
287
           0
288
           0
340
17
  0
DIMSTYLE
105
232
100
AcDbSymbolTableRecord
100
AcDbDimStyleTableRecord
  2
ME10_DIM_0
 70
           0
  3

  4

  5

  6

  7

 40
1.0
 41
3.0
 42
0.0
 43
0.38
 44
0.0
 45
0.0
 46
0.0
 47
0.0
 48
0.0
 71
           0
 72
           0
 73
           0
 74
           0
 75
           0
 76
           0
 77
           0
 78
          12
140
3.0
141
0.09
142
0.0
143
25.4
144
1.0
145
0.0
146
1.0
147
0.09
170
           0
171
           2
172
           0
173
           1
174
           0
175
           0
176
           2
177
           2
178
           2
270
           2
271
           4
272
           4
273
           2
274
           2
275
           0
280
           0
281
           0
282
           0
283
           1
284
           0
285
           0
286
           0
287
           3
288
           0
340
17
  0
DIMSTYLE
105
23D
100
AcDbSymbolTableRecord
100
AcDbDimStyleTableRecord
  2
ME10_DIM_1
 70
           0
  3

  4

  5

  6

  7

 40
1.0
 41
3.0
 42
0.0
 43
0.38
 44
0.0
 45
0.0
 46
0.0
 47
0.0
 48
0.0
 71
           0
 72
           0
 73
           0
 74
           0
 75
           0
 76
           0
 77
           0
 78
          12
140
3.0
141
0.09
142
0.0
143
25.4
144
1.0
145
0.0
146
1.0
147
0.09
170
           0
171
           2
172
           0
173
           1
174
           0
175
           0
176
           2
177
           2
178
           2
270
           2
271
           4
272
           4
273
           2
274
           2
275
           0
280
           0
281
           0
282
           0
283
           1
284
           0
285
           0
286
           0
287
           3
288
           0
340
17
  0
DIMSTYLE
105
248
100
AcDbSymbolTableRecord
100
AcDbDimStyleTableRecord
  2
ME10_DIM_2
 70
           0
  3

  4

  5

  6

  7

 40
1.0
 41
3.0
 42
0.0
 43
0.38
 44
0.0
 45
0.0
 46
0.0
 47
0.0
 48
0.0
 71
           0
 72
           0
 73
           0
 74
           0
 75
           0
 76
           0
 77
           0
 78
          12
140
3.0
141
0.09
142
0.0
143
25.4
144
1.0
145
0.0
146
1.0
147
0.09
170
           0
171
           2
172
           0
173
           1
174
           0
175
           0
176
           2
177
           2
178
           2
270
           2
271
           4
272
           4
273
           2
274
           2
275
           0
280
           0
281
           0
282
           0
283
           1
284
           0
285
           0
286
           0
287
           3
288
           0
340
17
  0
DIMSTYLE
105
253
100
AcDbSymbolTableRecord
100
AcDbDimStyleTableRecord
  2
ME10_DIM_3
 70
           0
  3

  4

  5

  6

  7

 40
1.0
 41
3.0
 42
0.0
 43
0.38
 44
0.0
 45
0.0
 46
0.0
 47
0.0
 48
0.0
 71
           0
 72
           0
 73
           0
 74
           0
 75
           0
 76
           0
 77
           0
 78
          12
140
3.0
141
0.09
142
0.0
143
25.4
144
1.0
145
0.0
146
1.0
147
0.09
170
           0
171
           2
172
           0
173
           1
174
           0
175
           0
176
           2
177
           2
178
           2
270
           2
271
           4
272
           4
273
           2
274
           2
275
           0
280
           0
281
           0
282
           0
283
           1
284
           0
285
           0
286
           0
287
           3
288
           0
340
17
  0
ENDTAB
  0
TABLE
  2
BLOCK_RECORD
  5
1
100
AcDbSymbolTable
 70
           4
  0
BLOCK_RECORD
  5
A
100
AcDbSymbolTableRecord
100
AcDbBlockTableRecord
  2
*MODEL_SPACE
  0
BLOCK_RECORD
  5
B
100
AcDbSymbolTableRecord
100
AcDbBlockTableRecord
  2
*PAPER_SPACE
  0
BLOCK_RECORD
  5
228
100
AcDbSymbolTableRecord
100
AcDbBlockTableRecord
  2
*D0
  0
BLOCK_RECORD
  5
234
100
AcDbSymbolTableRecord
100
AcDbBlockTableRecord
  2
*D1
  0
BLOCK_RECORD
  5
23F
100
AcDbSymbolTableRecord
100
AcDbBlockTableRecord
  2
*D2
  0
BLOCK_RECORD
  5
24A
100
AcDbSymbolTableRecord
100
AcDbBlockTableRecord
  2
*D3
  0
ENDTAB
  0
ENDSEC
  0
SECTION
  2
BLOCKS
  0
BLOCK
  5
D
100
AcDbEntity
  8
0
100
AcDbBlockBegin
  2
*MODEL_SPACE
 70
           0
 10
0.0
 20
0.0
 30
0.0
  3
*MODEL_SPACE
  1

  0
ENDBLK
  5
E
100
AcDbEntity
  8
0
100
AcDbBlockEnd
  0
BLOCK
  5
F
100
AcDbEntity
 67
           1
  8
0
100
AcDbBlockBegin
  2
*PAPER_SPACE
 70
           0
 10
0.0
 20
0.0
 30
0.0
  3
*PAPER_SPACE
  1

  0
ENDBLK
  5
10
100
AcDbEntity
 67
           1
  8
0
100
AcDbBlockEnd
  0
BLOCK
  5
229
100
AcDbEntity
  8
0
100
AcDbBlockBegin
  2
*D0
 70
           1
 10
0.0
 20
0.0
 30
0.0
  3
*D0
  1

  0
LINE
  5
22A
100
AcDbEntity
  8
0
  6
CONTINUOUS
 62
           2
100
AcDbLine
 10
19.916792801884
 20
-22.5
 11
19.916792801884
 21
22.5
  0
LINE
  5
22B
100
AcDbEntity
  8
0
  6
CONTINUOUS
 62
           2
100
AcDbLine
 10
4.916792801884
 20
22.5
 11
19.916792801884
 21
22.5
  0
LINE
  5
22C
100
AcDbEntity
  8
0
  6
CONTINUOUS
 62
           2
100
AcDbLine
 10
4.916792801884
 20
-22.5
 11
19.916792801884
 21
-22.5
  0
SOLID
  5
22D
100
AcDbEntity
  8
0
 62
           2
100
AcDbTrace
 10
19.521835309121
 20
-19.5
 11
20.311750294646
 21
-19.5
 12
19.916792801884
 22
-22.5
 13
19.916792801884
 23
-22.5
  0
SOLID
  5
22E
100
AcDbEntity
  8
0
 62
           2
100
AcDbTrace
 10
20.311750294646
 20
19.5
 11
19.521835309121
 21
19.5
 12
19.916792801884
 22
22.5
 13
19.916792801884
 23
22.5
  0
MTEXT
  5
230
100
AcDbEntity
  8
0
 62
           2
100
AcDbMText
 10
18.879292801884
 20
-11.706148391471
 30
0.0
 40
3.0
 41
0.0
 71
           7
 72
           1
  1
45 M.H.C 
  7
CONVERTER_2
 11
0.0
 21
1.0
 31
0.0
  0
ENDBLK
  5
231
100
AcDbEntity
  8
0
100
AcDbBlockEnd
  0
BLOCK
  5
235
100
AcDbEntity
  8
0
100
AcDbBlockBegin
  2
*D1
 70
           1
 10
0.0
 20
0.0
 30
0.0
  3
*D1
  1

  0
LINE
  5
236
100
AcDbEntity
  8
0
  6
CONTINUOUS
 62
           2
100
AcDbLine
 10
-32.583207198116
 20
-22.5
 11
-32.583207198116
 21
22.5
  0
LINE
  5
237
100
AcDbEntity
  8
0
  6
CONTINUOUS
 62
           2
100
AcDbLine
 10
-21.583207198116
 20
22.5
 11
-32.583207198116
 21
22.5
  0
LINE
  5
238
100
AcDbEntity
  8
0
  6
CONTINUOUS
 62
           2
100
AcDbLine
 10
-21.583207198116
 20
-22.5
 11
-32.583207198116
 21
-22.5
  0
SOLID
  5
239
100
AcDbEntity
  8
0
 62
           2
100
AcDbTrace
 10
-32.978164690879
 20
-19.5
 11
-32.188249705354
 21
-19.5
 12
-32.583207198116
 22
-22.5
 13
-32.583207198116
 23
-22.5
  0
SOLID
  5
23A
100
AcDbEntity
  8
0
 62
           2
100
AcDbTrace
 10
-32.188249705354
 20
19.5
 11
-32.978164690879
 21
19.5
 12
-32.583207198116
 22
22.5
 13
-32.583207198116
 23
22.5
  0
MTEXT
  5
23B
100
AcDbEntity
  8
0
 62
           2
100
AcDbMText
 10
-33.620707198116
 20
-11.706148391471
 30
0.0
 40
3.0
 41
0.0
 71
           7
 72
           1
  1
45 M.H.C 
  7
CONVERTER_2
 11
0.0
 21
1.0
 31
0.0
  0
ENDBLK
  5
23C
100
AcDbEntity
  8
0
100
AcDbBlockEnd
  0
BLOCK
  5
240
100
AcDbEntity
  8
0
100
AcDbBlockBegin
  2
*D2
 70
           1
 10
0.0
 20
0.0
 30
0.0
  3
*D2
  1

  0
LINE
  5
241
100
AcDbEntity
  8
0
  6
CONTINUOUS
 62
           2
100
AcDbLine
 10
-21.583207198116
 20
40.0
 11
-2.583207198116
 21
40.0
  0
LINE
  5
242
100
AcDbEntity
  8
0
  6
CONTINUOUS
 62
           2
100
AcDbLine
 10
-2.583207198116
 20
29.6
 11
-2.583207198116
 21
40.0
  0
LINE
  5
243
100
AcDbEntity
  8
0
  6
CONTINUOUS
 62
           2
100
AcDbLine
 10
-21.583207198116
 20
22.5
 11
-21.583207198116
 21
40.0
  0
SOLID
  5
244
100
AcDbEntity
  8
0
 62
           2
100
AcDbTrace
 10
-18.583207198116
 20
40.394957492762
 11
-18.583207198116
 21
39.605042507238
 12
-21.583207198116
 22
40.0
 13
-21.583207198116
 23
40.0
  0
SOLID
  5
245
100
AcDbEntity
  8
0
 62
           2
100
AcDbTrace
 10
-5.583207198116
 20
39.605042507238
 11
-5.583207198116
 21
40.394957492762
 12
-2.583207198116
 22
40.0
 13
-2.583207198116
 23
40.0
  0
TEXT
  5
246
100
AcDbEntity
  8
0
 62
           2
100
AcDbText
 10
-24.030262335245
 20
41.0375
 40
3.0
  1
19 M.H.C 
 41
0.9
  7
CONVERTER_2
100
AcDbText
  0
ENDBLK
  5
247
100
AcDbEntity
  8
0
100
AcDbBlockEnd
  0
BLOCK
  5
24B
100
AcDbEntity
  8
0
100
AcDbBlockBegin
  2
*D3
 70
           1
 10
0.0
 20
0.0
 30
0.0
  3
*D3
  1

  0
LINE
  5
24C
100
AcDbEntity
  8
0
  6
CONTINUOUS
 62
           2
100
AcDbLine
 10
4.916792801884
 20
-40.0
 11
3.916792801884
 21
-40.0
  0
LINE
  5
24D
100
AcDbEntity
  8
0
  6
CONTINUOUS
 62
           2
100
AcDbLine
 10
3.916792801884
 20
-29.6
 11
3.916792801884
 21
-40.0
  0
LINE
  5
24E
100
AcDbEntity
  8
0
  6
CONTINUOUS
 62
           2
100
AcDbLine
 10
4.916792801884
 20
-22.5
 11
4.916792801884
 21
-40.0
  0
SOLID
  5
24F
100
AcDbEntity
  8
0
 62
           2
100
AcDbTrace
 10
7.916792801884
 20
-39.605042507238
 11
7.916792801884
 21
-40.394957492762
 12
4.916792801884
 22
-40.0
 13
4.916792801884
 23
-40.0
  0
SOLID
  5
250
100
AcDbEntity
  8
0
 62
           2
100
AcDbTrace
 10
0.916792801884
 20
-40.394957492762
 11
0.916792801884
 21
-39.605042507238
 12
3.916792801884
 22
-40.0
 13
3.916792801884
 23
-40.0
  0
TEXT
  5
251
100
AcDbEntity
  8
0
 62
           2
100
AcDbText
 10
6.965636828021
 20
-38.793667746945
 40
3.0
  1
1 M.H.C 
 41
0.9
  7
CONVERTER_2
100
AcDbText
  0
ENDBLK
  5
252
100
AcDbEntity
  8
0
100
AcDbBlockEnd
  0
ENDSEC
  0
SECTION
  2
ENTITIES
  0
DIMENSION
  5
254
100
AcDbEntity
  8
0
100
AcDbDimension
  2
*D3
 10
4.916792801884
 20
-40.0
 11
16.805636828021
 21
-37.293667746945
 31
0.0
  1
<>
  3
ME10_DIM_3
100
AcDbAlignedDimension
 13
3.916792801884
 23
-29.6
 14
4.916792801884
 24
-22.5
100
AcDbRotatedDimension
  0
DIMENSION
  5
249
100
AcDbEntity
  8
0
100
AcDbDimension
  2
*D2
 10
-21.583207198116
 20
40.0
 11
-12.960262335245
 21
42.5375
 31
0.0
  1
<>
  3
ME10_DIM_2
100
AcDbAlignedDimension
 13
-2.583207198116
 23
29.6
 14
-21.583207198116
 24
22.5
100
AcDbRotatedDimension
  0
DIMENSION
  5
23E
100
AcDbEntity
  8
0
100
AcDbDimension
  2
*D1
 10
-32.583207198116
 20
-22.5
 11
-35.120707198116
 21
-0.636148391471
 31
0.0
 53
90.0
  1
<>
  3
ME10_DIM_1
100
AcDbAlignedDimension
 13
-21.583207198116
 23
22.5
 14
-21.583207198116
 24
-22.5
 50
90.0
100
AcDbRotatedDimension
  0
DIMENSION
  5
233
100
AcDbEntity
  8
0
100
AcDbDimension
  2
*D0
 10
19.916792801884
 20
-22.5
 11
17.379292801884
 21
-0.636148391471
 31
0.0
 53
90.0
  1
<>
  3
ME10_DIM_0
100
AcDbAlignedDimension
 13
4.916792801884
 23
22.5
 14
4.916792801884
 24
-22.5
 50
90.0
100
AcDbRotatedDimension
  0
TEXT
  5
227
100
AcDbEntity
  8
1
 62
           3
100
AcDbText
 10
39.773456244174
 20
-110.717580164465
 40
3.2
  1
CSG-17-XXX-2A-R.dxf
 41
0.729
  7
CONVERTER_1
100
AcDbText
  0
TEXT
  5
226
100
AcDbEntity
  8
1
 62
           3
100
AcDbText
 10
-54.729397945406
 20
-58.128686841178
 40
2.5
  1
REMARKS:  M.H.C = MINIMUM HOUSING CLEARANCE
 41
0.729
  7
CONVERTER_1
100
AcDbText
  0
TEXT
  5
225
100
AcDbEntity
  8
1
 62
           3
100
AcDbText
 10
-114.043527048847
 20
-116.468141958807
 40
1.8
  1
http://www.hds.co.jp
 41
0.729
  7
CONVERTER_1
100
AcDbText
  0
TEXT
  5
224
100
AcDbEntity
  8
1
 62
           3
100
AcDbText
 10
-114.043527048847
 20
-113.588141958807
 40
1.8
  1
Tel.03-5471-7800 Fax.03-5471-7811
 41
0.729
  7
CONVERTER_1
100
AcDbText
  0
TEXT
  5
223
100
AcDbEntity
  8
1
 62
           3
100
AcDbText
 10
-114.043527048847
 20
-110.708141958806
 40
1.8
  1
JAPAN
 41
0.729
  7
CONVERTER_1
100
AcDbText
  0
TEXT
  5
222
100
AcDbEntity
  8
1
 62
           3
100
AcDbText
 10
-114.043527048847
 20
-107.828141958807
 40
1.8
  1
Believe Omori 7F Minamiohi 6-25-3 Shinagawa-ku, Tokyo 140-0013
 41
0.729
  7
CONVERTER_1
100
AcDbText
  0
TEXT
  5
221
100
AcDbEntity
  8
1
 62
           3
100
AcDbText
 10
-114.043527048847
 20
-104.948141958807
 40
1.8
  1
Harmonic Drive Systems,Inc.
 41
0.729
  7
CONVERTER_1
100
AcDbText
  0
TEXT
  5
220
100
AcDbEntity
  8
1
 62
           3
100
AcDbText
 10
-114.043527048847
 20
-99.188141958806
 40
1.8
  1
This drawing itself is also a property of Harmonic Drive Systems,Ins.
 41
0.729
  7
CONVERTER_1
100
AcDbText
  0
TEXT
  5
21F
100
AcDbEntity
  8
1
 62
           3
100
AcDbText
 10
-114.043527048847
 20
-96.308141958807
 40
1.8
  1
subject to change without notification.
 41
0.729
  7
CONVERTER_1
100
AcDbText
  0
TEXT
  5
21E
100
AcDbEntity
  8
1
 62
           3
100
AcDbText
 10
-114.043527048847
 20
-93.428141958807
 40
1.8
  1
All speciffcations and dimensions mentioned in the drawing are
 41
0.729
  7
CONVERTER_1
100
AcDbText
  0
TEXT
  5
21D
100
AcDbEntity
  8
1
 62
           7
100
AcDbText
 10
-113.665726847031
 20
-88.79332304038
 40
2.8
  1
The reference drawing
 41
0.729
  7
CONVERTER_1
100
AcDbText
  0
CIRCLE
  5
21B
100
AcDbEntity
  8
1
  6
CONTINUOUS
 62
           7
100
AcDbCircle
 10
-1.023207198116
 20
18.03
 40
1.9
  0
CIRCLE
  5
21A
100
AcDbEntity
  8
1
  6
CONTINUOUS
 62
           7
100
AcDbCircle
 10
-1.023207198116
 20
-18.03
 40
1.9
  0
CIRCLE
  5
219
100
AcDbEntity
  8
1
  6
CONTINUOUS
 62
           7
100
AcDbCircle
 10
69.916792801884
 20
0.0
 40
9.0
  0
CIRCLE
  5
218
100
AcDbEntity
  8
1
  6
CONTINUOUS
 62
           7
100
AcDbCircle
 10
-77.250754524259
 20
24.944747377805
 40
1.75
  0
CIRCLE
  5
217
100
AcDbEntity
  8
1
  6
CONTINUOUS
 62
           7
100
AcDbCircle
 10
-68.49132410608
 20
19.091883092037
 40
1.75
  0
CIRCLE
  5
216
100
AcDbEntity
  8
1
  6
CONTINUOUS
 62
           7
100
AcDbCircle
 10
-62.638459820312
 20
10.332452673858
 40
1.75
  0
CIRCLE
  5
215
100
AcDbEntity
  8
1
  6
CONTINUOUS
 62
           7
100
AcDbCircle
 10
-60.583207198116
 20
0.0
 40
1.75
  0
CIRCLE
  5
214
100
AcDbEntity
  8
1
  6
CONTINUOUS
 62
           7
100
AcDbCircle
 10
-62.638459820312
 20
-10.332452673857
 40
1.75
  0
CIRCLE
  5
213
100
AcDbEntity
  8
1
  6
CONTINUOUS
 62
           7
100
AcDbCircle
 10
-68.49132410608
 20
-19.091883092037
 40
1.75
  0
CIRCLE
  5
212
100
AcDbEntity
  8
1
  6
CONTINUOUS
 62
           3
100
AcDbCircle
 10
-82.315768503681
 20
-26.481202570887
 40
1.5
  0
CIRCLE
  5
211
100
AcDbEntity
  8
1
  6
CONTINUOUS
 62
           7
100
AcDbCircle
 10
-82.315768503681
 20
-26.481202570887
 40
1.2
  0
CIRCLE
  5
210
100
AcDbEntity
  8
1
  6
CONTINUOUS
 62
           7
100
AcDbCircle
 10
-77.250754524259
 20
-24.944747377805
 40
1.75
  0
CIRCLE
  5
20F
100
AcDbEntity
  8
1
  6
CONTINUOUS
 62
           7
100
AcDbCircle
 10
-87.583207198116
 20
-27.0
 40
1.75
  0
CIRCLE
  5
20E
100
AcDbEntity
  8
1
  6
CONTINUOUS
 62
           7
100
AcDbCircle
 10
-97.915659871974
 20
-24.944747377805
 40
1.75
  0
CIRCLE
  5
20D
100
AcDbEntity
  8
1
  6
CONTINUOUS
 62
           7
100
AcDbCircle
 10
-106.675090290153
 20
-19.091883092037
 40
1.75
  0
CIRCLE
  5
20C
100
AcDbEntity
  8
1
  6
CONTINUOUS
 62
           7
100
AcDbCircle
 10
-112.527954575921
 20
-10.332452673857
 40
1.75
  0
CIRCLE
  5
20B
100
AcDbEntity
  8
1
  6
CONTINUOUS
 62
           7
100
AcDbCircle
 10
-114.583207198116
 20
0.0
 40
1.75
  0
CIRCLE
  5
20A
100
AcDbEntity
  8
1
  6
CONTINUOUS
 62
           7
100
AcDbCircle
 10
-112.527954575921
 20
10.332452673858
 40
1.75
  0
CIRCLE
  5
209
100
AcDbEntity
  8
1
  6
CONTINUOUS
 62
           7
100
AcDbCircle
 10
-106.675090290153
 20
19.091883092037
 40
1.75
  0
CIRCLE
  5
208
100
AcDbEntity
  8
1
  6
CONTINUOUS
 62
           7
100
AcDbCircle
 10
-97.915659871974
 20
24.944747377805
 40
1.75
  0
CIRCLE
  5
207
100
AcDbEntity
  8
1
  6
CONTINUOUS
 62
           7
100
AcDbCircle
 10
-92.850645892552
 20
26.481202570887
 40
1.2
  0
CIRCLE
  5
206
100
AcDbEntity
  8
1
  6
CONTINUOUS
 62
           3
100
AcDbCircle
 10
-92.850645892552
 20
26.481202570887
 40
1.5
  0
CIRCLE
  5
205
100
AcDbEntity
  8
1
  6
CONTINUOUS
 62
           7
100
AcDbCircle
 10
-87.583207198116
 20
27.0
 40
1.75
  0
CIRCLE
  5
204
100
AcDbEntity
  8
1
  6
CONTINUOUS
 62
           7
100
AcDbCircle
 10
75.184231496319
 20
26.481202570887
 40
1.2
  0
CIRCLE
  5
203
100
AcDbEntity
  8
1
  6
CONTINUOUS
 62
           3
100
AcDbCircle
 10
75.184231496319
 20
26.481202570887
 40
1.5
  0
CIRCLE
  5
202
100
AcDbEntity
  8
1
  6
CONTINUOUS
 62
           7
100
AcDbCircle
 10
80.249245475741
 20
24.944747377805
 40
1.75
  0
CIRCLE
  5
201
100
AcDbEntity
  8
1
  6
CONTINUOUS
 62
           7
100
AcDbCircle
 10
89.00867589392
 20
19.091883092037
 40
1.75
  0
CIRCLE
  5
200
100
AcDbEntity
  8
1
  6
CONTINUOUS
 62
           7
100
AcDbCircle
 10
94.861540179688
 20
10.332452673858
 40
1.75
  0
CIRCLE
  5
1FF
100
AcDbEntity
  8
1
  6
CONTINUOUS
 62
           7
100
AcDbCircle
 10
96.916792801884
 20
0.0
 40
1.75
  0
CIRCLE
  5
1FE
100
AcDbEntity
  8
1
  6
CONTINUOUS
 62
           7
100
AcDbCircle
 10
94.861540179688
 20
-10.332452673857
 40
1.75
  0
CIRCLE
  5
1FD
100
AcDbEntity
  8
1
  6
CONTINUOUS
 62
           7
100
AcDbCircle
 10
89.00867589392
 20
-19.091883092037
 40
1.75
  0
CIRCLE
  5
1FC
100
AcDbEntity
  8
1
  6
CONTINUOUS
 62
           7
100
AcDbCircle
 10
80.249245475741
 20
-24.944747377805
 40
1.75
  0
CIRCLE
  5
1FB
100
AcDbEntity
  8
1
  6
CONTINUOUS
 62
           7
100
AcDbCircle
 10
69.916792801884
 20
-27.0
 40
1.75
  0
CIRCLE
  5
1FA
100
AcDbEntity
  8
1
  6
CONTINUOUS
 62
           3
100
AcDbCircle
 10
69.916792801884
 20
0.0
 40
27.0
  0
CIRCLE
  5
1F9
100
AcDbEntity
  8
1
  6
CONTINUOUS
 62
           3
100
AcDbCircle
 10
64.649354107448
 20
-26.481202570887
 40
1.5
  0
CIRCLE
  5
1F8
100
AcDbEntity
  8
1
  6
CONTINUOUS
 62
           7
100
AcDbCircle
 10
64.649354107448
 20
-26.481202570887
 40
1.2
  0
CIRCLE
  5
1F7
100
AcDbEntity
  8
1
  6
CONTINUOUS
 62
           7
100
AcDbCircle
 10
59.584340128026
 20
-24.944747377805
 40
1.75
  0
CIRCLE
  5
1F6
100
AcDbEntity
  8
1
  6
CONTINUOUS
 62
           7
100
AcDbCircle
 10
50.824909709847
 20
-19.091883092037
 40
1.75
  0
CIRCLE
  5
1F5
100
AcDbEntity
  8
1
  6
CONTINUOUS
 62
           7
100
AcDbCircle
 10
44.972045424079
 20
-10.332452673857
 40
1.75
  0
CIRCLE
  5
1F4
100
AcDbEntity
  8
1
  6
CONTINUOUS
 62
           7
100
AcDbCircle
 10
42.916792801884
 20
0.0
 40
1.75
  0
CIRCLE
  5
1F3
100
AcDbEntity
  8
1
  6
CONTINUOUS
 62
           7
100
AcDbCircle
 10
44.972045424079
 20
10.332452673858
 40
1.75
  0
CIRCLE
  5
1F2
100
AcDbEntity
  8
1
  6
CONTINUOUS
 62
           7
100
AcDbCircle
 10
50.824909709847
 20
19.091883092037
 40
1.75
  0
CIRCLE
  5
1F1
100
AcDbEntity
  8
1
  6
CONTINUOUS
 62
           7
100
AcDbCircle
 10
59.584340128026
 20
24.944747377805
 40
1.75
  0
CIRCLE
  5
1F0
100
AcDbEntity
  8
1
  6
CONTINUOUS
 62
           7
100
AcDbCircle
 10
69.916792801884
 20
27.0
 40
1.75
  0
CIRCLE
  5
1EF
100
AcDbEntity
  8
1
  6
CONTINUOUS
 62
           7
100
AcDbCircle
 10
-92.958207198116
 20
-9.309773090683
 40
1.2
  0
CIRCLE
  5
1EE
100
AcDbEntity
  8
1
  6
CONTINUOUS
 62
           3
100
AcDbCircle
 10
-92.958207198116
 20
-9.309773090683
 40
1.5
  0
CIRCLE
  5
1ED
100
AcDbEntity
  8
1
  6
CONTINUOUS
 62
           7
100
AcDbCircle
 10
-82.208207198116
 20
9.309773090683
 40
1.2
  0
CIRCLE
  5
1EC
100
AcDbEntity
  8
1
  6
CONTINUOUS
 62
           3
100
AcDbCircle
 10
-82.208207198116
 20
9.309773090683
 40
1.5
  0
CIRCLE
  5
1EB
100
AcDbEntity
  8
1
  6
CONTINUOUS
 62
           3
100
AcDbCircle
 10
-87.583207198116
 20
0.0
 40
10.75
  0
CIRCLE
  5
1EA
100
AcDbEntity
  8
1
  6
CONTINUOUS
 62
           7
100
AcDbCircle
 10
69.916792801884
 20
0.0
 40
21.245
  0
CIRCLE
  5
1E9
100
AcDbEntity
  8
1
  6
CONTINUOUS
 62
           7
100
AcDbCircle
 10
69.916792801884
 20
0.0
 40
21.951
  0
CIRCLE
  5
1E8
100
AcDbEntity
  8
1
  6
CONTINUOUS
 62
           7
100
AcDbCircle
 10
69.916792801884
 20
0.0
 40
30.0
  0
CIRCLE
  5
1E7
100
AcDbEntity
  8
1
  6
CONTINUOUS
 62
           7
100
AcDbCircle
 10
69.916792801884
 20
0.0
 40
20.843
  0
CIRCLE
  5
1E6
100
AcDbEntity
  8
1
  6
CONTINUOUS
 62
           7
100
AcDbCircle
 10
69.916792801884
 20
0.0
 40
19.8265
  0
CIRCLE
  5
1E5
100
AcDbEntity
  8
1
  6
CONTINUOUS
 62
           7
100
AcDbCircle
 10
69.916792801884
 20
0.0
 40
16.2315
  0
CIRCLE
  5
1E4
100
AcDbEntity
  8
1
  6
CONTINUOUS
 62
           7
100
AcDbCircle
 10
69.916792801884
 20
0.0
 40
15.1475
  0
CIRCLE
  5
1E3
100
AcDbEntity
  8
1
  6
CONTINUOUS
 62
           3
100
AcDbCircle
 10
-87.583207198116
 20
0.0
 40
9.5
  0
CIRCLE
  5
1E2
100
AcDbEntity
  8
1
  6
CONTINUOUS
 62
           7
100
AcDbCircle
 10
-87.583207198116
 20
0.0
 40
5.0
  0
CIRCLE
  5
1E1
100
AcDbEntity
  8
1
  6
CONTINUOUS
 62
           7
100
AcDbCircle
 10
-87.583207198116
 20
0.0
 40
13.45
  0
CIRCLE
  5
1E0
100
AcDbEntity
  8
1
  6
CONTINUOUS
 62
           7
100
AcDbCircle
 10
-87.583207198116
 20
9.5
 40
2.75
  0
CIRCLE
  5
1DF
100
AcDbEntity
  8
1
  6
CONTINUOUS
 62
           7
100
AcDbCircle
 10
-95.810448534068
 20
4.75
 40
2.75
  0
CIRCLE
  5
1DE
100
AcDbEntity
  8
1
  6
CONTINUOUS
 62
           7
100
AcDbCircle
 10
-95.810448534069
 20
-4.75
 40
2.75
  0
CIRCLE
  5
1DD
100
AcDbEntity
  8
1
  6
CONTINUOUS
 62
           7
100
AcDbCircle
 10
-87.583207198116
 20
-9.5
 40
2.75
  0
CIRCLE
  5
1DC
100
AcDbEntity
  8
1
  6
CONTINUOUS
 62
           7
100
AcDbCircle
 10
-79.355965862164
 20
-4.75
 40
2.75
  0
CIRCLE
  5
1DB
100
AcDbEntity
  8
1
  6
CONTINUOUS
 62
           7
100
AcDbCircle
 10
-79.355965862164
 20
4.75
 40
2.75
  0
CIRCLE
  5
1DA
100
AcDbEntity
  8
1
  6
CONTINUOUS
 62
           7
100
AcDbCircle
 10
-87.583207198116
 20
0.0
 40
24.0
  0
CIRCLE
  5
1D9
100
AcDbEntity
  8
1
  6
CONTINUOUS
 62
           3
100
AcDbCircle
 10
-87.583207198116
 20
0.0
 40
27.0
  0
CIRCLE
  5
1D8
100
AcDbEntity
  8
1
  6
CONTINUOUS
 62
           7
100
AcDbCircle
 10
-87.583207198116
 20
0.0
 40
30.0
  0
CIRCLE
  5
1D7
100
AcDbEntity
  8
1
  6
CONTINUOUS
 62
           7
100
AcDbCircle
 10
73.566792801883
 20
-10.3
 40
0.85
  0
CIRCLE
  5
1D6
100
AcDbEntity
  8
1
  6
CONTINUOUS
 62
           7
100
AcDbCircle
 10
66.266792801883
 20
-10.3
 40
0.85
  0
CIRCLE
  5
1D5
100
AcDbEntity
  8
1
  6
CONTINUOUS
 62
           7
100
AcDbCircle
 10
69.916792801884
 20
0.0
 40
4.0
  0
CIRCLE
  5
1D4
100
AcDbEntity
  8
1
  6
CONTINUOUS
 62
           3
100
AcDbCircle
 10
6.916792801884
 20
0.0
 40
1.5
  0
CIRCLE
  5
1D3
100
AcDbEntity
  8
1
  6
CONTINUOUS
 62
           7
100
AcDbCircle
 10
6.916792801884
 20
0.0
 40
1.1
  0
CIRCLE
  5
1D2
100
AcDbEntity
  8
1
  6
CONTINUOUS
 62
           7
100
AcDbCircle
 10
-87.583207198116
 20
0.0
 40
21.59
  0
ARC
  5
1D1
100
AcDbEntity
  8
1
  6
CONTINUOUS
 62
           7
100
AcDbCircle
 10
-3.881057152435
 20
16.77
 40
0.17
100
AcDbArc
 50
172.999999999992
 51
-90.0
  0
ARC
  5
1D0
100
AcDbEntity
  8
1
  6
CONTINUOUS
 62
           7
100
AcDbCircle
 10
-3.733207198116
 20
19.22
 40
0.17
100
AcDbArc
 50
90.0
 51
180.0
  0
ARC
  5
1CF
100
AcDbEntity
  8
1
  6
CONTINUOUS
 62
           7
100
AcDbCircle
 10
-3.733207198116
 20
-19.22
 40
0.17
100
AcDbArc
 50
180.0
 51
-90.0
  0
ARC
  5
1CE
100
AcDbEntity
  8
1
  6
CONTINUOUS
 62
           7
100
AcDbCircle
 10
-3.881057152435
 20
-16.77
 40
0.17
100
AcDbArc
 50
90.0
 51
-172.999999999992
  0
ARC
  5
1CD
100
AcDbEntity
  8
1
  6
CONTINUOUS
 62
           7
100
AcDbCircle
 10
-113.043527048847
 20
-115.215215605149
 40
3.0
100
AcDbArc
 50
180.0
 51
-90.0
  0
ARC
  5
1CC
100
AcDbEntity
  8
1
  6
CONTINUOUS
 62
           7
100
AcDbCircle
 10
-113.043527048847
 20
-87.215215605149
 40
3.0
100
AcDbArc
 50
90.0
 51
180.0
  0
ARC
  5
1CB
100
AcDbEntity
  8
1
  6
CONTINUOUS
 62
           7
100
AcDbCircle
 10
-12.043527048847
 20
-87.215215605149
 40
3.0
100
AcDbArc
 50
0.0
 51
90.0
  0
ARC
  5
1CA
100
AcDbEntity
  8
1
  6
CONTINUOUS
 62
           7
100
AcDbCircle
 10
-12.043527048847
 20
-115.215215605149
 40
3.0
100
AcDbArc
 50
-90.0
 51
0.0
  0
ARC
  5
1C9
100
AcDbEntity
  8
1
  6
CONTINUOUS
 62
           7
100
AcDbCircle
 10
78.416792801884
 20
-9.924035201705
 40
3.0
100
AcDbArc
 50
128.240129201878
 51
180.0
  0
ARC
  5
1C8
100
AcDbEntity
  8
1
  6
CONTINUOUS
 62
           7
100
AcDbCircle
 10
61.416792801884
 20
-9.924035201705
 40
3.0
100
AcDbArc
 50
0.0
 51
51.759870798123
  0
ARC
  5
1C7
100
AcDbEntity
  8
1
  6
CONTINUOUS
 62
           7
100
AcDbCircle
 10
73.416792801884
 20
-10.3
 40
2.0
100
AcDbArc
 50
-90.0
 51
0.0
  0
ARC
  5
1C6
100
AcDbEntity
  8
1
  6
CONTINUOUS
 62
           7
100
AcDbCircle
 10
66.416792801884
 20
-10.3
 40
2.0
100
AcDbArc
 50
180.0
 51
-90.0
  0
ARC
  5
1C5
100
AcDbEntity
  8
1
  6
CONTINUOUS
 62
           7
100
AcDbCircle
 10
-2.783207198116
 20
-24.2
 40
0.2
100
AcDbArc
 50
0.0
 51
90.0
  0
ARC
  5
1C4
100
AcDbEntity
  8
1
  6
CONTINUOUS
 62
           7
100
AcDbCircle
 10
-2.783207198116
 20
24.2
 40
0.2
100
AcDbArc
 50
-90.0
 51
0.0
  0
ARC
  5
1C3
100
AcDbEntity
  8
1
  6
CONTINUOUS
 62
           7
100
AcDbCircle
 10
-20.175207198116
 20
13.9
 40
0.3
100
AcDbArc
 50
-90.0
 51
0.0
  0
ARC
  5
1C2
100
AcDbEntity
  8
1
  6
CONTINUOUS
 62
           7
100
AcDbCircle
 10
-20.175207198116
 20
-13.9
 40
0.3
100
AcDbArc
 50
0.0
 51
90.0
  0
ARC
  5
1C1
100
AcDbEntity
  8
1
  6
CONTINUOUS
 62
           7
100
AcDbCircle
 10
-18.555207198116
 20
19.833
 40
1.32
100
AcDbArc
 50
90.0
 51
180.0
  0
ARC
  5
1C0
100
AcDbEntity
  8
1
  6
CONTINUOUS
 62
           7
100
AcDbCircle
 10
-18.545207198116
 20
-19.843
 40
1.330037593454
100
AcDbArc
 50
179.569212782991
 51
-90.430787217008
  0
ARC
  5
1BF
100
AcDbEntity
  8
1
  6
CONTINUOUS
 62
           7
100
AcDbCircle
 10
3.716792801884
 20
21.162157287525
 40
0.2
100
AcDbArc
 50
0.0
 51
44.999999999996
  0
ARC
  5
1BE
100
AcDbEntity
  8
1
  6
CONTINUOUS
 62
           7
100
AcDbCircle
 10
3.716792801884
 20
21.076996802985
 40
0.2
100
AcDbArc
 50
-86.999999999996
 51
0.0
  0
ARC
  5
1BD
100
AcDbEntity
  8
1
  6
CONTINUOUS
 62
           7
100
AcDbCircle
 10
3.716792801884
 20
-21.162157287525
 40
0.2
100
AcDbArc
 50
-44.999999999996
 51
0.0
  0
ARC
  5
1BC
100
AcDbEntity
  8
1
  6
CONTINUOUS
 62
           7
100
AcDbCircle
 10
3.716792801884
 20
-21.076996802985
 40
0.2
100
AcDbArc
 50
0.0
 51
86.999999999996
  0
ARC
  5
1BB
100
AcDbEntity
  8
1
  6
CONTINUOUS
 62
           7
100
AcDbCircle
 10
-18.608207198116
 20
19.886
 40
0.975320460157
100
AcDbArc
 50
91.468800714386
 51
-178.531199285614
  0
ARC
  5
1BA
100
AcDbEntity
  8
1
  6
CONTINUOUS
 62
           7
100
AcDbCircle
 10
-18.608207198116
 20
-19.886
 40
0.975320460157
100
AcDbArc
 50
178.531199285614
 51
-91.468800714386
  0
ARC
  5
1B9
100
AcDbEntity
  8
1
  6
CONTINUOUS
 62
           7
100
AcDbCircle
 10
65.052358203628
 20
17.3613990231
 40
2.0
100
AcDbArc
 50
-49.834233393177
 51
78.217588999496
  0
ARC
  5
1B8
100
AcDbEntity
  8
1
  6
CONTINUOUS
 62
           7
100
AcDbCircle
 10
74.781254671355
 20
17.361391382042
 40
2.0
100
AcDbArc
 50
-81.138663393173
 51
46.913158999491
  0
ARC
  5
1B7
100
AcDbEntity
  8
1
  6
CONTINUOUS
 62
           7
100
AcDbCircle
 10
79.284913515207
 20
15.40516842818
 40
2.0
100
AcDbArc
 50
-96.790833393176
 51
31.260988999487
  0
ARC
  5
1B6
100
AcDbEntity
  8
1
  6
CONTINUOUS
 62
           7
100
AcDbCircle
 10
83.093782047284
 20
12.306415173664
 40
2.0
100
AcDbArc
 50
-112.443003393177
 51
15.608818999491
  0
ARC
  5
1B5
100
AcDbEntity
  8
1
  6
CONTINUOUS
 62
           7
100
AcDbCircle
 10
85.92537405334
 20
8.294951857335
 40
2.0
100
AcDbArc
 50
-128.095173393175
 51
-0.043351000507
  0
ARC
  5
1B4
100
AcDbEntity
  8
1
  6
CONTINUOUS
 62
           7
100
AcDbCircle
 10
87.569683412307
 20
3.66829021431
 40
2.0
100
AcDbArc
 50
-143.747343393176
 51
-15.695521000506
  0
ARC
  5
1B3
100
AcDbEntity
  8
1
  6
CONTINUOUS
 62
           7
100
AcDbCircle
 10
87.904759281841
 20
-1.230431597416
 40
2.0
100
AcDbArc
 50
-159.399513393177
 51
-31.347691000509
  0
ARC
  5
1B2
100
AcDbEntity
  8
1
  6
CONTINUOUS
 62
           7
100
AcDbCircle
 10
86.905750629916
 20
-6.037897971754
 40
2.0
100
AcDbArc
 50
-175.051683393177
 51
-46.999861000504
  0
ARC
  5
1B1
100
AcDbEntity
  8
1
  6
CONTINUOUS
 62
           7
100
AcDbCircle
 10
84.646749321271
 20
-10.397561297581
 40
2.0
100
AcDbArc
 50
169.296146606821
 51
-62.652031000507
  0
ARC
  5
1B0
100
AcDbEntity
  8
1
  6
CONTINUOUS
 62
           7
100
AcDbCircle
 10
81.295295065475
 20
-13.986085450813
 40
2.0
100
AcDbArc
 50
153.643976606822
 51
-78.304201000507
  0
ARC
  5
1AF
100
AcDbEntity
  8
1
  6
CONTINUOUS
 62
           7
100
AcDbCircle
 10
77.099949769291
 20
-16.537326143654
 40
2.0
100
AcDbArc
 50
137.991806606823
 51
-93.956371000509
  0
ARC
  5
1AE
100
AcDbEntity
  8
1
  6
CONTINUOUS
 62
           7
100
AcDbCircle
 10
72.371862846303
 20
-17.862069619084
 40
2.0
100
AcDbArc
 50
122.339636606819
 51
-109.608541000506
  0
ARC
  5
1AD
100
AcDbEntity
  8
1
  6
CONTINUOUS
 62
           7
100
AcDbCircle
 10
67.461694699793
 20
-17.862065762647
 40
2.0
100
AcDbArc
 50
106.687466606828
 51
-125.260711000512
  0
ARC
  5
1AC
100
AcDbEntity
  8
1
  6
CONTINUOUS
 62
           7
100
AcDbCircle
 10
62.733609857714
 20
-16.537314860357
 40
2.0
100
AcDbArc
 50
91.035296606821
 51
-140.912881000509
  0
ARC
  5
1AB
100
AcDbEntity
  8
1
  6
CONTINUOUS
 62
           7
100
AcDbCircle
 10
58.538268569014
 20
-13.986067577486
 40
2.0
100
AcDbArc
 50
75.383126606821
 51
-156.565051000507
  0
ARC
  5
1AA
100
AcDbEntity
  8
1
  6
CONTINUOUS
 62
           7
100
AcDbCircle
 10
55.186819950063
 20
-10.397538159807
 40
2.0
100
AcDbArc
 50
59.730956606823
 51
-172.21722100051
  0
ARC
  5
1A9
100
AcDbEntity
  8
1
  6
CONTINUOUS
 62
           7
100
AcDbCircle
 10
52.927825489564
 20
-6.037871285554
 40
2.0
100
AcDbArc
 50
44.07878660682
 51
172.130608999492
  0
ARC
  5
1A8
100
AcDbEntity
  8
1
  6
CONTINUOUS
 62
           7
100
AcDbCircle
 10
51.928824389191
 20
-1.230403341982
 40
2.0
100
AcDbArc
 50
28.426616606821
 51
156.478438999491
  0
ARC
  5
1A7
100
AcDbEntity
  8
1
  6
CONTINUOUS
 62
           7
100
AcDbCircle
 10
52.263907953618
 20
3.668317943402
 40
2.0
100
AcDbArc
 50
12.774446606822
 51
140.826268999491
  0
ARC
  5
1A6
100
AcDbEntity
  8
1
  6
CONTINUOUS
 62
           7
100
AcDbCircle
 10
53.908224580126
 20
8.294977003545
 40
2.0
100
AcDbArc
 50
-2.877723393177
 51
125.174098999488
  0
ARC
  5
1A5
100
AcDbEntity
  8
1
  6
CONTINUOUS
 62
           7
100
AcDbCircle
 10
56.739822887371
 20
12.306435872016
 40
2.0
100
AcDbArc
 50
-18.529893393179
 51
109.52192899949
  0
ARC
  5
1A4
100
AcDbEntity
  8
1
  6
CONTINUOUS
 62
           7
100
AcDbCircle
 10
60.548696286954
 20
15.405183143571
 40
2.0
100
AcDbArc
 50
-34.182063393175
 51
93.869758999493
  0
ARC
  5
1A3
100
AcDbEntity
  8
1
  6
CONTINUOUS
 62
           7
100
AcDbCircle
 10
74.781254671355
 20
17.361391382042
 40
2.0
100
AcDbArc
 50
101.782321000503
 51
-131.592602464005
  0
ARC
  5
1A2
100
AcDbEntity
  8
1
  6
CONTINUOUS
 62
           7
100
AcDbCircle
 10
79.284913515207
 20
15.40516842818
 40
2.0
100
AcDbArc
 50
86.130151000503
 51
-147.244772464002
  0
ARC
  5
1A1
100
AcDbEntity
  8
1
  6
CONTINUOUS
 62
           7
100
AcDbCircle
 10
83.093782047284
 20
12.306415173664
 40
2.0
100
AcDbArc
 50
70.477981000507
 51
-162.896942464003
  0
ARC
  5
1A0
100
AcDbEntity
  8
1
  6
CONTINUOUS
 62
           7
100
AcDbCircle
 10
85.92537405334
 20
8.294951857335
 40
2.0
100
AcDbArc
 50
54.825811000509
 51
-178.549112464004
  0
ARC
  5
19F
100
AcDbEntity
  8
1
  6
CONTINUOUS
 62
           7
100
AcDbCircle
 10
87.569683412307
 20
3.66829021431
 40
2.0
100
AcDbArc
 50
39.173641000509
 51
165.798717535996
  0
ARC
  5
19E
100
AcDbEntity
  8
1
  6
CONTINUOUS
 62
           7
100
AcDbCircle
 10
87.904759281841
 20
-1.230431597416
 40
2.0
100
AcDbArc
 50
23.52147100051
 51
150.146547535996
  0
ARC
  5
19D
100
AcDbEntity
  8
1
  6
CONTINUOUS
 62
           7
100
AcDbCircle
 10
86.905750629916
 20
-6.037897971754
 40
2.0
100
AcDbArc
 50
7.86930100051
 51
134.494377535994
  0
ARC
  5
19C
100
AcDbEntity
  8
1
  6
CONTINUOUS
 62
           7
100
AcDbCircle
 10
84.646749321271
 20
-10.397561297581
 40
2.0
100
AcDbArc
 50
-7.78286899949
 51
118.842207535994
  0
ARC
  5
19B
100
AcDbEntity
  8
1
  6
CONTINUOUS
 62
           7
100
AcDbCircle
 10
81.295295065475
 20
-13.986085450813
 40
2.0
100
AcDbArc
 50
-23.435038999487
 51
103.190037535991
  0
ARC
  5
19A
100
AcDbEntity
  8
1
  6
CONTINUOUS
 62
           7
100
AcDbCircle
 10
77.099949769291
 20
-16.537326143654
 40
2.0
100
AcDbArc
 50
-39.087208999494
 51
87.537867535999
  0
ARC
  5
199
100
AcDbEntity
  8
1
  6
CONTINUOUS
 62
           7
100
AcDbCircle
 10
72.371862846303
 20
-17.862069619084
 40
2.0
100
AcDbArc
 50
-54.73937899949
 51
71.88569753599
  0
ARC
  5
198
100
AcDbEntity
  8
1
  6
CONTINUOUS
 62
           7
100
AcDbCircle
 10
67.461694699793
 20
-17.862065762647
 40
2.0
100
AcDbArc
 50
-70.391548999493
 51
56.233527536001
  0
ARC
  5
197
100
AcDbEntity
  8
1
  6
CONTINUOUS
 62
           7
100
AcDbCircle
 10
62.733609857714
 20
-16.537314860357
 40
2.0
100
AcDbArc
 50
-86.043718999487
 51
40.581357535996
  0
ARC
  5
196
100
AcDbEntity
  8
1
  6
CONTINUOUS
 62
           7
100
AcDbCircle
 10
58.538268569014
 20
-13.986067577486
 40
2.0
100
AcDbArc
 50
-101.695888999487
 51
24.929187535995
  0
ARC
  5
195
100
AcDbEntity
  8
1
  6
CONTINUOUS
 62
           7
100
AcDbCircle
 10
55.186819950063
 20
-10.397538159807
 40
2.0
100
AcDbArc
 50
-117.348058999491
 51
9.277017535998
  0
ARC
  5
194
100
AcDbEntity
  8
1
  6
CONTINUOUS
 62
           7
100
AcDbCircle
 10
52.927825489564
 20
-6.037871285554
 40
2.0
100
AcDbArc
 50
-133.000228999488
 51
-6.375152464003
  0
ARC
  5
193
100
AcDbEntity
  8
1
  6
CONTINUOUS
 62
           7
100
AcDbCircle
 10
51.928824389191
 20
-1.230403341982
 40
2.0
100
AcDbArc
 50
-148.652398999489
 51
-22.027322464001
  0
ARC
  5
192
100
AcDbEntity
  8
1
  6
CONTINUOUS
 62
           7
100
AcDbCircle
 10
52.263907953618
 20
3.668317943402
 40
2.0
100
AcDbArc
 50
-164.304568999491
 51
-37.679492464006
  0
ARC
  5
191
100
AcDbEntity
  8
1
  6
CONTINUOUS
 62
           7
100
AcDbCircle
 10
53.908224580126
 20
8.294977003545
 40
2.0
100
AcDbArc
 50
-179.956738999489
 51
-53.331662464003
  0
ARC
  5
190
100
AcDbEntity
  8
1
  6
CONTINUOUS
 62
           7
100
AcDbCircle
 10
56.739822887371
 20
12.306435872016
 40
2.0
100
AcDbArc
 50
164.391091000509
 51
-68.983832464005
  0
ARC
  5
18F
100
AcDbEntity
  8
1
  6
CONTINUOUS
 62
           7
100
AcDbCircle
 10
60.548696286954
 20
15.405183143571
 40
2.0
100
AcDbArc
 50
148.738921000512
 51
-84.636002464001
  0
ARC
  5
18E
100
AcDbEntity
  8
1
  6
CONTINUOUS
 62
           7
100
AcDbCircle
 10
65.052358203628
 20
17.3613990231
 40
2.0
100
AcDbArc
 50
133.086751000509
 51
-100.288172464007
  0
ARC
  5
18D
100
AcDbEntity
  8
1
  6
CONTINUOUS
 62
           7
100
AcDbCircle
 10
74.781254671355
 20
17.361391382042
 40
2.17
100
AcDbArc
 50
128.177415952244
 51
-151.612937297202
  0
ARC
  5
18C
100
AcDbEntity
  8
1
  6
CONTINUOUS
 62
           7
100
AcDbCircle
 10
79.284913515207
 20
15.40516842818
 40
2.17
100
AcDbArc
 50
112.525245952243
 51
-167.2651072972
  0
ARC
  5
18B
100
AcDbEntity
  8
1
  6
CONTINUOUS
 62
           7
100
AcDbCircle
 10
83.093782047284
 20
12.306415173664
 40
2.17
100
AcDbArc
 50
96.873075952241
 51
177.082722702797
  0
ARC
  5
18A
100
AcDbEntity
  8
1
  6
CONTINUOUS
 62
           7
100
AcDbCircle
 10
85.92537405334
 20
8.294951857335
 40
2.17
100
AcDbArc
 50
81.220905952243
 51
161.430552702796
  0
ARC
  5
189
100
AcDbEntity
  8
1
  6
CONTINUOUS
 62
           7
100
AcDbCircle
 10
87.569683412307
 20
3.66829021431
 40
2.17
100
AcDbArc
 50
65.568735952246
 51
145.778382702797
  0
ARC
  5
188
100
AcDbEntity
  8
1
  6
CONTINUOUS
 62
           7
100
AcDbCircle
 10
87.904759281841
 20
-1.230431597416
 40
2.17
100
AcDbArc
 50
49.916565952248
 51
130.126212702802
  0
ARC
  5
187
100
AcDbEntity
  8
1
  6
CONTINUOUS
 62
           7
100
AcDbCircle
 10
86.905750629916
 20
-6.037897971754
 40
2.17
100
AcDbArc
 50
34.26439595225
 51
114.474042702793
  0
ARC
  5
186
100
AcDbEntity
  8
1
  6
CONTINUOUS
 62
           7
100
AcDbCircle
 10
84.646749321271
 20
-10.397561297581
 40
2.17
100
AcDbArc
 50
18.612225952252
 51
98.82187270279
  0
ARC
  5
185
100
AcDbEntity
  8
1
  6
CONTINUOUS
 62
           7
100
AcDbCircle
 10
81.295295065475
 20
-13.986085450813
 40
2.17
100
AcDbArc
 50
2.960055952251
 51
83.169702702795
  0
ARC
  5
184
100
AcDbEntity
  8
1
  6
CONTINUOUS
 62
           7
100
AcDbCircle
 10
77.099949769291
 20
-16.537326143654
 40
2.17
100
AcDbArc
 50
-12.692114047749
 51
67.517532702792
  0
ARC
  5
183
100
AcDbEntity
  8
1
  6
CONTINUOUS
 62
           7
100
AcDbCircle
 10
72.371862846303
 20
-17.862069619084
 40
2.17
100
AcDbArc
 50
-28.344284047749
 51
51.865362702796
  0
ARC
  5
182
100
AcDbEntity
  8
1
  6
CONTINUOUS
 62
           7
100
AcDbCircle
 10
67.461694699793
 20
-17.862065762647
 40
2.17
100
AcDbArc
 50
-43.996454047753
 51
36.213192702797
  0
ARC
  5
181
100
AcDbEntity
  8
1
  6
CONTINUOUS
 62
           7
100
AcDbCircle
 10
62.733609857714
 20
-16.537314860357
 40
2.17
100
AcDbArc
 50
-59.648624047752
 51
20.561022702794
  0
ARC
  5
180
100
AcDbEntity
  8
1
  6
CONTINUOUS
 62
           7
100
AcDbCircle
 10
58.538268569014
 20
-13.986067577486
 40
2.17
100
AcDbArc
 50
-75.300794047748
 51
4.908852702794
  0
ARC
  5
17F
100
AcDbEntity
  8
1
  6
CONTINUOUS
 62
           7
100
AcDbCircle
 10
55.186819950063
 20
-10.397538159807
 40
2.17
100
AcDbArc
 50
-90.952964047749
 51
-10.743317297203
  0
ARC
  5
17E
100
AcDbEntity
  8
1
  6
CONTINUOUS
 62
           7
100
AcDbCircle
 10
52.927825489564
 20
-6.037871285554
 40
2.17
100
AcDbArc
 50
-106.605134047749
 51
-26.395487297203
  0
ARC
  5
17D
100
AcDbEntity
  8
1
  6
CONTINUOUS
 62
           7
100
AcDbCircle
 10
51.928824389191
 20
-1.230403341982
 40
2.17
100
AcDbArc
 50
-122.257304047748
 51
-42.047657297197
  0
ARC
  5
17C
100
AcDbEntity
  8
1
  6
CONTINUOUS
 62
           7
100
AcDbCircle
 10
52.263907953618
 20
3.668317943402
 40
2.17
100
AcDbArc
 50
-137.909474047751
 51
-57.699827297201
  0
ARC
  5
17B
100
AcDbEntity
  8
1
  6
CONTINUOUS
 62
           7
100
AcDbCircle
 10
53.908224580126
 20
8.294977003545
 40
2.17
100
AcDbArc
 50
-153.56164404775
 51
-73.351997297203
  0
ARC
  5
17A
100
AcDbEntity
  8
1
  6
CONTINUOUS
 62
           7
100
AcDbCircle
 10
56.739822887371
 20
12.306435872016
 40
2.17
100
AcDbArc
 50
-169.21381404775
 51
-89.004167297201
  0
ARC
  5
179
100
AcDbEntity
  8
1
  6
CONTINUOUS
 62
           7
100
AcDbCircle
 10
60.548696286954
 20
15.405183143571
 40
2.17
100
AcDbArc
 50
175.134015952249
 51
-104.656337297203
  0
ARC
  5
178
100
AcDbEntity
  8
1
  6
CONTINUOUS
 62
           7
100
AcDbCircle
 10
65.052358203628
 20
17.3613990231
 40
2.17
100
AcDbArc
 50
159.481845952246
 51
-120.308507297205
  0
ARC
  5
177
100
AcDbEntity
  8
1
  6
CONTINUOUS
 62
           7
100
AcDbCircle
 10
69.916821123341
 20
18.029999999978
 40
2.17
100
AcDbArc
 50
-44.039412702793
 51
36.170234047752
  0
ARC
  5
176
100
AcDbEntity
  8
1
  6
CONTINUOUS
 62
           7
100
AcDbCircle
 10
74.781254671355
 20
17.361391382042
 40
2.17
100
AcDbArc
 50
-59.691582702798
 51
20.518064047755
  0
ARC
  5
175
100
AcDbEntity
  8
1
  6
CONTINUOUS
 62
           7
100
AcDbCircle
 10
79.284913515207
 20
15.40516842818
 40
2.17
100
AcDbArc
 50
-75.343752702797
 51
4.865894047753
  0
ARC
  5
174
100
AcDbEntity
  8
1
  6
CONTINUOUS
 62
           7
100
AcDbCircle
 10
83.093782047284
 20
12.306415173664
 40
2.17
100
AcDbArc
 50
-90.995922702794
 51
-10.786275952243
  0
ARC
  5
173
100
AcDbEntity
  8
1
  6
CONTINUOUS
 62
           7
100
AcDbCircle
 10
85.92537405334
 20
8.294951857335
 40
2.17
100
AcDbArc
 50
-106.648092702797
 51
-26.438445952247
  0
ARC
  5
172
100
AcDbEntity
  8
1
  6
CONTINUOUS
 62
           7
100
AcDbCircle
 10
87.569683412307
 20
3.66829021431
 40
2.17
100
AcDbArc
 50
-122.300262702798
 51
-42.090615952245
  0
ARC
  5
171
100
AcDbEntity
  8
1
  6
CONTINUOUS
 62
           7
100
AcDbCircle
 10
87.904759281841
 20
-1.230431597416
 40
2.17
100
AcDbArc
 50
-137.952432702803
 51
-57.742785952244
  0
ARC
  5
170
100
AcDbEntity
  8
1
  6
CONTINUOUS
 62
           7
100
AcDbCircle
 10
86.905750629916
 20
-6.037897971754
 40
2.17
100
AcDbArc
 50
-153.604602702798
 51
-73.39495595224
  0
ARC
  5
16F
100
AcDbEntity
  8
1
  6
CONTINUOUS
 62
           7
100
AcDbCircle
 10
84.646749321271
 20
-10.397561297581
 40
2.17
100
AcDbArc
 50
-169.256772702804
 51
-89.047125952242
  0
ARC
  5
16E
100
AcDbEntity
  8
1
  6
CONTINUOUS
 62
           7
100
AcDbCircle
 10
81.295295065475
 20
-13.986085450813
 40
2.17
100
AcDbArc
 50
175.091057297198
 51
-104.699295952239
  0
ARC
  5
16D
100
AcDbEntity
  8
1
  6
CONTINUOUS
 62
           7
100
AcDbCircle
 10
77.099949769291
 20
-16.537326143654
 40
2.17
100
AcDbArc
 50
159.438887297195
 51
-120.351465952241
  0
ARC
  5
16C
100
AcDbEntity
  8
1
  6
CONTINUOUS
 62
           7
100
AcDbCircle
 10
72.371862846303
 20
-17.862069619084
 40
2.17
100
AcDbArc
 50
143.786717297196
 51
-136.003635952241
  0
ARC
  5
16B
100
AcDbEntity
  8
1
  6
CONTINUOUS
 62
           7
100
AcDbCircle
 10
67.461694699793
 20
-17.862065762647
 40
2.17
100
AcDbArc
 50
128.134547297199
 51
-151.655805952246
  0
ARC
  5
16A
100
AcDbEntity
  8
1
  6
CONTINUOUS
 62
           7
100
AcDbCircle
 10
62.733609857714
 20
-16.537314860357
 40
2.17
100
AcDbArc
 50
112.482377297203
 51
-167.307975952243
  0
ARC
  5
169
100
AcDbEntity
  8
1
  6
CONTINUOUS
 62
           7
100
AcDbCircle
 10
58.538268569014
 20
-13.986067577486
 40
2.17
100
AcDbArc
 50
96.830207297195
 51
177.039854047757
  0
ARC
  5
168
100
AcDbEntity
  8
1
  6
CONTINUOUS
 62
           7
100
AcDbCircle
 10
55.186819950063
 20
-10.397538159807
 40
2.17
100
AcDbArc
 50
81.178037297199
 51
161.387684047753
  0
ARC
  5
167
100
AcDbEntity
  8
1
  6
CONTINUOUS
 62
           7
100
AcDbCircle
 10
52.927825489564
 20
-6.037871285554
 40
2.17
100
AcDbArc
 50
65.525867297194
 51
145.735514047754
  0
ARC
  5
166
100
AcDbEntity
  8
1
  6
CONTINUOUS
 62
           7
100
AcDbCircle
 10
51.928824389191
 20
-1.230403341982
 40
2.17
100
AcDbArc
 50
49.873697297195
 51
130.083344047753
  0
ARC
  5
165
100
AcDbEntity
  8
1
  6
CONTINUOUS
 62
           7
100
AcDbCircle
 10
52.263907953618
 20
3.668317943402
 40
2.17
100
AcDbArc
 50
34.221527297201
 51
114.431174047756
  0
ARC
  5
164
100
AcDbEntity
  8
1
  6
CONTINUOUS
 62
           7
100
AcDbCircle
 10
53.908224580126
 20
8.294977003545
 40
2.17
100
AcDbArc
 50
18.5693572972
 51
98.779004047756
  0
ARC
  5
163
100
AcDbEntity
  8
1
  6
CONTINUOUS
 62
           7
100
AcDbCircle
 10
56.739822887371
 20
12.306435872016
 40
2.17
100
AcDbArc
 50
2.917187297199
 51
83.126834047751
  0
ARC
  5
162
100
AcDbEntity
  8
1
  6
CONTINUOUS
 62
           7
100
AcDbCircle
 10
60.548696286954
 20
15.405183143571
 40
2.17
100
AcDbArc
 50
-12.734982702802
 51
67.474664047755
  0
ARC
  5
161
100
AcDbEntity
  8
1
  6
CONTINUOUS
 62
           7
100
AcDbCircle
 10
69.916792801884
 20
0.0
 40
16.595
100
AcDbArc
 50
79.74151496286
 51
84.606135037139
  0
ARC
  5
160
100
AcDbEntity
  8
1
  6
CONTINUOUS
 62
           7
100
AcDbCircle
 10
69.916792801884
 20
0.0
 40
16.595
100
AcDbArc
 50
64.089344962859
 51
68.95396503714
  0
ARC
  5
15F
100
AcDbEntity
  8
1
  6
CONTINUOUS
 62
           7
100
AcDbCircle
 10
69.916792801884
 20
0.0
 40
16.595
100
AcDbArc
 50
48.43717496286
 51
53.30179503714
  0
ARC
  5
15E
100
AcDbEntity
  8
1
  6
CONTINUOUS
 62
           7
100
AcDbCircle
 10
69.916792801884
 20
0.0
 40
16.595
100
AcDbArc
 50
32.78500496286
 51
37.649625037139
  0
ARC
  5
15D
100
AcDbEntity
  8
1
  6
CONTINUOUS
 62
           7
100
AcDbCircle
 10
69.916792801884
 20
0.0
 40
16.595
100
AcDbArc
 50
17.132834962859
 51
21.997455037139
  0
ARC
  5
15C
100
AcDbEntity
  8
1
  6
CONTINUOUS
 62
           7
100
AcDbCircle
 10
69.916792801884
 20
0.0
 40
16.595
100
AcDbArc
 50
1.480664962859
 51
6.345285037139
  0
ARC
  5
15B
100
AcDbEntity
  8
1
  6
CONTINUOUS
 62
           7
100
AcDbCircle
 10
69.916792801884
 20
0.0
 40
16.595
100
AcDbArc
 50
-14.17150503714
 51
-9.30688496286
  0
ARC
  5
15A
100
AcDbEntity
  8
1
  6
CONTINUOUS
 62
           7
100
AcDbCircle
 10
69.916792801884
 20
0.0
 40
16.595
100
AcDbArc
 50
-29.82367503714
 51
-24.95905496286
  0
ARC
  5
159
100
AcDbEntity
  8
1
  6
CONTINUOUS
 62
           7
100
AcDbCircle
 10
69.916792801884
 20
0.0
 40
16.595
100
AcDbArc
 50
-45.47584503714
 51
-40.61122496286
  0
ARC
  5
158
100
AcDbEntity
  8
1
  6
CONTINUOUS
 62
           7
100
AcDbCircle
 10
69.916792801884
 20
0.0
 40
16.595
100
AcDbArc
 50
-61.12801503714
 51
-56.26339496286
  0
ARC
  5
157
100
AcDbEntity
  8
1
  6
CONTINUOUS
 62
           7
100
AcDbCircle
 10
69.916792801884
 20
0.0
 40
16.595
100
AcDbArc
 50
-76.78018503714
 51
-71.91556496286
  0
ARC
  5
156
100
AcDbEntity
  8
1
  6
CONTINUOUS
 62
           7
100
AcDbCircle
 10
69.916792801884
 20
0.0
 40
16.595
100
AcDbArc
 50
-92.43235503714
 51
-87.56773496286
  0
ARC
  5
155
100
AcDbEntity
  8
1
  6
CONTINUOUS
 62
           7
100
AcDbCircle
 10
69.916792801884
 20
0.0
 40
16.595
100
AcDbArc
 50
-108.08452503714
 51
-103.219904962859
  0
ARC
  5
154
100
AcDbEntity
  8
1
  6
CONTINUOUS
 62
           7
100
AcDbCircle
 10
69.916792801884
 20
0.0
 40
16.595
100
AcDbArc
 50
-123.73669503714
 51
-118.87207496286
  0
ARC
  5
153
100
AcDbEntity
  8
1
  6
CONTINUOUS
 62
           7
100
AcDbCircle
 10
69.916792801884
 20
0.0
 40
16.595
100
AcDbArc
 50
-139.38886503714
 51
-134.524244962859
  0
ARC
  5
152
100
AcDbEntity
  8
1
  6
CONTINUOUS
 62
           7
100
AcDbCircle
 10
69.916792801884
 20
0.0
 40
16.595
100
AcDbArc
 50
-155.04103503714
 51
-150.176414962859
  0
ARC
  5
151
100
AcDbEntity
  8
1
  6
CONTINUOUS
 62
           7
100
AcDbCircle
 10
69.916792801884
 20
0.0
 40
16.595
100
AcDbArc
 50
-170.69320503714
 51
-165.828584962859
  0
ARC
  5
150
100
AcDbEntity
  8
1
  6
CONTINUOUS
 62
           7
100
AcDbCircle
 10
69.916792801884
 20
0.0
 40
16.595
100
AcDbArc
 50
173.65462496286
 51
178.51924503714
  0
ARC
  5
14F
100
AcDbEntity
  8
1
  6
CONTINUOUS
 62
           7
100
AcDbCircle
 10
69.916792801884
 20
0.0
 40
16.595
100
AcDbArc
 50
158.00245496286
 51
162.86707503714
  0
ARC
  5
14E
100
AcDbEntity
  8
1
  6
CONTINUOUS
 62
           7
100
AcDbCircle
 10
69.916792801884
 20
0.0
 40
16.595
100
AcDbArc
 50
142.350284962859
 51
147.21490503714
  0
ARC
  5
14D
100
AcDbEntity
  8
1
  6
CONTINUOUS
 62
           7
100
AcDbCircle
 10
69.916792801884
 20
0.0
 40
16.595
100
AcDbArc
 50
126.69811496286
 51
131.56273503714
  0
ARC
  5
14C
100
AcDbEntity
  8
1
  6
CONTINUOUS
 62
           7
100
AcDbCircle
 10
69.916792801884
 20
0.0
 40
16.595
100
AcDbArc
 50
111.04594496286
 51
115.91056503714
  0
ARC
  5
14B
100
AcDbEntity
  8
1
  6
CONTINUOUS
 62
           7
100
AcDbCircle
 10
69.916792801884
 20
0.0
 40
19.39
100
AcDbArc
 50
79.531129407489
 51
84.81652059251
  0
ARC
  5
14A
100
AcDbEntity
  8
1
  6
CONTINUOUS
 62
           7
100
AcDbCircle
 10
69.916792801884
 20
0.0
 40
19.39
100
AcDbArc
 50
63.878959407489
 51
69.16435059251
  0
ARC
  5
149
100
AcDbEntity
  8
1
  6
CONTINUOUS
 62
           7
100
AcDbCircle
 10
69.916792801884
 20
0.0
 40
19.39
100
AcDbArc
 50
48.226789407489
 51
53.51218059251
  0
ARC
  5
148
100
AcDbEntity
  8
1
  6
CONTINUOUS
 62
           7
100
AcDbCircle
 10
69.916792801884
 20
0.0
 40
19.39
100
AcDbArc
 50
32.574619407489
 51
37.86001059251
  0
ARC
  5
147
100
AcDbEntity
  8
1
  6
CONTINUOUS
 62
           7
100
AcDbCircle
 10
69.916792801884
 20
0.0
 40
19.39
100
AcDbArc
 50
16.922449407489
 51
22.20784059251
  0
ARC
  5
146
100
AcDbEntity
  8
1
  6
CONTINUOUS
 62
           7
100
AcDbCircle
 10
69.916792801884
 20
0.0
 40
19.39
100
AcDbArc
 50
1.270279407489
 51
6.55567059251
  0
ARC
  5
145
100
AcDbEntity
  8
1
  6
CONTINUOUS
 62
           7
100
AcDbCircle
 10
69.916792801884
 20
0.0
 40
19.39
100
AcDbArc
 50
-14.38189059251
 51
-9.09649940749
  0
ARC
  5
144
100
AcDbEntity
  8
1
  6
CONTINUOUS
 62
           7
100
AcDbCircle
 10
69.916792801884
 20
0.0
 40
19.39
100
AcDbArc
 50
-30.034060592511
 51
-24.748669407489
  0
ARC
  5
143
100
AcDbEntity
  8
1
  6
CONTINUOUS
 62
           7
100
AcDbCircle
 10
69.916792801884
 20
0.0
 40
19.39
100
AcDbArc
 50
-45.68623059251
 51
-40.40083940749
  0
ARC
  5
142
100
AcDbEntity
  8
1
  6
CONTINUOUS
 62
           7
100
AcDbCircle
 10
69.916792801884
 20
0.0
 40
19.39
100
AcDbArc
 50
-61.33840059251
 51
-56.053009407489
  0
ARC
  5
141
100
AcDbEntity
  8
1
  6
CONTINUOUS
 62
           7
100
AcDbCircle
 10
69.916792801884
 20
0.0
 40
19.39
100
AcDbArc
 50
-76.99057059251
 51
-71.705179407489
  0
ARC
  5
140
100
AcDbEntity
  8
1
  6
CONTINUOUS
 62
           7
100
AcDbCircle
 10
69.916792801884
 20
0.0
 40
19.39
100
AcDbArc
 50
-92.64274059251
 51
-87.357349407489
  0
ARC
  5
13F
100
AcDbEntity
  8
1
  6
CONTINUOUS
 62
           7
100
AcDbCircle
 10
69.916792801884
 20
0.0
 40
19.39
100
AcDbArc
 50
-108.29491059251
 51
-103.009519407489
  0
ARC
  5
13E
100
AcDbEntity
  8
1
  6
CONTINUOUS
 62
           7
100
AcDbCircle
 10
69.916792801884
 20
0.0
 40
19.39
100
AcDbArc
 50
-123.94708059251
 51
-118.661689407489
  0
ARC
  5
13D
100
AcDbEntity
  8
1
  6
CONTINUOUS
 62
           7
100
AcDbCircle
 10
69.916792801884
 20
0.0
 40
19.39
100
AcDbArc
 50
-139.59925059251
 51
-134.313859407489
  0
ARC
  5
13C
100
AcDbEntity
  8
1
  6
CONTINUOUS
 62
           7
100
AcDbCircle
 10
69.916792801884
 20
0.0
 40
19.39
100
AcDbArc
 50
-155.25142059251
 51
-149.966029407489
  0
ARC
  5
13B
100
AcDbEntity
  8
1
  6
CONTINUOUS
 62
           7
100
AcDbCircle
 10
69.916792801884
 20
0.0
 40
19.39
100
AcDbArc
 50
-170.90359059251
 51
-165.618199407489
  0
ARC
  5
13A
100
AcDbEntity
  8
1
  6
CONTINUOUS
 62
           7
100
AcDbCircle
 10
69.916792801884
 20
0.0
 40
19.39
100
AcDbArc
 50
173.444239407489
 51
178.72963059251
  0
ARC
  5
139
100
AcDbEntity
  8
1
  6
CONTINUOUS
 62
           7
100
AcDbCircle
 10
69.916792801884
 20
0.0
 40
19.39
100
AcDbArc
 50
157.79206940749
 51
163.077460592511
  0
ARC
  5
138
100
AcDbEntity
  8
1
  6
CONTINUOUS
 62
           7
100
AcDbCircle
 10
69.916792801884
 20
0.0
 40
19.39
100
AcDbArc
 50
142.139899407489
 51
147.425290592511
  0
ARC
  5
137
100
AcDbEntity
  8
1
  6
CONTINUOUS
 62
           7
100
AcDbCircle
 10
69.916792801884
 20
0.0
 40
19.39
100
AcDbArc
 50
126.48772940749
 51
131.77312059251
  0
ARC
  5
136
100
AcDbEntity
  8
1
  6
CONTINUOUS
 62
           7
100
AcDbCircle
 10
69.916792801884
 20
0.0
 40
19.39
100
AcDbArc
 50
110.835559407489
 51
116.120950592511
  0
ARC
  5
135
100
AcDbEntity
  8
1
  6
CONTINUOUS
 62
           7
100
AcDbCircle
 10
69.916792801884
 20
0.0
 40
16.595
100
AcDbArc
 50
95.39377496286
 51
100.258395037141
  0
ARC
  5
134
100
AcDbEntity
  8
1
  6
CONTINUOUS
 62
           7
100
AcDbCircle
 10
69.916792801884
 20
0.0
 40
19.39
100
AcDbArc
 50
95.183389407489
 51
100.468780592511
  0
ARC
  5
133
100
AcDbEntity
  8
1
  6
CONTINUOUS
 62
           7
100
AcDbCircle
 10
65.052358203628
 20
17.3613990231
 40
2.17
100
AcDbArc
 50
-28.3871527028
 51
51.822494047757
  0
ARC
  5
132
100
AcDbEntity
  8
1
  6
CONTINUOUS
 62
           7
100
AcDbCircle
 10
69.916792801884
 20
18.03
 40
2.17
100
AcDbArc
 50
143.829675952248
 51
-135.960677297204
  0
ARC
  5
131
100
AcDbEntity
  8
1
  6
CONTINUOUS
 62
           7
100
AcDbCircle
 10
69.916792801884
 20
18.03
 40
2.0
100
AcDbArc
 50
-65.486403393179
 51
62.565418999492
  0
ARC
  5
130
100
AcDbEntity
  8
1
  6
CONTINUOUS
 62
           7
100
AcDbCircle
 10
69.916792801884
 20
18.03
 40
2.0
100
AcDbArc
 50
117.434581000508
 51
-115.940342464004
  0
ARC
  5
12F
100
AcDbEntity
  8
1
  6
CONTINUOUS
 62
           7
100
AcDbCircle
 10
69.745768785202
 20
0.644965045155
 40
10.456433671253
100
AcDbArc
 50
89.062836182453
 51
-128.240129201878
  0
ARC
  5
12E
100
AcDbEntity
  8
1
  6
CONTINUOUS
 62
           7
100
AcDbCircle
 10
70.087816818565
 20
0.644965045155
 40
10.456433671253
100
AcDbArc
 50
-51.759870798121
 51
90.937163817546
  0
ARC
  5
12D
100
AcDbEntity
  8
1
  6
CONTINUOUS
 62
           7
100
AcDbCircle
 10
69.916792801884
 20
0.0
 40
12.25
100
AcDbArc
 50
-64.002556162439
 51
-115.997443837559
  0
ARC
  5
12C
100
AcDbEntity
  8
1
  6
CONTINUOUS
 62
           7
100
AcDbCircle
 10
69.916792801884
 20
0.0
 40
12.25
100
AcDbArc
 50
-98.449565549156
 51
-81.550434450843
  0
ARC
  5
12B
100
AcDbEntity
  8
1
  6
CONTINUOUS
 62
           7
100
AcDbCircle
 10
-8.78046961931
 20
-38.153
 40
16.980618311874
100
AcDbArc
 50
73.941126944005
 51
90.464757427823
  0
ARC
  5
12A
100
AcDbEntity
  8
1
  6
CONTINUOUS
 62
           7
100
AcDbCircle
 10
-8.849338408713
 20
38.143
 40
16.99013957889
100
AcDbArc
 50
-90.232246578094
 51
-73.708616094276
  0
LINE
  5
129
100
AcDbEntity
  8
1
  6
CONTINUOUS
 62
           7
100
AcDbLine
 10
-4.063207198116
 20
15.15
 11
2.016792801884
 21
15.15
  0
LINE
  5
128
100
AcDbEntity
  8
1
  6
CONTINUOUS
 62
           7
100
AcDbLine
 10
-4.363207198116
 20
15.45
 11
-4.063207198116
 21
15.15
  0
LINE
  5
127
100
AcDbEntity
  8
1
  6
CONTINUOUS
 62
           7
100
AcDbLine
 10
2.316792801884
 20
15.45
 11
2.316792801884
 21
16.041805698387
  0
LINE
  5
126
100
AcDbEntity
  8
1
  6
CONTINUOUS
 62
           7
100
AcDbLine
 10
2.316792801884
 20
15.45
 11
2.016792801884
 21
15.15
  0
LINE
  5
125
100
AcDbEntity
  8
1
  6
CONTINUOUS
 62
           7
100
AcDbLine
 10
-4.103207198116
 20
20.572324865405
 11
-4.103207198116
 21
19.918194301613
  0
LINE
  5
124
100
AcDbEntity
  8
1
  6
CONTINUOUS
 62
           7
100
AcDbLine
 10
1.856792801884
 20
19.718194301613
 11
2.056792801884
 21
19.918194301613
  0
LINE
  5
123
100
AcDbEntity
  8
1
  6
CONTINUOUS
 62
           7
100
AcDbLine
 10
2.056792801884
 20
20.572324865405
 11
2.056792801884
 21
19.918194301613
  0
LINE
  5
122
100
AcDbEntity
  8
1
  6
CONTINUOUS
 62
           7
100
AcDbLine
 10
-3.903207198116
 20
19.718194301613
 11
-4.103207198116
 21
19.918194301613
  0
LINE
  5
121
100
AcDbEntity
  8
1
  6
CONTINUOUS
 62
           7
100
AcDbLine
 10
-3.603207198116
 20
20.861
 11
-4.103207198116
 21
20.572324865405
  0
LINE
  5
120
100
AcDbEntity
  8
1
  6
CONTINUOUS
 62
           7
100
AcDbLine
 10
1.556792801884
 20
20.861
 11
2.056792801884
 21
20.572324865405
  0
LINE
  5
11F
100
AcDbEntity
  8
1
  6
CONTINUOUS
 62
           7
100
AcDbLine
 10
-1.894986986825
 20
19.718194301613
 11
-3.903207198116
 21
19.718194301613
  0
LINE
  5
11E
100
AcDbEntity
  8
1
  6
CONTINUOUS
 62
           7
100
AcDbLine
 10
-0.151427409408
 20
19.718194301613
 11
1.856792801884
 21
19.718194301613
  0
LINE
  5
11D
100
AcDbEntity
  8
1
  6
CONTINUOUS
 62
           7
100
AcDbLine
 10
-1.894986986824
 20
16.341805698387
 11
-4.063207198116
 21
16.341805698387
  0
LINE
  5
11C
100
AcDbEntity
  8
1
  6
CONTINUOUS
 62
           7
100
AcDbLine
 10
-0.151427409408
 20
16.341805698387
 11
2.016792801884
 21
16.341805698387
  0
LINE
  5
11B
100
AcDbEntity
  8
1
  6
CONTINUOUS
 62
           7
100
AcDbLine
 10
-4.363207198116
 20
16.041805698387
 11
-4.363207198116
 21
15.45
  0
LINE
  5
11A
100
AcDbEntity
  8
1
  6
CONTINUOUS
 62
           7
100
AcDbLine
 10
2.316792801884
 20
15.45
 11
2.316792801884
 21
16.041805698387
  0
LINE
  5
119
100
AcDbEntity
  8
1
  6
CONTINUOUS
 62
           7
100
AcDbLine
 10
-4.363207198116
 20
16.041805698387
 11
-4.063207198116
 21
16.341805698387
  0
LINE
  5
118
100
AcDbEntity
  8
1
  6
CONTINUOUS
 62
           7
100
AcDbLine
 10
2.316792801884
 20
16.041805698387
 11
2.016792801884
 21
16.341805698387
  0
LINE
  5
117
100
AcDbEntity
  8
1
  6
CONTINUOUS
 62
           7
100
AcDbLine
 10
-3.903207198116
 20
17.984538892756
 11
-4.049789998214
 21
16.790717788379
  0
LINE
  5
116
100
AcDbEntity
  8
1
  6
CONTINUOUS
 62
           7
100
AcDbLine
 10
-3.903207198116
 20
17.984538892756
 11
-3.903207198116
 21
19.22
  0
LINE
  5
115
100
AcDbEntity
  8
1
  6
CONTINUOUS
 62
           7
100
AcDbLine
 10
-3.023207198116
 20
19.39
 11
-3.733207198116
 21
19.39
  0
LINE
  5
114
100
AcDbEntity
  8
1
  6
CONTINUOUS
 62
           7
100
AcDbLine
 10
-3.023207198116
 20
19.39
 11
-3.023207198116
 21
16.6
  0
LINE
  5
113
100
AcDbEntity
  8
1
  6
CONTINUOUS
 62
           7
100
AcDbLine
 10
-3.881057152435
 20
16.6
 11
-3.023207198116
 21
16.6
  0
LINE
  5
112
100
AcDbEntity
  8
1
  6
CONTINUOUS
 62
           7
100
AcDbLine
 10
-3.023207198116
 20
-16.6
 11
-3.881057152435
 21
-16.6
  0
LINE
  5
111
100
AcDbEntity
  8
1
  6
CONTINUOUS
 62
           7
100
AcDbLine
 10
3.416792801884
 20
-20.861
 11
-18.633207198116
 21
-20.861
  0
LINE
  5
110
100
AcDbEntity
  8
1
  6
CONTINUOUS
 62
           7
100
AcDbLine
 10
3.727259993132
 20
-20.877270896034
 11
3.416792801884
 21
-20.861
  0
LINE
  5
10F
100
AcDbEntity
  8
1
  6
CONTINUOUS
 62
           3
100
AcDbLine
 10
-76.246210514301
 20
27.369931150647
 11
-78.255298534217
 21
22.519563604963
  0
LINE
  5
10E
100
AcDbEntity
  8
1
  6
CONTINUOUS
 62
           3
100
AcDbLine
 10
-66.635168805465
 20
20.948038392652
 11
-70.347479406694
 21
17.235727791422
  0
LINE
  5
10D
100
AcDbEntity
  8
1
  6
CONTINUOUS
 62
           3
100
AcDbLine
 10
-60.213276047469
 20
11.336996683816
 11
-65.063643593154
 21
9.327908663899
  0
LINE
  5
10C
100
AcDbEntity
  8
1
  6
CONTINUOUS
 62
           3
100
AcDbLine
 10
-60.213276047469
 20
-11.336996683816
 11
-65.063643593154
 21
-9.327908663899
  0
LINE
  5
10B
100
AcDbEntity
  8
1
  6
CONTINUOUS
 62
           3
100
AcDbLine
 10
-66.635168805465
 20
-20.948038392651
 11
-70.347479406694
 21
-17.235727791422
  0
LINE
  5
10A
100
AcDbEntity
  8
1
  6
CONTINUOUS
 62
           3
100
AcDbLine
 10
-81.876815279145
 20
-28.687969451794
 11
-82.754721728217
 21
-24.27443568998
  0
LINE
  5
109
100
AcDbEntity
  8
1
  6
CONTINUOUS
 62
           3
100
AcDbLine
 10
-76.246210514301
 20
-27.369931150647
 11
-78.255298534217
 21
-22.519563604963
  0
LINE
  5
108
100
AcDbEntity
  8
1
  6
CONTINUOUS
 62
           3
100
AcDbLine
 10
-98.920203881932
 20
-27.369931150647
 11
-96.911115862016
 21
-22.519563604963
  0
LINE
  5
107
100
AcDbEntity
  8
1
  6
CONTINUOUS
 62
           3
100
AcDbLine
 10
-108.531245590768
 20
-20.948038392651
 11
-104.818934989539
 21
-17.235727791422
  0
LINE
  5
106
100
AcDbEntity
  8
1
  6
CONTINUOUS
 62
           3
100
AcDbLine
 10
-114.953138348763
 20
-11.336996683816
 11
-110.102770803079
 21
-9.327908663899
  0
LINE
  5
105
100
AcDbEntity
  8
1
  6
CONTINUOUS
 62
           3
100
AcDbLine
 10
-114.953138348763
 20
11.336996683816
 11
-110.102770803079
 21
9.327908663899
  0
LINE
  5
104
100
AcDbEntity
  8
1
  6
CONTINUOUS
 62
           3
100
AcDbLine
 10
-108.531245590768
 20
20.948038392652
 11
-104.818934989539
 21
17.235727791422
  0
LINE
  5
103
100
AcDbEntity
  8
1
  6
CONTINUOUS
 62
           3
100
AcDbLine
 10
-98.920203881932
 20
27.369931150647
 11
-96.911115862015
 21
22.519563604963
  0
LINE
  5
102
100
AcDbEntity
  8
1
  6
CONTINUOUS
 62
           3
100
AcDbLine
 10
-93.289599117088
 20
28.687969451795
 11
-92.411692668016
 21
24.27443568998
  0
LINE
  5
101
100
AcDbEntity
  8
1
  6
CONTINUOUS
 62
           3
100
AcDbLine
 10
75.623184720855
 20
28.687969451795
 11
74.745278271783
 21
24.27443568998
  0
LINE
  5
100
100
AcDbEntity
  8
1
  6
CONTINUOUS
 62
           3
100
AcDbLine
 10
81.253789485699
 20
27.369931150647
 11
79.244701465783
 21
22.519563604963
  0
LINE
  5
FF
100
AcDbEntity
  8
1
  6
CONTINUOUS
 62
           3
100
AcDbLine
 10
90.864831194535
 20
20.948038392652
 11
87.152520593306
 21
17.235727791422
  0
LINE
  5
FE
100
AcDbEntity
  8
1
  6
CONTINUOUS
 62
           3
100
AcDbLine
 10
97.28672395253
 20
11.336996683816
 11
92.436356406846
 21
9.327908663899
  0
LINE
  5
FD
100
AcDbEntity
  8
1
  6
CONTINUOUS
 62
           3
100
AcDbLine
 10
97.28672395253
 20
-11.336996683816
 11
92.436356406846
 21
-9.327908663899
  0
LINE
  5
FC
100
AcDbEntity
  8
1
  6
CONTINUOUS
 62
           3
100
AcDbLine
 10
90.864831194535
 20
-20.948038392651
 11
87.152520593306
 21
-17.235727791422
  0
LINE
  5
FB
100
AcDbEntity
  8
1
  6
CONTINUOUS
 62
           3
100
AcDbLine
 10
81.253789485699
 20
-27.369931150647
 11
79.244701465783
 21
-22.519563604963
  0
LINE
  5
FA
100
AcDbEntity
  8
1
  6
CONTINUOUS
 62
           3
100
AcDbLine
 10
64.210400882912
 20
-28.687969451795
 11
65.088307331984
 21
-24.27443568998
  0
LINE
  5
F9
100
AcDbEntity
  8
1
  6
CONTINUOUS
 62
           3
100
AcDbLine
 10
58.579796118068
 20
-27.369931150647
 11
60.588884137985
 21
-22.519563604963
  0
LINE
  5
F8
100
AcDbEntity
  8
1
  6
CONTINUOUS
 62
           3
100
AcDbLine
 10
48.968754409232
 20
-20.948038392651
 11
52.681065010462
 21
-17.235727791422
  0
LINE
  5
F7
100
AcDbEntity
  8
1
  6
CONTINUOUS
 62
           3
100
AcDbLine
 10
42.546861651237
 20
-11.336996683816
 11
47.397229196921
 21
-9.327908663899
  0
LINE
  5
F6
100
AcDbEntity
  8
1
  6
CONTINUOUS
 62
           3
100
AcDbLine
 10
42.546861651237
 20
11.336996683816
 11
47.397229196921
 21
9.327908663899
  0
LINE
  5
F5
100
AcDbEntity
  8
1
  6
CONTINUOUS
 62
           3
100
AcDbLine
 10
48.968754409232
 20
20.948038392652
 11
52.681065010462
 21
17.235727791422
  0
LINE
  5
F4
100
AcDbEntity
  8
1
  6
CONTINUOUS
 62
           3
100
AcDbLine
 10
58.579796118068
 20
27.369931150647
 11
60.588884137985
 21
22.519563604963
  0
LINE
  5
F3
100
AcDbEntity
  8
1
  6
CONTINUOUS
 62
           7
100
AcDbLine
 10
-3.023207198116
 20
-16.6
 11
-3.023207198116
 21
-19.39
  0
LINE
  5
F2
100
AcDbEntity
  8
1
  6
CONTINUOUS
 62
           7
100
AcDbLine
 10
-3.733207198116
 20
-19.39
 11
-3.023207198116
 21
-19.39
  0
LINE
  5
F1
100
AcDbEntity
  8
1
  6
CONTINUOUS
 62
           7
100
AcDbLine
 10
-3.903207198116
 20
-19.22
 11
-3.903207198116
 21
-17.984538892756
  0
LINE
  5
F0
100
AcDbEntity
  8
1
  6
CONTINUOUS
 62
           7
100
AcDbLine
 10
-4.049789998214
 20
-16.790717788379
 11
-3.903207198116
 21
-17.984538892756
  0
LINE
  5
EF
100
AcDbEntity
  8
1
  6
CONTINUOUS
 62
           7
100
AcDbLine
 10
2.016792801884
 20
-16.341805698387
 11
2.316792801884
 21
-16.041805698387
  0
LINE
  5
EE
100
AcDbEntity
  8
1
  6
CONTINUOUS
 62
           7
100
AcDbLine
 10
2.016792801884
 20
-15.15
 11
2.316792801884
 21
-15.45
  0
LINE
  5
ED
100
AcDbEntity
  8
1
  6
CONTINUOUS
 62
           7
100
AcDbLine
 10
-4.063207198116
 20
-15.15
 11
-4.363207198116
 21
-15.45
  0
LINE
  5
EC
100
AcDbEntity
  8
1
  6
CONTINUOUS
 62
           7
100
AcDbLine
 10
-4.063207198116
 20
-16.341805698387
 11
-4.363207198116
 21
-16.041805698387
  0
LINE
  5
EB
100
AcDbEntity
  8
1
  6
CONTINUOUS
 62
           7
100
AcDbLine
 10
2.316792801884
 20
-16.041805698387
 11
2.316792801884
 21
-15.45
  0
LINE
  5
EA
100
AcDbEntity
  8
1
  6
CONTINUOUS
 62
           7
100
AcDbLine
 10
-4.363207198116
 20
-15.45
 11
-4.363207198116
 21
-16.041805698387
  0
LINE
  5
E9
100
AcDbEntity
  8
1
  6
CONTINUOUS
 62
           7
100
AcDbLine
 10
2.016792801884
 20
-15.15
 11
-4.063207198116
 21
-15.15
  0
LINE
  5
E8
100
AcDbEntity
  8
1
  6
CONTINUOUS
 62
           7
100
AcDbLine
 10
2.016792801884
 20
-16.341805698387
 11
-0.151427409408
 21
-16.341805698387
  0
LINE
  5
E7
100
AcDbEntity
  8
1
  6
CONTINUOUS
 62
           7
100
AcDbLine
 10
-4.063207198116
 20
-16.341805698387
 11
-1.894986986824
 21
-16.341805698387
  0
LINE
  5
E6
100
AcDbEntity
  8
1
  6
CONTINUOUS
 62
           7
100
AcDbLine
 10
1.856792801884
 20
-19.718194301613
 11
-0.151427409408
 21
-19.718194301613
  0
LINE
  5
E5
100
AcDbEntity
  8
1
  6
CONTINUOUS
 62
           7
100
AcDbLine
 10
-3.903207198116
 20
-19.718194301613
 11
-1.894986986825
 21
-19.718194301613
  0
LINE
  5
E4
100
AcDbEntity
  8
1
  6
CONTINUOUS
 62
           7
100
AcDbLine
 10
2.056792801884
 20
-20.572324865405
 11
1.556792801884
 21
-20.861
  0
LINE
  5
E3
100
AcDbEntity
  8
1
  6
CONTINUOUS
 62
           7
100
AcDbLine
 10
-4.103207198116
 20
-20.572324865405
 11
-3.603207198116
 21
-20.861
  0
LINE
  5
E2
100
AcDbEntity
  8
1
  6
CONTINUOUS
 62
           7
100
AcDbLine
 10
-4.103207198116
 20
-19.918194301613
 11
-3.903207198116
 21
-19.718194301613
  0
LINE
  5
E1
100
AcDbEntity
  8
1
  6
CONTINUOUS
 62
           7
100
AcDbLine
 10
2.056792801884
 20
-19.918194301613
 11
2.056792801884
 21
-20.572324865405
  0
LINE
  5
E0
100
AcDbEntity
  8
1
  6
CONTINUOUS
 62
           7
100
AcDbLine
 10
2.056792801884
 20
-19.918194301613
 11
1.856792801884
 21
-19.718194301613
  0
LINE
  5
DF
100
AcDbEntity
  8
1
  6
CONTINUOUS
 62
           7
100
AcDbLine
 10
-4.103207198116
 20
-19.918194301613
 11
-4.103207198116
 21
-20.572324865405
  0
LINE
  5
DE
100
AcDbEntity
  8
1
  6
CONTINUOUS
 62
           7
100
AcDbLine
 10
-116.043527048847
 20
-87.215215605149
 11
-116.043527048847
 21
-115.215215605149
  0
LINE
  5
DD
100
AcDbEntity
  8
1
  6
CONTINUOUS
 62
           7
100
AcDbLine
 10
-113.043527048847
 20
-118.215215605149
 11
-12.043527048847
 21
-118.215215605149
  0
LINE
  5
DC
100
AcDbEntity
  8
1
  6
CONTINUOUS
 62
           7
100
AcDbLine
 10
-9.043527048847
 20
-115.215215605149
 11
-9.043527048847
 21
-87.215215605149
  0
LINE
  5
DB
100
AcDbEntity
  8
1
  6
CONTINUOUS
 62
           7
100
AcDbLine
 10
-12.043527048847
 20
-84.215215605149
 11
-113.043527048847
 21
-84.215215605149
  0
LINE
  5
DA
100
AcDbEntity
  8
1
  6
CONTINUOUS
 62
           7
100
AcDbLine
 10
0.816792801883
 20
-12.75
 11
2.316792801884
 21
-12.75
  0
LINE
  5
D9
100
AcDbEntity
  8
1
  6
CONTINUOUS
 62
           7
100
AcDbLine
 10
0.816792801883
 20
-9.0
 11
0.816792801883
 21
-12.75
  0
LINE
  5
D8
100
AcDbEntity
  8
1
  6
CONTINUOUS
 62
           7
100
AcDbLine
 10
0.816792801883
 20
12.25
 11
2.016792801884
 21
12.25
  0
LINE
  5
D7
100
AcDbEntity
  8
1
  6
CONTINUOUS
 62
           7
100
AcDbLine
 10
0.816792801883
 20
12.75
 11
2.316792801884
 21
12.75
  0
LINE
  5
D6
100
AcDbEntity
  8
1
  6
CONTINUOUS
 62
           7
100
AcDbLine
 10
0.816792801883
 20
12.75
 11
0.816792801883
 21
9.0
  0
LINE
  5
D5
100
AcDbEntity
  8
1
  6
CONTINUOUS
 62
           3
100
AcDbLine
 10
-94.083207198116
 20
-11.258330249198
 11
-91.833207198116
 21
-7.361215932168
  0
LINE
  5
D4
100
AcDbEntity
  8
1
  6
CONTINUOUS
 62
           3
100
AcDbLine
 10
-81.083207198116
 20
11.258330249198
 11
-83.333207198116
 21
7.361215932168
  0
LINE
  5
D3
100
AcDbEntity
  8
1
  6
CONTINUOUS
 62
           3
100
AcDbLine
 10
-99.62096031072
 20
6.95
 11
-91.999936757417
 21
2.55
  0
LINE
  5
D2
100
AcDbEntity
  8
1
  6
CONTINUOUS
 62
           3
100
AcDbLine
 10
-99.62096031072
 20
-6.95
 11
-91.999936757417
 21
-2.55
  0
LINE
  5
D1
100
AcDbEntity
  8
1
  6
CONTINUOUS
 62
           3
100
AcDbLine
 10
-75.545454085513
 20
-6.95
 11
-83.166477638816
 21
-2.55
  0
LINE
  5
D0
100
AcDbEntity
  8
1
  6
CONTINUOUS
 62
           3
100
AcDbLine
 10
-75.545454085513
 20
6.95
 11
-83.166477638816
 21
2.55
  0
LINE
  5
CF
100
AcDbEntity
  8
1
  6
CONTINUOUS
 62
           7
100
AcDbLine
 10
64.416792801884
 20
-10.3
 11
64.416792801884
 21
-9.924035201705
  0
LINE
  5
CE
100
AcDbEntity
  8
1
  6
CONTINUOUS
 62
           7
100
AcDbLine
 10
75.416792801884
 20
-10.3
 11
75.416792801884
 21
-9.924035201705
  0
LINE
  5
CD
100
AcDbEntity
  8
1
  6
CONTINUOUS
 62
           7
100
AcDbLine
 10
68.116792801884
 20
-12.3
 11
66.416792801884
 21
-12.3
  0
LINE
  5
CC
100
AcDbEntity
  8
1
  6
CONTINUOUS
 62
           7
100
AcDbLine
 10
71.716792801884
 20
-12.3
 11
73.416792801884
 21
-12.3
  0
LINE
  5
CB
100
AcDbEntity
  8
1
  6
CONTINUOUS
 62
           7
100
AcDbLine
 10
68.116792801884
 20
-12.3
 11
68.116792801884
 21
-8.818163074019
  0
LINE
  5
CA
100
AcDbEntity
  8
1
  6
CONTINUOUS
 62
           7
100
AcDbLine
 10
71.716792801884
 20
-12.3
 11
71.716792801884
 21
-8.818163074019
  0
LINE
  5
C9
100
AcDbEntity
  8
1
  6
DASHED
 62
           4
100
AcDbLine
 10
68.416792801884
 20
8.874119674649
 11
68.416792801884
 21
3.674512794663
  0
LINE
  5
C8
100
AcDbEntity
  8
1
  6
DASHED
 62
           4
100
AcDbLine
 10
71.016792801883
 20
8.932524839036
 11
71.016792801883
 21
3.845776904606
  0
LINE
  5
C7
100
AcDbEntity
  8
1
  6
DASHED
 62
           4
100
AcDbLine
 10
68.816792801883
 20
3.845776904606
 11
68.816792801883
 21
8.932524839036
  0
LINE
  5
C6
100
AcDbEntity
  8
1
  6
DASHED
 62
           4
100
AcDbLine
 10
71.416792801884
 20
3.674512794663
 11
71.416792801884
 21
8.874119674649
  0
LINE
  5
C5
100
AcDbEntity
  8
1
  6
DASHED
 62
           4
100
AcDbLine
 10
73.762569706489
 20
1.1
 11
78.84931764092
 21
1.1
  0
LINE
  5
C4
100
AcDbEntity
  8
1
  6
DASHED
 62
           4
100
AcDbLine
 10
78.84931764092
 20
-1.1
 11
73.762569706489
 21
-1.1
  0
LINE
  5
C3
100
AcDbEntity
  8
1
  6
DASHED
 62
           4
100
AcDbLine
 10
73.624892045431
 20
-1.5
 11
78.790912476533
 21
-1.5
  0
LINE
  5
C2
100
AcDbEntity
  8
1
  6
DASHED
 62
           4
100
AcDbLine
 10
78.790912476533
 20
1.5
 11
73.624892045431
 21
1.5
  0
LINE
  5
C1
100
AcDbEntity
  8
1
  6
CONTINUOUS
 62
           7
100
AcDbLine
 10
-22.583207198116
 20
-5.5
 11
-22.083207198116
 21
-5.0
  0
LINE
  5
C0
100
AcDbEntity
  8
1
  6
CONTINUOUS
 62
           7
100
AcDbLine
 10
-22.583207198116
 20
5.5
 11
-22.083207198116
 21
5.0
  0
LINE
  5
BF
100
AcDbEntity
  8
1
  6
CONTINUOUS
 62
           7
100
AcDbLine
 10
-19.583207198116
 20
5.5
 11
-20.083207198116
 21
5.0
  0
LINE
  5
BE
100
AcDbEntity
  8
1
  6
CONTINUOUS
 62
           7
100
AcDbLine
 10
-19.583207198116
 20
-5.5
 11
-20.083207198116
 21
-5.0
  0
LINE
  5
BD
100
AcDbEntity
  8
1
  6
CONTINUOUS
 62
           7
100
AcDbLine
 10
-22.083207198116
 20
13.6
 11
-22.583207198116
 21
13.1
  0
LINE
  5
BC
100
AcDbEntity
  8
1
  6
CONTINUOUS
 62
           7
100
AcDbLine
 10
-22.583207198116
 20
-13.1
 11
-22.083207198116
 21
-13.6
  0
LINE
  5
BB
100
AcDbEntity
  8
1
  6
CONTINUOUS
 62
           4
100
AcDbLine
 10
-21.583207198116
 20
22.5
 11
-21.583207198116
 21
19.503655600348
  0
LINE
  5
BA
100
AcDbEntity
  8
1
  6
CONTINUOUS
 62
           4
100
AcDbLine
 10
-21.583207198116
 20
-22.5
 11
-21.583207198116
 21
-19.108308859836
  0
LINE
  5
B9
100
AcDbEntity
  8
1
  6
CONTINUOUS
 62
           4
100
AcDbLine
 10
4.916792801884
 20
-22.5
 11
4.916792801884
 21
-18.722959913128
  0
LINE
  5
B8
100
AcDbEntity
  8
1
  6
CONTINUOUS
 62
           4
100
AcDbLine
 10
4.916792801884
 20
22.5
 11
4.916792801884
 21
18.424678549564
  0
LINE
  5
B7
100
AcDbEntity
  8
1
  6
CONTINUOUS
 62
           4
100
AcDbLine
 10
4.916792801884
 20
22.5
 11
3.916792801884
 21
22.5
  0
LINE
  5
B6
100
AcDbEntity
  8
1
  6
CONTINUOUS
 62
           4
100
AcDbLine
 10
4.916792801884
 20
-22.5
 11
3.916792801884
 21
-22.5
  0
LINE
  5
B5
100
AcDbEntity
  8
1
  6
CONTINUOUS
 62
           4
100
AcDbLine
 10
-21.583207198116
 20
-22.5
 11
-18.640211323799
 21
-22.5
  0
LINE
  5
B4
100
AcDbEntity
  8
1
  6
CONTINUOUS
 62
           4
100
AcDbLine
 10
-21.583207198116
 20
22.5
 11
-18.948490481166
 21
22.5
  0
LINE
  5
B3
100
AcDbEntity
  8
1
  6
CONTINUOUS
 62
           7
100
AcDbLine
 10
2.316792801884
 20
-12.526473262402
 11
2.316792801884
 21
-15.1475
  0
LINE
  5
B2
100
AcDbEntity
  8
1
  6
CONTINUOUS
 62
           7
100
AcDbLine
 10
2.316792801884
 20
12.569630815049
 11
2.316792801884
 21
15.1475
  0
LINE
  5
B1
100
AcDbEntity
  8
1
  6
CONTINUOUS
 62
           7
100
AcDbLine
 10
2.016792801884
 20
-9.25
 11
-4.483207198116
 21
-9.25
  0
LINE
  5
B0
100
AcDbEntity
  8
1
  6
CONTINUOUS
 62
           7
100
AcDbLine
 10
9.516792801884
 20
9.0
 11
9.916792801884
 21
8.6
  0
LINE
  5
AF
100
AcDbEntity
  8
1
  6
CONTINUOUS
 62
           7
100
AcDbLine
 10
9.916792801884
 20
-8.6
 11
9.516792801884
 21
-9.0
  0
LINE
  5
AE
100
AcDbEntity
  8
1
  6
CONTINUOUS
 62
           7
100
AcDbLine
 10
-10.283207198117
 20
-4.0
 11
-10.783207198117
 21
-4.5
  0
LINE
  5
AD
100
AcDbEntity
  8
1
  6
CONTINUOUS
 62
           7
100
AcDbLine
 10
-10.783207198117
 20
4.5
 11
-10.283207198117
 21
4.0
  0
LINE
  5
AC
100
AcDbEntity
  8
1
  6
CONTINUOUS
 62
           7
100
AcDbLine
 10
9.416792801884
 20
4.0
 11
9.916792801884
 21
4.5
  0
LINE
  5
AB
100
AcDbEntity
  8
1
  6
CONTINUOUS
 62
           7
100
AcDbLine
 10
9.916792801884
 20
-4.5
 11
9.416792801884
 21
-4.0
  0
LINE
  5
AA
100
AcDbEntity
  8
1
  6
CONTINUOUS
 62
           7
100
AcDbLine
 10
9.416792801884
 20
-4.0
 11
-10.283207198117
 21
-4.0
  0
LINE
  5
A9
100
AcDbEntity
  8
1
  6
CONTINUOUS
 62
           7
100
AcDbLine
 10
-10.783207198117
 20
15.0
 11
-7.983207198116
 21
15.0
  0
LINE
  5
A8
100
AcDbEntity
  8
1
  6
CONTINUOUS
 62
           7
100
AcDbLine
 10
-10.783207198117
 20
-14.790199457749
 11
-10.783207198117
 21
15.0
  0
LINE
  5
A7
100
AcDbEntity
  8
1
  6
CONTINUOUS
 62
           7
100
AcDbLine
 10
-4.683207198116
 20
-10.0
 11
-4.483207198116
 21
-10.0
  0
LINE
  5
A6
100
AcDbEntity
  8
1
  6
CONTINUOUS
 62
           7
100
AcDbLine
 10
-4.683207198116
 20
-9.25
 11
-7.883207198116
 21
-9.25
  0
LINE
  5
A5
100
AcDbEntity
  8
1
  6
CONTINUOUS
 62
           7
100
AcDbLine
 10
-4.683207198116
 20
-10.0
 11
-4.683207198116
 21
-9.0
  0
LINE
  5
A4
100
AcDbEntity
  8
1
  6
CONTINUOUS
 62
           7
100
AcDbLine
 10
-7.883207198116
 20
-10.0
 11
-7.883207198116
 21
-9.0
  0
LINE
  5
A3
100
AcDbEntity
  8
1
  6
CONTINUOUS
 62
           7
100
AcDbLine
 10
-7.883207198116
 20
9.25
 11
-4.683207198117
 21
9.25
  0
LINE
  5
A2
100
AcDbEntity
  8
1
  6
CONTINUOUS
 62
           7
100
AcDbLine
 10
-7.883207198116
 20
10.0
 11
-7.883207198116
 21
9.0
  0
LINE
  5
A1
100
AcDbEntity
  8
1
  6
CONTINUOUS
 62
           7
100
AcDbLine
 10
-4.683207198117
 20
10.0
 11
-4.683207198117
 21
9.0
  0
LINE
  5
A0
100
AcDbEntity
  8
1
  6
CONTINUOUS
 62
           7
100
AcDbLine
 10
-7.883207198116
 20
10.0
 11
-8.083207198116
 21
10.0
  0
LINE
  5
9F
100
AcDbEntity
  8
1
  6
CONTINUOUS
 62
           7
100
AcDbLine
 10
-1.883207198116
 20
10.0
 11
-1.883207198116
 21
14.5
  0
LINE
  5
9E
100
AcDbEntity
  8
1
  6
CONTINUOUS
 62
           7
100
AcDbLine
 10
-4.683207198117
 20
10.0
 11
-1.883207198116
 21
10.0
  0
LINE
  5
9D
100
AcDbEntity
  8
1
  6
CONTINUOUS
 62
           7
100
AcDbLine
 10
-1.683207198117
 20
15.1475
 11
-1.683207198117
 21
9.25
  0
LINE
  5
9C
100
AcDbEntity
  8
1
  6
CONTINUOUS
 62
           7
100
AcDbLine
 10
2.016792801884
 20
-12.3
 11
3.216792801884
 21
-12.3
  0
LINE
  5
9B
100
AcDbEntity
  8
1
  6
CONTINUOUS
 62
           7
100
AcDbLine
 10
2.016792801884
 20
-12.25
 11
2.016792801884
 21
-12.3
  0
LINE
  5
9A
100
AcDbEntity
  8
1
  6
CONTINUOUS
 62
           7
100
AcDbLine
 10
1.866792801884
 20
-8.5
 11
1.866792801884
 21
-9.0
  0
LINE
  5
99
100
AcDbEntity
  8
1
  6
CONTINUOUS
 62
           7
100
AcDbLine
 10
3.216792801884
 20
-12.3
 11
3.216792801884
 21
-8.5
  0
LINE
  5
98
100
AcDbEntity
  8
1
  6
CONTINUOUS
 62
           7
100
AcDbLine
 10
-8.083207198116
 20
-9.25
 11
-10.783207198117
 21
-9.25
  0
LINE
  5
97
100
AcDbEntity
  8
1
  6
CONTINUOUS
 62
           7
100
AcDbLine
 10
-4.683207198117
 20
-18.5
 11
-6.683207198117
 21
-18.5
  0
LINE
  5
96
100
AcDbEntity
  8
1
  6
CONTINUOUS
 62
           7
100
AcDbLine
 10
-4.483207198116
 20
-14.5
 11
-4.683207198117
 21
-14.5
  0
LINE
  5
95
100
AcDbEntity
  8
1
  6
CONTINUOUS
 62
           7
100
AcDbLine
 10
-6.683207198117
 20
-14.5
 11
-6.683207198117
 21
-18.5
  0
LINE
  5
94
100
AcDbEntity
  8
1
  6
CONTINUOUS
 62
           7
100
AcDbLine
 10
-4.683207198117
 20
-14.5
 11
-4.683207198117
 21
-18.5
  0
LINE
  5
93
100
AcDbEntity
  8
1
  6
CONTINUOUS
 62
           7
100
AcDbLine
 10
-8.083207198116
 20
-9.0
 11
1.866792801884
 21
-9.0
  0
LINE
  5
92
100
AcDbEntity
  8
1
  6
CONTINUOUS
 62
           7
100
AcDbLine
 10
2.316792801884
 20
-15.1475
 11
-4.483207198116
 21
-15.1475
  0
LINE
  5
91
100
AcDbEntity
  8
1
  6
CONTINUOUS
 62
           7
100
AcDbLine
 10
3.216792801884
 20
-8.5
 11
1.866792801884
 21
-8.5
  0
LINE
  5
90
100
AcDbEntity
  8
1
  6
CONTINUOUS
 62
           7
100
AcDbLine
 10
2.016792801884
 20
-12.25
 11
0.816792801883
 21
-12.25
  0
LINE
  5
8F
100
AcDbEntity
  8
1
  6
CONTINUOUS
 62
           7
100
AcDbLine
 10
9.516792801884
 20
-9.0
 11
3.216792801884
 21
-9.0
  0
LINE
  5
8E
100
AcDbEntity
  8
1
  6
CONTINUOUS
 62
           7
100
AcDbLine
 10
2.016792801884
 20
-8.5
 11
2.016792801884
 21
-12.25
  0
LINE
  5
8D
100
AcDbEntity
  8
1
  6
CONTINUOUS
 62
           7
100
AcDbLine
 10
2.016792801884
 20
12.25
 11
2.016792801884
 21
11.1
  0
LINE
  5
8C
100
AcDbEntity
  8
1
  6
CONTINUOUS
 62
           7
100
AcDbLine
 10
2.016792801884
 20
9.25
 11
2.016792801884
 21
8.5
  0
LINE
  5
8B
100
AcDbEntity
  8
1
  6
CONTINUOUS
 62
           7
100
AcDbLine
 10
2.116792801884
 20
8.5
 11
3.216792801884
 21
8.5
  0
LINE
  5
8A
100
AcDbEntity
  8
1
  6
CONTINUOUS
 62
           7
100
AcDbLine
 10
2.016792801884
 20
11.1
 11
2.016792801884
 21
9.25
  0
LINE
  5
89
100
AcDbEntity
  8
1
  6
CONTINUOUS
 62
           7
100
AcDbLine
 10
3.216792801884
 20
11.1
 11
2.116792801884
 21
11.1
  0
LINE
  5
88
100
AcDbEntity
  8
1
  6
CONTINUOUS
 62
           7
100
AcDbLine
 10
-4.483207198117
 20
9.25
 11
2.016792801884
 21
9.25
  0
LINE
  5
87
100
AcDbEntity
  8
1
  6
CONTINUOUS
 62
           7
100
AcDbLine
 10
-4.483207198117
 20
15.1475
 11
2.316792801884
 21
15.1475
  0
LINE
  5
86
100
AcDbEntity
  8
1
  6
CONTINUOUS
 62
           7
100
AcDbLine
 10
-8.083207198116
 20
-14.790199457749
 11
-10.783207198117
 21
-14.790199457749
  0
LINE
  5
85
100
AcDbEntity
  8
1
  6
CONTINUOUS
 62
           7
100
AcDbLine
 10
-4.483207198117
 20
15.1475
 11
-4.483207198117
 21
9.0
  0
LINE
  5
84
100
AcDbEntity
  8
1
  6
CONTINUOUS
 62
           7
100
AcDbLine
 10
1.866792801884
 20
9.0
 11
-8.083207198116
 21
9.0
  0
LINE
  5
83
100
AcDbEntity
  8
1
  6
CONTINUOUS
 62
           7
100
AcDbLine
 10
-4.683207198117
 20
18.5
 11
-4.683207198117
 21
14.5
  0
LINE
  5
82
100
AcDbEntity
  8
1
  6
CONTINUOUS
 62
           7
100
AcDbLine
 10
-6.683207198117
 20
18.5
 11
-6.683207198116
 21
14.5
  0
LINE
  5
81
100
AcDbEntity
  8
1
  6
CONTINUOUS
 62
           7
100
AcDbLine
 10
-4.683207198117
 20
14.5
 11
-1.883207198116
 21
14.5
  0
LINE
  5
80
100
AcDbEntity
  8
1
  6
CONTINUOUS
 62
           7
100
AcDbLine
 10
-6.683207198117
 20
18.5
 11
-4.683207198117
 21
18.5
  0
LINE
  5
7F
100
AcDbEntity
  8
1
  6
CONTINUOUS
 62
           7
100
AcDbLine
 10
-8.083207198116
 20
14.5
 11
-6.683207198116
 21
14.5
  0
LINE
  5
7E
100
AcDbEntity
  8
1
  6
CONTINUOUS
 62
           7
100
AcDbLine
 10
-7.883207198116
 20
-10.0
 11
-10.723207198117
 21
-10.0
  0
LINE
  5
7D
100
AcDbEntity
  8
1
  6
CONTINUOUS
 62
           7
100
AcDbLine
 10
-10.723207198117
 20
-10.0
 11
-10.723207198117
 21
-14.5
  0
LINE
  5
7C
100
AcDbEntity
  8
1
  6
CONTINUOUS
 62
           7
100
AcDbLine
 10
-10.723207198117
 20
-14.5
 11
-6.683207198117
 21
-14.5
  0
LINE
  5
7B
100
AcDbEntity
  8
1
  6
CONTINUOUS
 62
           7
100
AcDbLine
 10
3.216792801884
 20
8.5
 11
3.216792801884
 21
11.1
  0
LINE
  5
7A
100
AcDbEntity
  8
1
  6
CONTINUOUS
 62
           7
100
AcDbLine
 10
1.866792801884
 20
8.5
 11
2.016792801884
 21
8.5
  0
LINE
  5
79
100
AcDbEntity
  8
1
  6
CONTINUOUS
 62
           7
100
AcDbLine
 10
1.866792801884
 20
9.0
 11
1.866792801884
 21
8.5
  0
LINE
  5
78
100
AcDbEntity
  8
1
  6
CONTINUOUS
 62
           7
100
AcDbLine
 10
-8.083207198116
 20
-9.0
 11
-8.083207198116
 21
-14.790199457749
  0
LINE
  5
77
100
AcDbEntity
  8
1
  6
CONTINUOUS
 62
           7
100
AcDbLine
 10
-4.483207198116
 20
-15.1475
 11
-4.483207198116
 21
-9.0
  0
LINE
  5
76
100
AcDbEntity
  8
1
  6
CONTINUOUS
 62
           7
100
AcDbLine
 10
-8.083207198116
 20
9.0
 11
-8.083207198116
 21
15.0
  0
LINE
  5
75
100
AcDbEntity
  8
1
  6
CONTINUOUS
 62
           3
100
AcDbLine
 10
5.416792801884
 20
9.0
 11
5.416792801884
 21
4.0
  0
LINE
  5
74
100
AcDbEntity
  8
1
  6
CONTINUOUS
 62
           3
100
AcDbLine
 10
8.416792801884
 20
9.0
 11
8.416792801884
 21
4.0
  0
LINE
  5
73
100
AcDbEntity
  8
1
  6
CONTINUOUS
 62
           3
100
AcDbLine
 10
6.916792801884
 20
10.0
 11
6.916792801884
 21
-2.5
  0
LINE
  5
72
100
AcDbEntity
  8
1
  6
CONTINUOUS
 62
           7
100
AcDbLine
 10
5.716792801884
 20
9.0
 11
5.716792801884
 21
4.0
  0
LINE
  5
71
100
AcDbEntity
  8
1
  6
CONTINUOUS
 62
           7
100
AcDbLine
 10
3.216792801884
 20
9.0
 11
9.516792801884
 21
9.0
  0
LINE
  5
70
100
AcDbEntity
  8
1
  6
CONTINUOUS
 62
           7
100
AcDbLine
 10
-10.283207198117
 20
4.0
 11
9.416792801884
 21
4.0
  0
LINE
  5
6F
100
AcDbEntity
  8
1
  6
CONTINUOUS
 62
           7
100
AcDbLine
 10
8.116792801884
 20
9.0
 11
8.116792801884
 21
4.0
  0
LINE
  5
6E
100
AcDbEntity
  8
1
  6
CONTINUOUS
 62
           7
100
AcDbLine
 10
-2.583207198116
 20
28.2
 11
3.916792801884
 21
28.2
  0
LINE
  5
6D
100
AcDbEntity
  8
1
  6
CONTINUOUS
 62
           7
100
AcDbLine
 10
-2.583207198116
 20
25.8
 11
3.916792801884
 21
25.8
  0
LINE
  5
6C
100
AcDbEntity
  8
1
  6
CONTINUOUS
 62
           3
100
AcDbLine
 10
-3.883207198116
 20
27.0
 11
5.216792801884
 21
27.0
  0
LINE
  5
6B
100
AcDbEntity
  8
1
  6
CONTINUOUS
 62
           3
100
AcDbLine
 10
-2.583207198116
 20
28.5
 11
3.916792801884
 21
28.5
  0
LINE
  5
6A
100
AcDbEntity
  8
1
  6
CONTINUOUS
 62
           3
100
AcDbLine
 10
-2.583207198116
 20
25.5
 11
3.916792801884
 21
25.5
  0
LINE
  5
69
100
AcDbEntity
  8
1
  6
CONTINUOUS
 62
           7
100
AcDbLine
 10
-22.583207198116
 20
-9.55
 11
-19.583207198116
 21
-9.55
  0
LINE
  5
68
100
AcDbEntity
  8
1
  6
CONTINUOUS
 62
           7
100
AcDbLine
 10
-22.583207198116
 20
-11.95
 11
-19.583207198116
 21
-11.95
  0
LINE
  5
67
100
AcDbEntity
  8
1
  6
CONTINUOUS
 62
           3
100
AcDbLine
 10
-23.183207198116
 20
-10.75
 11
-18.983207198116
 21
-10.75
  0
LINE
  5
66
100
AcDbEntity
  8
1
  6
CONTINUOUS
 62
           3
100
AcDbLine
 10
-22.583207198116
 20
-9.25
 11
-19.583207198116
 21
-9.25
  0
LINE
  5
65
100
AcDbEntity
  8
1
  6
CONTINUOUS
 62
           3
100
AcDbLine
 10
-22.583207198116
 20
-12.25
 11
-19.583207198116
 21
-12.25
  0
LINE
  5
64
100
AcDbEntity
  8
1
  6
CONTINUOUS
 62
           7
100
AcDbLine
 10
-2.583207198116
 20
-25.25
 11
3.916792801884
 21
-25.25
  0
LINE
  5
63
100
AcDbEntity
  8
1
  6
CONTINUOUS
 62
           7
100
AcDbLine
 10
-2.583207198116
 20
-28.75
 11
3.916792801884
 21
-28.75
  0
LINE
  5
62
100
AcDbEntity
  8
1
  6
CONTINUOUS
 62
           3
100
AcDbLine
 10
-3.233207198116
 20
-27.0
 11
4.566792801884
 21
-27.0
  0
LINE
  5
61
100
AcDbEntity
  8
1
  6
CONTINUOUS
 62
           7
100
AcDbLine
 10
-22.583207198116
 20
12.25
 11
-19.583207198116
 21
12.25
  0
LINE
  5
60
100
AcDbEntity
  8
1
  6
CONTINUOUS
 62
           7
100
AcDbLine
 10
-22.583207198116
 20
6.75
 11
-19.583207198116
 21
6.75
  0
LINE
  5
5F
100
AcDbEntity
  8
1
  6
CONTINUOUS
 62
           3
100
AcDbLine
 10
-22.883207198116
 20
9.5
 11
-19.283207198116
 21
9.5
  0
LINE
  5
5E
100
AcDbEntity
  8
1
  6
CONTINUOUS
 62
           7
100
AcDbLine
 10
3.916792801884
 20
-29.6
 11
3.516792801884
 21
-30.0
  0
LINE
  5
5D
100
AcDbEntity
  8
1
  6
CONTINUOUS
 62
           7
100
AcDbLine
 10
-2.183207198116
 20
-30.0
 11
-2.583207198116
 21
-29.6
  0
LINE
  5
5C
100
AcDbEntity
  8
1
  6
CONTINUOUS
 62
           7
100
AcDbLine
 10
-5.083207198116
 20
-23.6
 11
-4.683207198116
 21
-24.0
  0
LINE
  5
5B
100
AcDbEntity
  8
1
  6
CONTINUOUS
 62
           7
100
AcDbLine
 10
-5.083207198116
 20
23.6
 11
-4.683207198116
 21
24.0
  0
LINE
  5
5A
100
AcDbEntity
  8
1
  6
CONTINUOUS
 62
           7
100
AcDbLine
 10
3.916792801884
 20
29.6
 11
3.516792801884
 21
30.0
  0
LINE
  5
59
100
AcDbEntity
  8
1
  6
CONTINUOUS
 62
           7
100
AcDbLine
 10
-2.183207198116
 20
30.0
 11
-2.583207198116
 21
29.6
  0
LINE
  5
58
100
AcDbEntity
  8
1
  6
CONTINUOUS
 62
           7
100
AcDbLine
 10
-5.083207198116
 20
23.6
 11
-5.083207198116
 21
21.572557656363
  0
LINE
  5
57
100
AcDbEntity
  8
1
  6
CONTINUOUS
 62
           7
100
AcDbLine
 10
-5.083207198116
 20
-23.6
 11
-5.083207198116
 21
-21.566984532517
  0
LINE
  5
56
100
AcDbEntity
  8
1
  6
CONTINUOUS
 62
           7
100
AcDbLine
 10
-18.555207198116
 20
-21.173
 11
-8.918207198116
 21
-21.173
  0
LINE
  5
55
100
AcDbEntity
  8
1
  6
CONTINUOUS
 62
           7
100
AcDbLine
 10
-19.875207198116
 20
-19.833
 11
-19.875207198116
 21
-13.9
  0
LINE
  5
54
100
AcDbEntity
  8
1
  6
CONTINUOUS
 62
           7
100
AcDbLine
 10
-19.875207198116
 20
19.833
 11
-19.875207198116
 21
13.9
  0
LINE
  5
53
100
AcDbEntity
  8
1
  6
CONTINUOUS
 62
           7
100
AcDbLine
 10
-18.555207198116
 20
21.153
 11
-8.918207198116
 21
21.153
  0
LINE
  5
52
100
AcDbEntity
  8
1
  6
CONTINUOUS
 62
           7
100
AcDbLine
 10
-22.083207198116
 20
13.6
 11
-20.175207198116
 21
13.6
  0
LINE
  5
51
100
AcDbEntity
  8
1
  6
CONTINUOUS
 62
           7
100
AcDbLine
 10
-22.083207198116
 20
-13.6
 11
-20.175207198116
 21
-13.6
  0
LINE
  5
50
100
AcDbEntity
  8
1
  6
CONTINUOUS
 62
           7
100
AcDbLine
 10
3.916792801884
 20
21.076996802985
 11
3.916792801884
 21
21.162157287525
  0
LINE
  5
4F
100
AcDbEntity
  8
1
  6
CONTINUOUS
 62
           7
100
AcDbLine
 10
3.416792801884
 20
20.861
 11
3.727259993132
 21
20.877270896034
  0
LINE
  5
4E
100
AcDbEntity
  8
1
  6
CONTINUOUS
 62
           7
100
AcDbLine
 10
3.858214158121
 20
-21.303578643763
 11
3.326792801884
 21
-21.835
  0
LINE
  5
4D
100
AcDbEntity
  8
1
  6
CONTINUOUS
 62
           7
100
AcDbLine
 10
-5.083207198116
 20
-21.835
 11
3.916792801884
 21
-21.835
  0
LINE
  5
4C
100
AcDbEntity
  8
1
  6
CONTINUOUS
 62
           7
100
AcDbLine
 10
3.858214158121
 20
21.303578643763
 11
3.326792801884
 21
21.835
  0
LINE
  5
4B
100
AcDbEntity
  8
1
  6
CONTINUOUS
 62
           7
100
AcDbLine
 10
-5.083207198116
 20
21.835
 11
3.916792801884
 21
21.835
  0
LINE
  5
4A
100
AcDbEntity
  8
1
  6
CONTINUOUS
 62
           7
100
AcDbLine
 10
-18.633207198116
 20
20.861
 11
3.416792801884
 21
20.861
  0
LINE
  5
49
100
AcDbEntity
  8
1
  6
CONTINUOUS
 62
           7
100
AcDbLine
 10
-19.583207198116
 20
19.861
 11
-19.583207198116
 21
-19.861
  0
LINE
  5
48
100
AcDbEntity
  8
1
  6
CONTINUOUS
 62
           7
100
AcDbLine
 10
9.916792801884
 20
8.6
 11
9.916792801884
 21
-8.6
  0
LINE
  5
47
100
AcDbEntity
  8
1
  6
CONTINUOUS
 62
           7
100
AcDbLine
 10
3.916792801884
 20
-29.6
 11
3.916792801884
 21
-19.274118311985
  0
LINE
  5
46
100
AcDbEntity
  8
1
  6
CONTINUOUS
 62
           7
100
AcDbLine
 10
3.916792801884
 20
29.6
 11
3.916792801884
 21
19.351301016786
  0
LINE
  5
45
100
AcDbEntity
  8
1
  6
CONTINUOUS
 62
           7
100
AcDbLine
 10
-22.083207198116
 20
5.0
 11
-20.083207198116
 21
5.0
  0
LINE
  5
44
100
AcDbEntity
  8
1
  6
CONTINUOUS
 62
           7
100
AcDbLine
 10
-22.083207198116
 20
-5.0
 11
-20.083207198116
 21
-5.0
  0
LINE
  5
43
100
AcDbEntity
  8
1
  6
CONTINUOUS
 62
           7
100
AcDbLine
 10
-2.183207198116
 20
-30.0
 11
3.516792801884
 21
-30.0
  0
LINE
  5
42
100
AcDbEntity
  8
1
  6
CONTINUOUS
 62
           7
100
AcDbLine
 10
-2.783207198116
 20
-24.0
 11
-4.683207198116
 21
-24.0
  0
LINE
  5
41
100
AcDbEntity
  8
1
  6
CONTINUOUS
 62
           7
100
AcDbLine
 10
-2.783207198116
 20
24.0
 11
-4.683207198116
 21
24.0
  0
LINE
  5
40
100
AcDbEntity
  8
1
  6
CONTINUOUS
 62
           7
100
AcDbLine
 10
-2.183207198116
 20
30.0
 11
3.516792801884
 21
30.0
  0
LINE
  5
3F
100
AcDbEntity
  8
1
  6
CONTINUOUS
 62
           7
100
AcDbLine
 10
-2.583207198116
 20
-29.6
 11
-2.583207198116
 21
-24.2
  0
LINE
  5
3E
100
AcDbEntity
  8
1
  6
CONTINUOUS
 62
           7
100
AcDbLine
 10
-2.583207198116
 20
29.6
 11
-2.583207198116
 21
24.2
  0
LINE
  5
3D
100
AcDbEntity
  8
1
  6
CONTINUOUS
 62
           7
100
AcDbLine
 10
-22.583207198116
 20
13.1
 11
-22.583207198116
 21
-13.1
  0
LINE
  5
3C
100
AcDbEntity
  8
1
  6
CONTINUOUS
 62
           3
100
AcDbLine
 10
-25.91654053145
 20
0.0
 11
13.874894687913
 21
0.0
  0
LINE
  5
3B
100
AcDbEntity
  8
1
  6
CONTINUOUS
 62
           3
100
AcDbLine
 10
-87.583207198116
 20
33.333333333333
 11
-87.583207198116
 21
-33.333333333333
  0
LINE
  5
3A
100
AcDbEntity
  8
1
  6
CONTINUOUS
 62
           3
100
AcDbLine
 10
69.916792801884
 20
33.333333333333
 11
69.916792801884
 21
-33.333333333333
  0
LINE
  5
39
100
AcDbEntity
  8
1
  6
CONTINUOUS
 62
           3
100
AcDbLine
 10
-120.91654053145
 20
0.0
 11
-54.249873864783
 21
0.0
  0
LINE
  5
38
100
AcDbEntity
  8
1
  6
CONTINUOUS
 62
           3
100
AcDbLine
 10
36.58345946855
 20
0.0
 11
103.250126135217
 21
0.0
  0
POINT
  5
37
100
AcDbEntity
  8
1
 62
           7
100
AcDbPoint
 10
-21.583207198116
 20
-22.5
  0
POINT
  5
36
100
AcDbEntity
  8
1
 62
           7
100
AcDbPoint
 10
-2.583207198116
 20
-29.6
  0
POINT
  5
35
100
AcDbEntity
  8
1
 62
           4
100
AcDbPoint
 10
4.916792801884
 20
-22.5
  0
POINT
  5
34
100
AcDbEntity
  8
1
 62
           7
100
AcDbPoint
 10
3.916792801884
 20
-29.6
  0
POINT
  5
33
100
AcDbEntity
  8
1
 62
           4
100
AcDbPoint
 10
4.916792801884
 20
-22.5
  0
POINT
  5
32
100
AcDbEntity
  8
1
 62
           7
100
AcDbPoint
 10
4.916792801884
 20
22.5
  0
POINT
  5
31
100
AcDbEntity
  8
1
 62
           7
100
AcDbPoint
 10
-21.583207198116
 20
-22.5
  0
POINT
  5
30
100
AcDbEntity
  8
1
 62
           7
100
AcDbPoint
 10
-21.583207198116
 20
22.5
  0
POINT
  5
2F
100
AcDbEntity
  8
1
 62
           7
100
AcDbPoint
 10
3.916792801884
 20
-29.6
  0
POINT
  5
2E
100
AcDbEntity
  8
1
 62
           7
100
AcDbPoint
 10
4.916792801884
 20
-22.5
  0
POINT
  5
2D
100
AcDbEntity
  8
1
 62
           7
100
AcDbPoint
 10
-2.583207198116
 20
29.6
  0
POINT
  5
2C
100
AcDbEntity
  8
1
 62
           7
100
AcDbPoint
 10
-21.583207198116
 20
22.5
  0
POINT
  5
2B
100
AcDbEntity
  8
1
 62
           7
100
AcDbPoint
 10
-21.583207198116
 20
22.5
  0
POINT
  5
2A
100
AcDbEntity
  8
1
 62
           7
100
AcDbPoint
 10
-21.583207198116
 20
-22.5
  0
POINT
  5
29
100
AcDbEntity
  8
1
 62
           7
100
AcDbPoint
 10
4.916792801884
 20
22.5
  0
POINT
  5
28
100
AcDbEntity
  8
1
 62
           7
100
AcDbPoint
 10
4.916792801884
 20
-22.5
  0
ENDSEC
  0
SECTION
  2
OBJECTS
  0
DICTIONARY
  5
19
100
AcDbDictionary
  3
ACAD_GROUP
350
1A
  3
ACAD_MLINESTYLE
350
1B
  0
DICTIONARY
  5
1A
102
{ACAD_REACTORS
330
19
102
}
100
AcDbDictionary
  0
DICTIONARY
  5
1B
102
{ACAD_REACTORS
330
19
102
}
100
AcDbDictionary
  3
STANDARD
350
1C
  0
MLINESTYLE
  5
1C
102
{ACAD_REACTORS
330
1B
102
}
100
AcDbMlineStyle
  2
STANDARD
 70
           0
  3

 62
           0
 51
90.0
 52
90.0
 71
           2
 49
0.5
 62
         256
  6
BYLAYER
 49
-0.5
 62
         256
  6
BYLAYER
  0
ENDSEC
  0
EOF
