  0
SECTION
  2
HEADER
  9
$ACADVER
  1
AC1014
  9
$ACADMAINTVER
 70
           0
  9
$DWGCODEPAGE
  3
DOS932
  9
$INSBASE
 10
0.0
 20
0.0
 30
0.0
  9
$EXTMIN
 10
1.000000000000E+20
 20
1.000000000000E+20
 30
1.000000000000E+20
  9
$EXTMAX
 10
-1.000000000000E+20
 20
-1.000000000000E+20
 30
-1.000000000000E+20
  9
$LIMMIN
 10
0.0
 20
0.0
  9
$LIMMAX
 10
0.0
 20
0.0
  9
$ORTHOMODE
 70
           0
  9
$REGENMODE
 70
           1
  9
$FILLMODE
 70
           1
  9
$QTEXTMODE
 70
           0
  9
$MIRRTEXT
 70
           1
  9
$DRAGMODE
 70
           2
  9
$LTSCALE
 40
1.0
  9
$OSMODE
 70
           0
  9
$ATTMODE
 70
           1
  9
$TEXTSIZE
 40
0.2
  9
$TRACEWID
 40
0.05
  9
$TEXTSTYLE
  7
STANDARD
  9
$CLAYER
  8
0
  9
$CELTYPE
  6
CONTINUOUS
  9
$CECOLOR
 62
         256
  9
$CELTSCALE
 40
1.0
  9
$DELOBJ
 70
           1
  9
$DISPSILH
 70
           0
  9
$DIMSCALE
 40
1.0
  9
$DIMASZ
 40
0.18
  9
$DIMEXO
 40
0.0625
  9
$DIMDLI
 40
0.38
  9
$DIMRND
 40
0.0
  9
$DIMDLE
 40
0.0
  9
$DIMEXE
 40
0.18
  9
$DIMTP
 40
0.0
  9
$DIMTM
 40
0.0
  9
$DIMTXT
 40
0.18
  9
$DIMCEN
 40
0.09
  9
$DIMTSZ
 40
0.0
  9
$DIMTOL
 70
           0
  9
$DIMLIM
 70
           0
  9
$DIMTIH
 70
           1
  9
$DIMTOH
 70
           1
  9
$DIMSE1
 70
           0
  9
$DIMSE2
 70
           0
  9
$DIMTAD
 70
           0
  9
$DIMZIN
 70
           0
  9
$DIMBLK
  1

  9
$DIMASO
 70
           1
  9
$DIMSHO
 70
           1
  9
$DIMPOST
  1

  9
$DIMAPOST
  1

  9
$DIMALT
 70
           0
  9
$DIMALTD
 70
           2
  9
$DIMALTF
 40
25.4
  9
$DIMLFAC
 40
1.0
  9
$DIMTOFL
 70
           0
  9
$DIMTVP
 40
0.0
  9
$DIMTIX
 70
           0
  9
$DIMSOXD
 70
           0
  9
$DIMSAH
 70
           0
  9
$DIMBLK1
  1

  9
$DIMBLK2
  1

  9
$DIMSTYLE
  2
STANDARD
  9
$DIMCLRD
 70
           0
  9
$DIMCLRE
 70
           0
  9
$DIMCLRT
 70
           0
  9
$DIMTFAC
 40
1.0
  9
$DIMGAP
 40
0.09
  9
$DIMJUST
 70
           0
  9
$DIMSD1
 70
           0
  9
$DIMSD2
 70
           0
  9
$DIMTOLJ
 70
           1
  9
$DIMTZIN
 70
           0
  9
$DIMALTZ
 70
           0
  9
$DIMALTTZ
 70
           0
  9
$DIMFIT
 70
           3
  9
$DIMUPT
 70
           0
  9
$DIMUNIT
 70
           2
  9
$DIMDEC
 70
           4
  9
$DIMTDEC
 70
           4
  9
$DIMALTU
 70
           2
  9
$DIMALTTD
 70
           2
  9
$DIMTXSTY
  7
STANDARD
  9
$DIMAUNIT
 70
           0
  9
$LUNITS
 70
           2
  9
$LUPREC
 70
           4
  9
$SKETCHINC
 40
0.1
  9
$FILLETRAD
 40
0.0
  9
$AUNITS
 70
           0
  9
$AUPREC
 70
           0
  9
$MENU
  1
acad
  9
$ELEVATION
 40
0.0
  9
$PELEVATION
 40
0.0
  9
$THICKNESS
 40
0.0
  9
$LIMCHECK
 70
           0
  9
$BLIPMODE
 70
           1
  9
$CHAMFERA
 40
0.0
  9
$CHAMFERB
 40
0.0
  9
$CHAMFERC
 40
0.0
  9
$CHAMFERD
 40
0.0
  9
$SKPOLY
 70
           0
  9
$TDCREATE
 40
0.000000000
  9
$TDUPDATE
 40
0.000000000
  9
$TDINDWG
 40
0.0000000000
  9
$TDUSRTIMER
 40
0.0000000000
  9
$USRTIMER
 70
           1
  9
$ANGBASE
 50
0.0
  9
$ANGDIR
 70
           0
  9
$PDMODE
 70
           0
  9
$PDSIZE
 40
0.0
  9
$PLINEWID
 40
0.0
  9
$COORDS
 70
           0
  9
$SPLFRAME
 70
           0
  9
$SPLINETYPE
 70
           6
  9
$SPLINESEGS
 70
           8
  9
$ATTDIA
 70
           0
  9
$ATTREQ
 70
           1
  9
$HANDLING
 70
           1
  9
$HANDSEED
  5
238
  9
$SURFTAB1
 70
           6
  9
$SURFTAB2
 70
           6
  9
$SURFTYPE
 70
           6
  9
$SURFU
 70
           6
  9
$SURFV
 70
           6
  9
$UCSNAME
  2

  9
$UCSORG
 10
0.0
 20
0.0
 30
0.0
  9
$UCSXDIR
 10
1.0
 20
0.0
 30
0.0
  9
$UCSYDIR
 10
0.0
 20
1.0
 30
0.0
  9
$PUCSNAME
  2

  9
$PUCSORG
 10
0.0
 20
0.0
 30
0.0
  9
$PUCSXDIR
 10
1.0
 20
0.0
 30
0.0
  9
$PUCSYDIR
 10
0.0
 20
1.0
 30
0.0
  9
$USERI1
 70
           0
  9
$USERI2
 70
           0
  9
$USERI3
 70
           0
  9
$USERI4
 70
           0
  9
$USERI5
 70
           0
  9
$USERR1
 40
0.0
  9
$USERR2
 40
0.0
  9
$USERR3
 40
0.0
  9
$USERR4
 40
0.0
  9
$USERR5
 40
0.0
  9
$WORLDVIEW
 70
           1
  9
$SHADEDGE
 70
           3
  9
$SHADEDIF
 70
          70
  9
$TILEMODE
 70
           1
  9
$MAXACTVP
 70
          16
  9
$PINSBASE
 10
0.0
 20
0.0
 30
0.0
  9
$PLIMCHECK
 70
           0
  9
$PEXTMIN
 10
1.000000000000E+20
 20
1.000000000000E+20
 30
1.000000000000E+20
  9
$PEXTMAX
 10
-1.000000000000E+20
 20
-1.000000000000E+20
 30
-1.000000000000E+20
  9
$PLIMMIN
 10
0.0
 20
0.0
  9
$PLIMMAX
 10
12.0
 20
9.0
  9
$UNITMODE
 70
           0
  9
$VISRETAIN
 70
           0
  9
$PLINEGEN
 70
           1
  9
$PSLTSCALE
 70
           0
  9
$TREEDEPTH
 70
        3020
  9
$PICKSTYLE
 70
           1
  9
$CMLSTYLE
  2
STANDARD
  9
$CMLJUST
 70
           0
  9
$CMLSCALE
 40
1.0
  9
$PROXYGRAPHICS
 70
           0
  9
$MEASUREMENT
 70
           0
  0
ENDSEC
  0
SECTION
  2
CLASSES
  0
CLASS
  1
LWPOLYLINE
  2
AcDbPolyline
  3
"AutoCAD"
 90
        0
280
           0
281
           1
  0
CLASS
  1
IMAGE
  2
AcDbRasterImage
  3
ISM
 90
      127
280
           0
281
           1
  0
CLASS
  1
OLE2FRAME
  2
AcDbOle2Frame
  3
""
 90
        0
280
           0
281
           1
  0
CLASS
  1
HATCH
  2
AcDbHatch
  3
"ACAD_SEDONA"
 90
        0
280
           0
281
           1
  0
CLASS
  1
DICTIONARYVAR
  2
AcDbDictionaryVar
  3
"AutoCAD"
 90
        0
280
           0
281
           0
  0
CLASS
  1
RASTERVARIABLES
  2
AcDbRasterVariables
  3
ISM
 90
        0
280
           0
281
           0
  0
CLASS
  1
IMAGEDEF
  2
AcDbRasterImageDef
  3
ISM
 90
        0
280
           0
281
           0
  0
CLASS
  1
IMAGEDEF_REACTOR
  2
AcDbRasterImageDefReactor
  3
ISM
 90
        1
280
           0
281
           0
  0
CLASS
  1
IDBUFFER
  2
AcDbIdBuffer
  3
"Acad"
 90
        0
280
           0
281
           0
  0
CLASS
  1
SPATIAL_FILTER
  2
AcDbSpatialFilter
  3
"Acad"
 90
        0
280
           0
281
           0
  0
CLASS
  1
XRECORD
  2
AcDbXrecord
  3
"<Built In>"
 90
        0
280
           0
281
           0
  0
CLASS
  1
SORTENTSTABLE
  2
AcDbSortentsTable
  3
"AutoCAD"
 90
        0
280
           0
281
           0
  0
CLASS
  1
LAYER_INDEX
  2
AcDbLayerIndex
  3
"Acad"
 90
        0
280
           0
281
           0
  0
CLASS
  1
SPATIAL_INDEX
  2
AcDbSpatialIndex
  3
"Acad"
 90
        0
280
           0
281
           0
  0
CLASS
  1
OBJECT_PTR
  2
CAseDLPNTableRecord
  3
"ASE-LPNTableRecord"
 90
        1
280
           0
281
           0
  0
CLASS
  1
LAYOUT
  2
AcDbLayout
  3
"AutoCAD 2000"
 90
        1
280
           0
281
           0
  0
CLASS
  1
PLOTSETTINGS
  2
AcDbPlotSettings
  3
"AutoCAD 2000"
 90
        1
280
           0
281
           0
  0
CLASS
  1
ACDBDICTIONARYWDFLT
  2
AcDbDictionaryWithDefault
  3
"AutoCAD 2000"
 90
        1
280
           0
281
           0
  0
CLASS
  1
ACDBPLACEHOLDER
  2
AcDbPlaceHolder
  3
"AutoCAD 2000"
 90
        1
280
           0
281
           0
  0
CLASS
  1
VBA_PROJECT
  2
AcDbVbaProject
  3
"acadvba"
 90
        1
280
           0
281
           0
  0
CLASS
  1
WIPEOUT
  2
AcDbWipeout
  3
WipeOut|AutoCAD Express Tool|expresstools@autodesk.com
 90
      127
280
           0
281
           1
  0
CLASS
  1
WIPEOUTVARIABLES
  2
AcDbWipeoutVariables
  3
WipeOut|AutoCAD Express Tool|expresstools@autodesk.com
 90
        0
280
           0
281
           0
  0
CLASS
  1
RTEXT
  2
RText
  3
RText|AutoCAD Express Tool|expresstools@autodesk.com
 90
        0
280
           0
281
           1
  0
CLASS
  1
ARCALIGNEDTEXT
  2
AcDbArcAlignedText
  3
ATEXT|AutoCAD Express Tool|expresstools@autodesk.com
 90
        0
280
           0
281
           1
  0
ENDSEC
  0
SECTION
  2
TABLES
  0
TABLE
  2
VPORT
  5
7
100
AcDbSymbolTable
 70
           1
  0
VPORT
  5
15
100
AcDbSymbolTableRecord
100
AcDbViewportTableRecord
  2
*ACTIVE
 70
           0
 10
0.0
 20
0.0
 11
1.0
 21
1.0
 12
6.591288
 22
4.579184
 13
0.0
 23
0.0
 14
1.0
 24
1.0
 15
0.0
 25
0.0
 16
0.0
 26
0.0
 36
1.0
 17
0.0
 27
0.0
 37
0.0
 40
9.158369
 41
0.688564
 42
50.0
 43
0.0
 44
0.0
 50
0.0
 51
0.0
 71
           0
 72
         100
 73
           1
 74
           1
 75
           0
 76
           0
 77
           0
 78
           0
  0
ENDTAB
  0
TABLE
  2
LTYPE
  5
4
100
AcDbSymbolTable
 70
          10
  0
LTYPE
  5
11
100
AcDbSymbolTableRecord
100
AcDbLinetypeTableRecord
  2
BYBLOCK
 70
          64
  3

 72
          65
 73
           0
 40
0.0
  0
LTYPE
  5
12
100
AcDbSymbolTableRecord
100
AcDbLinetypeTableRecord
  2
BYLAYER
 70
          64
  3

 72
          65
 73
           0
 40
0.0
  0
LTYPE
  5
13
100
AcDbSymbolTableRecord
100
AcDbLinetypeTableRecord
  2
CONTINUOUS
 70
          64
  3
Solid line
 72
          65
 73
           0
 40
0.0
  0
LTYPE
  5
1D
100
AcDbSymbolTableRecord
100
AcDbLinetypeTableRecord
  2
DASHED
 70
          64
  3
Dashed
 72
          65
 73
           2
 40
15.0
 49
12.0
 74
           0
 49
-3.0
 74
           0
  0
LTYPE
  5
1E
100
AcDbSymbolTableRecord
100
AcDbLinetypeTableRecord
  2
DOTTED
 70
          64
  3
Dotted
 72
          65
 73
           2
 40
3.5
 49
0.5
 74
           0
 49
-3.0
 74
           0
  0
LTYPE
  5
1F
100
AcDbSymbolTableRecord
100
AcDbLinetypeTableRecord
  2
DOT_CENTER
 70
          64
  3
Dot_Center
 72
          65
 73
           4
 40
2.0
 49
1.25
 74
           0
 49
-0.25
 74
           0
 49
0.25
 74
           0
 49
-0.25
 74
           0
  0
LTYPE
  5
20
100
AcDbSymbolTableRecord
100
AcDbLinetypeTableRecord
  2
LONG_DASHED
 70
          64
  3
Long_Dashed
 72
          65
 73
           2
 40
2.0
 49
1.5
 74
           0
 49
-0.5
 74
           0
  0
LTYPE
  5
21
100
AcDbSymbolTableRecord
100
AcDbLinetypeTableRecord
  2
DASH_CENTER
 70
          64
  3
Dash_Center
 72
          65
 73
           4
 40
36.0
 49
24.0
 74
           0
 49
-3.0
 74
           0
 49
6.0
 74
           0
 49
-3.0
 74
           0
  0
LTYPE
  5
22
100
AcDbSymbolTableRecord
100
AcDbLinetypeTableRecord
  2
PHANTOM
 70
          64
  3
Phantom
 72
          65
 73
           6
 40
2.5
 49
1.25
 74
           0
 49
-0.25
 74
           0
 49
0.25
 74
           0
 49
-0.25
 74
           0
 49
0.25
 74
           0
 49
-0.25
 74
           0
  0
LTYPE
  5
23
100
AcDbSymbolTableRecord
100
AcDbLinetypeTableRecord
  2
CENTER_DASH_DASH
 70
          64
  3
Center_Dash_Dash
 72
          65
 73
           6
 40
22.0
 49
12.0
 74
           0
 49
-3.0
 74
           0
 49
0.5
 74
           0
 49
-3.0
 74
           0
 49
0.5
 74
           0
 49
-3.0
 74
           0
  0
ENDTAB
  0
TABLE
  2
LAYER
  5
2
100
AcDbSymbolTable
 70
           2
  0
LAYER
  5
14
100
AcDbSymbolTableRecord
100
AcDbLayerTableRecord
  2
0
 70
           0
 62
           7
  6
CONTINUOUS
  0
LAYER
  5
24
100
AcDbSymbolTableRecord
100
AcDbLayerTableRecord
  2
1
 70
           0
 62
           7
  6
CONTINUOUS
  0
ENDTAB
  0
TABLE
  2
STYLE
  5
3
100
AcDbSymbolTable
 70
           3
  0
STYLE
  5
17
100
AcDbSymbolTableRecord
100
AcDbTextStyleTableRecord
  2
STANDARD
 70
           0
 40
0.0
 41
1.0
 50
0.0
 71
           0
 42
0.0
  3
txt
  4

  0
STYLE
  5
1FE
100
AcDbSymbolTableRecord
100
AcDbTextStyleTableRecord
  2
CONVERTER_1
 70
           0
 40
0.0
 41
0.729
 50
0.0
 71
           0
 42
0.0
  3
txt.shx
  4

  0
STYLE
  5
211
100
AcDbSymbolTableRecord
100
AcDbTextStyleTableRecord
  2
CONVERTER_2
 70
           0
 40
0.0
 41
0.9
 50
0.0
 71
           0
 42
0.0
  3
txt.shx
  4

  0
ENDTAB
  0
TABLE
  2
VIEW
  5
5
100
AcDbSymbolTable
 70
           0
  0
ENDTAB
  0
TABLE
  2
UCS
  5
6
100
AcDbSymbolTable
 70
           0
  0
ENDTAB
  0
TABLE
  2
APPID
  5
8
100
AcDbSymbolTable
 70
           1
  0
APPID
  5
16
100
AcDbSymbolTableRecord
100
AcDbRegAppTableRecord
  2
ACAD
 70
           0
  0
ENDTAB
  0
TABLE
  2
DIMSTYLE
  5
9
100
AcDbSymbolTable
 70
           5
  0
DIMSTYLE
105
18
100
AcDbSymbolTableRecord
100
AcDbDimStyleTableRecord
  2
STANDARD
 70
           0
  3

  4

  5

  6

  7

 40
1.0
 41
0.18
 42
0.0625
 43
0.38
 44
0.18
 45
0.0
 46
0.0
 47
0.0
 48
0.0
 71
           0
 72
           0
 73
           1
 74
           1
 75
           0
 76
           0
 77
           0
 78
           0
140
0.18
141
0.09
142
0.0
143
25.4
144
1.0
145
0.0
146
1.0
147
0.09
170
           0
171
           2
172
           0
173
           0
174
           0
175
           0
176
           0
177
           0
178
           0
270
           2
271
           4
272
           4
273
           2
274
           2
275
           0
280
           0
281
           0
282
           0
283
           1
284
           0
285
           0
286
           0
287
           0
288
           0
340
17
  0
DIMSTYLE
105
214
100
AcDbSymbolTableRecord
100
AcDbDimStyleTableRecord
  2
ME10_DIM_0
 70
           0
  3

  4

  5

  6

  7

 40
1.0
 41
3.5
 42
0.0
 43
0.38
 44
0.0
 45
0.0
 46
0.0
 47
0.0
 48
0.0
 71
           0
 72
           0
 73
           0
 74
           0
 75
           0
 76
           0
 77
           0
 78
          12
140
3.5
141
0.09
142
0.0
143
25.4
144
1.0
145
0.0
146
1.0
147
0.09
170
           0
171
           2
172
           0
173
           1
174
           0
175
           0
176
           2
177
           2
178
           2
270
           2
271
           4
272
           4
273
           2
274
           2
275
           0
280
           0
281
           0
282
           0
283
           1
284
           0
285
           0
286
           0
287
           3
288
           0
340
17
  0
DIMSTYLE
105
21F
100
AcDbSymbolTableRecord
100
AcDbDimStyleTableRecord
  2
ME10_DIM_1
 70
           0
  3

  4

  5

  6

  7

 40
1.0
 41
3.5
 42
0.0
 43
0.38
 44
0.0
 45
0.0
 46
0.0
 47
0.0
 48
0.0
 71
           0
 72
           0
 73
           0
 74
           0
 75
           0
 76
           0
 77
           0
 78
          12
140
3.5
141
0.09
142
0.0
143
25.4
144
1.0
145
0.0
146
1.0
147
0.09
170
           0
171
           2
172
           0
173
           1
174
           0
175
           0
176
           2
177
           2
178
           2
270
           2
271
           4
272
           4
273
           2
274
           2
275
           0
280
           0
281
           0
282
           0
283
           1
284
           0
285
           0
286
           0
287
           3
288
           0
340
17
  0
DIMSTYLE
105
22A
100
AcDbSymbolTableRecord
100
AcDbDimStyleTableRecord
  2
ME10_DIM_2
 70
           0
  3

  4

  5

  6

  7

 40
1.0
 41
3.5
 42
0.0
 43
0.38
 44
0.0
 45
0.0
 46
0.0
 47
0.0
 48
0.0
 71
           0
 72
           0
 73
           0
 74
           0
 75
           0
 76
           0
 77
           0
 78
          12
140
3.5
141
0.09
142
0.0
143
25.4
144
1.0
145
0.0
146
1.0
147
0.09
170
           0
171
           2
172
           0
173
           1
174
           0
175
           0
176
           2
177
           2
178
           2
270
           2
271
           4
272
           4
273
           2
274
           2
275
           0
280
           0
281
           0
282
           0
283
           1
284
           0
285
           0
286
           0
287
           3
288
           0
340
17
  0
DIMSTYLE
105
235
100
AcDbSymbolTableRecord
100
AcDbDimStyleTableRecord
  2
ME10_DIM_3
 70
           0
  3

  4

  5

  6

  7

 40
1.0
 41
3.5
 42
0.0
 43
0.38
 44
0.0
 45
0.0
 46
0.0
 47
0.0
 48
0.0
 71
           0
 72
           0
 73
           0
 74
           0
 75
           0
 76
           0
 77
           0
 78
          12
140
3.5
141
0.09
142
0.0
143
25.4
144
1.0
145
0.0
146
1.0
147
0.09
170
           0
171
           2
172
           0
173
           1
174
           0
175
           0
176
           2
177
           2
178
           2
270
           2
271
           4
272
           4
273
           2
274
           2
275
           0
280
           0
281
           0
282
           0
283
           1
284
           0
285
           0
286
           0
287
           3
288
           0
340
17
  0
ENDTAB
  0
TABLE
  2
BLOCK_RECORD
  5
1
100
AcDbSymbolTable
 70
           4
  0
BLOCK_RECORD
  5
A
100
AcDbSymbolTableRecord
100
AcDbBlockTableRecord
  2
*MODEL_SPACE
  0
BLOCK_RECORD
  5
B
100
AcDbSymbolTableRecord
100
AcDbBlockTableRecord
  2
*PAPER_SPACE
  0
BLOCK_RECORD
  5
20A
100
AcDbSymbolTableRecord
100
AcDbBlockTableRecord
  2
*D0
  0
BLOCK_RECORD
  5
216
100
AcDbSymbolTableRecord
100
AcDbBlockTableRecord
  2
*D1
  0
BLOCK_RECORD
  5
221
100
AcDbSymbolTableRecord
100
AcDbBlockTableRecord
  2
*D2
  0
BLOCK_RECORD
  5
22C
100
AcDbSymbolTableRecord
100
AcDbBlockTableRecord
  2
*D3
  0
ENDTAB
  0
ENDSEC
  0
SECTION
  2
BLOCKS
  0
BLOCK
  5
D
100
AcDbEntity
  8
0
100
AcDbBlockBegin
  2
*MODEL_SPACE
 70
           0
 10
0.0
 20
0.0
 30
0.0
  3
*MODEL_SPACE
  1

  0
ENDBLK
  5
E
100
AcDbEntity
  8
0
100
AcDbBlockEnd
  0
BLOCK
  5
F
100
AcDbEntity
 67
           1
  8
0
100
AcDbBlockBegin
  2
*PAPER_SPACE
 70
           0
 10
0.0
 20
0.0
 30
0.0
  3
*PAPER_SPACE
  1

  0
ENDBLK
  5
10
100
AcDbEntity
 67
           1
  8
0
100
AcDbBlockEnd
  0
BLOCK
  5
20B
100
AcDbEntity
  8
0
100
AcDbBlockBegin
  2
*D0
 70
           1
 10
0.0
 20
0.0
 30
0.0
  3
*D0
  1

  0
LINE
  5
20C
100
AcDbEntity
  8
0
  6
CONTINUOUS
 62
           2
100
AcDbLine
 10
-33.399999999964
 20
26.5
 11
-33.399999999964
 21
-26.5
  0
LINE
  5
20D
100
AcDbEntity
  8
0
  6
CONTINUOUS
 62
           2
100
AcDbLine
 10
-12.400000045035
 20
-26.5
 11
-33.399999999964
 21
-26.5
  0
LINE
  5
20E
100
AcDbEntity
  8
0
  6
CONTINUOUS
 62
           2
100
AcDbLine
 10
-12.400000045035
 20
26.5
 11
-33.399999999964
 21
26.5
  0
SOLID
  5
20F
100
AcDbEntity
  8
0
 62
           2
100
AcDbTrace
 10
-32.939216258408
 20
23.0
 11
-33.86078374152
 21
23.0
 12
-33.399999999964
 22
26.5
 13
-33.399999999964
 23
26.5
  0
SOLID
  5
210
100
AcDbEntity
  8
0
 62
           2
100
AcDbTrace
 10
-33.86078374152
 20
-23.0
 11
-32.939216258408
 21
-23.0
 12
-33.399999999964
 22
-26.5
 13
-33.399999999964
 23
-26.5
  0
MTEXT
  5
212
100
AcDbEntity
  8
0
 62
           2
100
AcDbMText
 10
-34.443749999964
 20
-11.997661034106
 30
0.0
 40
3.5
 41
0.0
 71
           7
 72
           1
  1
53 M.H.C 
  7
CONVERTER_2
 11
0.0
 21
1.0
 31
0.0
  0
ENDBLK
  5
213
100
AcDbEntity
  8
0
100
AcDbBlockEnd
  0
BLOCK
  5
217
100
AcDbEntity
  8
0
100
AcDbBlockBegin
  2
*D1
 70
           1
 10
0.0
 20
0.0
 30
0.0
  3
*D1
  1

  0
LINE
  5
218
100
AcDbEntity
  8
0
  6
CONTINUOUS
 62
           2
100
AcDbLine
 10
40.100000000036
 20
-26.5
 11
40.100000000036
 21
26.5
  0
LINE
  5
219
100
AcDbEntity
  8
0
  6
CONTINUOUS
 62
           2
100
AcDbLine
 10
17.099999999907
 20
26.5
 11
40.100000000036
 21
26.5
  0
LINE
  5
21A
100
AcDbEntity
  8
0
  6
CONTINUOUS
 62
           2
100
AcDbLine
 10
17.099999999907
 20
-26.5
 11
40.100000000036
 21
-26.5
  0
SOLID
  5
21B
100
AcDbEntity
  8
0
 62
           2
100
AcDbTrace
 10
39.63921625848
 20
-23.0
 11
40.560783741592
 21
-23.0
 12
40.100000000036
 22
-26.5
 13
40.100000000036
 23
-26.5
  0
SOLID
  5
21C
100
AcDbEntity
  8
0
 62
           2
100
AcDbTrace
 10
40.560783741592
 20
23.0
 11
39.63921625848
 21
23.0
 12
40.100000000036
 22
26.5
 13
40.100000000036
 23
26.5
  0
MTEXT
  5
21D
100
AcDbEntity
  8
0
 62
           2
100
AcDbMText
 10
39.056250000036
 20
-13.101785351032
 30
0.0
 40
3.5
 41
0.0
 71
           7
 72
           1
  1
53 M.H.C 
  7
CONVERTER_2
 11
0.0
 21
1.0
 31
0.0
  0
ENDBLK
  5
21E
100
AcDbEntity
  8
0
100
AcDbBlockEnd
  0
BLOCK
  5
222
100
AcDbEntity
  8
0
100
AcDbBlockBegin
  2
*D2
 70
           1
 10
0.0
 20
0.0
 30
0.0
  3
*D2
  1

  0
LINE
  5
223
100
AcDbEntity
  8
0
  6
CONTINUOUS
 62
           2
100
AcDbLine
 10
17.099999999907
 20
-54.999999473617
 11
15.600000000063
 21
-54.999999473617
  0
LINE
  5
224
100
AcDbEntity
  8
0
  6
CONTINUOUS
 62
           2
100
AcDbLine
 10
15.600000000063
 20
-34.599999480349
 11
15.600000000063
 21
-54.999999473617
  0
LINE
  5
225
100
AcDbEntity
  8
0
  6
CONTINUOUS
 62
           2
100
AcDbLine
 10
17.099999999907
 20
-26.5
 11
17.099999999907
 21
-54.999999473617
  0
SOLID
  5
226
100
AcDbEntity
  8
0
 62
           2
100
AcDbTrace
 10
20.599999999907
 20
-54.539215732061
 11
20.599999999907
 21
-55.460783215173
 12
17.099999999907
 22
-54.999999473617
 13
17.099999999907
 23
-54.999999473617
  0
SOLID
  5
227
100
AcDbEntity
  8
0
 62
           2
100
AcDbTrace
 10
12.100000000063
 20
-55.460783215173
 11
12.100000000063
 21
-54.539215732061
 12
15.600000000063
 22
-54.999999473617
 13
15.600000000063
 23
-54.999999473617
  0
TEXT
  5
228
100
AcDbEntity
  8
0
 62
           2
100
AcDbText
 10
19.420757447281
 20
-53.83062824659
 40
3.5
  1
1.5 M.H.C 
 41
0.9
  7
CONVERTER_2
100
AcDbText
  0
ENDBLK
  5
229
100
AcDbEntity
  8
0
100
AcDbBlockEnd
  0
BLOCK
  5
22D
100
AcDbEntity
  8
0
100
AcDbBlockBegin
  2
*D3
 70
           1
 10
0.0
 20
0.0
 30
0.0
  3
*D3
  1

  0
LINE
  5
22E
100
AcDbEntity
  8
0
  6
CONTINUOUS
 62
           2
100
AcDbLine
 10
-12.400000045035
 20
54.999999474983
 11
8.099999954965
 21
54.999999474983
  0
LINE
  5
22F
100
AcDbEntity
  8
0
  6
CONTINUOUS
 62
           2
100
AcDbLine
 10
8.099999954965
 20
34.59999948045
 11
8.099999954965
 21
54.999999474983
  0
LINE
  5
230
100
AcDbEntity
  8
0
  6
CONTINUOUS
 62
           2
100
AcDbLine
 10
-12.400000045035
 20
26.5
 11
-12.400000045035
 21
54.999999474983
  0
SOLID
  5
231
100
AcDbEntity
  8
0
 62
           2
100
AcDbTrace
 10
-8.900000045035
 20
55.460783216539
 11
-8.900000045035
 21
54.539215733427
 12
-12.400000045035
 22
54.999999474983
 13
-12.400000045035
 23
54.999999474983
  0
SOLID
  5
232
100
AcDbEntity
  8
0
 62
           2
100
AcDbTrace
 10
4.599999954965
 20
54.539215733427
 11
4.599999954965
 21
55.460783216539
 12
8.099999954965
 22
54.999999474983
 13
8.099999954965
 23
54.999999474983
  0
TEXT
  5
233
100
AcDbEntity
  8
0
 62
           2
100
AcDbText
 10
-18.450345011291
 20
56.043749474983
 40
3.5
  1
20.5 M.H.C 
 41
0.9
  7
CONVERTER_2
100
AcDbText
  0
ENDBLK
  5
234
100
AcDbEntity
  8
0
100
AcDbBlockEnd
  0
ENDSEC
  0
SECTION
  2
ENTITIES
  0
DIMENSION
  5
236
100
AcDbEntity
  8
0
100
AcDbDimension
  2
*D3
 10
-12.400000045035
 20
54.999999474983
 11
-2.665345011291
 21
57.793749474983
 31
0.0
  1
<>
  3
ME10_DIM_3
100
AcDbAlignedDimension
 13
8.099999954965
 23
34.59999948045
 14
-12.400000045035
 24
26.5
100
AcDbRotatedDimension
  0
DIMENSION
  5
22B
100
AcDbEntity
  8
0
100
AcDbDimension
  2
*D2
 10
17.099999999907
 20
-54.999999473617
 11
33.770757447281
 21
-52.08062824659
 31
0.0
  1
<>
  3
ME10_DIM_2
100
AcDbAlignedDimension
 13
15.600000000063
 23
-34.599999480349
 14
17.099999999907
 24
-26.5
100
AcDbRotatedDimension
  0
DIMENSION
  5
220
100
AcDbEntity
  8
0
100
AcDbDimension
  2
*D1
 10
40.100000000036
 20
-26.5
 11
37.306250000036
 21
-0.186785351032
 31
0.0
 53
90.0
  1
<>
  3
ME10_DIM_1
100
AcDbAlignedDimension
 13
17.099999999907
 23
26.5
 14
17.099999999907
 24
-26.5
 50
90.0
100
AcDbRotatedDimension
  0
DIMENSION
  5
215
100
AcDbEntity
  8
0
100
AcDbDimension
  2
*D0
 10
-33.399999999964
 20
26.5
 11
-36.193749999964
 21
0.917338965894
 31
0.0
 53
90.0
  1
<>
  3
ME10_DIM_0
100
AcDbAlignedDimension
 13
-12.400000045035
 23
-26.5
 14
-12.400000045035
 24
26.5
 50
90.0
100
AcDbRotatedDimension
  0
TEXT
  5
209
100
AcDbEntity
  8
1
 62
           3
100
AcDbText
 10
65.685775467136
 20
-136.965444968909
 40
3.5
  1
CSG-20-XXX-2A-GR.dxf
 41
0.729
  7
CONVERTER_1
100
AcDbText
  0
TEXT
  5
208
100
AcDbEntity
  8
1
 62
           3
100
AcDbText
 10
-52.622078722445
 20
-80.526551645622
 40
2.8
  1
REMARKS:  M.H.C = MINIMUM HOUSING CLEARANCE
 41
0.729
  7
CONVERTER_1
100
AcDbText
  0
TEXT
  5
207
100
AcDbEntity
  8
1
 62
           3
100
AcDbText
 10
-125.131207825886
 20
-121.83600676325
 40
2.1
  1
All speciffcations and dimensions mentioned in the drawing are
 41
0.729
  7
CONVERTER_1
100
AcDbText
  0
TEXT
  5
206
100
AcDbEntity
  8
1
 62
           3
100
AcDbText
 10
-125.131207825886
 20
-125.19600676325
 40
2.1
  1
subject to change without notification.
 41
0.729
  7
CONVERTER_1
100
AcDbText
  0
TEXT
  5
205
100
AcDbEntity
  8
1
 62
           3
100
AcDbText
 10
-125.131207825886
 20
-128.55600676325
 40
2.1
  1
This drawing itself is also a property of Harmonic Drive Systems,Ins.
 41
0.729
  7
CONVERTER_1
100
AcDbText
  0
TEXT
  5
204
100
AcDbEntity
  8
1
 62
           3
100
AcDbText
 10
-125.131207825886
 20
-135.27600676325
 40
2.1
  1
Harmonic Drive Systems,Inc.
 41
0.729
  7
CONVERTER_1
100
AcDbText
  0
TEXT
  5
203
100
AcDbEntity
  8
1
 62
           3
100
AcDbText
 10
-125.131207825886
 20
-138.63600676325
 40
2.1
  1
Believe Omori 7F Minamiohi 6-25-3 Shinagawa-ku, Tokyo 140-0013
 41
0.729
  7
CONVERTER_1
100
AcDbText
  0
TEXT
  5
202
100
AcDbEntity
  8
1
 62
           3
100
AcDbText
 10
-125.131207825886
 20
-141.99600676325
 40
2.1
  1
JAPAN
 41
0.729
  7
CONVERTER_1
100
AcDbText
  0
TEXT
  5
201
100
AcDbEntity
  8
1
 62
           3
100
AcDbText
 10
-125.131207825886
 20
-145.35600676325
 40
2.1
  1
Tel.03-5471-7800 Fax.03-5471-7811
 41
0.729
  7
CONVERTER_1
100
AcDbText
  0
TEXT
  5
200
100
AcDbEntity
  8
1
 62
           3
100
AcDbText
 10
-125.131207825886
 20
-148.71600676325
 40
2.1
  1
http://www.hds.co.jp
 41
0.729
  7
CONVERTER_1
100
AcDbText
  0
TEXT
  5
1FF
100
AcDbEntity
  8
1
 62
           7
100
AcDbText
 10
-124.75340762407
 20
-117.041187844824
 40
3.5
  1
The reference drawing
 41
0.729
  7
CONVERTER_1
100
AcDbText
  0
CIRCLE
  5
1FD
100
AcDbEntity
  8
1
  6
CONTINUOUS
 62
           7
100
AcDbCircle
 10
100.100000000036
 20
0.020646964778
 40
24.5365
  0
CIRCLE
  5
1FC
100
AcDbEntity
  8
1
  6
CONTINUOUS
 62
           7
100
AcDbCircle
 10
100.100000000036
 20
0.020646964778
 40
23.3175
  0
CIRCLE
  5
1FB
100
AcDbEntity
  8
1
  6
CONTINUOUS
 62
           7
100
AcDbCircle
 10
100.100000000036
 20
0.020646964778
 40
17.78
  0
CIRCLE
  5
1FA
100
AcDbEntity
  8
1
  6
CONTINUOUS
 62
           7
100
AcDbCircle
 10
100.100000000036
 20
0.020646964778
 40
19.075
  0
CIRCLE
  5
1F9
100
AcDbEntity
  8
1
  6
CONTINUOUS
 62
           3
100
AcDbCircle
 10
-93.233773662633
 20
-12.454740446167
 40
1.5
  0
CIRCLE
  5
1F8
100
AcDbEntity
  8
1
  6
CONTINUOUS
 62
           7
100
AcDbCircle
 10
-93.233773662633
 20
-12.454740446167
 40
1.2
  0
CIRCLE
  5
1F7
100
AcDbEntity
  8
1
  6
CONTINUOUS
 62
           7
100
AcDbCircle
 10
-103.566226336758
 20
12.490006931527
 40
1.2
  0
CIRCLE
  5
1F6
100
AcDbEntity
  8
1
  6
CONTINUOUS
 62
           3
100
AcDbCircle
 10
-103.566226336758
 20
12.490006931527
 40
1.5
  0
CIRCLE
  5
1F5
100
AcDbEntity
  8
1
  6
CONTINUOUS
 62
           7
100
AcDbCircle
 10
-89.914718752779
 20
8.502914489755
 40
2.75
  0
CIRCLE
  5
1F4
100
AcDbEntity
  8
1
  6
CONTINUOUS
 62
           7
100
AcDbCircle
 10
-86.400000179803
 20
0.01763324295
 40
2.75
  0
CIRCLE
  5
1F3
100
AcDbEntity
  8
1
  6
CONTINUOUS
 62
           7
100
AcDbCircle
 10
-89.914718752779
 20
-8.467648003854
 40
2.75
  0
CIRCLE
  5
1F2
100
AcDbEntity
  8
1
  6
CONTINUOUS
 62
           7
100
AcDbCircle
 10
-98.399999999584
 20
-11.982366576831
 40
2.75
  0
CIRCLE
  5
1F1
100
AcDbEntity
  8
1
  6
CONTINUOUS
 62
           7
100
AcDbCircle
 10
-106.885281246388
 20
-8.467648003854
 40
2.75
  0
CIRCLE
  5
1F0
100
AcDbEntity
  8
1
  6
CONTINUOUS
 62
           7
100
AcDbCircle
 10
-110.399999819365
 20
0.01763324295
 40
2.75
  0
CIRCLE
  5
1EF
100
AcDbEntity
  8
1
  6
CONTINUOUS
 62
           7
100
AcDbCircle
 10
-106.885281246388
 20
8.502914489755
 40
2.75
  0
CIRCLE
  5
1EE
100
AcDbEntity
  8
1
  6
CONTINUOUS
 62
           7
100
AcDbCircle
 10
-98.399999999584
 20
12.017633062731
 40
2.75
  0
CIRCLE
  5
1ED
100
AcDbEntity
  8
1
  6
CONTINUOUS
 62
           3
100
AcDbCircle
 10
-98.399999999696
 20
0.01763324268
 40
11.999999819893
  0
CIRCLE
  5
1EC
100
AcDbEntity
  8
1
  6
CONTINUOUS
 62
           7
100
AcDbCircle
 10
-98.399999999696
 20
0.01763324268
 40
26.9999995942
  0
CIRCLE
  5
1EB
100
AcDbEntity
  8
1
  6
CONTINUOUS
 62
           7
100
AcDbCircle
 10
-98.399999999696
 20
0.01763324268
 40
25.799999612253
  0
CIRCLE
  5
1EA
100
AcDbEntity
  8
1
  6
CONTINUOUS
 62
           7
100
AcDbCircle
 10
-98.399999999696
 20
0.01763324268
 40
7.999999879602
  0
CIRCLE
  5
1E9
100
AcDbEntity
  8
1
  6
CONTINUOUS
 62
           7
100
AcDbCircle
 10
100.100000655474
 20
0.017633242214
 40
34.999999474312
  0
CIRCLE
  5
1E8
100
AcDbEntity
  8
1
  6
CONTINUOUS
 62
           7
100
AcDbCircle
 10
100.100000655474
 20
0.017633242214
 40
24.850999626578
  0
CIRCLE
  5
1E7
100
AcDbEntity
  8
1
  6
CONTINUOUS
 62
           7
100
AcDbCircle
 10
100.100000655474
 20
0.017633242214
 40
10.499999842363
  0
CIRCLE
  5
1E6
100
AcDbEntity
  8
1
  6
CONTINUOUS
 62
           7
100
AcDbCircle
 10
100.100000655474
 20
0.017633242214
 40
13.999999789784
  0
CIRCLE
  5
1E5
100
AcDbEntity
  8
0
  6
CONTINUOUS
 62
           7
100
AcDbCircle
 10
98.245000683194
 20
-11.427366585104
 40
0.699999989479
  0
CIRCLE
  5
1E4
100
AcDbEntity
  8
0
  6
CONTINUOUS
 62
           7
100
AcDbCircle
 10
101.95500062745
 20
-11.427366585104
 40
0.699999989483
  0
CIRCLE
  5
1E3
100
AcDbEntity
  8
1
  6
CONTINUOUS
 62
           7
100
AcDbCircle
 10
-98.399999999696
 20
0.01763324268
 40
15.982366756781
  0
CIRCLE
  5
1E2
100
AcDbEntity
  8
1
  6
CONTINUOUS
 62
           7
100
AcDbCircle
 10
-98.399999999696
 20
0.01763324268
 40
24.817366756781
  0
CIRCLE
  5
1E1
100
AcDbEntity
  8
1
  6
CONTINUOUS
 62
           3
100
AcDbCircle
 10
100.100000000036
 20
0.020646964778
 40
30.996986278172
  0
CIRCLE
  5
1E0
100
AcDbEntity
  8
1
  6
CONTINUOUS
 62
           3
100
AcDbCircle
 10
-98.399999999696
 20
0.01763324268
 40
30.999999999731
  0
CIRCLE
  5
1DF
100
AcDbEntity
  8
1
  6
CONTINUOUS
 62
           7
100
AcDbCircle
 10
-98.399999999696
 20
0.01763324268
 40
34.999999474097
  0
CIRCLE
  5
1DE
100
AcDbEntity
  8
1
  6
CONTINUOUS
 62
           7
100
AcDbCircle
 10
-98.400000000077
 20
31.01763324268
 40
1.75
  0
CIRCLE
  5
1DD
100
AcDbEntity
  8
1
  6
CONTINUOUS
 62
           7
100
AcDbCircle
 10
-86.53681359614
 20
28.657898750223
 40
1.75
  0
CIRCLE
  5
1DC
100
AcDbEntity
  8
1
  6
CONTINUOUS
 62
           3
100
AcDbCircle
 10
-92.352200017266
 20
30.421976935
 40
1.5
  0
CIRCLE
  5
1DB
100
AcDbEntity
  8
1
  6
CONTINUOUS
 62
           7
100
AcDbCircle
 10
-92.352200017266
 20
30.421976935
 40
1.75
  0
CIRCLE
  5
1DA
100
AcDbEntity
  8
1
  6
CONTINUOUS
 62
           7
100
AcDbCircle
 10
-92.352200017266
 20
30.421976935
 40
1.2
  0
CIRCLE
  5
1D9
100
AcDbEntity
  8
1
  6
CONTINUOUS
 62
           7
100
AcDbCircle
 10
-76.479689783318
 20
21.937943459272
 40
1.75
  0
CIRCLE
  5
1D8
100
AcDbEntity
  8
1
  6
CONTINUOUS
 62
           7
100
AcDbCircle
 10
-69.759734492266
 20
11.880819645933
 40
1.75
  0
CIRCLE
  5
1D7
100
AcDbEntity
  8
1
  6
CONTINUOUS
 62
           7
100
AcDbCircle
 10
-67.399999999965
 20
0.01763324268
 40
1.749999999887
  0
CIRCLE
  5
1D6
100
AcDbEntity
  8
1
  6
CONTINUOUS
 62
           7
100
AcDbCircle
 10
-76.479689783324
 20
-21.902676974226
 40
1.75
  0
CIRCLE
  5
1D5
100
AcDbEntity
  8
1
  6
CONTINUOUS
 62
           7
100
AcDbCircle
 10
-69.759734492281
 20
-11.845553160783
 40
1.75
  0
CIRCLE
  5
1D4
100
AcDbEntity
  8
1
  6
CONTINUOUS
 62
           7
100
AcDbCircle
 10
-86.536813596805
 20
-28.622632265126
 40
1.75
  0
CIRCLE
  5
1D3
100
AcDbEntity
  8
1
  6
CONTINUOUS
 62
           7
100
AcDbCircle
 10
-98.400000000077
 20
-30.982366757319
 40
1.75
  0
CIRCLE
  5
1D2
100
AcDbEntity
  8
1
  6
CONTINUOUS
 62
           7
100
AcDbCircle
 10
-104.447799982351
 20
-30.38671045018
 40
1.2
  0
CIRCLE
  5
1D1
100
AcDbEntity
  8
1
  6
CONTINUOUS
 62
           3
100
AcDbCircle
 10
-104.447799982351
 20
-30.38671045018
 40
1.5
  0
CIRCLE
  5
1D0
100
AcDbEntity
  8
1
  6
CONTINUOUS
 62
           7
100
AcDbCircle
 10
-104.447799982351
 20
-30.38671045018
 40
1.75
  0
CIRCLE
  5
1CF
100
AcDbEntity
  8
1
  6
CONTINUOUS
 62
           7
100
AcDbCircle
 10
-110.263186403373
 20
-28.622632265195
 40
1.75
  0
CIRCLE
  5
1CE
100
AcDbEntity
  8
1
  6
CONTINUOUS
 62
           7
100
AcDbCircle
 10
-120.320310216832
 20
-21.902676974249
 40
1.75
  0
CIRCLE
  5
1CD
100
AcDbEntity
  8
1
  6
CONTINUOUS
 62
           7
100
AcDbCircle
 10
-127.040265507927
 20
-11.845553160637
 40
1.75
  0
CIRCLE
  5
1CC
100
AcDbEntity
  8
1
  6
CONTINUOUS
 62
           7
100
AcDbCircle
 10
-129.400000000076
 20
0.01763324268
 40
1.75
  0
CIRCLE
  5
1CB
100
AcDbEntity
  8
1
  6
CONTINUOUS
 62
           7
100
AcDbCircle
 10
-127.04026550762
 20
11.880819646617
 40
1.75
  0
CIRCLE
  5
1CA
100
AcDbEntity
  8
1
  6
CONTINUOUS
 62
           7
100
AcDbCircle
 10
-120.320310216836
 20
21.937943459455
 40
1.749999999999
  0
CIRCLE
  5
1C9
100
AcDbEntity
  8
1
  6
CONTINUOUS
 62
           7
100
AcDbCircle
 10
-110.263186403394
 20
28.65789875053
 40
1.75
  0
CIRCLE
  5
1C8
100
AcDbEntity
  8
1
  6
CONTINUOUS
 62
           7
100
AcDbCircle
 10
111.963186453246
 20
28.637252035841
 40
1.75
  0
CIRCLE
  5
1C7
100
AcDbEntity
  8
1
  6
CONTINUOUS
 62
           7
100
AcDbCircle
 10
122.020310408793
 20
21.917296957413
 40
1.75
  0
CIRCLE
  5
1C6
100
AcDbEntity
  8
1
  6
CONTINUOUS
 62
           7
100
AcDbCircle
 10
128.740265912499
 20
11.860173286029
 40
1.75
  0
CIRCLE
  5
1C5
100
AcDbEntity
  8
1
  6
CONTINUOUS
 62
           7
100
AcDbCircle
 10
131.100000655475
 20
-0.003013067396
 40
1.75
  0
CIRCLE
  5
1C4
100
AcDbEntity
  8
1
  6
CONTINUOUS
 62
           7
100
AcDbCircle
 10
128.74026641415
 20
-11.866199520606
 40
1.75
  0
CIRCLE
  5
1C3
100
AcDbEntity
  8
1
  6
CONTINUOUS
 62
           7
100
AcDbCircle
 10
122.020311335722
 20
-21.923323476153
 40
1.75
  0
CIRCLE
  5
1C2
100
AcDbEntity
  8
1
  6
CONTINUOUS
 62
           3
100
AcDbCircle
 10
106.147801280819
 20
-30.407357287465
 40
1.5
  0
CIRCLE
  5
1C1
100
AcDbEntity
  8
1
  6
CONTINUOUS
 62
           7
100
AcDbCircle
 10
106.147801280819
 20
-30.407357287465
 40
1.2
  0
CIRCLE
  5
1C0
100
AcDbEntity
  8
1
  6
CONTINUOUS
 62
           7
100
AcDbCircle
 10
111.963187664338
 20
-28.643278979859
 40
1.75
  0
CIRCLE
  5
1BF
100
AcDbEntity
  8
1
  6
CONTINUOUS
 62
           7
100
AcDbCircle
 10
100.100001310913
 20
-31.003013722835
 40
1.75
  0
CIRCLE
  5
1BE
100
AcDbEntity
  8
1
  6
CONTINUOUS
 62
           7
100
AcDbCircle
 10
88.236814857703
 20
-28.64327948151
 40
1.75
  0
CIRCLE
  5
1BD
100
AcDbEntity
  8
1
  6
CONTINUOUS
 62
           7
100
AcDbCircle
 10
78.179690902156
 20
-21.923324403083
 40
1.75
  0
CIRCLE
  5
1BC
100
AcDbEntity
  8
1
  6
CONTINUOUS
 62
           7
100
AcDbCircle
 10
71.45973539845
 20
-11.866200731699
 40
1.75
  0
CIRCLE
  5
1BB
100
AcDbEntity
  8
1
  6
CONTINUOUS
 62
           7
100
AcDbCircle
 10
69.100000655475
 20
-0.003014378273
 40
1.75
  0
CIRCLE
  5
1BA
100
AcDbEntity
  8
1
  6
CONTINUOUS
 62
           7
100
AcDbCircle
 10
71.459734896799
 20
11.860172074937
 40
1.75
  0
CIRCLE
  5
1B9
100
AcDbEntity
  8
1
  6
CONTINUOUS
 62
           7
100
AcDbCircle
 10
78.179689975226
 20
21.917296030483
 40
1.75
  0
CIRCLE
  5
1B8
100
AcDbEntity
  8
1
  6
CONTINUOUS
 62
           7
100
AcDbCircle
 10
94.05220003013
 20
30.401329841796
 40
1.2
  0
CIRCLE
  5
1B7
100
AcDbEntity
  8
1
  6
CONTINUOUS
 62
           3
100
AcDbCircle
 10
94.05220003013
 20
30.401329841796
 40
1.5
  0
CIRCLE
  5
1B6
100
AcDbEntity
  8
1
  6
CONTINUOUS
 62
           7
100
AcDbCircle
 10
88.236813646611
 20
28.63725153419
 40
1.75
  0
CIRCLE
  5
1B5
100
AcDbEntity
  8
1
  6
CONTINUOUS
 62
           7
100
AcDbCircle
 10
100.100000000036
 20
30.996986277165
 40
1.75
  0
CIRCLE
  5
1B4
100
AcDbEntity
  8
1
  6
CONTINUOUS
 62
           7
100
AcDbCircle
 10
10.035000000036
 20
21.18249999973
 40
2.28125
  0
CIRCLE
  5
1B3
100
AcDbEntity
  8
1
  6
CONTINUOUS
 62
           7
100
AcDbCircle
 10
10.035000000036
 20
-21.18249999973
 40
2.28125
  0
CIRCLE
  5
1B2
100
AcDbEntity
  8
1
  6
CONTINUOUS
 62
           7
100
AcDbCircle
 10
100.100000000036
 20
0.020646964778
 40
22.689353034952
  0
CIRCLE
  5
1B1
100
AcDbEntity
  8
1
  6
CONTINUOUS
 62
           7
100
AcDbCircle
 10
100.100000000036
 20
0.020646964778
 40
19.559353034952
  0
CIRCLE
  5
1B0
100
AcDbEntity
  8
1
  6
CONTINUOUS
 62
           7
100
AcDbCircle
 10
100.100000655474
 20
0.017633242214
 40
25.799999612468
  0
ARC
  5
1AF
100
AcDbEntity
  8
1
  6
CONTINUOUS
 62
           7
100
AcDbCircle
 10
100.100000000036
 20
21.205646964778
 40
2.38125
100
AcDbArc
 50
-134.545429049911
 51
-116.082245289371
  0
ARC
  5
1AE
100
AcDbEntity
  8
1
  6
CONTINUOUS
 62
           7
100
AcDbCircle
 10
100.100000000036
 20
21.205646964778
 40
2.38125
100
AcDbArc
 50
36.725243401817
 51
62.178947047102
  0
ARC
  5
1AD
100
AcDbEntity
  8
1
  6
CONTINUOUS
 62
           7
100
AcDbCircle
 10
94.384355403074
 20
20.420049697241
 40
2.38125
100
AcDbArc
 50
-118.893255136858
 51
-100.430071376318
  0
ARC
  5
1AC
100
AcDbEntity
  8
1
  6
CONTINUOUS
 62
           7
100
AcDbCircle
 10
89.092614018535
 20
18.121522050095
 40
2.38125
100
AcDbArc
 50
-103.241081223813
 51
-84.777897463276
  0
ARC
  5
1AB
100
AcDbEntity
  8
1
  6
CONTINUOUS
 62
           7
100
AcDbCircle
 10
94.384355403074
 20
20.420049697241
 40
2.38125
100
AcDbArc
 50
52.377417314851
 51
77.831120960148
  0
ARC
  5
1AA
100
AcDbEntity
  8
1
  6
CONTINUOUS
 62
           7
100
AcDbCircle
 10
89.092614018535
 20
18.121522050095
 40
2.38125
100
AcDbArc
 50
68.029591227894
 51
93.48329487319
  0
ARC
  5
1A9
100
AcDbEntity
  8
1
  6
CONTINUOUS
 62
           3
100
AcDbCircle
 10
-98.399999999696
 20
0.01763324268
 40
13.5
100
AcDbArc
 50
-83.973928377877
 51
-51.115484773969
  0
ARC
  5
1A8
100
AcDbEntity
  8
1
  6
CONTINUOUS
 62
           3
100
AcDbCircle
 10
-98.399999999696
 20
0.01763324268
 40
13.5
100
AcDbArc
 50
95.244712174161
 51
131.567321615442
  0
ARC
  5
1A7
100
AcDbEntity
  8
1
  6
CONTINUOUS
 62
           7
100
AcDbCircle
 10
100.100000655474
 20
0.017633242214
 40
4.499999932358
100
AcDbArc
 50
109.4712206402
 51
70.528779382004
  0
ARC
  5
1A6
100
AcDbEntity
  8
0
  6
CONTINUOUS
 62
           7
100
AcDbCircle
 10
7.799999959472
 20
27.299999589937
 40
0.299999995493
100
AcDbArc
 50
-89.999999990305
 51
0.0
  0
ARC
  5
1A5
100
AcDbEntity
  8
0
  6
CONTINUOUS
 62
           7
100
AcDbCircle
 10
100.10000065532
 20
0.63013323377
 40
11.602499825675
100
AcDbArc
 50
-70.730361122036
 51
-109.26963887797
  0
ARC
  5
1A4
100
AcDbEntity
  8
0
  6
CONTINUOUS
 62
           7
100
AcDbCircle
 10
96.040000716315
 20
-10.98313082929
 40
0.699999989494
100
AcDbArc
 50
0.00000000054
 51
70.73036112343
  0
ARC
  5
1A3
100
AcDbEntity
  8
0
  6
CONTINUOUS
 62
           7
100
AcDbCircle
 10
97.44000069529
 20
-12.407366570342
 40
0.699999989481
100
AcDbArc
 50
180.0
 51
-90.000000001456
  0
ARC
  5
1A2
100
AcDbEntity
  8
0
  6
CONTINUOUS
 62
           7
100
AcDbCircle
 10
104.160000594328
 20
-10.983130829283
 40
0.699999989523
100
AcDbArc
 50
109.269638877051
 51
180.0
  0
ARC
  5
1A1
100
AcDbEntity
  8
0
  6
CONTINUOUS
 62
           7
100
AcDbCircle
 10
102.760000615359
 20
-12.407366570343
 40
0.699999989498
100
AcDbArc
 50
-89.999999999182
 51
0.000000000074
  0
ARC
  5
1A0
100
AcDbEntity
  8
0
  6
CONTINUOUS
 62
           7
100
AcDbCircle
 10
7.799999959472
 20
-27.299999589937
 40
0.299999995493
100
AcDbArc
 50
0.0
 51
89.999999990305
  0
ARC
  5
19F
100
AcDbEntity
  8
1
  6
CONTINUOUS
 62
           7
100
AcDbCircle
 10
1.473176273149
 20
-44.86
 40
19.975858310774
100
AcDbArc
 50
75.153512935453
 51
90.531139674286
  0
ARC
  5
19E
100
AcDbEntity
  8
1
  6
CONTINUOUS
 62
           7
100
AcDbCircle
 10
1.473176273149
 20
44.86
 40
19.975858310774
100
AcDbArc
 50
-90.531139674286
 51
-75.153512935453
  0
ARC
  5
19D
100
AcDbEntity
  8
1
  6
CONTINUOUS
 62
           7
100
AcDbCircle
 10
-8.131207825886
 20
-114.463080409592
 40
5.0
100
AcDbArc
 50
0.0
 51
90.0
  0
ARC
  5
19C
100
AcDbEntity
  8
1
  6
CONTINUOUS
 62
           7
100
AcDbCircle
 10
-123.131207825886
 20
-114.463080409592
 40
5.0
100
AcDbArc
 50
90.0
 51
180.0
  0
ARC
  5
19B
100
AcDbEntity
  8
1
  6
CONTINUOUS
 62
           7
100
AcDbCircle
 10
-123.131207825886
 20
-145.463080409592
 40
5.0
100
AcDbArc
 50
180.0
 51
-90.0
  0
ARC
  5
19A
100
AcDbEntity
  8
1
  6
CONTINUOUS
 62
           7
100
AcDbCircle
 10
-8.131207825886
 20
-145.463080409592
 40
5.0
100
AcDbArc
 50
-89.999999999999
 51
0.0
  0
ARC
  5
199
100
AcDbEntity
  8
1
  6
CONTINUOUS
 62
           7
100
AcDbCircle
 10
-10.950999999964
 20
-16.2
 40
0.2
100
AcDbArc
 50
0.0
 51
90.0
  0
ARC
  5
198
100
AcDbEntity
  8
1
  6
CONTINUOUS
 62
           7
100
AcDbCircle
 10
-10.950999999964
 20
16.2
 40
0.2
100
AcDbArc
 50
-90.0
 51
0.0
  0
ARC
  5
197
100
AcDbEntity
  8
1
  6
CONTINUOUS
 62
           7
100
AcDbCircle
 10
-9.249999999964
 20
-23.384
 40
1.154339638061
100
AcDbArc
 50
175.030259271889
 51
-94.96974072811
  0
ARC
  5
196
100
AcDbEntity
  8
1
  6
CONTINUOUS
 62
           7
100
AcDbCircle
 10
-9.249999999964
 20
23.384
 40
1.154339638062
100
AcDbArc
 50
94.96974072811
 51
-175.030259271889
  0
ARC
  5
195
100
AcDbEntity
  8
1
  6
CONTINUOUS
 62
           7
100
AcDbCircle
 10
-9.250999999964
 20
23.385
 40
1.5
100
AcDbArc
 50
90.0
 51
180.0
  0
ARC
  5
194
100
AcDbEntity
  8
1
  6
CONTINUOUS
 62
           7
100
AcDbCircle
 10
-9.250999999964
 20
-23.385
 40
1.5
100
AcDbArc
 50
180.0
 51
-90.0
  0
ARC
  5
193
100
AcDbEntity
  8
1
  6
CONTINUOUS
 62
           7
100
AcDbCircle
 10
100.100000000036
 20
21.205646964778
 40
2.38125
100
AcDbArc
 50
117.821052952902
 51
143.274756598188
  0
ARC
  5
192
100
AcDbEntity
  8
1
  6
CONTINUOUS
 62
           7
100
AcDbCircle
 10
100.100000000036
 20
21.205646964778
 40
2.38125
100
AcDbArc
 50
-63.917754710651
 51
-45.454570950095
  0
ARC
  5
191
100
AcDbEntity
  8
1
  6
CONTINUOUS
 62
           7
100
AcDbCircle
 10
94.384355403074
 20
20.420049697241
 40
2.38125
100
AcDbArc
 50
-48.265580797593
 51
-29.80239703705
  0
ARC
  5
190
100
AcDbEntity
  8
1
  6
CONTINUOUS
 62
           7
100
AcDbCircle
 10
94.384355403074
 20
20.420049697241
 40
2.38125
100
AcDbArc
 50
133.473226865938
 51
158.926930511236
  0
ARC
  5
18F
100
AcDbEntity
  8
1
  6
CONTINUOUS
 62
           7
100
AcDbCircle
 10
89.092614018535
 20
18.121522050095
 40
2.38125
100
AcDbArc
 50
149.125400778981
 51
174.57910442428
  0
ARC
  5
18E
100
AcDbEntity
  8
1
  6
CONTINUOUS
 62
           7
100
AcDbCircle
 10
89.092614018535
 20
18.121522050095
 40
2.38125
100
AcDbArc
 50
-32.613406884548
 51
-14.15022312401
  0
ARC
  5
18D
100
AcDbEntity
  8
1
  6
CONTINUOUS
 62
           7
100
AcDbCircle
 10
84.617753919882
 20
14.481085454449
 40
2.38125
100
AcDbArc
 50
164.775538761104
 51
-169.770757593597
  0
ARC
  5
18C
100
AcDbEntity
  8
1
  6
CONTINUOUS
 62
           7
100
AcDbCircle
 10
81.290844352478
 20
9.768461531436
 40
2.38125
100
AcDbArc
 50
-179.574323256771
 51
-154.120619611473
  0
ARC
  5
18B
100
AcDbEntity
  8
1
  6
CONTINUOUS
 62
           7
100
AcDbCircle
 10
79.358563194039
 20
4.333073685645
 40
2.38125
100
AcDbArc
 50
-163.924185274648
 51
-138.47048162935
  0
ARC
  5
18A
100
AcDbEntity
  8
1
  6
CONTINUOUS
 62
           7
100
AcDbCircle
 10
78.964181851754
 20
-1.422064441828
 40
2.38125
100
AcDbArc
 50
-148.274047292525
 51
-122.820343647227
  0
ARC
  5
189
100
AcDbEntity
  8
1
  6
CONTINUOUS
 62
           7
100
AcDbCircle
 10
80.136942224314
 20
-7.070230924678
 40
2.38125
100
AcDbArc
 50
-132.623909310401
 51
-107.170205665103
  0
ARC
  5
188
100
AcDbEntity
  8
1
  6
CONTINUOUS
 62
           7
100
AcDbCircle
 10
82.789888524701
 20
-12.192635383202
 40
2.38125
100
AcDbArc
 50
-116.973771328277
 51
-91.520067682979
  0
ARC
  5
187
100
AcDbEntity
  8
1
  6
CONTINUOUS
 62
           7
100
AcDbCircle
 10
86.726314725951
 20
-16.409470721645
 40
2.38125
100
AcDbArc
 50
-101.323633346154
 51
-75.869929700855
  0
ARC
  5
186
100
AcDbEntity
  8
1
  6
CONTINUOUS
 62
           7
100
AcDbCircle
 10
91.65434957595
 20
-19.408074401132
 40
2.38125
100
AcDbArc
 50
-85.673495364029
 51
-60.219791718732
  0
ARC
  5
185
100
AcDbEntity
  8
1
  6
CONTINUOUS
 62
           7
100
AcDbCircle
 10
97.20859775707
 20
-20.966111195295
 40
2.38125
100
AcDbArc
 50
-70.023357381907
 51
-44.569653736608
  0
ARC
  5
184
100
AcDbEntity
  8
1
  6
CONTINUOUS
 62
           7
100
AcDbCircle
 10
102.977232579746
 20
-20.968058514176
 40
2.38125
100
AcDbArc
 50
-54.373219399796
 51
-28.919515754494
  0
ARC
  5
183
100
AcDbEntity
  8
1
  6
CONTINUOUS
 62
           7
100
AcDbCircle
 10
108.532531388298
 20
-19.413771971377
 40
2.38125
100
AcDbArc
 50
-38.723081417656
 51
-13.26937777236
  0
ARC
  5
182
100
AcDbEntity
  8
1
  6
CONTINUOUS
 62
           7
100
AcDbCircle
 10
113.462589593078
 20
-16.418496089772
 40
2.38125
100
AcDbArc
 50
-23.072943435539
 51
2.380760209762
  0
ARC
  5
181
100
AcDbEntity
  8
1
  6
CONTINUOUS
 62
           7
100
AcDbCircle
 10
117.401861852279
 20
-12.204319351982
 40
2.381249999999
100
AcDbArc
 50
-7.422805453416
 51
18.030898191882
  0
ARC
  5
180
100
AcDbEntity
  8
1
  6
CONTINUOUS
 62
           7
100
AcDbCircle
 10
120.058265889256
 20
-7.083707171611
 40
2.381249999999
100
AcDbArc
 50
8.227332528711
 51
33.681036174013
  0
ARC
  5
17F
100
AcDbEntity
  8
1
  6
CONTINUOUS
 62
           7
100
AcDbCircle
 10
121.234839298833
 20
-1.436333753701
 40
2.38125
100
AcDbArc
 50
23.877470510831
 51
49.331174156127
  0
ARC
  5
17E
100
AcDbEntity
  8
1
  6
CONTINUOUS
 62
           7
100
AcDbCircle
 10
120.844343571587
 20
4.319069324837
 40
2.38125
100
AcDbArc
 50
39.527608492946
 51
64.98131213824
  0
ARC
  5
17D
100
AcDbEntity
  8
1
  6
CONTINUOUS
 62
           7
100
AcDbCircle
 10
118.915732502414
 20
9.755760492569
 40
2.38125
100
AcDbArc
 50
55.177746475089
 51
80.631450120378
  0
ARC
  5
17C
100
AcDbEntity
  8
1
  6
CONTINUOUS
 62
           7
100
AcDbCircle
 10
115.592005375136
 20
14.470629471961
 40
2.38125
100
AcDbArc
 50
70.827884457201
 51
96.281588102514
  0
ARC
  5
17B
100
AcDbEntity
  8
1
  6
CONTINUOUS
 62
           7
100
AcDbCircle
 10
111.119604101459
 20
18.114086395907
 40
2.38125
100
AcDbArc
 50
86.478022439347
 51
111.931726084634
  0
ARC
  5
17A
100
AcDbEntity
  8
1
  6
CONTINUOUS
 62
           7
100
AcDbCircle
 10
84.617753919882
 20
14.481085454449
 40
2.38125
100
AcDbArc
 50
83.679729210019
 51
109.133432855314
  0
ARC
  5
179
100
AcDbEntity
  8
1
  6
CONTINUOUS
 62
           7
100
AcDbCircle
 10
81.290844352478
 20
9.768461531436
 40
2.38125
100
AcDbArc
 50
99.329867192142
 51
124.783570837437
  0
ARC
  5
178
100
AcDbEntity
  8
1
  6
CONTINUOUS
 62
           7
100
AcDbCircle
 10
79.358563194039
 20
4.333073685645
 40
2.38125
100
AcDbArc
 50
114.980005174264
 51
140.433708819561
  0
ARC
  5
177
100
AcDbEntity
  8
1
  6
CONTINUOUS
 62
           7
100
AcDbCircle
 10
78.964181851754
 20
-1.422064441828
 40
2.38125
100
AcDbArc
 50
130.630143156389
 51
156.083846801684
  0
ARC
  5
176
100
AcDbEntity
  8
1
  6
CONTINUOUS
 62
           7
100
AcDbCircle
 10
80.136942224314
 20
-7.070230924678
 40
2.38125
100
AcDbArc
 50
146.280281138512
 51
171.733984783807
  0
ARC
  5
175
100
AcDbEntity
  8
1
  6
CONTINUOUS
 62
           7
100
AcDbCircle
 10
82.789888524701
 20
-12.192635383202
 40
2.38125
100
AcDbArc
 50
161.930419120636
 51
-172.615877234068
  0
ARC
  5
174
100
AcDbEntity
  8
1
  6
CONTINUOUS
 62
           7
100
AcDbCircle
 10
86.726314725951
 20
-16.409470721645
 40
2.38125
100
AcDbArc
 50
177.580557102758
 51
-156.965739251945
  0
ARC
  5
173
100
AcDbEntity
  8
1
  6
CONTINUOUS
 62
           7
100
AcDbCircle
 10
91.65434957595
 20
-19.408074401132
 40
2.38125
100
AcDbArc
 50
-166.769304915118
 51
-141.315601269822
  0
ARC
  5
172
100
AcDbEntity
  8
1
  6
CONTINUOUS
 62
           7
100
AcDbCircle
 10
97.20859775707
 20
-20.966111195295
 40
2.38125
100
AcDbArc
 50
-151.119166932993
 51
-125.665463287698
  0
ARC
  5
171
100
AcDbEntity
  8
1
  6
CONTINUOUS
 62
           7
100
AcDbCircle
 10
102.977232579746
 20
-20.968058514176
 40
2.38125
100
AcDbArc
 50
-135.469028950875
 51
-110.015325305593
  0
ARC
  5
170
100
AcDbEntity
  8
1
  6
CONTINUOUS
 62
           7
100
AcDbCircle
 10
108.532531388298
 20
-19.413771971377
 40
2.38125
100
AcDbArc
 50
-119.818890968737
 51
-94.365187323441
  0
ARC
  5
16F
100
AcDbEntity
  8
1
  6
CONTINUOUS
 62
           7
100
AcDbCircle
 10
113.462589593078
 20
-16.418496089772
 40
2.38125
100
AcDbArc
 50
-104.168752986625
 51
-78.715049341341
  0
ARC
  5
16E
100
AcDbEntity
  8
1
  6
CONTINUOUS
 62
           7
100
AcDbCircle
 10
117.401861852279
 20
-12.204319351982
 40
2.38125
100
AcDbArc
 50
-88.518615004497
 51
-63.064911359217
  0
ARC
  5
16D
100
AcDbEntity
  8
1
  6
CONTINUOUS
 62
           7
100
AcDbCircle
 10
120.058265889256
 20
-7.083707171611
 40
2.38125
100
AcDbArc
 50
-72.868477022379
 51
-47.414773377092
  0
ARC
  5
16C
100
AcDbEntity
  8
1
  6
CONTINUOUS
 62
           7
100
AcDbCircle
 10
121.234839298833
 20
-1.436333753701
 40
2.38125
100
AcDbArc
 50
-57.21833904024
 51
-31.764635394949
  0
ARC
  5
16B
100
AcDbEntity
  8
1
  6
CONTINUOUS
 62
           7
100
AcDbCircle
 10
120.844343571587
 20
4.319069324837
 40
2.38125
100
AcDbArc
 50
-41.568201058126
 51
-16.114497412832
  0
ARC
  5
16A
100
AcDbEntity
  8
1
  6
CONTINUOUS
 62
           7
100
AcDbCircle
 10
118.915732502414
 20
9.755760492569
 40
2.381249999999
100
AcDbArc
 50
-25.918063076013
 51
-0.464359430712
  0
ARC
  5
169
100
AcDbEntity
  8
1
  6
CONTINUOUS
 62
           7
100
AcDbCircle
 10
115.592005375136
 20
14.470629471961
 40
2.38125
100
AcDbArc
 50
-10.267925093884
 51
15.185778551413
  0
ARC
  5
168
100
AcDbEntity
  8
1
  6
CONTINUOUS
 62
           7
100
AcDbCircle
 10
111.119604101459
 20
18.114086395907
 40
2.38125
100
AcDbArc
 50
5.38221288824
 51
30.835916533541
  0
ARC
  5
167
100
AcDbEntity
  8
1
  6
CONTINUOUS
 62
           7
100
AcDbCircle
 10
84.617753919882
 20
14.481085454449
 40
2.38125
100
AcDbArc
 50
-16.963268902424
 51
1.499914858112
  0
ARC
  5
166
100
AcDbEntity
  8
1
  6
CONTINUOUS
 62
           7
100
AcDbCircle
 10
81.290844352478
 20
9.768461531436
 40
2.38125
100
AcDbArc
 50
-1.313130920301
 51
17.150052840236
  0
ARC
  5
165
100
AcDbEntity
  8
1
  6
CONTINUOUS
 62
           7
100
AcDbCircle
 10
79.358563194039
 20
4.333073685645
 40
2.38125
100
AcDbArc
 50
14.337007061822
 51
32.80019082236
  0
ARC
  5
164
100
AcDbEntity
  8
1
  6
CONTINUOUS
 62
           7
100
AcDbCircle
 10
78.964181851754
 20
-1.422064441828
 40
2.38125
100
AcDbArc
 50
29.987145043945
 51
48.450328804484
  0
ARC
  5
163
100
AcDbEntity
  8
1
  6
CONTINUOUS
 62
           7
100
AcDbCircle
 10
80.136942224314
 20
-7.070230924678
 40
2.38125
100
AcDbArc
 50
45.637283026069
 51
64.100466786608
  0
ARC
  5
162
100
AcDbEntity
  8
1
  6
CONTINUOUS
 62
           7
100
AcDbCircle
 10
82.789888524701
 20
-12.192635383202
 40
2.38125
100
AcDbArc
 50
61.287421008191
 51
79.750604768729
  0
ARC
  5
161
100
AcDbEntity
  8
1
  6
CONTINUOUS
 62
           7
100
AcDbCircle
 10
86.726314725951
 20
-16.409470721645
 40
2.38125
100
AcDbArc
 50
76.937558990314
 51
95.400742750851
  0
ARC
  5
160
100
AcDbEntity
  8
1
  6
CONTINUOUS
 62
           7
100
AcDbCircle
 10
91.65434957595
 20
-19.408074401132
 40
2.38125
100
AcDbArc
 50
92.587696972438
 51
111.050880732977
  0
ARC
  5
15F
100
AcDbEntity
  8
1
  6
CONTINUOUS
 62
           7
100
AcDbCircle
 10
97.20859775707
 20
-20.966111195295
 40
2.38125
100
AcDbArc
 50
108.237834954562
 51
126.701018715099
  0
ARC
  5
15E
100
AcDbEntity
  8
1
  6
CONTINUOUS
 62
           7
100
AcDbCircle
 10
102.977232579746
 20
-20.968058514176
 40
2.38125
100
AcDbArc
 50
123.887972936701
 51
142.351156697237
  0
ARC
  5
15D
100
AcDbEntity
  8
1
  6
CONTINUOUS
 62
           7
100
AcDbCircle
 10
108.532531388298
 20
-19.413771971377
 40
2.38125
100
AcDbArc
 50
139.538110918807
 51
158.001294679339
  0
ARC
  5
15C
100
AcDbEntity
  8
1
  6
CONTINUOUS
 62
           7
100
AcDbCircle
 10
113.462589593078
 20
-16.418496089772
 40
2.38125
100
AcDbArc
 50
155.188248900936
 51
173.651432661471
  0
ARC
  5
15B
100
AcDbEntity
  8
1
  6
CONTINUOUS
 62
           7
100
AcDbCircle
 10
117.401861852279
 20
-12.204319351982
 40
2.38125
100
AcDbArc
 50
170.838386883057
 51
-170.698429356406
  0
ARC
  5
15A
100
AcDbEntity
  8
1
  6
CONTINUOUS
 62
           7
100
AcDbCircle
 10
120.058265889256
 20
-7.083707171611
 40
2.38125
100
AcDbArc
 50
-173.511475134821
 51
-155.048291374284
  0
ARC
  5
159
100
AcDbEntity
  8
1
  6
CONTINUOUS
 62
           7
100
AcDbCircle
 10
121.234839298833
 20
-1.436333753701
 40
2.38125
100
AcDbArc
 50
-157.861337152698
 51
-139.398153392149
  0
ARC
  5
158
100
AcDbEntity
  8
1
  6
CONTINUOUS
 62
           7
100
AcDbCircle
 10
120.844343571587
 20
4.319069324837
 40
2.38125
100
AcDbArc
 50
-142.211199170568
 51
-123.748015410031
  0
ARC
  5
157
100
AcDbEntity
  8
1
  6
CONTINUOUS
 62
           7
100
AcDbCircle
 10
118.915732502414
 20
9.755760492569
 40
2.38125
100
AcDbArc
 50
-126.561061188455
 51
-108.097877427923
  0
ARC
  5
156
100
AcDbEntity
  8
1
  6
CONTINUOUS
 62
           7
100
AcDbCircle
 10
115.592005375136
 20
14.470629471961
 40
2.38125
100
AcDbArc
 50
-110.910923206323
 51
-92.447739445784
  0
ARC
  5
155
100
AcDbEntity
  8
1
  6
CONTINUOUS
 62
           7
100
AcDbCircle
 10
111.119604101459
 20
18.114086395907
 40
2.38125
100
AcDbArc
 50
-95.260785224211
 51
-76.797601463672
  0
ARC
  5
154
100
AcDbEntity
  8
1
  6
CONTINUOUS
 62
           7
100
AcDbCircle
 10
84.617753919882
 20
14.481085454449
 40
2.38125
100
AcDbArc
 50
-87.59094324169
 51
-69.127759481153
  0
ARC
  5
153
100
AcDbEntity
  8
1
  6
CONTINUOUS
 62
           7
100
AcDbCircle
 10
81.290844352478
 20
9.768461531436
 40
2.38125
100
AcDbArc
 50
-71.940805259566
 51
-53.477621499028
  0
ARC
  5
152
100
AcDbEntity
  8
1
  6
CONTINUOUS
 62
           7
100
AcDbCircle
 10
79.358563194039
 20
4.333073685645
 40
2.38125
100
AcDbArc
 50
-56.290667277443
 51
-37.827483516905
  0
ARC
  5
151
100
AcDbEntity
  8
1
  6
CONTINUOUS
 62
           7
100
AcDbCircle
 10
78.964181851754
 20
-1.422064441828
 40
2.38125
100
AcDbArc
 50
-40.64052929532
 51
-22.177345534782
  0
ARC
  5
150
100
AcDbEntity
  8
1
  6
CONTINUOUS
 62
           7
100
AcDbCircle
 10
80.136942224314
 20
-7.070230924678
 40
2.38125
100
AcDbArc
 50
-24.990391313197
 51
-6.527207552659
  0
ARC
  5
14F
100
AcDbEntity
  8
1
  6
CONTINUOUS
 62
           7
100
AcDbCircle
 10
82.789888524701
 20
-12.192635383202
 40
2.38125
100
AcDbArc
 50
-9.340253331072
 51
9.122930429463
  0
ARC
  5
14E
100
AcDbEntity
  8
1
  6
CONTINUOUS
 62
           7
100
AcDbCircle
 10
86.726314725951
 20
-16.409470721645
 40
2.38125
100
AcDbArc
 50
6.30988465105
 51
24.773068411586
  0
ARC
  5
14D
100
AcDbEntity
  8
1
  6
CONTINUOUS
 62
           7
100
AcDbCircle
 10
91.65434957595
 20
-19.408074401132
 40
2.38125
100
AcDbArc
 50
21.960022633173
 51
40.423206393712
  0
ARC
  5
14C
100
AcDbEntity
  8
1
  6
CONTINUOUS
 62
           7
100
AcDbCircle
 10
97.20859775707
 20
-20.966111195295
 40
2.38125
100
AcDbArc
 50
37.610160615295
 51
56.073344375833
  0
ARC
  5
14B
100
AcDbEntity
  8
1
  6
CONTINUOUS
 62
           7
100
AcDbCircle
 10
102.977232579746
 20
-20.968058514176
 40
2.38125
100
AcDbArc
 50
53.260298597423
 51
71.723482357977
  0
ARC
  5
14A
100
AcDbEntity
  8
1
  6
CONTINUOUS
 62
           7
100
AcDbCircle
 10
108.532531388298
 20
-19.413771971377
 40
2.38125
100
AcDbArc
 50
68.910436579541
 51
87.373620340066
  0
ARC
  5
149
100
AcDbEntity
  8
1
  6
CONTINUOUS
 62
           7
100
AcDbCircle
 10
113.462589593078
 20
-16.418496089772
 40
2.38125
100
AcDbArc
 50
84.560574561668
 51
103.023758322216
  0
ARC
  5
148
100
AcDbEntity
  8
1
  6
CONTINUOUS
 62
           7
100
AcDbCircle
 10
117.401861852279
 20
-12.204319351982
 40
2.38125
100
AcDbArc
 50
100.210712543795
 51
118.67389630434
  0
ARC
  5
147
100
AcDbEntity
  8
1
  6
CONTINUOUS
 62
           7
100
AcDbCircle
 10
120.058265889256
 20
-7.083707171611
 40
2.38125
100
AcDbArc
 50
115.860850525924
 51
134.324034286451
  0
ARC
  5
146
100
AcDbEntity
  8
1
  6
CONTINUOUS
 62
           7
100
AcDbCircle
 10
121.234839298833
 20
-1.436333753701
 40
2.38125
100
AcDbArc
 50
131.510988508026
 51
149.974172268556
  0
ARC
  5
145
100
AcDbEntity
  8
1
  6
CONTINUOUS
 62
           7
100
AcDbCircle
 10
120.844343571587
 20
4.319069324837
 40
2.38125
100
AcDbArc
 50
147.161126490164
 51
165.624310250697
  0
ARC
  5
144
100
AcDbEntity
  8
1
  6
CONTINUOUS
 62
           7
100
AcDbCircle
 10
118.915732502414
 20
9.755760492569
 40
2.38125
100
AcDbArc
 50
162.811264472284
 51
-178.725551767179
  0
ARC
  5
143
100
AcDbEntity
  8
1
  6
CONTINUOUS
 62
           7
100
AcDbCircle
 10
115.592005375136
 20
14.470629471961
 40
2.38125
100
AcDbArc
 50
178.461402454406
 51
-163.075413785061
  0
ARC
  5
142
100
AcDbEntity
  8
1
  6
CONTINUOUS
 62
           7
100
AcDbCircle
 10
111.119604101459
 20
18.114086395907
 40
2.381250000001
100
AcDbArc
 50
-165.888459563472
 51
-147.425275802929
  0
ARC
  5
141
100
AcDbEntity
  8
1
  6
CONTINUOUS
 62
           7
100
AcDbCircle
 10
105.815644596997
 20
20.420049697241
 40
2.381250000001
100
AcDbArc
 50
21.07306948876
 51
46.526773134044
  0
ARC
  5
140
100
AcDbEntity
  8
1
  6
CONTINUOUS
 62
           7
100
AcDbCircle
 10
105.815644596997
 20
20.420049697241
 40
2.38125
100
AcDbArc
 50
-150.197602962945
 51
-131.734419202388
  0
ARC
  5
13F
100
AcDbEntity
  8
1
  6
CONTINUOUS
 62
           7
100
AcDbCircle
 10
105.815644596997
 20
20.420049697241
 40
2.38125
100
AcDbArc
 50
102.168879039842
 51
127.622582685123
  0
ARC
  5
13E
100
AcDbEntity
  8
1
  6
CONTINUOUS
 62
           7
100
AcDbCircle
 10
105.815644596997
 20
20.420049697241
 40
2.38125
100
AcDbArc
 50
-79.569928623652
 51
-61.106744863116
  0
LINE
  5
13D
100
AcDbEntity
  8
1
  6
CONTINUOUS
 62
           7
100
AcDbLine
 10
-128.131207825886
 20
-114.463080409592
 11
-128.131207825886
 21
-145.463080409592
  0
LINE
  5
13C
100
AcDbEntity
  8
1
  6
CONTINUOUS
 62
           7
100
AcDbLine
 10
-123.131207825886
 20
-150.463080409592
 11
-8.131207825886
 21
-150.463080409592
  0
LINE
  5
13B
100
AcDbEntity
  8
1
  6
CONTINUOUS
 62
           7
100
AcDbLine
 10
-3.131207825886
 20
-145.463080409592
 11
-3.131207825886
 21
-114.463080409592
  0
LINE
  5
13A
100
AcDbEntity
  8
1
  6
CONTINUOUS
 62
           7
100
AcDbLine
 10
-8.131207825886
 20
-109.463080409592
 11
-123.131207825886
 21
-109.463080409592
  0
LINE
  5
139
100
AcDbEntity
  8
1
  6
CONTINUOUS
 62
           4
100
AcDbLine
 10
17.099999999907
 20
19.617137211438
 11
17.099999999907
 21
26.5
  0
LINE
  5
138
100
AcDbEntity
  8
1
  6
CONTINUOUS
 62
           4
100
AcDbLine
 10
17.099999999907
 20
26.5
 11
15.599999999907
 21
26.5
  0
LINE
  5
137
100
AcDbEntity
  8
1
  6
CONTINUOUS
 62
           4
100
AcDbLine
 10
17.099999999907
 20
19.617137211438
 11
17.099999999907
 21
26.5
  0
LINE
  5
136
100
AcDbEntity
  8
1
  6
CONTINUOUS
 62
           4
100
AcDbLine
 10
-12.400000045035
 20
20.077695652268
 11
-12.400000045035
 21
26.5
  0
LINE
  5
135
100
AcDbEntity
  8
1
  6
CONTINUOUS
 62
           4
100
AcDbLine
 10
-12.400000045035
 20
26.5
 11
-7.205549814719
 21
26.5
  0
LINE
  5
134
100
AcDbEntity
  8
1
  6
CONTINUOUS
 62
           7
100
AcDbLine
 10
-10.750999999964
 20
-16.2
 11
-10.750999999964
 21
-23.385
  0
LINE
  5
133
100
AcDbEntity
  8
1
  6
CONTINUOUS
 62
           7
100
AcDbLine
 10
-10.750999999964
 20
23.385
 11
-10.750999999964
 21
16.2
  0
LINE
  5
132
100
AcDbEntity
  8
1
  6
CONTINUOUS
 62
           7
100
AcDbLine
 10
15.600000000043
 20
29.26763324295
 11
15.600000000036
 21
25.532999999999
  0
LINE
  5
131
100
AcDbEntity
  8
1
  6
CONTINUOUS
 62
           7
100
AcDbLine
 10
5.500000000058
 20
26.99999959453
 11
5.100000000029
 21
26.59999959453
  0
LINE
  5
130
100
AcDbEntity
  8
1
  6
CONTINUOUS
 62
           7
100
AcDbLine
 10
12.099999954965
 20
29.26763324295
 11
12.099999954965
 21
32.76763324295
  0
LINE
  5
12F
100
AcDbEntity
  8
1
  6
CONTINUOUS
 62
           7
100
AcDbLine
 10
12.099999954965
 20
29.26763324295
 11
15.600000000043
 21
29.26763324295
  0
LINE
  5
12E
100
AcDbEntity
  8
1
  6
CONTINUOUS
 62
           7
100
AcDbLine
 10
11.78245730691
 20
29.81763324295
 11
12.099999954965
 21
29.26763324295
  0
LINE
  5
12D
100
AcDbEntity
  8
1
  6
CONTINUOUS
 62
           7
100
AcDbLine
 10
11.78245730691
 20
32.21763324295
 11
11.78245730691
 21
29.81763324295
  0
LINE
  5
12C
100
AcDbEntity
  8
1
  6
CONTINUOUS
 62
           7
100
AcDbLine
 10
11.78245730691
 20
32.21763324295
 11
8.099999954965
 21
32.21763324295
  0
LINE
  5
12B
100
AcDbEntity
  8
1
  6
CONTINUOUS
 62
           7
100
AcDbLine
 10
12.099999954965
 20
32.76763324295
 11
15.600000000043
 21
32.76763324295
  0
LINE
  5
12A
100
AcDbEntity
  8
1
  6
CONTINUOUS
 62
           7
100
AcDbLine
 10
12.099999954965
 20
32.76763324295
 11
11.78245730691
 21
32.21763324295
  0
LINE
  5
129
100
AcDbEntity
  8
0
  6
CONTINUOUS
 62
           7
100
AcDbLine
 10
15.600000000043
 20
32.76763324295
 11
15.600000000063
 21
34.599999480349
  0
LINE
  5
128
100
AcDbEntity
  8
0
  6
CONTINUOUS
 62
           7
100
AcDbLine
 10
8.099999954965
 20
27.299999589937
 11
8.099999954965
 21
34.59999948045
  0
LINE
  5
127
100
AcDbEntity
  8
0
  6
CONTINUOUS
 62
           7
100
AcDbLine
 10
15.600000000043
 20
29.26763324295
 11
15.600000000043
 21
32.76763324295
  0
LINE
  5
126
100
AcDbEntity
  8
1
  6
CONTINUOUS
 62
           3
100
AcDbLine
 10
6.843328889678
 20
31.01763324295
 11
17.107102058245
 21
31.01763324295
  0
LINE
  5
125
100
AcDbEntity
  8
1
  6
CONTINUOUS
 62
           7
100
AcDbLine
 10
8.099999954965
 20
29.81763324295
 11
11.78245730691
 21
29.81763324295
  0
LINE
  5
124
100
AcDbEntity
  8
1
  6
CONTINUOUS
 62
           3
100
AcDbLine
 10
11.948352544504
 20
29.51763324295
 11
8.099999954965
 21
29.51763324295
  0
LINE
  5
123
100
AcDbEntity
  8
1
  6
CONTINUOUS
 62
           3
100
AcDbLine
 10
8.099999954965
 20
32.51763324295
 11
11.955662387667
 21
32.51763324295
  0
LINE
  5
122
100
AcDbEntity
  8
1
  6
CONTINUOUS
 62
           3
100
AcDbLine
 10
-92.37273593979
 20
-14.533469394308
 11
-94.094811385477
 21
-10.376011498026
  0
LINE
  5
121
100
AcDbEntity
  8
1
  6
CONTINUOUS
 62
           3
100
AcDbLine
 10
-104.427264059602
 20
14.568735879668
 11
-102.705188613915
 21
10.411277983386
  0
LINE
  5
120
100
AcDbEntity
  8
1
  6
CONTINUOUS
 62
           3
100
AcDbLine
 10
-86.997903280385
 20
11.419729962149
 11
-92.831534225174
 21
5.58609901736
  0
LINE
  5
11F
100
AcDbEntity
  8
1
  6
CONTINUOUS
 62
           3
100
AcDbLine
 10
-86.997903280385
 20
-11.384463476249
 11
-92.831534225174
 21
-5.55083253146
  0
LINE
  5
11E
100
AcDbEntity
  8
1
  6
CONTINUOUS
 62
           3
100
AcDbLine
 10
-109.802096718782
 20
-11.384463476249
 11
-103.968465773993
 21
-5.55083253146
  0
LINE
  5
11D
100
AcDbEntity
  8
1
  6
CONTINUOUS
 62
           3
100
AcDbLine
 10
-109.802096718782
 20
11.419729962149
 11
-103.968465773994
 21
5.58609901736
  0
LINE
  5
11C
100
AcDbEntity
  8
1
  6
CONTINUOUS
 62
           7
100
AcDbLine
 10
98.600000677599
 20
4.26027386541
 11
98.600000677599
 21
5.917633153073
  0
LINE
  5
11B
100
AcDbEntity
  8
1
  6
CONTINUOUS
 62
           7
100
AcDbLine
 10
98.600000677599
 20
5.917633153073
 11
101.600000631769
 21
5.917633153073
  0
LINE
  5
11A
100
AcDbEntity
  8
1
  6
CONTINUOUS
 62
           7
100
AcDbLine
 10
101.600000631769
 20
5.917633153073
 11
101.600000631769
 21
4.260273866171
  0
LINE
  5
119
100
AcDbEntity
  8
0
  6
CONTINUOUS
 62
           7
100
AcDbLine
 10
7.799999959522
 20
26.999999594444
 11
5.500000000058
 21
26.99999959453
  0
LINE
  5
118
100
AcDbEntity
  8
0
  6
CONTINUOUS
 62
           7
100
AcDbLine
 10
8.499999949032
 20
34.999999474518
 11
8.099999954965
 21
34.59999948045
  0
LINE
  5
117
100
AcDbEntity
  8
0
  6
CONTINUOUS
 62
           7
100
AcDbLine
 10
15.200000006042
 20
34.999999474238
 11
8.499999949032
 21
34.999999474518
  0
LINE
  5
116
100
AcDbEntity
  8
0
  6
CONTINUOUS
 62
           7
100
AcDbLine
 10
15.600000000063
 20
34.599999480349
 11
15.200000006042
 21
34.999999474238
  0
LINE
  5
115
100
AcDbEntity
  8
0
  6
CONTINUOUS
 62
           7
100
AcDbLine
 10
16.499999999932
 20
-12.499999812244
 11
16.499999999932
 21
-9.9999998498
  0
LINE
  5
114
100
AcDbEntity
  8
0
  6
CONTINUOUS
 62
           7
100
AcDbLine
 10
15.189999922013
 20
-12.499999812244
 11
16.499999999932
 21
-12.499999812244
  0
LINE
  5
113
100
AcDbEntity
  8
0
  6
CONTINUOUS
 62
           7
100
AcDbLine
 10
15.189999922013
 20
-9.9999998498
 11
15.189999922013
 21
-12.499999812244
  0
LINE
  5
112
100
AcDbEntity
  8
0
  6
CONTINUOUS
 62
           7
100
AcDbLine
 10
15.189999922013
 20
-10.999999834753
 11
2.304999992581
 21
-10.999999834753
  0
LINE
  5
111
100
AcDbEntity
  8
0
  6
CONTINUOUS
 62
           7
100
AcDbLine
 10
15.189999922013
 20
-13.999999789736
 11
15.189999922013
 21
-10.499999842289
  0
LINE
  5
110
100
AcDbEntity
  8
0
  6
CONTINUOUS
 62
           7
100
AcDbLine
 10
14.100000000041
 20
-13.999999789736
 11
15.189999922013
 21
-13.999999789736
  0
LINE
  5
10F
100
AcDbEntity
  8
0
  6
CONTINUOUS
 62
           7
100
AcDbLine
 10
14.100000000041
 20
-10.999999834753
 11
14.100000000041
 21
-13.999999789736
  0
LINE
  5
10E
100
AcDbEntity
  8
0
  6
CONTINUOUS
 62
           7
100
AcDbLine
 10
2.299999992551
 20
10.999999834798
 11
15.189999922013
 21
10.999999834798
  0
LINE
  5
10D
100
AcDbEntity
  8
0
  6
CONTINUOUS
 62
           7
100
AcDbLine
 10
16.499999999932
 20
12.499999812272
 11
15.189999922013
 21
12.499999812272
  0
LINE
  5
10C
100
AcDbEntity
  8
0
  6
CONTINUOUS
 62
           7
100
AcDbLine
 10
16.499999999932
 20
9.999999849823
 11
16.499999999932
 21
12.499999812272
  0
LINE
  5
10B
100
AcDbEntity
  8
0
  6
CONTINUOUS
 62
           7
100
AcDbLine
 10
15.189999922013
 20
13.999999789749
 11
15.189999922013
 21
9.999999849823
  0
LINE
  5
10A
100
AcDbEntity
  8
0
  6
CONTINUOUS
 62
           7
100
AcDbLine
 10
14.100000000041
 20
13.999999789749
 11
15.189999922013
 21
13.999999789749
  0
LINE
  5
109
100
AcDbEntity
  8
0
  6
CONTINUOUS
 62
           7
100
AcDbLine
 10
14.100000000041
 20
10.999999834798
 11
14.100000000041
 21
13.999999789749
  0
LINE
  5
108
100
AcDbEntity
  8
0
  6
CONTINUOUS
 62
           7
100
AcDbLine
 10
-1.399999999964
 20
-4.499999932399
 11
20.100000000036
 21
-4.499999932399
  0
LINE
  5
107
100
AcDbEntity
  8
0
  6
CONTINUOUS
 62
           7
100
AcDbLine
 10
20.100000000036
 20
4.499999932412
 11
-1.399999999964
 21
4.499999932412
  0
LINE
  5
106
100
AcDbEntity
  8
0
  6
CONTINUOUS
 62
           7
100
AcDbLine
 10
-1.399999999964
 20
5.89999991138
 11
20.100000000036
 21
5.89999991138
  0
LINE
  5
105
100
AcDbEntity
  8
0
  6
CONTINUOUS
 62
           7
100
AcDbLine
 10
-1.399999999964
 20
-10.749999838534
 11
1.805000000048
 21
-10.749999838534
  0
LINE
  5
104
100
AcDbEntity
  8
0
  6
CONTINUOUS
 62
           7
100
AcDbLine
 10
14.100000000036
 20
-10.499999842289
 11
14.100000000041
 21
-10.999999834753
  0
LINE
  5
103
100
AcDbEntity
  8
0
  6
CONTINUOUS
 62
           7
100
AcDbLine
 10
5.800000000048
 20
-10.499999842289
 11
5.800000000048
 21
-16.899999746145
  0
LINE
  5
102
100
AcDbEntity
  8
0
  6
CONTINUOUS
 62
           7
100
AcDbLine
 10
14.100000000041
 20
10.999999834798
 11
14.100000000036
 21
10.499999842299
  0
LINE
  5
101
100
AcDbEntity
  8
0
  6
CONTINUOUS
 62
           7
100
AcDbLine
 10
5.800000000036
 20
17.779999732989
 11
5.800000000036
 21
10.499999842299
  0
LINE
  5
100
100
AcDbEntity
  8
0
  6
CONTINUOUS
 62
           7
100
AcDbLine
 10
14.100000000036
 20
-17.779999732971
 11
14.100000000041
 21
-10.999999834753
  0
LINE
  5
FF
100
AcDbEntity
  8
0
  6
CONTINUOUS
 62
           7
100
AcDbLine
 10
5.800000000036
 20
-17.779999732971
 11
14.100000000036
 21
-17.779999732971
  0
LINE
  5
FE
100
AcDbEntity
  8
0
  6
CONTINUOUS
 62
           7
100
AcDbLine
 10
9.140000014366
 20
10.999999834798
 11
9.140000014366
 21
17.779999732989
  0
LINE
  5
FD
100
AcDbEntity
  8
0
  6
CONTINUOUS
 62
           7
100
AcDbLine
 10
14.100000000036
 20
17.779999732989
 11
14.100000000041
 21
10.999999834798
  0
LINE
  5
FC
100
AcDbEntity
  8
0
  6
CONTINUOUS
 62
           7
100
AcDbLine
 10
5.800000000036
 20
17.779999732989
 11
14.100000000036
 21
17.779999732989
  0
LINE
  5
FB
100
AcDbEntity
  8
0
  6
CONTINUOUS
 62
           7
100
AcDbLine
 10
5.700000127729
 20
-16.899999746145
 11
5.800000000048
 21
-16.899999746145
  0
LINE
  5
FA
100
AcDbEntity
  8
0
  6
CONTINUOUS
 62
           7
100
AcDbLine
 10
5.700000127729
 20
-22.999999654534
 11
5.700000127729
 21
-16.899999746145
  0
LINE
  5
F9
100
AcDbEntity
  8
0
  6
CONTINUOUS
 62
           7
100
AcDbLine
 10
2.105000181793
 20
-22.999999654534
 11
5.700000127729
 21
-22.999999654534
  0
LINE
  5
F8
100
AcDbEntity
  8
0
  6
CONTINUOUS
 62
           7
100
AcDbLine
 10
2.105000181793
 20
-16.899999746145
 11
2.105000181793
 21
-22.999999654534
  0
LINE
  5
F7
100
AcDbEntity
  8
0
  6
CONTINUOUS
 62
           7
100
AcDbLine
 10
-1.064999832415
 20
-16.899999746145
 11
2.105000181793
 21
-16.899999746145
  0
LINE
  5
F6
100
AcDbEntity
  8
0
  6
CONTINUOUS
 62
           7
100
AcDbLine
 10
-1.064999832415
 20
-11.749999823511
 11
-1.064999832415
 21
-16.899999746145
  0
LINE
  5
F5
100
AcDbEntity
  8
0
  6
CONTINUOUS
 62
           7
100
AcDbLine
 10
1.805000000048
 20
-11.749999823511
 11
-1.064999832415
 21
-11.749999823511
  0
LINE
  5
F4
100
AcDbEntity
  8
0
  6
CONTINUOUS
 62
           7
100
AcDbLine
 10
1.805000000048
 20
-11.499999827267
 11
1.805000000048
 21
-11.749999823511
  0
LINE
  5
F3
100
AcDbEntity
  8
0
  6
CONTINUOUS
 62
           7
100
AcDbLine
 10
2.304999992581
 20
-10.999999834753
 11
1.805000000048
 21
-11.499999827267
  0
LINE
  5
F2
100
AcDbEntity
  8
0
  6
CONTINUOUS
 62
           7
100
AcDbLine
 10
5.800000000048
 20
16.899999746204
 11
5.800000000048
 21
11.749999823514
  0
LINE
  5
F1
100
AcDbEntity
  8
0
  6
CONTINUOUS
 62
           7
100
AcDbLine
 10
5.800000000048
 20
11.749999823514
 11
5.800000000036
 21
10.999999834798
  0
LINE
  5
F0
100
AcDbEntity
  8
0
  6
CONTINUOUS
 62
           7
100
AcDbLine
 10
8.94000001739
 20
11.749999823514
 11
5.800000000048
 21
11.749999823514
  0
LINE
  5
EF
100
AcDbEntity
  8
0
  6
CONTINUOUS
 62
           7
100
AcDbLine
 10
8.94000001739
 20
16.899999746204
 11
8.94000001739
 21
11.749999823514
  0
LINE
  5
EE
100
AcDbEntity
  8
0
  6
CONTINUOUS
 62
           7
100
AcDbLine
 10
5.700000127729
 20
16.899999746204
 11
8.94000001739
 21
16.899999746204
  0
LINE
  5
ED
100
AcDbEntity
  8
0
  6
CONTINUOUS
 62
           7
100
AcDbLine
 10
5.700000127729
 20
22.999999654551
 11
5.700000127729
 21
16.899999746204
  0
LINE
  5
EC
100
AcDbEntity
  8
0
  6
CONTINUOUS
 62
           7
100
AcDbLine
 10
2.100000181793
 20
22.999999654551
 11
5.700000127729
 21
22.999999654551
  0
LINE
  5
EB
100
AcDbEntity
  8
0
  6
CONTINUOUS
 62
           7
100
AcDbLine
 10
2.100000181793
 20
16.899999746204
 11
2.100000181793
 21
22.999999654551
  0
LINE
  5
EA
100
AcDbEntity
  8
0
  6
CONTINUOUS
 62
           7
100
AcDbLine
 10
1.800000000048
 20
16.899999746204
 11
2.100000181793
 21
16.899999746204
  0
LINE
  5
E9
100
AcDbEntity
  8
0
  6
CONTINUOUS
 62
           7
100
AcDbLine
 10
2.299999992551
 20
10.999999834798
 11
1.800000000048
 21
11.499999827274
  0
LINE
  5
E8
100
AcDbEntity
  8
0
  6
CONTINUOUS
 62
           7
100
AcDbLine
 10
20.100000000036
 20
-9.999999849775
 11
20.100000000036
 21
9.999999849778
  0
LINE
  5
E7
100
AcDbEntity
  8
0
  6
CONTINUOUS
 62
           7
100
AcDbLine
 10
19.600000007547
 20
-10.499999842289
 11
20.100000000036
 21
-9.999999849775
  0
LINE
  5
E6
100
AcDbEntity
  8
0
  6
CONTINUOUS
 62
           7
100
AcDbLine
 10
16.499999999932
 20
-10.499999842289
 11
19.600000007547
 21
-10.499999842289
  0
LINE
  5
E5
100
AcDbEntity
  8
0
  6
CONTINUOUS
 62
           7
100
AcDbLine
 10
15.189999922013
 20
-9.9999998498
 11
16.499999999932
 21
-9.9999998498
  0
LINE
  5
E4
100
AcDbEntity
  8
0
  6
CONTINUOUS
 62
           7
100
AcDbLine
 10
1.805000000048
 20
-10.499999842289
 11
15.189999922013
 21
-10.499999842289
  0
LINE
  5
E3
100
AcDbEntity
  8
0
  6
CONTINUOUS
 62
           7
100
AcDbLine
 10
-1.399999999964
 20
-17.999999729646
 11
1.805000000048
 21
-17.999999729646
  0
LINE
  5
E2
100
AcDbEntity
  8
0
  6
CONTINUOUS
 62
           7
100
AcDbLine
 10
-1.399999999964
 20
17.999999729651
 11
-1.399999999964
 21
-17.999999729646
  0
LINE
  5
E1
100
AcDbEntity
  8
0
  6
CONTINUOUS
 62
           7
100
AcDbLine
 10
19.600000007547
 20
10.499999842299
 11
20.100000000036
 21
9.999999849778
  0
LINE
  5
E0
100
AcDbEntity
  8
0
  6
CONTINUOUS
 62
           7
100
AcDbLine
 10
16.499999999932
 20
10.499999842299
 11
19.600000007547
 21
10.499999842299
  0
LINE
  5
DF
100
AcDbEntity
  8
0
  6
CONTINUOUS
 62
           7
100
AcDbLine
 10
15.189999922013
 20
9.999999849823
 11
16.499999999932
 21
9.999999849823
  0
LINE
  5
DE
100
AcDbEntity
  8
0
  6
CONTINUOUS
 62
           7
100
AcDbLine
 10
1.800000000048
 20
10.499999842299
 11
15.189999922013
 21
10.499999842299
  0
LINE
  5
DD
100
AcDbEntity
  8
0
  6
CONTINUOUS
 62
           7
100
AcDbLine
 10
-1.399999999964
 20
17.999999729651
 11
1.800000000048
 21
17.999999729651
  0
LINE
  5
DC
100
AcDbEntity
  8
0
  6
CONTINUOUS
 62
           7
100
AcDbLine
 10
96.740000705809
 20
-12.407366570342
 11
96.740000705809
 21
-10.983130829283
  0
LINE
  5
DB
100
AcDbEntity
  8
0
  6
CONTINUOUS
 62
           7
100
AcDbLine
 10
99.750000660578
 20
-13.107366559841
 11
97.440000695272
 21
-13.107366559841
  0
LINE
  5
DA
100
AcDbEntity
  8
0
  6
CONTINUOUS
 62
           7
100
AcDbLine
 10
99.750000660578
 20
-10.441092182689
 11
99.750000660578
 21
-13.107366559841
  0
LINE
  5
D9
100
AcDbEntity
  8
0
  6
CONTINUOUS
 62
           7
100
AcDbLine
 10
103.460000604842
 20
-12.407366570342
 11
103.460000604842
 21
-10.983130829283
  0
LINE
  5
D8
100
AcDbEntity
  8
0
  6
CONTINUOUS
 62
           7
100
AcDbLine
 10
100.450000650061
 20
-13.107366559841
 11
102.760000615369
 21
-13.107366559841
  0
LINE
  5
D7
100
AcDbEntity
  8
0
  6
CONTINUOUS
 62
           7
100
AcDbLine
 10
100.450000650061
 20
-10.441092182689
 11
100.450000650061
 21
-13.107366559841
  0
LINE
  5
D6
100
AcDbEntity
  8
1
  6
CONTINUOUS
 62
           7
100
AcDbLine
 10
5.100000000036
 20
-26.599999594537
 11
5.500000000058
 21
-26.99999959453
  0
LINE
  5
D5
100
AcDbEntity
  8
1
  6
CONTINUOUS
 62
           7
100
AcDbLine
 10
8.099999954965
 20
-29.25
 11
15.600000000043
 21
-29.25
  0
LINE
  5
D4
100
AcDbEntity
  8
1
  6
CONTINUOUS
 62
           7
100
AcDbLine
 10
15.600000000043
 20
-32.75
 11
8.099999954965
 21
-32.75
  0
LINE
  5
D3
100
AcDbEntity
  8
0
  6
CONTINUOUS
 62
           7
100
AcDbLine
 10
15.600000000063
 20
-34.599999480349
 11
15.600000000043
 21
-32.75
  0
LINE
  5
D2
100
AcDbEntity
  8
0
  6
CONTINUOUS
 62
           7
100
AcDbLine
 10
15.600000000043
 20
-32.75
 11
15.600000000043
 21
-29.25
  0
LINE
  5
D1
100
AcDbEntity
  8
0
  6
CONTINUOUS
 62
           7
100
AcDbLine
 10
8.099999954965
 20
-34.59999948045
 11
8.099999954965
 21
-27.299999589937
  0
LINE
  5
D0
100
AcDbEntity
  8
0
  6
CONTINUOUS
 62
           7
100
AcDbLine
 10
5.500000000058
 20
-26.99999959453
 11
7.799999959522
 21
-26.999999594444
  0
LINE
  5
CF
100
AcDbEntity
  8
0
  6
CONTINUOUS
 62
           7
100
AcDbLine
 10
8.099999954965
 20
-34.59999948045
 11
8.499999949032
 21
-34.999999474518
  0
LINE
  5
CE
100
AcDbEntity
  8
0
  6
CONTINUOUS
 62
           7
100
AcDbLine
 10
8.499999949032
 20
-34.999999474518
 11
15.200000006042
 21
-34.999999474238
  0
LINE
  5
CD
100
AcDbEntity
  8
0
  6
CONTINUOUS
 62
           7
100
AcDbLine
 10
15.200000006042
 20
-34.999999474238
 11
15.600000000063
 21
-34.599999480349
  0
LINE
  5
CC
100
AcDbEntity
  8
1
  6
CONTINUOUS
 62
           3
100
AcDbLine
 10
16.634399327311
 20
-31.0
 11
6.843328889678
 21
-31.0
  0
LINE
  5
CB
100
AcDbEntity
  8
1
  6
CONTINUOUS
 62
           7
100
AcDbLine
 10
15.200000000038
 20
25.133
 11
5.500000000029
 21
25.133
  0
LINE
  5
CA
100
AcDbEntity
  8
1
  6
CONTINUOUS
 62
           7
100
AcDbLine
 10
1.800000000048
 20
17.999999729651
 11
1.800000000048
 21
10.499999842299
  0
LINE
  5
C9
100
AcDbEntity
  8
1
  6
CONTINUOUS
 62
           7
100
AcDbLine
 10
1.805000000048
 20
-10.499999842289
 11
1.805000000048
 21
-11.499999827267
  0
LINE
  5
C8
100
AcDbEntity
  8
1
  6
CONTINUOUS
 62
           7
100
AcDbLine
 10
1.805000000048
 20
-17.999999729646
 11
1.805000000048
 21
-11.749999823511
  0
LINE
  5
C7
100
AcDbEntity
  8
1
  6
CONTINUOUS
 62
           7
100
AcDbLine
 10
15.599999999907
 20
-25.533
 11
15.599999999907
 21
-26.5
  0
LINE
  5
C6
100
AcDbEntity
  8
1
  6
CONTINUOUS
 62
           7
100
AcDbLine
 10
15.599999999907
 20
-25.533
 11
15.199999999907
 21
-25.133
  0
LINE
  5
C5
100
AcDbEntity
  8
1
  6
CONTINUOUS
 62
           7
100
AcDbLine
 10
5.100000000036
 20
-25.533
 11
5.100000000036
 21
-26.599999594537
  0
LINE
  5
C4
100
AcDbEntity
  8
1
  6
CONTINUOUS
 62
           7
100
AcDbLine
 10
5.500000000036
 20
-25.133
 11
15.199999999907
 21
-25.133
  0
LINE
  5
C3
100
AcDbEntity
  8
1
  6
CONTINUOUS
 62
           7
100
AcDbLine
 10
5.500000000036
 20
-25.133
 11
5.100000000036
 21
-25.533
  0
LINE
  5
C2
100
AcDbEntity
  8
1
  6
CONTINUOUS
 62
           7
100
AcDbLine
 10
5.100000000036
 20
-25.6
 11
15.599999999907
 21
-25.6
  0
LINE
  5
C1
100
AcDbEntity
  8
1
  6
CONTINUOUS
 62
           7
100
AcDbLine
 10
5.100000000029
 20
25.6
 11
15.600000000038
 21
25.6
  0
LINE
  5
C0
100
AcDbEntity
  8
1
  6
CONTINUOUS
 62
           7
100
AcDbLine
 10
15.600000000036
 20
25.532999999999
 11
15.200000000038
 21
25.133
  0
LINE
  5
BF
100
AcDbEntity
  8
1
  6
CONTINUOUS
 62
           7
100
AcDbLine
 10
5.100000000029
 20
25.533
 11
5.500000000029
 21
25.133
  0
LINE
  5
BE
100
AcDbEntity
  8
1
  6
CONTINUOUS
 62
           7
100
AcDbLine
 10
15.600000000036
 20
-21.130163360668
 11
15.600000000036
 21
-24.9
  0
LINE
  5
BD
100
AcDbEntity
  8
1
  6
CONTINUOUS
 62
           7
100
AcDbLine
 10
14.975209916069
 20
-25.524790083966
 11
15.600000000036
 21
-24.9
  0
LINE
  5
BC
100
AcDbEntity
  8
1
  6
CONTINUOUS
 62
           7
100
AcDbLine
 10
13.000000000036
 20
-25.6
 11
14.975209916069
 21
-25.524790083966
  0
LINE
  5
BB
100
AcDbEntity
  8
1
  6
CONTINUOUS
 62
           7
100
AcDbLine
 10
15.600000000036
 20
24.9
 11
14.975209916069
 21
25.524790083966
  0
LINE
  5
BA
100
AcDbEntity
  8
1
  6
CONTINUOUS
 62
           7
100
AcDbLine
 10
1.288000000036
 20
-24.885
 11
-9.250999999964
 21
-24.885
  0
LINE
  5
B9
100
AcDbEntity
  8
1
  6
CONTINUOUS
 62
           7
100
AcDbLine
 10
-9.349999999964
 20
-24.534
 11
14.600000000036
 21
-24.534
  0
LINE
  5
B8
100
AcDbEntity
  8
1
  6
CONTINUOUS
 62
           7
100
AcDbLine
 10
15.600000000036
 20
-24.586407779283
 11
14.600000000036
 21
-24.534
  0
LINE
  5
B7
100
AcDbEntity
  8
1
  6
CONTINUOUS
 62
           7
100
AcDbLine
 10
6.590000000036
 20
-25.551
 11
6.591592609216
 21
-25.551019460811
  0
LINE
  5
B6
100
AcDbEntity
  8
1
  6
CONTINUOUS
 62
           7
100
AcDbLine
 10
6.591592609216
 20
-25.551019460811
 11
10.600000000036
 21
-25.6
  0
LINE
  5
B5
100
AcDbEntity
  8
1
  6
CONTINUOUS
 62
           7
100
AcDbLine
 10
10.600000000036
 20
-25.6
 11
13.000000000036
 21
-25.6
  0
LINE
  5
B4
100
AcDbEntity
  8
1
  6
CONTINUOUS
 62
           7
100
AcDbLine
 10
-10.899999999964
 20
-8.0
 11
-12.899999999964
 21
-8.0
  0
LINE
  5
B3
100
AcDbEntity
  8
1
  6
CONTINUOUS
 62
           7
100
AcDbLine
 10
-12.899999999964
 20
-16.0
 11
-13.399999999964
 21
-15.5
  0
LINE
  5
B2
100
AcDbEntity
  8
1
  6
CONTINUOUS
 62
           7
100
AcDbLine
 10
-10.920999999964
 20
-16.0
 11
-12.899999999964
 21
-16.0
  0
LINE
  5
B1
100
AcDbEntity
  8
1
  6
CONTINUOUS
 62
           7
100
AcDbLine
 10
15.600000000036
 20
21.201729761107
 11
15.600000000036
 21
24.9
  0
LINE
  5
B0
100
AcDbEntity
  8
1
  6
CONTINUOUS
 62
           7
100
AcDbLine
 10
14.975209916069
 20
25.524790083966
 11
13.000000000036
 21
25.6
  0
LINE
  5
AF
100
AcDbEntity
  8
1
  6
CONTINUOUS
 62
           7
100
AcDbLine
 10
14.600000000036
 20
24.534
 11
-9.349999999964
 21
24.534
  0
LINE
  5
AE
100
AcDbEntity
  8
1
  6
CONTINUOUS
 62
           7
100
AcDbLine
 10
14.600000000036
 20
24.534
 11
15.600000000036
 21
24.586407779283
  0
LINE
  5
AD
100
AcDbEntity
  8
1
  6
CONTINUOUS
 62
           7
100
AcDbLine
 10
-10.399999999964
 20
23.284
 11
-10.399999999964
 21
-23.284
  0
LINE
  5
AC
100
AcDbEntity
  8
1
  6
CONTINUOUS
 62
           7
100
AcDbLine
 10
-12.899999999964
 20
8.0
 11
-10.899999999964
 21
8.0
  0
LINE
  5
AB
100
AcDbEntity
  8
1
  6
CONTINUOUS
 62
           3
100
AcDbLine
 10
-10.399999999964
 20
0.0
 11
25.291574510948
 21
0.0
  0
LINE
  5
AA
100
AcDbEntity
  8
1
  6
CONTINUOUS
 62
           7
100
AcDbLine
 10
-13.399999999964
 20
15.5
 11
-12.899999999964
 21
16.0
  0
LINE
  5
A9
100
AcDbEntity
  8
1
  6
CONTINUOUS
 62
           7
100
AcDbLine
 10
-13.399999999964
 20
15.5
 11
-13.399999999964
 21
-15.5
  0
LINE
  5
A8
100
AcDbEntity
  8
1
  6
CONTINUOUS
 62
           7
100
AcDbLine
 10
-12.899999999964
 20
16.0
 11
-10.950999999964
 21
16.0
  0
LINE
  5
A7
100
AcDbEntity
  8
1
  6
CONTINUOUS
 62
           7
100
AcDbLine
 10
-9.250999999964
 20
24.885
 11
1.288000000036
 21
24.885
  0
LINE
  5
A6
100
AcDbEntity
  8
1
  6
CONTINUOUS
 62
           7
100
AcDbLine
 10
6.591592609216
 20
25.55101946081
 11
6.590000000036
 21
25.551
  0
LINE
  5
A5
100
AcDbEntity
  8
1
  6
CONTINUOUS
 62
           7
100
AcDbLine
 10
10.600000000036
 20
25.6
 11
6.591592609216
 21
25.55101946081
  0
LINE
  5
A4
100
AcDbEntity
  8
1
  6
CONTINUOUS
 62
           7
100
AcDbLine
 10
13.000000000036
 20
25.6
 11
10.600000000036
 21
25.6
  0
LINE
  5
A3
100
AcDbEntity
  8
1
  6
CONTINUOUS
 62
           3
100
AcDbLine
 10
-16.279009638133
 20
0.0
 11
-10.399999999964
 21
0.0
  0
LINE
  5
A2
100
AcDbEntity
  8
1
  6
CONTINUOUS
 62
           3
100
AcDbLine
 10
-98.399999999965
 20
40.29263324295
 11
-98.399999999964
 21
-39.98236675705
  0
LINE
  5
A1
100
AcDbEntity
  8
1
  6
CONTINUOUS
 62
           4
100
AcDbLine
 10
15.599999999907
 20
-26.5
 11
17.099999999907
 21
-26.5
  0
LINE
  5
A0
100
AcDbEntity
  8
1
  6
CONTINUOUS
 62
           7
100
AcDbLine
 10
15.599999999907
 20
-26.5
 11
15.600000000043
 21
-29.25
  0
LINE
  5
9F
100
AcDbEntity
  8
1
  6
CONTINUOUS
 62
           4
100
AcDbLine
 10
17.099999999907
 20
-26.5
 11
17.099999999907
 21
-19.617137211438
  0
LINE
  5
9E
100
AcDbEntity
  8
1
  6
CONTINUOUS
 62
           4
100
AcDbLine
 10
-7.205549814719
 20
-26.5
 11
-12.400000045035
 21
-26.5
  0
LINE
  5
9D
100
AcDbEntity
  8
1
  6
CONTINUOUS
 62
           4
100
AcDbLine
 10
-12.400000045035
 20
-26.5
 11
-12.400000045035
 21
-20.077695652268
  0
LINE
  5
9C
100
AcDbEntity
  8
1
  6
CONTINUOUS
 62
           7
100
AcDbLine
 10
-12.899999999964
 20
8.0
 11
-13.399999999964
 21
8.5
  0
LINE
  5
9B
100
AcDbEntity
  8
1
  6
CONTINUOUS
 62
           7
100
AcDbLine
 10
-10.899999999964
 20
8.0
 11
-10.399999999964
 21
8.5
  0
LINE
  5
9A
100
AcDbEntity
  8
1
  6
CONTINUOUS
 62
           7
100
AcDbLine
 10
-12.899999999964
 20
-8.0
 11
-13.399999999964
 21
-8.5
  0
LINE
  5
99
100
AcDbEntity
  8
1
  6
CONTINUOUS
 62
           7
100
AcDbLine
 10
-10.899999999964
 20
-8.0
 11
-10.399999999964
 21
-8.5
  0
LINE
  5
98
100
AcDbEntity
  8
1
  6
CONTINUOUS
 62
           7
100
AcDbLine
 10
-13.399999999964
 20
14.75
 11
-10.399999999964
 21
14.75
  0
LINE
  5
97
100
AcDbEntity
  8
1
  6
CONTINUOUS
 62
           7
100
AcDbLine
 10
-13.399999999964
 20
9.25
 11
-10.399999999964
 21
9.25
  0
LINE
  5
96
100
AcDbEntity
  8
1
  6
CONTINUOUS
 62
           3
100
AcDbLine
 10
-14.253041874527
 20
12.0
 11
-9.602099954099
 21
12.0
  0
LINE
  5
95
100
AcDbEntity
  8
1
  6
CONTINUOUS
 62
           3
100
AcDbLine
 10
-13.399999999964
 20
-15.0
 11
-10.399999999964
 21
-15.0
  0
LINE
  5
94
100
AcDbEntity
  8
1
  6
CONTINUOUS
 62
           3
100
AcDbLine
 10
-13.399999999964
 20
-12.0
 11
-10.399999999964
 21
-12.0
  0
LINE
  5
93
100
AcDbEntity
  8
1
  6
CONTINUOUS
 62
           3
100
AcDbLine
 10
-13.999999999964
 20
-13.5
 11
-9.799999999964
 21
-13.5
  0
LINE
  5
92
100
AcDbEntity
  8
1
  6
CONTINUOUS
 62
           7
100
AcDbLine
 10
-13.399999999964
 20
-14.7
 11
-10.399999999964
 21
-14.7
  0
LINE
  5
91
100
AcDbEntity
  8
1
  6
CONTINUOUS
 62
           7
100
AcDbLine
 10
-13.399999999964
 20
-12.3
 11
-10.399999999964
 21
-12.3
  0
LINE
  5
90
100
AcDbEntity
  8
1
  6
CONTINUOUS
 62
           3
100
AcDbLine
 10
-91.840087921926
 20
32.996538296146
 11
-91.840087921926
 21
32.996538296146
  0
LINE
  5
8F
100
AcDbEntity
  8
1
  6
CONTINUOUS
 62
           3
100
AcDbLine
 10
-85.532269586126
 20
31.083082523042
 11
-87.541357606153
 21
26.232714977403
  0
LINE
  5
8E
100
AcDbEntity
  8
1
  6
CONTINUOUS
 62
           3
100
AcDbLine
 10
-91.840087921926
 20
32.996538296146
 11
-92.864312112561
 21
27.847415573942
  0
LINE
  5
8D
100
AcDbEntity
  8
1
  6
CONTINUOUS
 62
           3
100
AcDbLine
 10
-91.840087921926
 20
32.996538296146
 11
-92.864312112561
 21
27.847415573942
  0
LINE
  5
8C
100
AcDbEntity
  8
1
  6
CONTINUOUS
 62
           3
100
AcDbLine
 10
-78.335845083932
 20
20.081788158656
 11
-74.623534482704
 21
23.794098759887
  0
LINE
  5
8B
100
AcDbEntity
  8
1
  6
CONTINUOUS
 62
           3
100
AcDbLine
 10
-72.184918265109
 20
10.876275635977
 11
-67.334550719423
 21
12.885363655889
  0
LINE
  5
8A
100
AcDbEntity
  8
1
  6
CONTINUOUS
 62
           3
100
AcDbLine
 10
-78.335845083939
 20
-20.046521673612
 11
-74.623534482708
 21
-23.75883227484
  0
LINE
  5
89
100
AcDbEntity
  8
1
  6
CONTINUOUS
 62
           3
100
AcDbLine
 10
-72.184918265119
 20
-10.841009150814
 11
-67.334550719444
 21
-12.850097170753
  0
LINE
  5
88
100
AcDbEntity
  8
1
  6
CONTINUOUS
 62
           3
100
AcDbLine
 10
-87.541357606764
 20
-26.197448492285
 11
-85.532269586845
 21
-31.047816037968
  0
LINE
  5
87
100
AcDbEntity
  8
1
  6
CONTINUOUS
 62
           3
100
AcDbLine
 10
-104.959912077645
 20
-32.961271811238
 11
-103.935687887056
 21
-27.812149089122
  0
LINE
  5
86
100
AcDbEntity
  8
1
  6
CONTINUOUS
 62
           3
100
AcDbLine
 10
-109.258642393417
 20
-26.197448492351
 11
-111.267730413328
 21
-31.047816038038
  0
LINE
  5
85
100
AcDbEntity
  8
1
  6
CONTINUOUS
 62
           3
100
AcDbLine
 10
-122.176465517446
 20
-23.758832274863
 11
-118.464154916217
 21
-20.046521673634
  0
LINE
  5
84
100
AcDbEntity
  8
1
  6
CONTINUOUS
 62
           3
100
AcDbLine
 10
-129.465449280769
 20
-12.850097170596
 11
-124.615081735085
 21
-10.841009150679
  0
LINE
  5
83
100
AcDbEntity
  8
1
  6
CONTINUOUS
 62
           3
100
AcDbLine
 10
-129.465449280439
 20
12.88536365663
 11
-124.6150817348
 21
10.876275636603
  0
LINE
  5
82
100
AcDbEntity
  8
1
  6
CONTINUOUS
 62
           3
100
AcDbLine
 10
-122.176465517443
 20
23.794098760078
 11
-118.46415491623
 21
20.081788158832
  0
LINE
  5
81
100
AcDbEntity
  8
1
  6
CONTINUOUS
 62
           3
100
AcDbLine
 10
-111.267730413353
 20
31.083082523372
 11
-109.258642393436
 21
26.232714977688
  0
LINE
  5
80
100
AcDbEntity
  8
1
  6
CONTINUOUS
 62
           3
100
AcDbLine
 10
112.967730411928
 20
31.062435829922
 11
110.958642494564
 21
26.212068241759
  0
LINE
  5
7F
100
AcDbEntity
  8
1
  6
CONTINUOUS
 62
           3
100
AcDbLine
 10
123.876465670162
 20
23.773452297273
 11
120.164155147423
 21
20.061141617553
  0
LINE
  5
7E
100
AcDbEntity
  8
1
  6
CONTINUOUS
 62
           3
100
AcDbLine
 10
131.165449664102
 20
12.864717347264
 11
126.315082160896
 21
10.855629224795
  0
LINE
  5
7D
100
AcDbEntity
  8
1
  6
CONTINUOUS
 62
           3
100
AcDbLine
 10
131.165450208231
 20
-12.870743479289
 11
126.315082620068
 21
-10.861655561924
  0
LINE
  5
7C
100
AcDbEntity
  8
1
  6
CONTINUOUS
 62
           3
100
AcDbLine
 10
123.876466675582
 20
-23.779478737522
 11
120.164155995863
 21
-20.067168214783
  0
LINE
  5
7B
100
AcDbEntity
  8
1
  6
CONTINUOUS
 62
           3
100
AcDbLine
 10
106.586754552013
 20
-32.614124159092
 11
105.708848009625
 21
-28.200590415839
  0
LINE
  5
7A
100
AcDbEntity
  8
1
  6
CONTINUOUS
 62
           3
100
AcDbLine
 10
112.967731725573
 20
-31.068462731462
 11
110.958643603104
 21
-26.218095228256
  0
LINE
  5
79
100
AcDbEntity
  8
1
  6
CONTINUOUS
 62
           3
100
AcDbLine
 10
87.23227089902
 20
-31.068463275591
 11
89.241358816385
 21
-26.218095687429
  0
LINE
  5
78
100
AcDbEntity
  8
1
  6
CONTINUOUS
 62
           3
100
AcDbLine
 10
76.323535640787
 20
-23.779479742942
 11
80.035846163526
 21
-20.067169063223
  0
LINE
  5
77
100
AcDbEntity
  8
1
  6
CONTINUOUS
 62
           3
100
AcDbLine
 10
69.034551646847
 20
-12.870744792933
 11
73.884919150053
 21
-10.861656670464
  0
LINE
  5
76
100
AcDbEntity
  8
1
  6
CONTINUOUS
 62
           3
100
AcDbLine
 10
69.034551102718
 20
12.864716033619
 11
73.88491869088
 21
10.855628116255
  0
LINE
  5
75
100
AcDbEntity
  8
1
  6
CONTINUOUS
 62
           3
100
AcDbLine
 10
76.323534635367
 20
23.773451291853
 11
80.035845315086
 21
20.061140769114
  0
LINE
  5
74
100
AcDbEntity
  8
1
  6
CONTINUOUS
 62
           3
100
AcDbLine
 10
93.613246758936
 20
32.608096713422
 11
94.491153301324
 21
28.194562970169
  0
LINE
  5
73
100
AcDbEntity
  8
1
  6
CONTINUOUS
 62
           3
100
AcDbLine
 10
87.232269585376
 20
31.062435285793
 11
89.241357707845
 21
26.212067782587
  0
LINE
  5
72
100
AcDbEntity
  8
1
  6
CONTINUOUS
 62
           7
100
AcDbLine
 10
5.800000000036
 20
-17.779999732971
 11
5.800000000048
 21
-10.499999842289
  0
LINE
  5
71
100
AcDbEntity
  8
1
  6
CONTINUOUS
 62
           7
100
AcDbLine
 10
6.615000000036
 20
23.202724306583
 11
8.975379637595
 21
23.202724306583
  0
LINE
  5
70
100
AcDbEntity
  8
1
  6
CONTINUOUS
 62
           7
100
AcDbLine
 10
5.970000000036
 20
18.07749999973
 11
5.970000000036
 21
18.886040633752
  0
LINE
  5
6F
100
AcDbEntity
  8
1
  6
CONTINUOUS
 62
           7
100
AcDbLine
 10
6.415000000036
 20
23.402724306583
 11
6.615000000036
 21
23.202724306583
  0
LINE
  5
6E
100
AcDbEntity
  8
1
  6
CONTINUOUS
 62
           7
100
AcDbLine
 10
6.270000000036
 20
19.186040633752
 11
5.970000000036
 21
18.886040633752
  0
LINE
  5
6D
100
AcDbEntity
  8
1
  6
CONTINUOUS
 62
           7
100
AcDbLine
 10
5.970000000036
 20
18.07749999973
 11
6.267500267093
 21
17.779999732673
  0
LINE
  5
6C
100
AcDbEntity
  8
1
  6
CONTINUOUS
 62
           7
100
AcDbLine
 10
6.915000000036
 20
24.53399999973
 11
13.155000000036
 21
24.53399999973
  0
LINE
  5
6B
100
AcDbEntity
  8
1
  6
CONTINUOUS
 62
           7
100
AcDbLine
 10
6.415000000036
 20
24.245324865135
 11
6.915000000036
 21
24.53399999973
  0
LINE
  5
6A
100
AcDbEntity
  8
1
  6
CONTINUOUS
 62
           7
100
AcDbLine
 10
6.415000000036
 20
24.245324865135
 11
6.415000000036
 21
23.402724306583
  0
LINE
  5
69
100
AcDbEntity
  8
1
  6
CONTINUOUS
 62
           7
100
AcDbLine
 10
6.270000000036
 20
19.186040633752
 11
8.931255662564
 21
19.186040633752
  0
LINE
  5
68
100
AcDbEntity
  8
1
  6
CONTINUOUS
 62
           7
100
AcDbLine
 10
13.155000000036
 20
24.53399999973
 11
13.655000000036
 21
24.245324865135
  0
LINE
  5
67
100
AcDbEntity
  8
1
  6
CONTINUOUS
 62
           7
100
AcDbLine
 10
13.655000000036
 20
23.402724306583
 11
13.655000000036
 21
24.245324865135
  0
LINE
  5
66
100
AcDbEntity
  8
1
  6
CONTINUOUS
 62
           7
100
AcDbLine
 10
13.802499733025
 20
17.779999732719
 11
14.100000000036
 21
18.07749999973
  0
LINE
  5
65
100
AcDbEntity
  8
1
  6
CONTINUOUS
 62
           7
100
AcDbLine
 10
14.100000000036
 20
18.886040633752
 11
13.800000000036
 21
19.186040633752
  0
LINE
  5
64
100
AcDbEntity
  8
1
  6
CONTINUOUS
 62
           7
100
AcDbLine
 10
13.455000000036
 20
23.202724306583
 11
13.655000000036
 21
23.402724306583
  0
LINE
  5
63
100
AcDbEntity
  8
1
  6
CONTINUOUS
 62
           7
100
AcDbLine
 10
14.100000000036
 20
18.886040633752
 11
14.100000000036
 21
18.07749999973
  0
LINE
  5
62
100
AcDbEntity
  8
1
  6
CONTINUOUS
 62
           7
100
AcDbLine
 10
11.138744337507
 20
19.186040633752
 11
13.800000000036
 21
19.186040633752
  0
LINE
  5
61
100
AcDbEntity
  8
1
  6
CONTINUOUS
 62
           7
100
AcDbLine
 10
11.094620362477
 20
23.202724306583
 11
13.455000000036
 21
23.202724306583
  0
LINE
  5
60
100
AcDbEntity
  8
1
  6
CONTINUOUS
 62
           7
100
AcDbLine
 10
7.45513241297
 20
22.70999999973
 11
7.45513241297
 21
19.57999999973
  0
LINE
  5
5F
100
AcDbEntity
  8
1
  6
CONTINUOUS
 62
           7
100
AcDbLine
 10
7.45513241297
 20
19.57999999973
 11
6.27513241297
 21
19.57999999973
  0
LINE
  5
5E
100
AcDbEntity
  8
1
  6
CONTINUOUS
 62
           7
100
AcDbLine
 10
6.27513241297
 20
19.57999999973
 11
6.27513241297
 21
20.99999999973
  0
LINE
  5
5D
100
AcDbEntity
  8
1
  6
CONTINUOUS
 62
           7
100
AcDbLine
 10
6.27513241297
 20
20.99999999973
 11
6.424738027599
 21
22.70999999973
  0
LINE
  5
5C
100
AcDbEntity
  8
1
  6
CONTINUOUS
 62
           7
100
AcDbLine
 10
6.424738027599
 20
22.70999999973
 11
7.45513241297
 21
22.70999999973
  0
LINE
  5
5B
100
AcDbEntity
  8
1
  6
CONTINUOUS
 62
           7
100
AcDbLine
 10
14.273575466275
 20
19.57999999973
 11
12.873575466275
 21
19.57999999973
  0
LINE
  5
5A
100
AcDbEntity
  8
1
  6
CONTINUOUS
 62
           7
100
AcDbLine
 10
14.273575466275
 20
22.70999999973
 11
14.273575466275
 21
19.57999999973
  0
LINE
  5
59
100
AcDbEntity
  8
1
  6
CONTINUOUS
 62
           7
100
AcDbLine
 10
12.873575466275
 20
22.70999999973
 11
14.273575466275
 21
22.70999999973
  0
LINE
  5
58
100
AcDbEntity
  8
1
  6
CONTINUOUS
 62
           7
100
AcDbLine
 10
12.873575466275
 20
19.57999999973
 11
12.873575466275
 21
22.70999999973
  0
LINE
  5
57
100
AcDbEntity
  8
0
  6
CONTINUOUS
 62
           7
100
AcDbLine
 10
6.267500267093
 20
17.779999732673
 11
13.802499733025
 21
17.779999732719
  0
LINE
  5
56
100
AcDbEntity
  8
0
  6
CONTINUOUS
 62
           7
100
AcDbLine
 10
13.802499733025
 20
-17.779999732719
 11
6.267500267093
 21
-17.779999732673
  0
LINE
  5
55
100
AcDbEntity
  8
1
  6
CONTINUOUS
 62
           7
100
AcDbLine
 10
12.873575466275
 20
-22.70999999973
 11
12.873575466275
 21
-19.57999999973
  0
LINE
  5
54
100
AcDbEntity
  8
1
  6
CONTINUOUS
 62
           7
100
AcDbLine
 10
14.273575466275
 20
-22.70999999973
 11
12.873575466275
 21
-22.70999999973
  0
LINE
  5
53
100
AcDbEntity
  8
1
  6
CONTINUOUS
 62
           7
100
AcDbLine
 10
14.273575466275
 20
-19.57999999973
 11
14.273575466275
 21
-22.70999999973
  0
LINE
  5
52
100
AcDbEntity
  8
1
  6
CONTINUOUS
 62
           7
100
AcDbLine
 10
12.873575466275
 20
-19.57999999973
 11
14.273575466275
 21
-19.57999999973
  0
LINE
  5
51
100
AcDbEntity
  8
1
  6
CONTINUOUS
 62
           7
100
AcDbLine
 10
7.45513241297
 20
-22.70999999973
 11
6.424738027599
 21
-22.70999999973
  0
LINE
  5
50
100
AcDbEntity
  8
1
  6
CONTINUOUS
 62
           7
100
AcDbLine
 10
6.424738027599
 20
-22.70999999973
 11
6.27513241297
 21
-20.99999999973
  0
LINE
  5
4F
100
AcDbEntity
  8
1
  6
CONTINUOUS
 62
           7
100
AcDbLine
 10
6.27513241297
 20
-20.99999999973
 11
6.27513241297
 21
-19.57999999973
  0
LINE
  5
4E
100
AcDbEntity
  8
1
  6
CONTINUOUS
 62
           7
100
AcDbLine
 10
6.27513241297
 20
-19.57999999973
 11
7.45513241297
 21
-19.57999999973
  0
LINE
  5
4D
100
AcDbEntity
  8
1
  6
CONTINUOUS
 62
           7
100
AcDbLine
 10
7.45513241297
 20
-19.57999999973
 11
7.45513241297
 21
-22.70999999973
  0
LINE
  5
4C
100
AcDbEntity
  8
1
  6
CONTINUOUS
 62
           7
100
AcDbLine
 10
13.455000000036
 20
-23.202724306583
 11
11.094620362477
 21
-23.202724306583
  0
LINE
  5
4B
100
AcDbEntity
  8
1
  6
CONTINUOUS
 62
           7
100
AcDbLine
 10
13.800000000036
 20
-19.186040633752
 11
11.138744337507
 21
-19.186040633752
  0
LINE
  5
4A
100
AcDbEntity
  8
1
  6
CONTINUOUS
 62
           7
100
AcDbLine
 10
14.100000000036
 20
-18.07749999973
 11
14.100000000036
 21
-18.886040633752
  0
LINE
  5
49
100
AcDbEntity
  8
1
  6
CONTINUOUS
 62
           7
100
AcDbLine
 10
13.655000000036
 20
-23.402724306583
 11
13.455000000036
 21
-23.202724306583
  0
LINE
  5
48
100
AcDbEntity
  8
1
  6
CONTINUOUS
 62
           7
100
AcDbLine
 10
13.800000000036
 20
-19.186040633752
 11
14.100000000036
 21
-18.886040633752
  0
LINE
  5
47
100
AcDbEntity
  8
1
  6
CONTINUOUS
 62
           7
100
AcDbLine
 10
14.100000000036
 20
-18.07749999973
 11
13.802499733025
 21
-17.779999732719
  0
LINE
  5
46
100
AcDbEntity
  8
1
  6
CONTINUOUS
 62
           7
100
AcDbLine
 10
13.655000000036
 20
-24.245324865135
 11
13.655000000036
 21
-23.402724306583
  0
LINE
  5
45
100
AcDbEntity
  8
1
  6
CONTINUOUS
 62
           7
100
AcDbLine
 10
13.655000000036
 20
-24.245324865135
 11
13.155000000036
 21
-24.53399999973
  0
LINE
  5
44
100
AcDbEntity
  8
1
  6
CONTINUOUS
 62
           7
100
AcDbLine
 10
8.931255662564
 20
-19.186040633752
 11
6.270000000036
 21
-19.186040633752
  0
LINE
  5
43
100
AcDbEntity
  8
1
  6
CONTINUOUS
 62
           7
100
AcDbLine
 10
6.415000000036
 20
-23.402724306583
 11
6.415000000036
 21
-24.245324865135
  0
LINE
  5
42
100
AcDbEntity
  8
1
  6
CONTINUOUS
 62
           7
100
AcDbLine
 10
6.915000000036
 20
-24.53399999973
 11
6.415000000036
 21
-24.245324865135
  0
LINE
  5
41
100
AcDbEntity
  8
1
  6
CONTINUOUS
 62
           7
100
AcDbLine
 10
13.155000000036
 20
-24.53399999973
 11
6.915000000036
 21
-24.53399999973
  0
LINE
  5
40
100
AcDbEntity
  8
1
  6
CONTINUOUS
 62
           7
100
AcDbLine
 10
6.267500267093
 20
-17.779999732673
 11
5.970000000036
 21
-18.07749999973
  0
LINE
  5
3F
100
AcDbEntity
  8
1
  6
CONTINUOUS
 62
           7
100
AcDbLine
 10
5.970000000036
 20
-18.886040633752
 11
6.270000000036
 21
-19.186040633752
  0
LINE
  5
3E
100
AcDbEntity
  8
1
  6
CONTINUOUS
 62
           7
100
AcDbLine
 10
6.615000000036
 20
-23.202724306583
 11
6.415000000036
 21
-23.402724306583
  0
LINE
  5
3D
100
AcDbEntity
  8
1
  6
CONTINUOUS
 62
           7
100
AcDbLine
 10
5.970000000036
 20
-18.886040633752
 11
5.970000000036
 21
-18.07749999973
  0
LINE
  5
3C
100
AcDbEntity
  8
1
  6
CONTINUOUS
 62
           7
100
AcDbLine
 10
8.975379637595
 20
-23.202724306583
 11
6.615000000036
 21
-23.202724306583
  0
LINE
  5
3B
100
AcDbEntity
  8
1
  6
CONTINUOUS
 62
           3
100
AcDbLine
 10
140.959353034988
 20
0.020646964778
 11
60.500000000035
 21
0.020646964778
  0
LINE
  5
3A
100
AcDbEntity
  8
1
  6
CONTINUOUS
 62
           3
100
AcDbLine
 10
100.100000000036
 20
-39.979353035222
 11
100.100000000036
 21
40.020646964778
  0
LINE
  5
39
100
AcDbEntity
  8
1
  6
CONTINUOUS
 62
           3
100
AcDbLine
 10
-138.099999999965
 20
0.01763324295
 11
-59.299999999965
 21
0.017633242951
  0
LINE
  5
38
100
AcDbEntity
  8
1
  6
CONTINUOUS
 62
           7
100
AcDbLine
 10
5.100000000029
 20
26.59999959453
 11
5.100000000029
 21
25.533
  0
POINT
  5
37
100
AcDbEntity
  8
0
 62
           4
100
AcDbPoint
 10
17.099999999907
 20
-26.5
  0
POINT
  5
36
100
AcDbEntity
  8
0
 62
           4
100
AcDbPoint
 10
17.099999999907
 20
26.5
  0
POINT
  5
35
100
AcDbEntity
  8
0
 62
           7
100
AcDbPoint
 10
-12.400000045035
 20
-26.5
  0
POINT
  5
34
100
AcDbEntity
  8
0
 62
           7
100
AcDbPoint
 10
-12.400000045035
 20
26.5
  0
POINT
  5
33
100
AcDbEntity
  8
0
 62
           7
100
AcDbPoint
 10
15.600000000063
 20
-34.599999480349
  0
POINT
  5
32
100
AcDbEntity
  8
0
 62
           4
100
AcDbPoint
 10
17.099999999907
 20
-26.5
  0
POINT
  5
31
100
AcDbEntity
  8
0
 62
           7
100
AcDbPoint
 10
8.099999954965
 20
-34.59999948045
  0
POINT
  5
30
100
AcDbEntity
  8
0
 62
           7
100
AcDbPoint
 10
-12.400000045035
 20
-26.5
  0
POINT
  5
2F
100
AcDbEntity
  8
0
 62
           7
100
AcDbPoint
 10
8.099999954965
 20
34.59999948045
  0
POINT
  5
2E
100
AcDbEntity
  8
0
 62
           7
100
AcDbPoint
 10
-12.400000045035
 20
26.5
  0
POINT
  5
2D
100
AcDbEntity
  8
0
 62
           7
100
AcDbPoint
 10
15.600000000063
 20
-34.599999480349
  0
POINT
  5
2C
100
AcDbEntity
  8
0
 62
           7
100
AcDbPoint
 10
17.099999999907
 20
-26.5
  0
POINT
  5
2B
100
AcDbEntity
  8
0
 62
           7
100
AcDbPoint
 10
17.099999999907
 20
26.5
  0
POINT
  5
2A
100
AcDbEntity
  8
0
 62
           7
100
AcDbPoint
 10
17.099999999907
 20
-26.5
  0
POINT
  5
29
100
AcDbEntity
  8
0
 62
           7
100
AcDbPoint
 10
-12.400000045035
 20
-26.5
  0
POINT
  5
28
100
AcDbEntity
  8
0
 62
           7
100
AcDbPoint
 10
-12.400000045035
 20
26.5
  0
ENDSEC
  0
SECTION
  2
OBJECTS
  0
DICTIONARY
  5
19
100
AcDbDictionary
  3
ACAD_GROUP
350
1A
  3
ACAD_MLINESTYLE
350
1B
  0
DICTIONARY
  5
1A
102
{ACAD_REACTORS
330
19
102
}
100
AcDbDictionary
  0
DICTIONARY
  5
1B
102
{ACAD_REACTORS
330
19
102
}
100
AcDbDictionary
  3
STANDARD
350
1C
  0
MLINESTYLE
  5
1C
102
{ACAD_REACTORS
330
1B
102
}
100
AcDbMlineStyle
  2
STANDARD
 70
           0
  3

 62
           0
 51
90.0
 52
90.0
 71
           2
 49
0.5
 62
         256
  6
BYLAYER
 49
-0.5
 62
         256
  6
BYLAYER
  0
ENDSEC
  0
EOF
