  0
SECTION
  2
HEADER
  9
$ACADVER
  1
AC1015
  9
$ACADMAINTVER
 70
    13
  9
$DWGCODEPAGE
  3
ANSI_1252
  9
$INSBASE
 10
0.0
 20
0.0
 30
0.0
  9
$EXTMIN
 10
543.4765220267056
 20
-1966.809309519461
 30
0.0
  9
$EXTMAX
 10
886.3732140208423
 20
-1713.763669
 30
0.0
  9
$LIMMIN
 10
528.5138059999998
 20
-1849.763667999999
  9
$LIMMAX
 10
885.16334
 20
-1713.763669
  9
$ORTHOMODE
 70
     1
  9
$REGENMODE
 70
     1
  9
$FILLMODE
 70
     1
  9
$QTEXTMODE
 70
     0
  9
$MIRRTEXT
 70
     1
  9
$LTSCALE
 40
1.0
  9
$ATTMODE
 70
     1
  9
$TEXTSIZE
 40
3.5
  9
$TRACEWID
 40
0.5
  9
$TEXTSTYLE
  7
STANDARD
  9
$CLAYER
  8
0
  9
$CELTYPE
  6
ByLayer
  9
$CECOLOR
 62
   256
  9
$CELTSCALE
 40
1.0
  9
$DISPSILH
 70
     0
  9
$DIMSCALE
 40
1.0
  9
$DIMASZ
 40
0.18
  9
$DIMEXO
 40
0.0625
  9
$DIMDLI
 40
0.38
  9
$DIMRND
 40
0.0
  9
$DIMDLE
 40
0.0
  9
$DIMEXE
 40
0.18
  9
$DIMTP
 40
0.0
  9
$DIMTM
 40
0.0
  9
$DIMTXT
 40
0.18
  9
$DIMCEN
 40
0.09
  9
$DIMTSZ
 40
0.0
  9
$DIMTOL
 70
     0
  9
$DIMLIM
 70
     0
  9
$DIMTIH
 70
     1
  9
$DIMTOH
 70
     1
  9
$DIMSE1
 70
     0
  9
$DIMSE2
 70
     0
  9
$DIMTAD
 70
     0
  9
$DIMZIN
 70
     0
  9
$DIMBLK
  1

  9
$DIMASO
 70
     1
  9
$DIMSHO
 70
     1
  9
$DIMPOST
  1

  9
$DIMAPOST
  1

  9
$DIMALT
 70
     0
  9
$DIMALTD
 70
     2
  9
$DIMALTF
 40
25.4
  9
$DIMLFAC
 40
1.0
  9
$DIMTOFL
 70
     0
  9
$DIMTVP
 40
0.0
  9
$DIMTIX
 70
     0
  9
$DIMSOXD
 70
     0
  9
$DIMSAH
 70
     0
  9
$DIMBLK1
  1

  9
$DIMBLK2
  1

  9
$DIMSTYLE
  2
DMST_1
  9
$DIMCLRD
 70
     0
  9
$DIMCLRE
 70
     0
  9
$DIMCLRT
 70
     0
  9
$DIMTFAC
 40
1.0
  9
$DIMGAP
 40
0.09
  9
$DIMJUST
 70
     0
  9
$DIMSD1
 70
     0
  9
$DIMSD2
 70
     0
  9
$DIMTOLJ
 70
     1
  9
$DIMTZIN
 70
     0
  9
$DIMALTZ
 70
     0
  9
$DIMALTTZ
 70
     0
  9
$DIMUPT
 70
     0
  9
$DIMDEC
 70
     4
  9
$DIMTDEC
 70
     4
  9
$DIMALTU
 70
     2
  9
$DIMALTTD
 70
     2
  9
$DIMTXSTY
  7
STANDARD
  9
$DIMAUNIT
 70
     0
  9
$DIMADEC
 70
     0
  9
$DIMALTRND
 40
0.0
  9
$DIMAZIN
 70
     0
  9
$DIMDSEP
 70
    46
  9
$DIMATFIT
 70
     3
  9
$DIMFRAC
 70
     0
  9
$DIMLDRBLK
  1

  9
$DIMLUNIT
 70
     2
  9
$DIMLWD
 70
    -2
  9
$DIMLWE
 70
    -2
  9
$DIMTMOVE
 70
     0
  9
$LUNITS
 70
     2
  9
$LUPREC
 70
     4
  9
$SKETCHINC
 40
0.1
  9
$FILLETRAD
 40
2.0
  9
$AUNITS
 70
     0
  9
$AUPREC
 70
     0
  9
$MENU
  1
ACAD
  9
$ELEVATION
 40
0.0
  9
$PELEVATION
 40
0.0
  9
$THICKNESS
 40
0.0
  9
$LIMCHECK
 70
     0
  9
$CHAMFERA
 40
0.0
  9
$CHAMFERB
 40
0.0
  9
$CHAMFERC
 40
0.0
  9
$CHAMFERD
 40
0.0
  9
$SKPOLY
 70
     0
  9
$TDCREATE
 40
2311947.014615590
  9
$TDUCREATE
 40
2311947.181282256
  9
$TDUPDATE
 40
2453864.617903819
  9
$TDUUPDATE
 40
2453864.784570486
  9
$TDINDWG
 40
0.0035226736
  9
$TDUSRTIMER
 40
0.0035225000
  9
$USRTIMER
 70
     1
  9
$ANGBASE
 50
0.0
  9
$ANGDIR
 70
     0
  9
$PDMODE
 70
     0
  9
$PDSIZE
 40
0.0
  9
$PLINEWID
 40
0.0
  9
$SPLFRAME
 70
     0
  9
$SPLINETYPE
 70
     6
  9
$SPLINESEGS
 70
     8
  9
$HANDSEED
  5
C9D
  9
$SURFTAB1
 70
     6
  9
$SURFTAB2
 70
     6
  9
$SURFTYPE
 70
     6
  9
$SURFU
 70
     6
  9
$SURFV
 70
     6
  9
$UCSBASE
  2

  9
$UCSNAME
  2

  9
$UCSORG
 10
0.0
 20
0.0
 30
0.0
  9
$UCSXDIR
 10
1.0
 20
0.0
 30
0.0
  9
$UCSYDIR
 10
0.0
 20
1.0
 30
0.0
  9
$UCSORTHOREF
  2

  9
$UCSORTHOVIEW
 70
     0
  9
$UCSORGTOP
 10
0.0
 20
0.0
 30
0.0
  9
$UCSORGBOTTOM
 10
0.0
 20
0.0
 30
0.0
  9
$UCSORGLEFT
 10
0.0
 20
0.0
 30
0.0
  9
$UCSORGRIGHT
 10
0.0
 20
0.0
 30
0.0
  9
$UCSORGFRONT
 10
0.0
 20
0.0
 30
0.0
  9
$UCSORGBACK
 10
0.0
 20
0.0
 30
0.0
  9
$PUCSBASE
  2

  9
$PUCSNAME
  2

  9
$PUCSORG
 10
0.0
 20
0.0
 30
0.0
  9
$PUCSXDIR
 10
1.0
 20
0.0
 30
0.0
  9
$PUCSYDIR
 10
0.0
 20
1.0
 30
0.0
  9
$PUCSORTHOREF
  2

  9
$PUCSORTHOVIEW
 70
     0
  9
$PUCSORGTOP
 10
0.0
 20
0.0
 30
0.0
  9
$PUCSORGBOTTOM
 10
0.0
 20
0.0
 30
0.0
  9
$PUCSORGLEFT
 10
0.0
 20
0.0
 30
0.0
  9
$PUCSORGRIGHT
 10
0.0
 20
0.0
 30
0.0
  9
$PUCSORGFRONT
 10
0.0
 20
0.0
 30
0.0
  9
$PUCSORGBACK
 10
0.0
 20
0.0
 30
0.0
  9
$USERI1
 70
     0
  9
$USERI2
 70
     0
  9
$USERI3
 70
     0
  9
$USERI4
 70
     0
  9
$USERI5
 70
     0
  9
$USERR1
 40
0.0
  9
$USERR2
 40
0.0
  9
$USERR3
 40
0.0
  9
$USERR4
 40
0.0
  9
$USERR5
 40
0.0
  9
$WORLDVIEW
 70
     1
  9
$SHADEDGE
 70
     3
  9
$SHADEDIF
 70
    70
  9
$TILEMODE
 70
     1
  9
$MAXACTVP
 70
    48
  9
$PINSBASE
 10
0.0
 20
0.0
 30
0.0
  9
$PLIMCHECK
 70
     0
  9
$PEXTMIN
 10
1.000000000000000E+20
 20
1.000000000000000E+20
 30
1.000000000000000E+20
  9
$PEXTMAX
 10
-1.000000000000000E+20
 20
-1.000000000000000E+20
 30
-1.000000000000000E+20
  9
$PLIMMIN
 10
0.0
 20
0.0
  9
$PLIMMAX
 10
12.0
 20
9.0
  9
$UNITMODE
 70
     0
  9
$VISRETAIN
 70
     1
  9
$PLINEGEN
 70
     0
  9
$PSLTSCALE
 70
     1
  9
$TREEDEPTH
 70
  3020
  9
$CMLSTYLE
  2
Standard
  9
$CMLJUST
 70
     0
  9
$CMLSCALE
 40
1.0
  9
$PROXYGRAPHICS
 70
     1
  9
$MEASUREMENT
 70
     0
  9
$CELWEIGHT
370
    -1
  9
$ENDCAPS
280
     0
  9
$JOINSTYLE
280
     0
  9
$LWDISPLAY
290
     0
  9
$INSUNITS
 70
     0
  9
$HYPERLINKBASE
  1

  9
$STYLESHEET
  1

  9
$XEDIT
290
     1
  9
$CEPSNTYPE
380
     0
  9
$PSTYLEMODE
290
     1
  9
$FINGERPRINTGUID
  2
{2244BF35-A78D-4EEA-B88B-EBBBBE816095}
  9
$VERSIONGUID
  2
{37507CC2-CD44-46C3-8307-DE7C472B0472}
  9
$EXTNAMES
290
     1
  9
$PSVPSCALE
 40
0.0
  9
$OLESTARTUP
290
     0
  0
ENDSEC
  0
SECTION
  2
CLASSES
  0
CLASS
  1
ACDBDICTIONARYWDFLT
  2
AcDbDictionaryWithDefault
  3
AutoCAD 2000
 90
        0
280
     0
281
     0
  0
CLASS
  1
ACDBPLACEHOLDER
  2
AcDbPlaceHolder
  3
AutoCAD 2000
 90
        0
280
     0
281
     0
  0
CLASS
  1
LAYOUT
  2
AcDbLayout
  3
AutoCAD 2000
 90
        0
280
     0
281
     0
  0
CLASS
  1
DICTIONARYVAR
  2
AcDbDictionaryVar
  3
AutoCAD 2000
 90
        0
280
     0
281
     0
  0
ENDSEC
  0
SECTION
  2
TABLES
  0
TABLE
  2
VPORT
  5
849
330
0
100
AcDbSymbolTable
 70
     2
  0
VPORT
  5
C9C
330
849
100
AcDbSymbolTableRecord
100
AcDbViewportTableRecord
  2
*Active
 70
     0
 10
0.0
 20
0.0
 11
1.0
 21
1.0
 12
719.9674938314158
 22
-1811.119071854626
 13
0.0
 23
0.0
 14
1.0
 24
1.0
 15
0.0
 25
0.0
 16
0.0
 26
0.0
 36
1.0
 17
0.0
 27
0.0
 37
0.0
 40
314.3330314246161
 41
1.182835820895522
 42
50.0
 43
0.0
 44
0.0
 50
0.0
 51
0.0
 71
     0
 72
   100
 73
     1
 74
     1
 75
     0
 76
     0
 77
     0
 78
     0
281
     0
 65
     1
110
0.0
120
0.0
130
0.0
111
1.0
121
0.0
131
0.0
112
0.0
122
1.0
132
0.0
 79
     0
146
0.0
  0
ENDTAB
  0
TABLE
  2
LTYPE
  5
846
330
0
100
AcDbSymbolTable
 70
     4
  0
LTYPE
  5
854
330
846
100
AcDbSymbolTableRecord
100
AcDbLinetypeTableRecord
  2
ByBlock
 70
     0
  3

 72
    65
 73
     0
 40
0.0
  0
LTYPE
  5
855
330
846
100
AcDbSymbolTableRecord
100
AcDbLinetypeTableRecord
  2
ByLayer
 70
     0
  3

 72
    65
 73
     0
 40
0.0
  0
LTYPE
  5
856
330
846
100
AcDbSymbolTableRecord
100
AcDbLinetypeTableRecord
  2
CONTINUOUS
 70
     0
  3
Solid line
 72
    65
 73
     0
 40
0.0
  0
LTYPE
  5
864
330
846
100
AcDbSymbolTableRecord
100
AcDbLinetypeTableRecord
  2
CENTER
 70
     0
  3
____ _ ____ _
 72
    65
 73
     4
 40
18.771028
 49
11.73189299999999
 74
     0
 49
-2.346379
 74
     0
 49
2.346379
 74
     0
 49
-2.346379
 74
     0
  0
LTYPE
  5
865
330
846
100
AcDbSymbolTableRecord
100
AcDbLinetypeTableRecord
  2
DASHDOT
 70
     0
  3
__ . __ . __ .
 72
    65
 73
     4
 40
9.385514
 49
4.692757
 74
     0
 49
-2.346379
 74
     0
 49
0.0
 74
     0
 49
-2.346379
 74
     0
  0
LTYPE
  5
866
330
846
100
AcDbSymbolTableRecord
100
AcDbLinetypeTableRecord
  2
DASHED
 70
     0
  3
__ __ __ __ __
 72
    65
 73
     2
 40
7.039136
 49
4.692757
 74
     0
 49
-2.346379
 74
     0
  0
ENDTAB
  0
TABLE
  2
LAYER
  5
843
330
0
100
AcDbSymbolTable
 70
     4
  0
LAYER
  5
851
330
843
100
AcDbSymbolTableRecord
100
AcDbLayerTableRecord
  2
0
 70
     0
 62
     7
  6
CONTINUOUS
370
    -3
390
850
  0
LAYER
  5
867
330
843
100
AcDbSymbolTableRecord
100
AcDbLayerTableRecord
  2
1
 70
     0
 62
     7
  6
CONTINUOUS
370
    -3
390
850
  0
LAYER
  5
868
330
843
100
AcDbSymbolTableRecord
100
AcDbLayerTableRecord
  2
TITLEBOX
 70
     0
 62
     7
  6
CONTINUOUS
370
    -3
390
850
  0
LAYER
  5
C5E
330
843
100
AcDbSymbolTableRecord
100
AcDbLayerTableRecord
  2
LAYER_1
 70
     0
 62
     5
  6
CONTINUOUS
370
    -3
390
850
  0
ENDTAB
  0
TABLE
  2
STYLE
  5
844
330
0
100
AcDbSymbolTable
 70
     2
  0
STYLE
  5
852
330
844
100
AcDbSymbolTableRecord
100
AcDbTextStyleTableRecord
  2
STANDARD
 70
     0
 40
0.0
 41
1.0
 50
0.0
 71
     0
 42
3.5
  3
txt
  4

  0
STYLE
  5
869
330
844
100
AcDbSymbolTableRecord
100
AcDbTextStyleTableRecord
  2
ROMAND
 70
     0
 40
0.002
 41
1.0
 50
0.0
 71
     0
 42
0.002
  3
romand
  4

  0
ENDTAB
  0
TABLE
  2
VIEW
  5
847
330
0
100
AcDbSymbolTable
 70
     0
  0
ENDTAB
  0
TABLE
  2
UCS
  5
848
330
0
100
AcDbSymbolTable
 70
     0
  0
ENDTAB
  0
TABLE
  2
APPID
  5
84A
330
0
100
AcDbSymbolTable
 70
     1
  0
APPID
  5
853
330
84A
100
AcDbSymbolTableRecord
100
AcDbRegAppTableRecord
  2
ACAD
 70
     0
  0
ENDTAB
  0
TABLE
  2
DIMSTYLE
  5
84B
330
0
100
AcDbSymbolTable
 70
     2
100
AcDbDimStyleTable
 71
     0
  0
DIMSTYLE
105
86A
102
{ACAD_REACTORS
330
BAB
330
BAC
330
BAD
330
BAE
330
BAF
330
BB0
330
BB1
330
BB2
330
BB3
330
BB4
330
BB5
330
BB6
330
BB7
330
BB8
330
BB9
330
BBA
102
}
330
84B
100
AcDbSymbolTableRecord
100
AcDbDimStyleTableRecord
  2
DMST_1
 70
     0
 41
4.0
 42
1.0
 43
7.0
 44
1.0
 73
     0
 74
     0
 77
     1
 78
     9
140
4.0
141
0.0
176
     2
177
     2
178
     2
279
     2
340
852
  0
DIMSTYLE
105
C5F
330
84B
100
AcDbSymbolTableRecord
100
AcDbDimStyleTableRecord
  2
Standard
 70
     0
340
852
  0
ENDTAB
  0
TABLE
  2
BLOCK_RECORD
  5
842
330
0
100
AcDbSymbolTable
 70
    54
  0
BLOCK_RECORD
  5
85F
330
842
100
AcDbSymbolTableRecord
100
AcDbBlockTableRecord
  2
*Model_Space
340
862
  0
BLOCK_RECORD
  5
85B
330
842
100
AcDbSymbolTableRecord
100
AcDbBlockTableRecord
  2
*Paper_Space
340
85E
  0
BLOCK_RECORD
  5
86D
330
842
100
AcDbSymbolTableRecord
100
AcDbBlockTableRecord
  2
$MODEL_SPACE
340
0
  0
BLOCK_RECORD
  5
870
330
842
100
AcDbSymbolTableRecord
100
AcDbBlockTableRecord
  2
$PAPER_SPACE
340
0
  0
BLOCK_RECORD
  5
873
330
842
100
AcDbSymbolTableRecord
100
AcDbBlockTableRecord
  2
LITAINER
340
0
102
{BLKREFS
331
8DA
102
}
  0
BLOCK_RECORD
  5
878
330
842
100
AcDbSymbolTableRecord
100
AcDbBlockTableRecord
  2
WB_020_R
340
0
102
{BLKREFS
331
BBB
102
}
  0
BLOCK_RECORD
  5
8DC
330
842
100
AcDbSymbolTableRecord
100
AcDbBlockTableRecord
  2
000000150-020B__1
340
0
102
{BLKREFS
331
BBC
102
}
  0
BLOCK_RECORD
  5
8F2
330
842
100
AcDbSymbolTableRecord
100
AcDbBlockTableRecord
  2
*X5
340
0
102
{BLKREFS
331
8FE
102
}
  0
BLOCK_RECORD
  5
8F7
330
842
100
AcDbSymbolTableRecord
100
AcDbBlockTableRecord
  2
*X6
340
0
102
{BLKREFS
331
8FF
102
}
  0
BLOCK_RECORD
  5
8FC
330
842
100
AcDbSymbolTableRecord
100
AcDbBlockTableRecord
  2
TOP__2
340
0
102
{BLKREFS
331
BBD
102
}
  0
BLOCK_RECORD
  5
910
330
842
100
AcDbSymbolTableRecord
100
AcDbBlockTableRecord
  2
*X8
340
0
102
{BLKREFS
331
91C
102
}
  0
BLOCK_RECORD
  5
915
330
842
100
AcDbSymbolTableRecord
100
AcDbBlockTableRecord
  2
*X9
340
0
102
{BLKREFS
331
91D
102
}
  0
BLOCK_RECORD
  5
91A
330
842
100
AcDbSymbolTableRecord
100
AcDbBlockTableRecord
  2
TOP__3
340
0
102
{BLKREFS
331
BBE
102
}
  0
BLOCK_RECORD
  5
92E
330
842
100
AcDbSymbolTableRecord
100
AcDbBlockTableRecord
  2
000000150-020B__4
340
0
102
{BLKREFS
331
BBF
102
}
  0
BLOCK_RECORD
  5
944
330
842
100
AcDbSymbolTableRecord
100
AcDbBlockTableRecord
  2
*D12
340
0
  0
BLOCK_RECORD
  5
94F
330
842
100
AcDbSymbolTableRecord
100
AcDbBlockTableRecord
  2
*D13
340
0
  0
BLOCK_RECORD
  5
95A
330
842
100
AcDbSymbolTableRecord
100
AcDbBlockTableRecord
  2
*D14
340
0
  0
BLOCK_RECORD
  5
966
330
842
100
AcDbSymbolTableRecord
100
AcDbBlockTableRecord
  2
*D15
340
0
  0
BLOCK_RECORD
  5
972
330
842
100
AcDbSymbolTableRecord
100
AcDbBlockTableRecord
  2
*D16
340
0
  0
BLOCK_RECORD
  5
97C
330
842
100
AcDbSymbolTableRecord
100
AcDbBlockTableRecord
  2
*D17
340
0
102
{BLKREFS
331
BC0
102
}
  0
BLOCK_RECORD
  5
988
330
842
100
AcDbSymbolTableRecord
100
AcDbBlockTableRecord
  2
*D18
340
0
  0
BLOCK_RECORD
  5
993
330
842
100
AcDbSymbolTableRecord
100
AcDbBlockTableRecord
  2
*D19
340
0
  0
BLOCK_RECORD
  5
99C
330
842
100
AcDbSymbolTableRecord
100
AcDbBlockTableRecord
  2
*D20
340
0
  0
BLOCK_RECORD
  5
9A7
330
842
100
AcDbSymbolTableRecord
100
AcDbBlockTableRecord
  2
*D21
340
0
  0
BLOCK_RECORD
  5
9B2
330
842
100
AcDbSymbolTableRecord
100
AcDbBlockTableRecord
  2
*D22
340
0
  0
BLOCK_RECORD
  5
9BE
330
842
100
AcDbSymbolTableRecord
100
AcDbBlockTableRecord
  2
*D23
340
0
  0
BLOCK_RECORD
  5
9CA
330
842
100
AcDbSymbolTableRecord
100
AcDbBlockTableRecord
  2
*D24
340
0
  0
BLOCK_RECORD
  5
9D6
330
842
100
AcDbSymbolTableRecord
100
AcDbBlockTableRecord
  2
*D25
340
0
102
{BLKREFS
331
BC1
102
}
  0
BLOCK_RECORD
  5
9E0
330
842
100
AcDbSymbolTableRecord
100
AcDbBlockTableRecord
  2
*D26
340
0
102
{BLKREFS
331
BC2
102
}
  0
BLOCK_RECORD
  5
9E8
330
842
100
AcDbSymbolTableRecord
100
AcDbBlockTableRecord
  2
*D27
340
0
102
{BLKREFS
331
BC3
102
}
  0
BLOCK_RECORD
  5
9F0
330
842
100
AcDbSymbolTableRecord
100
AcDbBlockTableRecord
  2
*D28
340
0
  0
BLOCK_RECORD
  5
9F8
330
842
100
AcDbSymbolTableRecord
100
AcDbBlockTableRecord
  2
*D29
340
0
  0
BLOCK_RECORD
  5
A00
330
842
100
AcDbSymbolTableRecord
100
AcDbBlockTableRecord
  2
*D30
340
0
  0
BLOCK_RECORD
  5
A08
330
842
100
AcDbSymbolTableRecord
100
AcDbBlockTableRecord
  2
*D31
340
0
  0
BLOCK_RECORD
  5
A13
330
842
100
AcDbSymbolTableRecord
100
AcDbBlockTableRecord
  2
*X32
340
0
102
{BLKREFS
331
BE8
102
}
  0
BLOCK_RECORD
  5
A73
330
842
100
AcDbSymbolTableRecord
100
AcDbBlockTableRecord
  2
PROPRIETARYDRAWINGNOTICE
340
0
102
{BLKREFS
331
BC4
102
}
  0
BLOCK_RECORD
  5
BF6
330
842
100
AcDbSymbolTableRecord
100
AcDbBlockTableRecord
  2
AI9-BLK14
340
0
310
2800000020000000200000000100080000000000000400000000000000000000000000000000000000000000000080000080000000808000800000008000800080800000C0C0C000C0DCC000F0CAA6000020400000206000002080000020A0000020C0000020E00000400000004020000040400000406000004080000040A0
310
000040C0000040E00000600000006020000060400000606000006080000060A0000060C0000060E00000800000008020000080400000806000008080000080A0000080C0000080E00000A0000000A0200000A0400000A0600000A0800000A0A00000A0C00000A0E00000C0000000C0200000C0400000C0600000C0800000C0
310
A00000C0C00000C0E00000E0000000E0200000E0400000E0600000E0800000E0A00000E0C00000E0E00040000000400020004000400040006000400080004000A0004000C0004000E00040200000402020004020400040206000402080004020A0004020C0004020E000404000004040200040404000404060004040800040
310
40A0004040C0004040E00040600000406020004060400040606000406080004060A0004060C0004060E00040800000408020004080400040806000408080004080A0004080C0004080E00040A0000040A0200040A0400040A0600040A0800040A0A00040A0C00040A0E00040C0000040C0200040C0400040C0600040C08000
310
40C0A00040C0C00040C0E00040E0000040E0200040E0400040E0600040E0800040E0A00040E0C00040E0E00080000000800020008000400080006000800080008000A0008000C0008000E00080200000802020008020400080206000802080008020A0008020C0008020E00080400000804020008040400080406000804080
310
008040A0008040C0008040E00080600000806020008060400080606000806080008060A0008060C0008060E00080800000808020008080400080806000808080008080A0008080C0008080E00080A0000080A0200080A0400080A0600080A0800080A0A00080A0C00080A0E00080C0000080C0200080C0400080C0600080C0
310
800080C0A00080C0C00080C0E00080E0000080E0200080E0400080E0600080E0800080E0A00080E0C00080E0E000C0000000C0002000C0004000C0006000C0008000C000A000C000C000C000E000C0200000C0202000C0204000C0206000C0208000C020A000C020C000C020E000C0400000C0402000C0404000C0406000C0
310
408000C040A000C040C000C040E000C0600000C0602000C0604000C0606000C0608000C060A000C060C000C060E000C0800000C0802000C0804000C0806000C0808000C080A000C080C000C080E000C0A00000C0A02000C0A04000C0A06000C0A08000C0A0A000C0A0C000C0A0E000C0C00000C0C02000C0C04000C0C06000
310
C0C08000C0C0A000F0FBFF00A4A0A000808080000000FF0000FF000000FFFF00FF000000FF00FF00FFFF0000FFFFFF00FF00FFFFFFFF00FFFFFFFFFFFFFFFFFFFFFFFFFFFFFFFFFFFFFFFFFFFFFFFFFFFF00FFFFFFFF00FFFFFFFFFFFFFFFFFFFFFFFFFFFFFFFFFFFFFFFFFFFFFFFFFFFF00FFFFFFFF00FFFFFFFFFFFFFFFF
310
FFFFFFFFFFFFFFFFFFFFFFFFFFFFFFFFFFFF00FFFFFFFF00FFFFFFFFFFFFFFFFFFFFFFFFFFFFFFFFFFFFFFFFFFFFFFFFFFFF00FFFFFFFF00FFFFFFFFFFFFFFFFFFFFFFFFFFFFFFFFFFFFFFFFFFFFFFFFFFFF00FFFFFFFF00FFFFFFFFFFFFFFFFFFFFFFFFFFFFFFFFFFFFFFFFFFFFFFFFFFFF00FFFFFFFF00FFFFFFFFFFFFFF
310
FFFFFFFFFFFFFFFFFFFFFFFFFFFFFFFFFFFFFF00FFFFFFFF00FFFFFFFFFFFFFFFFFFFFFFFFFFFFFFFFFFFFFFFFFFFFFFFFFFFF00FFFFFFFF00FFFFFFFFFFFFFFFFFFFFFFFFFFFFFFFFFFFFFFFFFFFFFFFFFFFF00FFFFFFFF00FFFFFFFFFFFFFFFFFFFFFFFFFFFFFFFFFFFFFFFFFFFFFFFFFFFF00FFFFFFFF00FFFFFFFFFFFF
310
FFFFFFFFFFFFFFFFFFFFFFFFFFFFFFFFFFFFFFFF00FFFFFFFF00FFFFFFFFFFFFFFFFFFFFFFFFFFFFFFFFFFFFFFFFFFFFFFFFFFFF00FFFFFFFF00FFFFFFFFFFFFFFFFFFFFFFFFFFFFFFFFFFFFFFFFFFFFFFFFFFFF00FFFFFFFF0000000000000000000000000000000000000000000000000000FF00FFFFFFFFFFFFFFFFFFFF
310
FFFFFFFFFFFFFFFFFFFFFFFFFFFFFFFFFFFFFFFFFF00FFFFFFFFFFFFFFFFFFFFFFFFFFFFFFFFFFFFFFFFFFFFFFFFFFFFFFFFFFFFFF00FFFFFFFFFFFFFFFFFFFFFFFFFFFFFFFFFFFFFFFFFFFFFFFFFFFFFFFFFFFFFF00FFFFFFFFFFFFFFFFFFFFFFFFFFFFFFFFFFFFFFFFFFFFFFFFFFFFFFFFFF00FF00000000000000000000
310
0000000000000000000000000000000000000000FFFFFFFFFFFFFFFFFFFFFFFFFFFFFFFFFFFFFFFFFFFFFFFFFFFFFFFFFFFFFFFFFFFFFFFFFFFFFFFFFFFFFFFFFFFFFFFFFFFFFFFFFFFFFFFFFFFFFFFFFFFFFFFFFFFFFFFFFFFFFFFFFFFFFFFFFFFFFFFFFFFFFFFFFFFFFFFFFFFFFFFFFFFFFFFFFFFFFFFFFFFFFFFFFFFFFF
310
FFFFFFFFFFFFFFFFFFFFFFFFFFFFFFFFFFFFFFFFFFFFFFFFFFFFFFFFFFFFFFFFFFFFFFFFFFFFFFFFFFFFFFFFFFFFFFFFFFFFFFFFFFFFFFFFFFFFFFFFFFFFFFFFFFFFFFFFFFFFFFFFFFFFFFFFFFFFFFFFFFFFFFFFFFFFFFFFFFFFFFFFFFFFFFFFFFFFFFFFFFFFFFFFFFFFFFFFFFFFFFFFFFFFFFFFFFFFFFFFFFFFFFFFFFFFFF
310
FFFFFFFFFFFFFFFFFFFFFFFFFFFFFFFFFFFFFFFFFFFFFFFFFFFFFFFFFFFFFFFFFFFFFFFFFFFFFFFFFFFFFFFFFFFFFFFFFFFFFFFFFFFFFFFFFFFFFFFFFFFFFFFFFFFFFFFFFFFFFFFFFFFFFFFFFFFFFFFFFFFFFFFFFFFFFFFFFFFFFFFFFFFFFFFFFFFFFFFFFFFFFFFFFFFFFFFFFFFFFFFFFFFFFFFFFFFFFFFFFFFFFFFFFFFFFF
310
FFFFFFFFFFFFFFFFFFFFFFFFFFFFFFFFFFFFFFFFFFFFFFFFFFFFFFFFFFFFFFFFFFFFFFFFFFFFFFFFFFFFFFFFFFFFFFFFFFFFFFFFFFFFFFFF
102
{BLKREFS
331
C37
102
}
  0
BLOCK_RECORD
  5
BFB
330
842
100
AcDbSymbolTableRecord
100
AcDbBlockTableRecord
  2
AI9-BLK13
340
0
310
2800000020000000200000000100080000000000000400000000000000000000000000000000000000000000000080000080000000808000800000008000800080800000C0C0C000C0DCC000F0CAA6000020400000206000002080000020A0000020C0000020E00000400000004020000040400000406000004080000040A0
310
000040C0000040E00000600000006020000060400000606000006080000060A0000060C0000060E00000800000008020000080400000806000008080000080A0000080C0000080E00000A0000000A0200000A0400000A0600000A0800000A0A00000A0C00000A0E00000C0000000C0200000C0400000C0600000C0800000C0
310
A00000C0C00000C0E00000E0000000E0200000E0400000E0600000E0800000E0A00000E0C00000E0E00040000000400020004000400040006000400080004000A0004000C0004000E00040200000402020004020400040206000402080004020A0004020C0004020E000404000004040200040404000404060004040800040
310
40A0004040C0004040E00040600000406020004060400040606000406080004060A0004060C0004060E00040800000408020004080400040806000408080004080A0004080C0004080E00040A0000040A0200040A0400040A0600040A0800040A0A00040A0C00040A0E00040C0000040C0200040C0400040C0600040C08000
310
40C0A00040C0C00040C0E00040E0000040E0200040E0400040E0600040E0800040E0A00040E0C00040E0E00080000000800020008000400080006000800080008000A0008000C0008000E00080200000802020008020400080206000802080008020A0008020C0008020E00080400000804020008040400080406000804080
310
008040A0008040C0008040E00080600000806020008060400080606000806080008060A0008060C0008060E00080800000808020008080400080806000808080008080A0008080C0008080E00080A0000080A0200080A0400080A0600080A0800080A0A00080A0C00080A0E00080C0000080C0200080C0400080C0600080C0
310
800080C0A00080C0C00080C0E00080E0000080E0200080E0400080E0600080E0800080E0A00080E0C00080E0E000C0000000C0002000C0004000C0006000C0008000C000A000C000C000C000E000C0200000C0202000C0204000C0206000C0208000C020A000C020C000C020E000C0400000C0402000C0404000C0406000C0
310
408000C040A000C040C000C040E000C0600000C0602000C0604000C0606000C0608000C060A000C060C000C060E000C0800000C0802000C0804000C0806000C0808000C080A000C080C000C080E000C0A00000C0A02000C0A04000C0A06000C0A08000C0A0A000C0A0C000C0A0E000C0C00000C0C02000C0C04000C0C06000
310
C0C08000C0C0A000F0FBFF00A4A0A000808080000000FF0000FF000000FFFF00FF000000FF00FF00FFFF0000FFFFFF00FFFFFFFFFFFFFFFFFFFFFFFFFFFFFFFFFFFFFFFFFFFFFFFFFFFFFFFFFFFFFFFFFFFFFFFFFFFFFFFFFFFFFF0000FFFFFFFFFFFF0000FFFFFFFFFFFFFFFFFFFFFFFFFFFFFFFFFFFFFFFFFFFF0000FFFF
310
FFFFFFFF0000FFFFFFFFFFFFFFFFFFFFFFFFFFFFFFFFFFFFFFFFFFFF0000FFFFFFFFFFFF0000FFFFFFFFFFFFFFFFFFFFFFFFFFFFFFFFFFFFFFFFFFFF0000FFFFFFFFFFFF0000FFFFFFFFFFFFFFFFFFFFFFFFFFFFFFFFFFFFFFFFFFFF0000FFFFFFFFFFFF0000FFFFFFFFFFFFFFFFFFFFFFFFFFFFFFFFFFFFFFFFFFFF0000FF
310
FFFFFFFFFF0000FFFFFFFFFFFFFFFFFFFFFFFFFFFFFFFFFFFFFFFFFFFF0000FFFFFFFFFFFF0000FFFFFFFFFFFFFFFFFFFFFFFFFFFFFFFFFFFFFFFFFFFF0000FFFFFFFFFFFF0000FFFFFFFFFFFFFFFFFFFFFFFFFFFFFFFFFFFFFFFFFFFF0000FFFFFFFFFFFF0000FFFFFFFFFFFFFFFFFFFFFFFFFFFFFFFFFFFFFFFFFFFF0000
310
FFFFFFFFFFFF0000FFFFFFFFFFFFFFFFFFFFFFFFFFFFFFFFFFFFFFFFFFFF0000FFFFFFFFFFFF0000FFFFFFFFFFFFFFFFFFFFFFFFFFFFFFFFFFFFFFFFFFFF0000FFFFFFFFFFFF0000FFFFFFFFFFFFFFFFFFFFFFFFFFFFFFFFFFFFFFFFFFFF0000FFFFFFFFFFFF0000FFFFFFFFFFFFFFFFFFFFFFFFFFFFFFFFFFFFFFFFFFFF00
310
00FFFFFFFFFFFF0000FFFFFFFFFFFFFFFFFFFFFFFFFFFFFFFFFFFFFFFFFFFF00000000000000000000FFFFFFFFFFFFFFFFFFFFFFFFFFFFFFFFFFFFFFFFFFFF00FFFFFFFFFFFFFFFF00FFFFFFFFFFFFFFFFFFFFFFFFFFFFFFFFFFFFFFFFFFFF00FFFFFFFFFFFFFFFF00FFFFFFFFFFFFFFFFFFFFFFFFFFFFFFFFFFFFFFFFFFFF
310
00000000000000000000FFFFFFFFFFFFFFFFFFFFFFFFFFFFFFFFFFFFFFFFFFFF0000FFFFFFFFFFFF0000FFFFFFFFFFFFFFFFFFFFFFFFFFFFFFFFFFFFFFFFFFFF0000FFFFFFFFFFFF0000FFFFFFFFFFFFFFFFFFFFFFFFFFFFFFFFFFFFFFFFFFFF0000FFFFFFFFFFFF0000FFFFFFFFFFFFFFFFFFFFFFFFFFFFFFFFFFFFFFFFFF
310
FF0000FFFFFFFFFFFF0000FFFFFFFFFFFFFFFFFFFFFFFFFFFFFFFFFFFFFFFFFFFF0000FFFFFFFFFFFF0000FFFFFFFFFFFFFFFFFFFFFFFFFFFFFFFFFFFFFFFFFFFF0000FFFFFFFFFFFF0000FFFFFFFFFFFFFFFFFFFFFFFFFFFFFFFFFFFFFFFFFFFF0000FFFFFFFFFFFF0000FFFFFFFFFFFFFFFFFFFFFFFFFFFFFFFFFFFFFFFF
310
FFFF0000FFFFFFFFFFFF0000FFFFFFFFFFFFFFFFFFFFFFFFFFFFFFFFFFFFFFFFFFFF0000FFFFFFFFFFFF0000FFFFFFFFFFFFFFFFFFFFFFFFFFFFFFFFFFFFFFFFFFFF0000FFFFFFFFFFFF0000FFFFFFFFFFFFFFFFFFFFFFFFFFFFFFFFFFFFFFFFFFFF0000FFFFFFFFFFFF0000FFFFFFFFFFFFFFFFFFFFFFFFFFFFFFFFFFFFFF
310
FFFFFF0000FFFFFFFFFFFF0000FFFFFFFFFFFFFFFFFFFFFFFFFFFFFFFFFFFFFFFFFFFFFFFFFFFFFFFFFFFFFFFFFFFFFFFFFFFFFFFFFFFFFF
102
{BLKREFS
331
C38
102
}
  0
BLOCK_RECORD
  5
C00
330
842
100
AcDbSymbolTableRecord
100
AcDbBlockTableRecord
  2
AI9-BLK11
340
0
310
2800000020000000200000000100080000000000000400000000000000000000000000000000000000000000000080000080000000808000800000008000800080800000C0C0C000C0DCC000F0CAA6000020400000206000002080000020A0000020C0000020E00000400000004020000040400000406000004080000040A0
310
000040C0000040E00000600000006020000060400000606000006080000060A0000060C0000060E00000800000008020000080400000806000008080000080A0000080C0000080E00000A0000000A0200000A0400000A0600000A0800000A0A00000A0C00000A0E00000C0000000C0200000C0400000C0600000C0800000C0
310
A00000C0C00000C0E00000E0000000E0200000E0400000E0600000E0800000E0A00000E0C00000E0E00040000000400020004000400040006000400080004000A0004000C0004000E00040200000402020004020400040206000402080004020A0004020C0004020E000404000004040200040404000404060004040800040
310
40A0004040C0004040E00040600000406020004060400040606000406080004060A0004060C0004060E00040800000408020004080400040806000408080004080A0004080C0004080E00040A0000040A0200040A0400040A0600040A0800040A0A00040A0C00040A0E00040C0000040C0200040C0400040C0600040C08000
310
40C0A00040C0C00040C0E00040E0000040E0200040E0400040E0600040E0800040E0A00040E0C00040E0E00080000000800020008000400080006000800080008000A0008000C0008000E00080200000802020008020400080206000802080008020A0008020C0008020E00080400000804020008040400080406000804080
310
008040A0008040C0008040E00080600000806020008060400080606000806080008060A0008060C0008060E00080800000808020008080400080806000808080008080A0008080C0008080E00080A0000080A0200080A0400080A0600080A0800080A0A00080A0C00080A0E00080C0000080C0200080C0400080C0600080C0
310
800080C0A00080C0C00080C0E00080E0000080E0200080E0400080E0600080E0800080E0A00080E0C00080E0E000C0000000C0002000C0004000C0006000C0008000C000A000C000C000C000E000C0200000C0202000C0204000C0206000C0208000C020A000C020C000C020E000C0400000C0402000C0404000C0406000C0
310
408000C040A000C040C000C040E000C0600000C0602000C0604000C0606000C0608000C060A000C060C000C060E000C0800000C0802000C0804000C0806000C0808000C080A000C080C000C080E000C0A00000C0A02000C0A04000C0A06000C0A08000C0A0A000C0A0C000C0A0E000C0C00000C0C02000C0C04000C0C06000
310
C0C08000C0C0A000F0FBFF00A4A0A000808080000000FF0000FF000000FFFF00FF000000FF00FF00FFFF0000FFFFFF00FFFFFFFFFFFFFFFFFFFFFFFFFFFFFFFFFFFFFFFFFFFFFFFFFFFFFFFFFFFFFFFFFFFFFFFFFFFFFFFFFFFFFFFFFFFF00000000FFFFFFFFFFFFFFFFFFFFFF000000FFFFFFFFFFFFFFFFFFFFFFFFFFFF00
310
FFFF00FFFFFFFFFFFFFFFFFFFFFF00FFFFFFFFFFFFFFFFFFFFFFFFFFFFFFFF00FFFF00FFFFFFFFFFFFFFFFFFFFFF00FFFFFFFFFFFFFFFFFFFFFFFFFFFFFFFF00FFFF00FFFFFFFFFFFFFFFFFFFFFF00FFFFFFFFFFFFFFFFFFFFFFFFFFFFFFFF00FFFF00FFFFFFFFFFFFFFFFFFFFFF00FFFFFFFFFFFFFFFFFFFFFFFFFFFFFFFF
310
00FFFF00FFFFFFFFFFFFFFFFFFFFFF00FFFFFFFFFFFFFFFFFFFFFFFFFFFFFFFF00FFFF00FFFFFFFFFFFFFFFFFFFFFF00FFFFFFFFFFFFFFFFFFFFFFFFFFFFFFFF00FFFF00FFFFFFFFFFFFFFFFFFFFFF00FFFFFFFFFFFFFFFFFFFFFFFFFFFFFFFF00FFFF00FFFFFFFFFFFFFFFFFFFFFF00FFFFFFFFFFFFFFFFFFFFFFFFFFFFFF
310
FF00FFFF00FFFFFFFFFFFFFFFFFFFFFF00FFFFFFFFFFFFFFFFFFFFFFFFFFFFFFFF00FFFF00FFFFFFFFFFFFFFFFFFFFFF00FFFFFFFFFFFFFFFFFFFFFFFFFFFFFFFF00FFFF00FFFFFFFFFFFFFFFFFFFFFF00FFFFFFFFFFFFFFFFFFFFFFFFFFFFFFFF00FFFF00FFFFFFFFFFFFFFFFFFFFFF00FFFFFFFFFFFFFFFFFFFFFFFFFFFF
310
FFFF00FFFF00FFFFFFFFFFFFFFFFFFFFFF00FFFFFFFFFFFFFFFFFFFFFFFFFFFFFFFF00FFFF00FFFFFFFFFFFFFFFFFFFFFF00FFFFFFFFFFFFFFFFFFFFFFFFFFFFFFFF00FFFF00FFFFFFFFFFFFFFFFFFFFFF00FFFFFFFFFFFFFFFFFFFFFFFFFFFFFFFF00FFFF00FFFFFFFFFFFFFFFFFFFF00FFFFFFFFFFFFFFFFFFFFFFFFFFFF
310
FFFFFF00FFFF00FFFFFFFFFFFFFFFFFFFF00FFFFFFFFFFFFFFFFFFFFFFFFFFFFFFFFFF00FFFF00FFFFFFFFFFFFFFFFFFFF00FFFFFFFFFFFFFFFFFFFFFFFFFFFFFFFFFF00FFFF00FFFFFFFFFFFFFFFFFFFF00FFFFFFFFFFFFFFFFFFFFFFFFFFFFFFFFFF00FFFF00FFFFFFFFFFFFFFFFFFFF00FFFFFFFFFFFFFFFFFFFFFFFFFF
310
FFFFFFFF00FFFF00FFFFFFFFFFFFFFFFFF0000FFFF00FFFFFFFFFFFFFFFFFFFFFFFFFFFF00FFFF00FFFFFFFFFFFFFFFF0000FFFFFF00FFFFFFFFFFFFFFFFFFFFFFFFFFFF00FFFF00000000000000000000FFFFFFFF00FFFFFFFFFFFFFFFFFFFFFFFFFFFF00FFFFFFFFFFFFFFFFFFFFFFFFFFFFFF00FFFFFFFFFFFFFFFFFFFF
310
FFFFFFFFFF00FFFFFFFFFFFFFFFFFFFFFFFFFFFF00FFFFFFFFFFFFFFFFFFFFFFFFFFFFFFFF00FFFFFFFFFFFFFFFFFFFFFFFFFFFF00FFFFFFFFFFFFFFFFFFFFFFFFFFFFFFFF00FFFFFFFFFFFFFFFFFFFFFFFFFFFFFF00FFFFFFFFFFFFFFFFFFFFFFFFFFFFFF00FFFFFFFFFFFFFFFFFFFFFFFFFFFFFF00FFFFFFFFFFFFFFFFFF
310
FFFFFFFFFFFF00FFFF00000000000000000000FFFFFFFF00FFFFFFFFFFFFFFFFFFFFFFFFFFFF00FFFF00FFFFFFFFFFFFFFFFFF0000FFFF00
102
{BLKREFS
331
C39
102
}
  0
BLOCK_RECORD
  5
C05
330
842
100
AcDbSymbolTableRecord
100
AcDbBlockTableRecord
  2
AI9-BLK10
340
0
310
2800000020000000200000000100080000000000000400000000000000000000000000000000000000000000000080000080000000808000800000008000800080800000C0C0C000C0DCC000F0CAA6000020400000206000002080000020A0000020C0000020E00000400000004020000040400000406000004080000040A0
310
000040C0000040E00000600000006020000060400000606000006080000060A0000060C0000060E00000800000008020000080400000806000008080000080A0000080C0000080E00000A0000000A0200000A0400000A0600000A0800000A0A00000A0C00000A0E00000C0000000C0200000C0400000C0600000C0800000C0
310
A00000C0C00000C0E00000E0000000E0200000E0400000E0600000E0800000E0A00000E0C00000E0E00040000000400020004000400040006000400080004000A0004000C0004000E00040200000402020004020400040206000402080004020A0004020C0004020E000404000004040200040404000404060004040800040
310
40A0004040C0004040E00040600000406020004060400040606000406080004060A0004060C0004060E00040800000408020004080400040806000408080004080A0004080C0004080E00040A0000040A0200040A0400040A0600040A0800040A0A00040A0C00040A0E00040C0000040C0200040C0400040C0600040C08000
310
40C0A00040C0C00040C0E00040E0000040E0200040E0400040E0600040E0800040E0A00040E0C00040E0E00080000000800020008000400080006000800080008000A0008000C0008000E00080200000802020008020400080206000802080008020A0008020C0008020E00080400000804020008040400080406000804080
310
008040A0008040C0008040E00080600000806020008060400080606000806080008060A0008060C0008060E00080800000808020008080400080806000808080008080A0008080C0008080E00080A0000080A0200080A0400080A0600080A0800080A0A00080A0C00080A0E00080C0000080C0200080C0400080C0600080C0
310
800080C0A00080C0C00080C0E00080E0000080E0200080E0400080E0600080E0800080E0A00080E0C00080E0E000C0000000C0002000C0004000C0006000C0008000C000A000C000C000C000E000C0200000C0202000C0204000C0206000C0208000C020A000C020C000C020E000C0400000C0402000C0404000C0406000C0
310
408000C040A000C040C000C040E000C0600000C0602000C0604000C0606000C0608000C060A000C060C000C060E000C0800000C0802000C0804000C0806000C0808000C080A000C080C000C080E000C0A00000C0A02000C0A04000C0A06000C0A08000C0A0A000C0A0C000C0A0E000C0C00000C0C02000C0C04000C0C06000
310
C0C08000C0C0A000F0FBFF00A4A0A000808080000000FF0000FF000000FFFF00FF000000FF00FF00FFFF0000FFFFFF00FFFFFFFFFFFFFFFFFFFFFFFFFFFFFFFF00FFFFFFFFFFFFFFFFFFFFFFFF00FFFFFFFFFFFFFFFFFFFFFFFFFFFFFFFFFFFF00FFFFFFFFFFFFFFFFFFFFFF00FFFFFFFFFFFFFFFFFFFFFFFFFFFFFFFFFFFF
310
FF00FFFFFFFFFFFFFFFFFFFFFF00FFFFFFFFFFFFFFFFFFFFFFFFFFFFFFFFFFFFFF00FFFFFFFFFFFFFFFFFFFFFF00FFFFFFFFFFFFFFFFFFFFFFFFFFFFFFFFFFFFFF00FFFFFFFFFFFFFFFFFFFFFF00FFFFFFFFFFFFFFFFFFFFFFFFFFFFFFFFFFFFFF00FFFFFFFFFFFFFFFFFFFFFF00FFFFFFFFFFFFFFFFFFFFFFFFFFFFFFFFFF
310
FFFF00FFFFFFFFFFFFFFFFFFFFFF00FFFFFFFFFFFFFFFFFFFFFFFFFFFFFFFFFFFFFF00FFFFFFFFFFFFFFFFFFFF00FFFFFFFFFFFFFFFFFFFFFFFFFFFFFFFFFFFFFFFF00FFFFFFFFFFFFFFFFFFFF00FFFFFFFFFFFFFFFFFFFFFFFFFFFFFFFFFFFFFFFF00FFFFFFFFFFFFFFFFFFFF00FFFFFFFFFFFFFFFFFFFFFFFFFFFFFFFFFF
310
FFFFFF00FFFFFFFFFFFFFFFFFFFF00FFFFFFFFFFFFFFFFFFFFFFFFFFFFFFFFFFFFFFFF00FFFFFFFFFFFFFFFFFFFF00FFFFFFFFFFFFFFFFFFFFFFFFFFFFFFFFFFFFFFFF00FFFFFFFFFFFFFFFFFFFF00FFFFFFFFFFFFFFFFFFFFFFFFFFFFFFFFFFFFFFFF00FFFFFFFFFFFFFFFFFF00FFFFFFFFFFFFFFFFFFFFFFFFFFFFFFFFFF
310
FFFFFFFF00FFFFFFFFFFFFFFFFFF00FFFFFFFFFFFFFFFFFFFFFFFFFFFFFFFFFFFFFFFFFF00FFFFFFFFFFFFFFFFFF00FFFFFFFFFFFFFFFFFFFFFFFFFFFFFFFFFFFFFFFFFF0000000000000000000000FFFFFFFFFFFFFFFFFFFFFFFFFFFFFFFFFFFFFFFFFFFFFFFFFFFFFFFFFFFFFFFFFFFFFFFFFFFFFFFFFFFFFFFFFFFFFFFF
310
FFFFFFFFFFFFFFFFFFFFFFFFFFFFFFFFFFFFFFFFFFFFFFFFFFFFFFFFFFFFFFFFFFFFFFFFFFFFFFFFFFFFFFFFFFFFFFFFFFFFFFFFFFFFFFFFFFFFFFFFFFFFFFFFFFFFFFFFFFFFFFFFFFFFFFFFFFFFFFFFFFFFFFFFFFFFFFFFFFFFFFFFFFFFFFFFFFFFFFFFFFFFFFFFFFFFFFFFFFFFFFFFFFFFFFFFFFFFFFFFFFFFFFFFFFFFFF
310
FFFFFFFFFFFFFFFFFFFFFFFFFFFFFFFFFFFFFFFFFFFFFFFFFFFFFFFFFFFFFFFFFFFFFFFFFFFFFFFFFFFFFFFFFFFFFFFFFFFFFFFFFFFFFFFFFFFFFFFFFFFFFFFFFFFFFFFFFFFFFFFFFFFFFFFFFFFFFFFFFFFFFFFFFFFFFFFFFFFFFFFFFFFFFFFFFFFFFFFFFFFFFFFFFFFFFFFFFFFFFFFFFFFFFFFFFFFFFFFFFFFFFFFFFFFFFF
310
FFFFFFFFFFFFFFFFFFFFFFFFFFFFFFFFFFFFFFFFFFFFFFFFFFFFFFFFFFFFFFFFFFFFFFFFFFFFFFFFFFFFFFFFFFFFFFFFFFFFFFFFFFFFFFFFFFFFFFFFFFFFFFFFFFFFFFFFFFFFFFFFFFFFFFFFFFFFFFFFFFFFFFFFFFFFFFFFFFFFFFFFFFFFFFFFFFFFFFFFFFFFFFFFFFFFFFFFFFFFFFFFFFFFFFFFFFFFFFFFFFFFFFFFFFFFFF
310
FFFFFFFFFFFFFFFFFFFFFFFFFFFFFFFFFFFFFFFFFFFFFFFFFFFFFFFFFFFFFFFFFFFFFFFFFFFFFFFFFFFFFFFFFFFFFFFFFFFFFFFFFFFFFFFF
102
{BLKREFS
331
C3A
102
}
  0
BLOCK_RECORD
  5
C09
330
842
100
AcDbSymbolTableRecord
100
AcDbBlockTableRecord
  2
AI9-BLK9
340
0
310
2800000020000000200000000100080000000000000400000000000000000000000000000000000000000000000080000080000000808000800000008000800080800000C0C0C000C0DCC000F0CAA6000020400000206000002080000020A0000020C0000020E00000400000004020000040400000406000004080000040A0
310
000040C0000040E00000600000006020000060400000606000006080000060A0000060C0000060E00000800000008020000080400000806000008080000080A0000080C0000080E00000A0000000A0200000A0400000A0600000A0800000A0A00000A0C00000A0E00000C0000000C0200000C0400000C0600000C0800000C0
310
A00000C0C00000C0E00000E0000000E0200000E0400000E0600000E0800000E0A00000E0C00000E0E00040000000400020004000400040006000400080004000A0004000C0004000E00040200000402020004020400040206000402080004020A0004020C0004020E000404000004040200040404000404060004040800040
310
40A0004040C0004040E00040600000406020004060400040606000406080004060A0004060C0004060E00040800000408020004080400040806000408080004080A0004080C0004080E00040A0000040A0200040A0400040A0600040A0800040A0A00040A0C00040A0E00040C0000040C0200040C0400040C0600040C08000
310
40C0A00040C0C00040C0E00040E0000040E0200040E0400040E0600040E0800040E0A00040E0C00040E0E00080000000800020008000400080006000800080008000A0008000C0008000E00080200000802020008020400080206000802080008020A0008020C0008020E00080400000804020008040400080406000804080
310
008040A0008040C0008040E00080600000806020008060400080606000806080008060A0008060C0008060E00080800000808020008080400080806000808080008080A0008080C0008080E00080A0000080A0200080A0400080A0600080A0800080A0A00080A0C00080A0E00080C0000080C0200080C0400080C0600080C0
310
800080C0A00080C0C00080C0E00080E0000080E0200080E0400080E0600080E0800080E0A00080E0C00080E0E000C0000000C0002000C0004000C0006000C0008000C000A000C000C000C000E000C0200000C0202000C0204000C0206000C0208000C020A000C020C000C020E000C0400000C0402000C0404000C0406000C0
310
408000C040A000C040C000C040E000C0600000C0602000C0604000C0606000C0608000C060A000C060C000C060E000C0800000C0802000C0804000C0806000C0808000C080A000C080C000C080E000C0A00000C0A02000C0A04000C0A06000C0A08000C0A0A000C0A0C000C0A0E000C0C00000C0C02000C0C04000C0C06000
310
C0C08000C0C0A000F0FBFF00A4A0A000808080000000FF0000FF000000FFFF00FF000000FF00FF00FFFF0000FFFFFF00FFFFFFFFFFFFFFFFFFFFFFFFFFFFFFFFFFFFFFFFFFFFFFFFFFFFFFFFFFFFFFFFFFFFFFFFFFFFFFFFFFFFFFFFFFFFFF0000FFFFFFFFFFFFFFFFFFFFFFFFFFFFFFFFFFFFFFFFFFFFFFFFFFFFFFFF0000
310
FF0000FFFFFFFFFFFFFFFFFFFFFFFFFFFFFFFFFFFFFFFFFFFFFFFFFFFFFF00FFFFFF0000FFFFFFFFFFFFFFFFFFFFFFFFFFFFFFFFFFFFFFFFFFFFFFFFFFFF00FFFFFFFF0000FFFFFFFFFFFFFFFFFFFFFFFFFFFFFFFFFFFFFFFFFFFFFFFF00FF00000000FF00FFFFFFFFFFFFFFFFFFFFFFFFFFFFFFFFFFFFFFFFFFFFFFFF0000
310
00FFFF00FF00FFFFFFFFFFFFFFFFFFFFFFFFFFFFFFFFFFFFFFFFFFFFFFFF0000FFFFFFFF0000FFFFFFFFFFFFFFFFFFFFFFFFFFFFFFFFFFFFFFFFFFFFFFFF0000FFFFFFFF0000FFFFFFFFFFFFFFFFFFFFFFFFFFFFFFFFFFFFFFFFFFFFFF00FF00FFFFFFFF00FF00FFFFFFFFFFFFFFFFFFFFFFFFFFFFFFFFFFFFFFFFFFFF0000
310
FFFFFFFFFF00FF00FFFFFFFFFFFFFFFFFFFFFFFFFFFFFFFFFFFFFFFFFFFF0000FFFFFFFFFFFF0000FFFFFFFFFFFFFFFFFFFFFFFFFFFFFFFFFFFFFFFFFFFF0000FFFFFFFFFFFF0000FFFFFFFFFFFFFFFFFFFFFFFFFFFFFFFFFFFFFFFFFFFF0000FFFFFFFFFFFF0000FFFFFFFFFFFFFFFFFFFFFFFFFFFFFFFFFFFFFFFFFFFF00
310
00FFFFFFFFFFFF0000FFFFFFFFFFFFFFFFFFFFFFFFFFFFFFFFFFFFFFFFFFFF0000FFFFFFFFFFFF0000FFFFFFFFFFFFFFFFFFFFFFFFFFFFFFFFFFFFFFFFFFFF0000FFFFFFFFFFFF0000FFFFFFFFFFFFFFFFFFFFFFFFFFFFFFFFFFFFFFFFFFFF0000FFFFFFFFFFFF0000FFFFFFFFFFFFFFFFFFFFFFFFFFFFFFFFFFFFFFFFFFFF
310
0000FFFFFFFFFFFF0000FFFFFFFFFFFFFFFFFFFFFFFFFFFFFFFFFFFFFFFFFFFF0000FFFFFFFFFFFF0000FFFFFFFFFFFFFFFFFFFFFFFFFFFFFFFFFFFFFFFFFFFF0000FFFFFFFFFFFF0000FFFFFFFFFFFFFFFFFFFFFFFFFFFFFFFFFFFFFFFFFFFF00FF00FFFFFFFF00FF00FFFFFFFFFFFFFFFFFFFFFFFFFFFFFFFFFFFFFFFFFF
310
FF00FF00FFFFFFFF00FF00FFFFFFFFFFFFFFFFFFFFFFFFFFFFFFFFFFFFFFFFFFFF00FF00FFFFFFFF00FF00FFFFFFFFFFFFFFFFFFFFFFFFFFFFFFFFFFFFFFFFFFFFFF0000FFFFFFFF0000FFFFFFFFFFFFFFFFFFFFFFFFFFFFFFFFFFFFFFFFFFFFFFFF00FF00FFFF00FF00FFFFFFFFFFFFFFFFFFFFFFFFFFFFFFFFFFFFFFFFFF
310
FFFFFF00FF00000000FF00FFFFFFFFFFFFFFFFFFFFFFFFFFFFFFFFFFFFFFFFFFFFFFFFFF00FFFFFFFF0000FFFFFFFFFFFFFFFFFFFFFFFFFFFFFFFFFFFFFFFFFFFFFFFFFF00FFFFFFFF00FFFFFFFFFFFFFFFFFFFFFFFFFFFFFFFFFFFFFFFFFFFFFFFFFFFFFF00000000FFFFFFFFFFFFFFFFFFFFFFFFFFFFFFFFFFFFFFFFFFFF
310
FFFFFFFFFFFFFF0000FFFFFFFFFFFFFFFFFFFFFFFFFFFFFFFFFFFFFFFFFFFFFFFFFFFFFFFFFFFFFFFFFFFFFFFFFFFFFFFFFFFFFFFFFFFFFF
102
{BLKREFS
331
C3B
102
}
  0
BLOCK_RECORD
  5
C0E
330
842
100
AcDbSymbolTableRecord
100
AcDbBlockTableRecord
  2
AI9-BLK8
340
0
310
2800000020000000200000000100080000000000000400000000000000000000000000000000000000000000000080000080000000808000800000008000800080800000C0C0C000C0DCC000F0CAA6000020400000206000002080000020A0000020C0000020E00000400000004020000040400000406000004080000040A0
310
000040C0000040E00000600000006020000060400000606000006080000060A0000060C0000060E00000800000008020000080400000806000008080000080A0000080C0000080E00000A0000000A0200000A0400000A0600000A0800000A0A00000A0C00000A0E00000C0000000C0200000C0400000C0600000C0800000C0
310
A00000C0C00000C0E00000E0000000E0200000E0400000E0600000E0800000E0A00000E0C00000E0E00040000000400020004000400040006000400080004000A0004000C0004000E00040200000402020004020400040206000402080004020A0004020C0004020E000404000004040200040404000404060004040800040
310
40A0004040C0004040E00040600000406020004060400040606000406080004060A0004060C0004060E00040800000408020004080400040806000408080004080A0004080C0004080E00040A0000040A0200040A0400040A0600040A0800040A0A00040A0C00040A0E00040C0000040C0200040C0400040C0600040C08000
310
40C0A00040C0C00040C0E00040E0000040E0200040E0400040E0600040E0800040E0A00040E0C00040E0E00080000000800020008000400080006000800080008000A0008000C0008000E00080200000802020008020400080206000802080008020A0008020C0008020E00080400000804020008040400080406000804080
310
008040A0008040C0008040E00080600000806020008060400080606000806080008060A0008060C0008060E00080800000808020008080400080806000808080008080A0008080C0008080E00080A0000080A0200080A0400080A0600080A0800080A0A00080A0C00080A0E00080C0000080C0200080C0400080C0600080C0
310
800080C0A00080C0C00080C0E00080E0000080E0200080E0400080E0600080E0800080E0A00080E0C00080E0E000C0000000C0002000C0004000C0006000C0008000C000A000C000C000C000E000C0200000C0202000C0204000C0206000C0208000C020A000C020C000C020E000C0400000C0402000C0404000C0406000C0
310
408000C040A000C040C000C040E000C0600000C0602000C0604000C0606000C0608000C060A000C060C000C060E000C0800000C0802000C0804000C0806000C0808000C080A000C080C000C080E000C0A00000C0A02000C0A04000C0A06000C0A08000C0A0A000C0A0C000C0A0E000C0C00000C0C02000C0C04000C0C06000
310
C0C08000C0C0A000F0FBFF00A4A0A000808080000000FF0000FF000000FFFF00FF000000FF00FF00FFFF0000FFFFFF00FFFFFFFFFFFFFFFFFFFFFFFFFFFFFFFFFFFFFFFFFFFFFFFFFFFFFFFFFFFFFFFFFFFFFFFFFFFFFFFFFFFFFF0000FFFFFFFFFFFF0000FFFFFFFFFFFFFFFFFFFFFFFFFFFFFFFFFFFFFFFFFFFF0000FFFF
310
FFFFFFFF0000FFFFFFFFFFFFFFFFFFFFFFFFFFFFFFFFFFFFFFFFFFFF0000FFFFFFFFFF00FF00FFFFFFFFFFFFFFFFFFFFFFFFFFFFFFFFFFFFFFFFFFFF0000FFFFFFFFFF00FF00FFFFFFFFFFFFFFFFFFFFFFFFFFFFFFFFFFFFFFFFFFFF0000FFFFFFFFFF00FF00FFFFFFFFFFFFFFFFFFFFFFFFFFFFFFFFFFFFFFFFFFFF0000FF
310
FFFFFF00FFFF00FFFFFFFFFFFFFFFFFFFFFFFFFFFFFFFFFFFFFFFFFFFF0000FFFFFFFF00FF0000FFFFFFFFFFFFFFFFFFFFFFFFFFFFFFFFFFFFFFFFFFFF0000FFFFFFFF00FF0000FFFFFFFFFFFFFFFFFFFFFFFFFFFFFFFFFFFFFFFFFFFF0000FFFFFFFF00000000FFFFFFFFFFFFFFFFFFFFFFFFFFFFFFFFFFFFFFFFFFFF0000
310
FFFFFF00FF000000FFFFFFFFFFFFFFFFFFFFFFFFFFFFFFFFFFFFFFFFFFFF0000FFFFFF00FF000000FFFFFFFFFFFFFFFFFFFFFFFFFFFFFFFFFFFFFFFFFFFF0000FFFFFF00FF000000FFFFFFFFFFFFFFFFFFFFFFFFFFFFFFFFFFFFFFFFFFFF0000FFFF00FF00FF0000FFFFFFFFFFFFFFFFFFFFFFFFFFFFFFFFFFFFFFFFFFFF00
310
00FFFF00FF00FF0000FFFFFFFFFFFFFFFFFFFFFFFFFFFFFFFFFFFFFFFFFFFF0000FFFF00FF00FF0000FFFFFFFFFFFFFFFFFFFFFFFFFFFFFFFFFFFFFFFFFFFF0000FF00FFFF00FF0000FFFFFFFFFFFFFFFFFFFFFFFFFFFFFFFFFFFFFFFFFFFF0000FF00FF00FFFF0000FFFFFFFFFFFFFFFFFFFFFFFFFFFFFFFFFFFFFFFFFFFF
310
0000FF00FF00FFFF0000FFFFFFFFFFFFFFFFFFFFFFFFFFFFFFFFFFFFFFFFFFFF0000FF00FF00FFFF0000FFFFFFFFFFFFFFFFFFFFFFFFFFFFFFFFFFFFFFFFFFFF000000FFFF00FFFF0000FFFFFFFFFFFFFFFFFFFFFFFFFFFFFFFFFFFFFFFFFFFF000000FF00FFFFFF0000FFFFFFFFFFFFFFFFFFFFFFFFFFFFFFFFFFFFFFFFFF
310
FF000000FF00FFFFFF0000FFFFFFFFFFFFFFFFFFFFFFFFFFFFFFFFFFFFFFFFFFFF0000FFFF00FFFFFF0000FFFFFFFFFFFFFFFFFFFFFFFFFFFFFFFFFFFFFFFFFFFF0000FFFF00FFFFFF0000FFFFFFFFFFFFFFFFFFFFFFFFFFFFFFFFFFFFFFFFFFFF00FFFF00FFFFFFFF0000FFFFFFFFFFFFFFFFFFFFFFFFFFFFFFFFFFFFFFFF
310
FFFF00FFFF00FFFFFFFF0000FFFFFFFFFFFFFFFFFFFFFFFFFFFFFFFFFFFFFFFFFFFF00FFFF00FFFFFFFF0000FFFFFFFFFFFFFFFFFFFFFFFFFFFFFFFFFFFFFFFFFFFF00FFFF00FFFFFFFF0000FFFFFFFFFFFFFFFFFFFFFFFFFFFFFFFFFFFFFFFFFFFF00FF00FFFFFFFFFF0000FFFFFFFFFFFFFFFFFFFFFFFFFFFFFFFFFFFFFF
310
FFFFFF000000FFFFFFFFFF0000FFFFFFFFFFFFFFFFFFFFFFFFFFFFFFFFFFFFFFFFFFFFFFFFFFFFFFFFFFFFFFFFFFFFFFFFFFFFFFFFFFFFFF
102
{BLKREFS
331
C3C
102
}
  0
BLOCK_RECORD
  5
C13
330
842
100
AcDbSymbolTableRecord
100
AcDbBlockTableRecord
  2
AI9-BLK7
340
0
310
2800000020000000200000000100080000000000000400000000000000000000000000000000000000000000000080000080000000808000800000008000800080800000C0C0C000C0DCC000F0CAA6000020400000206000002080000020A0000020C0000020E00000400000004020000040400000406000004080000040A0
310
000040C0000040E00000600000006020000060400000606000006080000060A0000060C0000060E00000800000008020000080400000806000008080000080A0000080C0000080E00000A0000000A0200000A0400000A0600000A0800000A0A00000A0C00000A0E00000C0000000C0200000C0400000C0600000C0800000C0
310
A00000C0C00000C0E00000E0000000E0200000E0400000E0600000E0800000E0A00000E0C00000E0E00040000000400020004000400040006000400080004000A0004000C0004000E00040200000402020004020400040206000402080004020A0004020C0004020E000404000004040200040404000404060004040800040
310
40A0004040C0004040E00040600000406020004060400040606000406080004060A0004060C0004060E00040800000408020004080400040806000408080004080A0004080C0004080E00040A0000040A0200040A0400040A0600040A0800040A0A00040A0C00040A0E00040C0000040C0200040C0400040C0600040C08000
310
40C0A00040C0C00040C0E00040E0000040E0200040E0400040E0600040E0800040E0A00040E0C00040E0E00080000000800020008000400080006000800080008000A0008000C0008000E00080200000802020008020400080206000802080008020A0008020C0008020E00080400000804020008040400080406000804080
310
008040A0008040C0008040E00080600000806020008060400080606000806080008060A0008060C0008060E00080800000808020008080400080806000808080008080A0008080C0008080E00080A0000080A0200080A0400080A0600080A0800080A0A00080A0C00080A0E00080C0000080C0200080C0400080C0600080C0
310
800080C0A00080C0C00080C0E00080E0000080E0200080E0400080E0600080E0800080E0A00080E0C00080E0E000C0000000C0002000C0004000C0006000C0008000C000A000C000C000C000E000C0200000C0202000C0204000C0206000C0208000C020A000C020C000C020E000C0400000C0402000C0404000C0406000C0
310
408000C040A000C040C000C040E000C0600000C0602000C0604000C0606000C0608000C060A000C060C000C060E000C0800000C0802000C0804000C0806000C0808000C080A000C080C000C080E000C0A00000C0A02000C0A04000C0A06000C0A08000C0A0A000C0A0C000C0A0E000C0C00000C0C02000C0C04000C0C06000
310
C0C08000C0C0A000F0FBFF00A4A0A000808080000000FF0000FF000000FFFF00FF000000FF00FF00FFFF0000FFFFFF00FFFFFFFFFFFFFFFFFFFFFFFFFFFFFFFFFFFFFFFFFFFFFFFFFFFFFFFFFFFFFFFFFFFFFFFFFFFFFFFFFFFFFFFFFFFFFF0000FFFFFFFFFFFFFFFFFFFFFFFFFFFFFFFFFFFFFFFFFFFFFFFFFFFFFFFFFFFF
310
0000FFFFFFFFFFFFFFFFFFFFFFFFFFFFFFFFFFFFFFFFFFFFFFFFFFFFFFFFFFFF0000FFFFFFFFFFFFFFFFFFFFFFFFFFFFFFFFFFFFFFFFFFFFFFFFFFFFFFFFFFFF0000FFFFFFFFFFFFFFFFFFFFFFFFFFFFFFFFFFFFFFFFFFFFFFFFFFFFFFFFFFFF0000FFFFFFFFFFFFFFFFFFFFFFFFFFFFFFFFFFFFFFFFFFFFFFFFFFFFFFFFFF
310
FF0000FFFFFFFFFFFFFFFFFFFFFFFFFFFFFFFFFFFFFFFFFFFFFFFFFFFFFFFFFFFF0000FFFFFFFFFFFFFFFFFFFFFFFFFFFFFFFFFFFFFFFFFFFFFFFFFFFFFFFFFFFF0000FFFFFFFFFFFFFFFFFFFFFFFFFFFFFFFFFFFFFFFFFFFFFFFFFFFFFFFFFFFF0000FFFFFFFFFFFFFFFFFFFFFFFFFFFFFFFFFFFFFFFFFFFFFFFFFFFFFFFF
310
FFFF0000FFFFFFFFFFFFFFFFFFFFFFFFFFFFFFFFFFFFFFFFFFFFFFFFFFFFFFFFFFFF0000FFFFFFFFFFFFFFFFFFFFFFFFFFFFFFFFFFFFFFFFFFFFFFFFFFFFFFFFFFFF0000FFFFFFFFFFFFFFFFFFFFFFFFFFFFFFFFFFFFFFFFFFFFFFFFFFFFFFFFFFFF0000FFFFFFFFFFFFFFFFFFFFFFFFFFFFFFFFFFFFFFFFFFFFFFFFFFFFFF
310
FFFFFF0000FFFFFFFFFFFFFFFFFFFFFFFFFFFFFFFFFFFFFFFFFFFFFFFFFFFFFFFFFFFF0000FFFFFFFFFFFFFFFFFFFFFFFFFFFFFFFFFFFFFFFFFFFFFFFFFFFFFFFFFFFF0000FFFFFFFFFFFFFFFFFFFFFFFFFFFFFFFFFFFFFFFFFFFFFFFFFFFFFFFFFFFF0000FFFFFFFFFFFFFFFFFFFFFFFFFFFFFFFFFFFFFFFFFFFFFFFFFFFF
310
FFFFFFFF0000FFFFFFFFFFFFFFFFFFFFFFFFFFFFFFFFFFFFFFFFFFFFFFFFFFFFFFFFFFFF0000FFFFFFFFFFFFFFFFFFFFFFFFFFFFFFFFFFFFFFFFFFFFFFFFFFFFFFFFFFFF0000FFFFFFFFFFFFFFFFFFFFFFFFFFFFFFFFFFFFFFFFFFFFFFFFFFFFFFFFFFFF0000FFFFFFFFFFFFFFFFFFFFFFFFFFFFFFFFFFFFFFFFFFFFFFFFFF
310
FFFFFFFFFF0000FFFFFFFFFFFFFFFFFFFFFFFFFFFFFFFFFFFFFFFFFFFFFFFFFFFFFFFFFFFF0000FFFFFFFFFFFFFFFFFFFFFFFFFFFFFFFFFFFFFFFFFFFFFFFFFFFFFFFFFFFF0000FFFFFFFFFFFFFFFFFFFFFFFFFFFFFFFFFFFFFFFFFFFFFFFFFFFFFFFFFFFF0000FFFFFFFFFFFFFFFFFFFFFFFFFFFFFFFFFFFFFFFFFFFFFFFF
310
FFFFFFFFFFFF0000FFFFFFFFFFFFFFFFFFFFFFFFFFFFFFFFFFFFFFFFFFFFFFFFFFFFFFFFFFFF0000FFFFFFFFFFFFFFFFFFFFFFFFFFFFFFFFFFFFFFFFFFFFFFFFFFFFFFFFFFFF0000FFFFFFFFFFFFFFFFFFFFFFFFFFFFFFFFFFFFFFFFFFFFFFFFFFFFFFFFFFFF0000FFFFFFFFFFFFFFFFFFFFFFFFFFFFFFFFFFFFFFFFFFFFFF
310
FFFFFFFFFFFFFF0000FFFFFFFFFFFFFFFFFFFFFFFFFFFFFFFFFFFFFFFFFFFFFFFFFFFFFFFFFFFFFFFFFFFFFFFFFFFFFFFFFFFFFFFFFFFFFF
102
{BLKREFS
331
C3D
102
}
  0
BLOCK_RECORD
  5
C18
330
842
100
AcDbSymbolTableRecord
100
AcDbBlockTableRecord
  2
AI9-BLK6
340
0
310
2800000020000000200000000100080000000000000400000000000000000000000000000000000000000000000080000080000000808000800000008000800080800000C0C0C000C0DCC000F0CAA6000020400000206000002080000020A0000020C0000020E00000400000004020000040400000406000004080000040A0
310
000040C0000040E00000600000006020000060400000606000006080000060A0000060C0000060E00000800000008020000080400000806000008080000080A0000080C0000080E00000A0000000A0200000A0400000A0600000A0800000A0A00000A0C00000A0E00000C0000000C0200000C0400000C0600000C0800000C0
310
A00000C0C00000C0E00000E0000000E0200000E0400000E0600000E0800000E0A00000E0C00000E0E00040000000400020004000400040006000400080004000A0004000C0004000E00040200000402020004020400040206000402080004020A0004020C0004020E000404000004040200040404000404060004040800040
310
40A0004040C0004040E00040600000406020004060400040606000406080004060A0004060C0004060E00040800000408020004080400040806000408080004080A0004080C0004080E00040A0000040A0200040A0400040A0600040A0800040A0A00040A0C00040A0E00040C0000040C0200040C0400040C0600040C08000
310
40C0A00040C0C00040C0E00040E0000040E0200040E0400040E0600040E0800040E0A00040E0C00040E0E00080000000800020008000400080006000800080008000A0008000C0008000E00080200000802020008020400080206000802080008020A0008020C0008020E00080400000804020008040400080406000804080
310
008040A0008040C0008040E00080600000806020008060400080606000806080008060A0008060C0008060E00080800000808020008080400080806000808080008080A0008080C0008080E00080A0000080A0200080A0400080A0600080A0800080A0A00080A0C00080A0E00080C0000080C0200080C0400080C0600080C0
310
800080C0A00080C0C00080C0E00080E0000080E0200080E0400080E0600080E0800080E0A00080E0C00080E0E000C0000000C0002000C0004000C0006000C0008000C000A000C000C000C000E000C0200000C0202000C0204000C0206000C0208000C020A000C020C000C020E000C0400000C0402000C0404000C0406000C0
310
408000C040A000C040C000C040E000C0600000C0602000C0604000C0606000C0608000C060A000C060C000C060E000C0800000C0802000C0804000C0806000C0808000C080A000C080C000C080E000C0A00000C0A02000C0A04000C0A06000C0A08000C0A0A000C0A0C000C0A0E000C0C00000C0C02000C0C04000C0C06000
310
C0C08000C0C0A000F0FBFF00A4A0A000808080000000FF0000FF000000FFFF00FF000000FF00FF00FFFF0000FFFFFF00FFFFFFFFFFFFFFFFFFFFFFFF00FFFFFFFFFFFFFF00FFFFFFFFFFFFFFFFFFFFFFFFFFFFFFFFFFFFFFFFFFFFFF00FFFFFFFFFFFFFF00FFFFFFFFFFFFFFFFFFFFFFFFFFFFFFFFFFFFFFFFFFFFFF00FFFF
310
FFFFFFFFFF00FFFFFFFFFFFFFFFFFFFFFFFFFFFFFFFFFFFFFFFFFFFF00FFFFFFFFFFFFFFFF00FFFFFFFFFFFFFFFFFFFFFFFFFFFFFFFFFFFFFFFFFFFF00FFFFFFFFFFFFFF00FFFFFFFFFFFFFFFFFFFFFFFFFFFFFFFFFFFFFFFFFFFFFF00FFFFFFFFFFFFFF00FFFFFFFFFFFFFFFFFFFFFFFFFFFFFFFFFFFFFFFFFFFF00FFFFFF
310
FFFFFFFFFF00FFFFFFFFFFFFFFFFFFFFFFFFFFFFFFFFFFFFFFFFFFFF00FFFFFFFFFFFFFF00FFFFFFFFFFFFFFFFFFFFFFFFFFFFFFFFFFFFFFFFFFFF00FFFFFFFFFFFFFFFF00FFFFFFFFFFFFFFFFFFFFFFFFFFFFFFFFFFFFFFFFFF00FFFFFFFFFFFFFFFFFF00FFFFFFFFFFFFFFFFFFFFFFFFFFFFFFFFFFFFFFFF00FFFFFFFFFF
310
FFFFFFFFFF00FFFFFFFFFFFFFFFFFFFFFFFFFFFFFFFFFFFFFF00FFFFFFFFFFFFFFFFFFFF00FFFFFFFFFFFFFFFFFFFFFFFFFFFFFFFFFFFF0000FFFFFFFFFFFFFFFFFFFFFF00FFFFFFFFFFFFFFFFFFFFFFFFFFFF00000000FFFFFFFFFFFFFFFFFFFFFFFFFF00FFFFFFFFFFFFFFFFFFFFFFFFFFFFFFFFFFFFFFFFFFFFFFFFFFFF
310
FFFFFFFF00FFFFFFFFFFFFFFFFFFFFFFFFFFFFFFFFFFFFFFFFFFFFFFFFFFFFFFFFFFFFFF00FFFFFFFFFFFFFFFFFFFFFFFFFFFFFFFFFFFFFFFFFFFFFFFFFFFFFFFFFFFFFF00FFFFFFFFFFFFFFFFFFFFFFFFFFFFFFFFFFFFFFFFFFFFFFFFFFFFFFFFFFFF00FFFFFFFFFFFFFFFFFFFFFFFFFFFFFFFFFFFFFFFFFFFFFFFFFFFFFF
310
FFFFFFFF00FFFFFFFFFFFFFFFFFFFFFFFFFFFFFFFFFFFFFFFFFFFFFFFFFFFFFFFFFFFF00FFFFFFFFFFFFFFFFFFFFFFFFFFFFFFFFFFFFFFFFFFFFFFFFFFFFFFFFFFFF00FFFFFFFFFFFFFFFFFFFFFFFFFFFFFFFFFFFFFFFFFFFFFFFFFFFFFFFFFFFF00FFFFFFFFFFFFFFFFFFFFFFFFFFFFFFFFFFFFFFFFFFFFFFFFFFFFFFFFFF
310
FF00FFFFFFFFFFFFFFFFFFFFFFFFFFFFFFFFFFFFFFFFFFFFFFFFFFFFFFFFFFFFFF00FFFFFFFFFFFFFFFFFFFFFFFFFFFFFFFFFFFFFFFFFFFFFFFFFFFFFFFFFFFF00FFFFFFFFFFFFFFFFFFFFFFFFFFFFFFFFFFFFFFFFFFFFFFFFFFFFFFFFFF0000FFFFFFFFFFFFFFFFFFFFFFFFFFFFFFFFFFFFFFFFFFFFFFFFFFFFFFFF0000FF
310
FFFFFFFFFFFFFFFFFFFFFFFFFFFFFFFFFFFFFFFFFFFFFFFFFF00000000FFFFFFFFFFFFFFFFFFFFFFFFFFFFFFFFFFFFFFFFFFFFFFFFFFFF0000FFFFFFFFFFFFFFFFFFFFFFFFFFFFFFFFFFFFFFFFFFFFFFFFFFFFFFFFFFFFFFFFFFFFFFFFFFFFFFFFFFFFFFFFFFFFFFFFFFFFFFFFFFFFFFFFFFFFFFFFFFFFFFFFFFFFFFFFFFFF
310
FFFFFFFFFFFFFFFFFFFFFFFFFFFFFFFFFFFFFFFFFFFFFFFFFFFFFFFFFFFFFFFFFFFFFFFFFFFFFFFFFFFFFFFFFFFFFFFFFFFFFFFFFFFFFFFF
102
{BLKREFS
331
C3E
102
}
  0
BLOCK_RECORD
  5
C1C
330
842
100
AcDbSymbolTableRecord
100
AcDbBlockTableRecord
  2
AI9-BLK5
340
0
310
2800000020000000200000000100080000000000000400000000000000000000000000000000000000000000000080000080000000808000800000008000800080800000C0C0C000C0DCC000F0CAA6000020400000206000002080000020A0000020C0000020E00000400000004020000040400000406000004080000040A0
310
000040C0000040E00000600000006020000060400000606000006080000060A0000060C0000060E00000800000008020000080400000806000008080000080A0000080C0000080E00000A0000000A0200000A0400000A0600000A0800000A0A00000A0C00000A0E00000C0000000C0200000C0400000C0600000C0800000C0
310
A00000C0C00000C0E00000E0000000E0200000E0400000E0600000E0800000E0A00000E0C00000E0E00040000000400020004000400040006000400080004000A0004000C0004000E00040200000402020004020400040206000402080004020A0004020C0004020E000404000004040200040404000404060004040800040
310
40A0004040C0004040E00040600000406020004060400040606000406080004060A0004060C0004060E00040800000408020004080400040806000408080004080A0004080C0004080E00040A0000040A0200040A0400040A0600040A0800040A0A00040A0C00040A0E00040C0000040C0200040C0400040C0600040C08000
310
40C0A00040C0C00040C0E00040E0000040E0200040E0400040E0600040E0800040E0A00040E0C00040E0E00080000000800020008000400080006000800080008000A0008000C0008000E00080200000802020008020400080206000802080008020A0008020C0008020E00080400000804020008040400080406000804080
310
008040A0008040C0008040E00080600000806020008060400080606000806080008060A0008060C0008060E00080800000808020008080400080806000808080008080A0008080C0008080E00080A0000080A0200080A0400080A0600080A0800080A0A00080A0C00080A0E00080C0000080C0200080C0400080C0600080C0
310
800080C0A00080C0C00080C0E00080E0000080E0200080E0400080E0600080E0800080E0A00080E0C00080E0E000C0000000C0002000C0004000C0006000C0008000C000A000C000C000C000E000C0200000C0202000C0204000C0206000C0208000C020A000C020C000C020E000C0400000C0402000C0404000C0406000C0
310
408000C040A000C040C000C040E000C0600000C0602000C0604000C0606000C0608000C060A000C060C000C060E000C0800000C0802000C0804000C0806000C0808000C080A000C080C000C080E000C0A00000C0A02000C0A04000C0A06000C0A08000C0A0A000C0A0C000C0A0E000C0C00000C0C02000C0C04000C0C06000
310
C0C08000C0C0A000F0FBFF00A4A0A000808080000000FF0000FF000000FFFF00FF000000FF00FF00FFFF0000FFFFFF00FFFFFFFFFFFFFFFFFFFFFFFFFFFFFFFFFFFFFFFFFFFFFFFFFFFFFFFFFFFFFFFFFFFFFFFFFFFFFFFF000000000000000000000000000000000000000000000000FFFFFFFFFFFFFFFF00FFFFFFFFFFFF
310
FFFFFFFFFFFFFFFFFFFFFFFFFFFFFFFFFFFFFFFFFFFFFFFFFF00FFFFFFFFFFFFFFFFFFFFFFFFFFFFFFFFFFFFFFFFFFFFFFFFFFFFFFFFFFFFFF00FFFFFFFFFFFFFFFFFFFFFFFFFFFFFFFFFFFFFFFFFFFFFFFFFFFFFFFFFFFFFF00FFFFFFFFFFFFFFFFFFFFFFFFFFFFFFFFFFFFFFFFFFFFFFFFFFFFFFFFFFFFFF00FFFFFFFFFF
310
FFFFFFFFFFFFFFFFFFFFFFFFFFFFFFFFFFFFFFFFFFFFFFFFFFFF00FFFFFFFFFFFFFFFFFFFFFFFFFFFFFFFFFFFFFFFFFFFFFFFFFFFFFFFFFFFFFF00FFFFFFFFFFFFFFFFFFFFFFFFFFFFFFFFFFFFFFFFFFFFFFFFFFFFFFFFFFFFFF00FFFFFFFFFFFFFFFFFFFFFFFFFFFFFFFFFFFFFFFFFFFFFFFFFFFFFFFFFFFFFF00FFFFFFFF
310
FFFFFFFFFFFFFFFFFFFFFFFFFFFFFFFFFFFFFFFFFFFFFFFFFFFFFF00FFFFFFFFFFFFFFFFFFFFFFFFFFFFFFFFFFFFFFFFFFFFFFFFFFFFFFFFFFFFFF00FFFFFFFFFFFFFFFFFFFFFFFFFFFFFFFFFFFFFFFFFFFFFFFFFFFFFFFFFFFFFF00FFFFFFFFFFFFFFFFFFFFFFFFFFFFFFFFFFFFFFFFFFFFFFFFFFFFFFFFFFFFFF00FFFFFF
310
FFFFFFFFFFFFFFFFFFFFFFFFFFFFFFFFFFFFFFFFFFFFFFFFFFFFFFFF00FFFFFFFFFFFFFFFFFFFFFFFFFFFFFFFFFFFFFFFFFFFFFFFFFFFFFFFFFFFFFF00FFFFFFFFFFFFFFFFFFFFFFFFFFFFFFFFFFFFFFFFFFFFFFFFFFFFFFFFFFFFFF00FFFFFFFFFFFFFFFFFFFFFFFFFFFFFFFFFFFFFFFFFFFFFFFFFFFFFFFFFFFFFF00FFFF
310
FFFFFFFFFFFFFFFFFFFFFFFFFFFFFFFFFFFFFFFFFFFFFFFFFFFFFFFFFF00FFFFFFFFFFFFFFFFFFFFFFFFFFFFFFFFFFFFFFFFFFFFFFFFFFFFFFFFFFFFFF00FFFFFFFFFFFFFFFFFFFFFFFFFFFFFFFFFFFFFFFFFFFFFFFFFFFFFFFFFFFFFF00FFFFFFFFFFFFFFFFFFFFFFFFFFFFFFFFFFFFFFFFFFFFFFFFFFFFFFFFFFFFFF00FF
310
FFFFFFFFFFFFFFFFFFFFFFFFFFFFFFFFFFFFFFFFFFFFFFFFFFFFFFFFFFFF00FFFFFFFFFFFFFFFFFFFFFFFFFFFFFFFFFFFFFFFFFFFFFFFFFFFFFFFFFFFFFF00FFFFFFFFFFFFFFFFFFFFFFFFFFFFFFFFFFFFFFFFFFFFFFFFFFFFFFFFFFFFFF00FFFFFFFFFFFFFFFFFFFFFFFFFFFFFFFFFFFFFFFFFFFFFFFFFFFFFFFFFFFFFF00
310
FFFFFFFFFFFFFFFFFFFFFFFFFFFFFFFFFFFFFFFFFFFFFFFFFFFFFFFFFFFFFF00FFFFFFFFFFFFFFFFFFFFFFFFFFFFFFFFFFFFFFFFFFFFFFFFFFFFFFFFFFFFFF00FFFFFFFFFFFFFFFFFFFFFFFFFFFFFFFFFFFFFFFFFFFFFFFFFFFFFFFFFFFFFF00FFFFFFFFFFFFFFFFFFFFFFFFFFFFFFFFFFFFFFFFFFFFFFFFFFFFFFFFFFFFFF
310
00FFFFFFFFFFFFFFFFFFFFFFFFFFFF000000000000000000FFFFFFFFFFFFFFFF00FFFFFFFFFFFFFFFFFFFFFFFFFFFF00FFFFFFFFFFFFFFFF
102
{BLKREFS
331
C3F
102
}
  0
BLOCK_RECORD
  5
C21
330
842
100
AcDbSymbolTableRecord
100
AcDbBlockTableRecord
  2
AI9-BLK4
340
0
310
2800000020000000200000000100080000000000000400000000000000000000000000000000000000000000000080000080000000808000800000008000800080800000C0C0C000C0DCC000F0CAA6000020400000206000002080000020A0000020C0000020E00000400000004020000040400000406000004080000040A0
310
000040C0000040E00000600000006020000060400000606000006080000060A0000060C0000060E00000800000008020000080400000806000008080000080A0000080C0000080E00000A0000000A0200000A0400000A0600000A0800000A0A00000A0C00000A0E00000C0000000C0200000C0400000C0600000C0800000C0
310
A00000C0C00000C0E00000E0000000E0200000E0400000E0600000E0800000E0A00000E0C00000E0E00040000000400020004000400040006000400080004000A0004000C0004000E00040200000402020004020400040206000402080004020A0004020C0004020E000404000004040200040404000404060004040800040
310
40A0004040C0004040E00040600000406020004060400040606000406080004060A0004060C0004060E00040800000408020004080400040806000408080004080A0004080C0004080E00040A0000040A0200040A0400040A0600040A0800040A0A00040A0C00040A0E00040C0000040C0200040C0400040C0600040C08000
310
40C0A00040C0C00040C0E00040E0000040E0200040E0400040E0600040E0800040E0A00040E0C00040E0E00080000000800020008000400080006000800080008000A0008000C0008000E00080200000802020008020400080206000802080008020A0008020C0008020E00080400000804020008040400080406000804080
310
008040A0008040C0008040E00080600000806020008060400080606000806080008060A0008060C0008060E00080800000808020008080400080806000808080008080A0008080C0008080E00080A0000080A0200080A0400080A0600080A0800080A0A00080A0C00080A0E00080C0000080C0200080C0400080C0600080C0
310
800080C0A00080C0C00080C0E00080E0000080E0200080E0400080E0600080E0800080E0A00080E0C00080E0E000C0000000C0002000C0004000C0006000C0008000C000A000C000C000C000E000C0200000C0202000C0204000C0206000C0208000C020A000C020C000C020E000C0400000C0402000C0404000C0406000C0
310
408000C040A000C040C000C040E000C0600000C0602000C0604000C0606000C0608000C060A000C060C000C060E000C0800000C0802000C0804000C0806000C0808000C080A000C080C000C080E000C0A00000C0A02000C0A04000C0A06000C0A08000C0A0A000C0A0C000C0A0E000C0C00000C0C02000C0C04000C0C06000
310
C0C08000C0C0A000F0FBFF00A4A0A000808080000000FF0000FF000000FFFF00FF000000FF00FF00FFFF0000FFFFFF00FFFFFFFFFFFFFFFFFFFFFFFFFFFFFFFFFFFFFFFFFFFFFFFFFFFFFFFFFFFFFFFFFFFFFFFFFFFFFFFFFFFFFFFFFFFF00000000FFFFFFFFFFFFFFFFFFFFFF000000FFFFFFFFFFFFFFFFFFFFFFFFFFFF00
310
FFFF00FFFFFFFFFFFFFFFFFFFFFF00FFFFFFFFFFFFFFFFFFFFFFFFFFFFFFFF00FFFF00FFFFFFFFFFFFFFFFFFFFFF00FFFFFFFFFFFFFFFFFFFFFFFFFFFFFFFF00FFFF00FFFFFFFFFFFFFFFFFFFFFF00FFFFFFFFFFFFFFFFFFFFFFFFFFFFFFFF00FFFF00FFFFFFFFFFFFFFFFFFFFFF00FFFFFFFFFFFFFFFFFFFFFFFFFFFFFFFF
310
00FFFF00FFFFFFFFFFFFFFFFFFFFFF00FFFFFFFFFFFFFFFFFFFFFFFFFFFFFFFF00FFFF00FFFFFFFFFFFFFFFFFFFFFF00FFFFFFFFFFFFFFFFFFFFFFFFFFFFFFFF00FFFF00FFFFFFFFFFFFFFFFFFFFFF00FFFFFFFFFFFFFFFFFFFFFFFFFFFFFFFF00FFFF00FFFFFFFFFFFFFFFFFFFFFF00FFFFFFFFFFFFFFFFFFFFFFFFFFFFFF
310
FF00FFFF00FFFFFFFFFFFFFFFFFFFFFF00FFFFFFFFFFFFFFFFFFFFFFFFFFFFFFFF00FFFF00FFFFFFFFFFFFFFFFFFFFFF00FFFFFFFFFFFFFFFFFFFFFFFFFFFFFFFF00FFFF00FFFFFFFFFFFFFFFFFFFFFF00FFFFFFFFFFFFFFFFFFFFFFFFFFFFFFFF00FFFF00FFFFFFFFFFFFFFFFFFFFFF00FFFFFFFFFFFFFFFFFFFFFFFFFFFF
310
FFFF00FFFF00FFFFFFFFFFFFFFFFFFFFFF00FFFFFFFFFFFFFFFFFFFFFFFFFFFFFFFF00FFFF00FFFFFFFFFFFFFFFFFFFFFF00FFFFFFFFFFFFFFFFFFFFFFFFFFFFFFFF00FFFF00FFFFFFFFFFFFFFFFFFFFFF00FFFFFFFFFFFFFFFFFFFFFFFFFFFFFFFF00FFFF00FFFFFFFFFFFFFFFFFFFF00FFFFFFFFFFFFFFFFFFFFFFFFFFFF
310
FFFFFF00FFFF00FFFFFFFFFFFFFFFFFFFF00FFFFFFFFFFFFFFFFFFFFFFFFFFFFFFFFFF00FFFF00FFFFFFFFFFFFFFFFFFFF00FFFFFFFFFFFFFFFFFFFFFFFFFFFFFFFFFF00FFFF00FFFFFFFFFFFFFFFFFFFF00FFFFFFFFFFFFFFFFFFFFFFFFFFFFFFFFFF00FFFF00FFFFFFFFFFFFFFFFFFFF00FFFFFFFFFFFFFFFFFFFFFFFFFF
310
FFFFFFFF00FFFF00FFFFFFFFFFFFFFFFFF0000FFFF00FFFFFFFFFFFFFFFFFFFFFFFFFFFF00FFFF00FFFFFFFFFFFFFFFF0000FFFFFF00FFFFFFFFFFFFFFFFFFFFFFFFFFFF00FFFF00000000000000000000FFFFFFFF00FFFFFFFFFFFFFFFFFFFFFFFFFFFF00FFFFFFFFFFFFFFFFFFFFFFFFFFFFFF00FFFFFFFFFFFFFFFFFFFF
310
FFFFFFFFFF00FFFFFFFFFFFFFFFFFFFFFFFFFFFF00FFFFFFFFFFFFFFFFFFFFFFFFFFFFFFFF00FFFFFFFFFFFFFFFFFFFFFFFFFFFF00FFFFFFFFFFFFFFFFFFFFFFFFFFFFFFFF00FFFFFFFFFFFFFFFFFFFFFFFFFFFFFF00FFFFFFFFFFFFFFFFFFFFFFFFFFFFFF00FFFFFFFFFFFFFFFFFFFFFFFFFFFFFF00FFFFFFFFFFFFFFFFFF
310
FFFFFFFFFFFF00FFFF00000000000000000000FFFFFFFF00FFFFFFFFFFFFFFFFFFFFFFFFFFFF00FFFF00FFFFFFFFFFFFFFFFFF0000FFFF00
102
{BLKREFS
331
C40
102
}
  0
BLOCK_RECORD
  5
C26
330
842
100
AcDbSymbolTableRecord
100
AcDbBlockTableRecord
  2
AI9-BLK3
340
0
310
2800000020000000200000000100080000000000000400000000000000000000000000000000000000000000000080000080000000808000800000008000800080800000C0C0C000C0DCC000F0CAA6000020400000206000002080000020A0000020C0000020E00000400000004020000040400000406000004080000040A0
310
000040C0000040E00000600000006020000060400000606000006080000060A0000060C0000060E00000800000008020000080400000806000008080000080A0000080C0000080E00000A0000000A0200000A0400000A0600000A0800000A0A00000A0C00000A0E00000C0000000C0200000C0400000C0600000C0800000C0
310
A00000C0C00000C0E00000E0000000E0200000E0400000E0600000E0800000E0A00000E0C00000E0E00040000000400020004000400040006000400080004000A0004000C0004000E00040200000402020004020400040206000402080004020A0004020C0004020E000404000004040200040404000404060004040800040
310
40A0004040C0004040E00040600000406020004060400040606000406080004060A0004060C0004060E00040800000408020004080400040806000408080004080A0004080C0004080E00040A0000040A0200040A0400040A0600040A0800040A0A00040A0C00040A0E00040C0000040C0200040C0400040C0600040C08000
310
40C0A00040C0C00040C0E00040E0000040E0200040E0400040E0600040E0800040E0A00040E0C00040E0E00080000000800020008000400080006000800080008000A0008000C0008000E00080200000802020008020400080206000802080008020A0008020C0008020E00080400000804020008040400080406000804080
310
008040A0008040C0008040E00080600000806020008060400080606000806080008060A0008060C0008060E00080800000808020008080400080806000808080008080A0008080C0008080E00080A0000080A0200080A0400080A0600080A0800080A0A00080A0C00080A0E00080C0000080C0200080C0400080C0600080C0
310
800080C0A00080C0C00080C0E00080E0000080E0200080E0400080E0600080E0800080E0A00080E0C00080E0E000C0000000C0002000C0004000C0006000C0008000C000A000C000C000C000E000C0200000C0202000C0204000C0206000C0208000C020A000C020C000C020E000C0400000C0402000C0404000C0406000C0
310
408000C040A000C040C000C040E000C0600000C0602000C0604000C0606000C0608000C060A000C060C000C060E000C0800000C0802000C0804000C0806000C0808000C080A000C080C000C080E000C0A00000C0A02000C0A04000C0A06000C0A08000C0A0A000C0A0C000C0A0E000C0C00000C0C02000C0C04000C0C06000
310
C0C08000C0C0A000F0FBFF00A4A0A000808080000000FF0000FF000000FFFF00FF000000FF00FF00FFFF0000FFFFFF00FFFFFFFFFFFFFFFFFFFFFFFFFFFFFFFFFFFFFFFFFFFFFFFFFFFFFFFFFFFFFFFFFFFFFFFFFFFFFFFFFFFFFFFFFFFFFF0000FFFFFFFFFFFFFFFFFFFFFFFFFFFFFFFFFFFFFFFFFFFFFFFFFFFFFFFFFFFF
310
0000FFFFFFFFFFFFFFFFFFFFFFFFFFFFFFFFFFFFFFFFFFFFFFFFFFFFFFFFFFFF0000FFFFFFFFFFFFFFFFFFFFFFFFFFFFFFFFFFFFFFFFFFFFFFFFFFFFFFFFFFFF0000FFFFFFFFFFFFFFFFFFFFFFFFFFFFFFFFFFFFFFFFFFFFFFFFFFFFFFFFFFFF0000FFFFFFFFFFFFFFFFFFFFFFFFFFFFFFFFFFFFFFFFFFFFFFFFFFFFFFFFFF
310
FF0000FFFFFFFFFFFFFFFFFFFFFFFFFFFFFFFFFFFFFFFFFFFFFFFFFFFFFFFFFFFF0000FFFFFFFFFFFFFFFFFFFFFFFFFFFFFFFFFFFFFFFFFFFFFFFFFFFFFFFFFFFF0000FFFFFFFFFFFFFFFFFFFFFFFFFFFFFFFFFFFFFFFFFFFFFFFFFFFFFFFFFFFF0000FFFFFFFFFFFFFFFFFFFFFFFFFFFFFFFFFFFFFFFFFFFFFFFFFFFFFFFF
310
FFFF0000FFFFFFFFFFFFFFFFFFFFFFFFFFFFFFFFFFFFFFFFFFFFFFFFFFFFFFFFFFFF0000FFFFFFFFFFFFFFFFFFFFFFFFFFFFFFFFFFFFFFFFFFFFFFFFFFFFFFFFFFFF0000FFFFFFFFFFFFFFFFFFFFFFFFFFFFFFFFFFFFFFFFFFFFFFFFFFFFFFFFFFFF0000FFFFFFFFFFFFFFFFFFFFFFFFFFFFFFFFFFFFFFFFFFFFFFFFFFFFFF
310
FFFFFF0000FFFFFFFFFFFFFFFFFFFFFFFFFFFFFFFFFFFFFFFFFFFFFFFFFFFFFFFFFFFF0000FFFFFFFFFFFFFFFFFFFFFFFFFFFFFFFFFFFFFFFFFFFFFFFFFFFFFFFFFFFF0000FFFFFFFFFFFFFFFFFFFFFFFFFFFFFFFFFFFFFFFFFFFFFFFFFFFFFFFFFFFF0000FFFFFFFFFFFFFFFFFFFFFFFFFFFFFFFFFFFFFFFFFFFFFFFFFFFF
310
FFFFFFFF0000FFFFFFFFFFFFFFFFFFFFFFFFFFFFFFFFFFFFFFFFFFFFFFFFFFFFFFFFFFFF0000FFFFFFFFFFFFFFFFFFFFFFFFFFFFFFFFFFFFFFFFFFFFFFFFFFFFFFFFFFFF0000FFFFFFFFFFFFFFFFFFFFFFFFFFFFFFFFFFFFFFFFFFFFFFFFFFFFFFFFFFFF0000FFFFFFFFFFFFFFFFFFFFFFFFFFFFFFFFFFFFFFFFFFFFFFFFFF
310
FFFFFFFFFF0000FFFFFFFFFFFFFFFFFFFFFFFFFFFFFFFFFFFFFFFFFFFFFFFFFFFFFFFFFFFF0000FFFFFFFFFFFFFFFFFFFFFFFFFFFFFFFFFFFFFFFFFFFFFFFFFFFFFFFFFFFF0000FFFFFFFFFFFFFFFFFFFFFFFFFFFFFFFFFFFFFFFFFFFFFFFFFFFFFFFFFFFF0000FFFFFFFFFFFFFFFFFFFFFFFFFFFFFFFFFFFFFFFFFFFFFFFF
310
FFFFFFFFFFFF0000FFFFFFFFFFFFFFFFFFFFFFFFFFFFFFFFFFFFFFFFFFFFFFFFFFFFFFFFFFFF0000FFFFFFFFFFFFFFFFFFFFFFFFFFFFFFFFFFFFFFFFFFFFFFFFFFFFFFFFFFFF0000FFFFFFFFFFFFFFFFFFFFFFFFFFFFFFFFFFFFFFFFFFFFFFFFFFFFFFFFFFFF0000FFFFFFFFFFFFFFFFFFFFFFFFFFFFFFFFFFFFFFFFFFFFFF
310
FFFFFFFFFFFFFF0000FFFFFFFFFFFFFFFFFFFFFFFFFFFFFFFFFFFFFFFFFFFFFFFFFFFFFFFFFFFFFFFFFFFFFFFFFFFFFFFFFFFFFFFFFFFFFF
102
{BLKREFS
331
C41
102
}
  0
BLOCK_RECORD
  5
C2B
330
842
100
AcDbSymbolTableRecord
100
AcDbBlockTableRecord
  2
AI9-BLK2
340
0
310
2800000020000000200000000100080000000000000400000000000000000000000000000000000000000000000080000080000000808000800000008000800080800000C0C0C000C0DCC000F0CAA6000020400000206000002080000020A0000020C0000020E00000400000004020000040400000406000004080000040A0
310
000040C0000040E00000600000006020000060400000606000006080000060A0000060C0000060E00000800000008020000080400000806000008080000080A0000080C0000080E00000A0000000A0200000A0400000A0600000A0800000A0A00000A0C00000A0E00000C0000000C0200000C0400000C0600000C0800000C0
310
A00000C0C00000C0E00000E0000000E0200000E0400000E0600000E0800000E0A00000E0C00000E0E00040000000400020004000400040006000400080004000A0004000C0004000E00040200000402020004020400040206000402080004020A0004020C0004020E000404000004040200040404000404060004040800040
310
40A0004040C0004040E00040600000406020004060400040606000406080004060A0004060C0004060E00040800000408020004080400040806000408080004080A0004080C0004080E00040A0000040A0200040A0400040A0600040A0800040A0A00040A0C00040A0E00040C0000040C0200040C0400040C0600040C08000
310
40C0A00040C0C00040C0E00040E0000040E0200040E0400040E0600040E0800040E0A00040E0C00040E0E00080000000800020008000400080006000800080008000A0008000C0008000E00080200000802020008020400080206000802080008020A0008020C0008020E00080400000804020008040400080406000804080
310
008040A0008040C0008040E00080600000806020008060400080606000806080008060A0008060C0008060E00080800000808020008080400080806000808080008080A0008080C0008080E00080A0000080A0200080A0400080A0600080A0800080A0A00080A0C00080A0E00080C0000080C0200080C0400080C0600080C0
310
800080C0A00080C0C00080C0E00080E0000080E0200080E0400080E0600080E0800080E0A00080E0C00080E0E000C0000000C0002000C0004000C0006000C0008000C000A000C000C000C000E000C0200000C0202000C0204000C0206000C0208000C020A000C020C000C020E000C0400000C0402000C0404000C0406000C0
310
408000C040A000C040C000C040E000C0600000C0602000C0604000C0606000C0608000C060A000C060C000C060E000C0800000C0802000C0804000C0806000C0808000C080A000C080C000C080E000C0A00000C0A02000C0A04000C0A06000C0A08000C0A0A000C0A0C000C0A0E000C0C00000C0C02000C0C04000C0C06000
310
C0C08000C0C0A000F0FBFF00A4A0A000808080000000FF0000FF000000FFFF00FF000000FF00FF00FFFF0000FFFFFF00FFFFFFFFFFFFFFFFFFFFFFFFFFFFFFFFFFFFFFFFFFFFFFFFFFFFFFFFFFFFFFFFFFFFFFFFFFFFFFFFFFFFFFFFFFFFFF0000FFFFFFFFFFFFFFFFFFFFFFFFFFFFFFFFFFFFFFFFFFFFFFFFFFFFFFFFFFFF
310
0000FFFFFFFFFFFFFFFFFFFFFFFFFFFFFFFFFFFFFFFFFFFFFFFFFFFFFFFFFFFF0000FFFFFFFFFFFFFFFFFFFFFFFFFFFFFFFFFFFFFFFFFFFFFFFFFFFFFFFFFF00FFFF00FFFFFFFFFFFFFFFFFFFFFFFFFFFFFFFFFFFFFFFFFFFFFFFFFFFFFFFF00FFFF00FFFFFFFFFFFFFFFFFFFFFFFFFFFFFFFFFFFFFFFFFFFFFFFFFFFFFFFF
310
00FF0000FFFFFFFFFFFFFFFFFFFFFFFFFFFFFFFFFFFFFFFFFFFFFFFFFFFFFFFF00FF0000FFFFFFFFFFFFFFFFFFFFFFFFFFFFFFFFFFFFFFFFFFFFFFFFFFFFFFFF00FF0000FFFFFFFFFFFFFFFFFFFFFFFFFFFFFFFFFFFFFFFFFFFFFFFFFFFFFFFF00000000FFFFFFFFFFFFFFFFFFFFFFFFFFFFFFFFFFFFFFFFFFFFFFFFFFFFFF
310
00FF00FF0000FFFFFFFFFFFFFFFFFFFFFFFFFFFFFFFFFFFFFFFFFFFFFFFFFFFF00FF00FF0000FFFFFFFFFFFFFFFFFFFFFFFFFFFFFFFFFFFFFFFFFFFFFFFFFFFF00FF00FF0000FFFFFFFFFFFFFFFFFFFFFFFFFFFFFFFFFFFFFFFFFFFFFFFFFFFF00FF00FF0000FFFFFFFFFFFFFFFFFFFFFFFFFFFFFFFFFFFFFFFFFFFFFFFFFF
310
FF00FF00FF0000FFFFFFFFFFFFFFFFFFFFFFFFFFFFFFFFFFFFFFFFFFFFFFFFFFFF0000FFFF0000FFFFFFFFFFFFFFFFFFFFFFFFFFFFFFFFFFFFFFFFFFFFFFFFFF00FF00FFFF00FF00FFFFFFFFFFFFFFFFFFFFFFFFFFFFFFFFFFFFFFFFFFFFFFFF00FF00FFFF00FF00FFFFFFFFFFFFFFFFFFFFFFFFFFFFFFFFFFFFFFFFFFFFFF
310
FF00FF00FFFFFF0000FFFFFFFFFFFFFFFFFFFFFFFFFFFFFFFFFFFFFFFFFFFFFFFF00FF00FFFFFF0000FFFFFFFFFFFFFFFFFFFFFFFFFFFFFFFFFFFFFFFFFFFFFFFF00FF00FFFFFF0000FFFFFFFFFFFFFFFFFFFFFFFFFFFFFFFFFFFFFFFFFFFFFFFF0000FFFFFFFF0000FFFFFFFFFFFFFFFFFFFFFFFFFFFFFFFFFFFFFFFFFFFF
310
FF00FF00FFFFFFFF00FF00FFFFFFFFFFFFFFFFFFFFFFFFFFFFFFFFFFFFFFFFFFFF00FF00FFFFFFFF00FF00FFFFFFFFFFFFFFFFFFFFFFFFFFFFFFFFFFFFFFFFFFFF00FF00FFFFFFFF00FF00FFFFFFFFFFFFFFFFFFFFFFFFFFFFFFFFFFFFFFFFFFFF00FF00FFFFFFFF00FF00FFFFFFFFFFFFFFFFFFFFFFFFFFFFFFFFFFFFFFFF
310
FFFF00FF00FFFFFFFFFF0000FFFFFFFFFFFFFFFFFFFFFFFFFFFFFFFFFFFFFFFFFFFF0000FFFFFFFFFFFF0000FFFFFFFFFFFFFFFFFFFFFFFFFFFFFFFFFFFFFFFFFF00FF00FFFFFFFFFFFF00FF00FFFFFFFFFFFFFFFFFFFFFFFFFFFFFFFFFFFFFFFF00FF00FFFFFFFFFFFF00FF00FFFFFFFFFFFFFFFFFFFFFFFFFFFFFFFFFFFF
310
FFFF000000FFFFFFFFFFFF000000FFFFFFFFFFFFFFFFFFFFFFFFFFFFFFFFFFFFFFFFFFFFFFFFFFFFFFFFFFFFFFFFFFFFFFFFFFFFFFFFFFFF
102
{BLKREFS
331
C42
102
}
  0
BLOCK_RECORD
  5
C30
330
842
100
AcDbSymbolTableRecord
100
AcDbBlockTableRecord
  2
AI9-BLK1
340
0
310
2800000020000000200000000100080000000000000400000000000000000000000000000000000000000000000080000080000000808000800000008000800080800000C0C0C000C0DCC000F0CAA6000020400000206000002080000020A0000020C0000020E00000400000004020000040400000406000004080000040A0
310
000040C0000040E00000600000006020000060400000606000006080000060A0000060C0000060E00000800000008020000080400000806000008080000080A0000080C0000080E00000A0000000A0200000A0400000A0600000A0800000A0A00000A0C00000A0E00000C0000000C0200000C0400000C0600000C0800000C0
310
A00000C0C00000C0E00000E0000000E0200000E0400000E0600000E0800000E0A00000E0C00000E0E00040000000400020004000400040006000400080004000A0004000C0004000E00040200000402020004020400040206000402080004020A0004020C0004020E000404000004040200040404000404060004040800040
310
40A0004040C0004040E00040600000406020004060400040606000406080004060A0004060C0004060E00040800000408020004080400040806000408080004080A0004080C0004080E00040A0000040A0200040A0400040A0600040A0800040A0A00040A0C00040A0E00040C0000040C0200040C0400040C0600040C08000
310
40C0A00040C0C00040C0E00040E0000040E0200040E0400040E0600040E0800040E0A00040E0C00040E0E00080000000800020008000400080006000800080008000A0008000C0008000E00080200000802020008020400080206000802080008020A0008020C0008020E00080400000804020008040400080406000804080
310
008040A0008040C0008040E00080600000806020008060400080606000806080008060A0008060C0008060E00080800000808020008080400080806000808080008080A0008080C0008080E00080A0000080A0200080A0400080A0600080A0800080A0A00080A0C00080A0E00080C0000080C0200080C0400080C0600080C0
310
800080C0A00080C0C00080C0E00080E0000080E0200080E0400080E0600080E0800080E0A00080E0C00080E0E000C0000000C0002000C0004000C0006000C0008000C000A000C000C000C000E000C0200000C0202000C0204000C0206000C0208000C020A000C020C000C020E000C0400000C0402000C0404000C0406000C0
310
408000C040A000C040C000C040E000C0600000C0602000C0604000C0606000C0608000C060A000C060C000C060E000C0800000C0802000C0804000C0806000C0808000C080A000C080C000C080E000C0A00000C0A02000C0A04000C0A06000C0A08000C0A0A000C0A0C000C0A0E000C0C00000C0C02000C0C04000C0C06000
310
C0C08000C0C0A000F0FBFF00A4A0A000808080000000FF0000FF000000FFFF00FF000000FF00FF00FFFF0000FFFFFF00FFFFFFFFFFFFFFFFFFFFFFFFFFFFFFFFFFFFFFFFFFFFFFFFFFFFFFFFFFFFFFFFFFFFFFFFFFFFFFFFFFFFFF00000000000000000000FFFFFFFFFFFFFFFFFFFFFFFFFFFFFFFFFFFFFFFFFFFF00FFFFFF
310
FFFFFFFFFF00FFFFFFFFFFFFFFFFFFFFFFFFFFFFFFFFFFFFFFFFFFFF00FFFFFFFFFFFFFFFF00FFFFFFFFFFFFFFFFFFFFFFFFFFFFFFFFFFFFFFFFFFFF00FFFFFFFFFFFFFFFF00FFFFFFFFFFFFFFFFFFFFFFFFFFFFFFFFFFFFFFFFFFFF00FF0000000000000000FFFFFFFFFFFFFFFFFFFFFFFFFFFFFFFFFFFFFFFFFFFF00FF00
310
FFFFFFFFFFFFFFFFFFFFFFFFFFFFFFFFFFFFFFFFFFFFFFFFFFFFFFFFFF00FF00FFFFFFFFFFFFFFFFFFFFFFFFFFFFFFFFFFFFFFFFFFFFFFFFFFFFFFFFFF00FF00FFFFFFFFFFFFFFFFFFFFFFFFFFFFFFFFFFFFFFFFFFFFFFFFFFFFFFFFFF00FF00FFFFFFFFFFFFFFFFFFFFFFFFFFFFFFFFFFFFFFFFFFFFFFFFFFFFFFFFFF00FF
310
00FFFFFFFFFFFFFFFFFFFFFFFFFFFFFFFFFFFFFFFFFFFFFFFFFFFFFFFFFF00FF00FFFFFFFFFFFFFFFFFFFFFFFFFFFFFFFFFFFFFFFFFFFFFFFFFFFFFFFFFF00FF00FFFFFFFFFFFFFFFFFFFFFFFFFFFFFFFFFFFFFFFFFFFFFFFFFFFFFFFFFF00FF00FFFFFFFFFFFFFFFFFFFFFFFFFFFFFFFFFFFFFFFFFFFFFFFFFFFFFFFFFF00
310
FF00000000000000FFFFFFFFFFFFFFFFFFFFFFFFFFFFFFFFFFFFFFFFFFFFFF00FFFFFFFFFFFFFF00FFFFFFFFFFFFFFFFFFFFFFFFFFFFFFFFFFFFFFFFFFFFFF00FFFFFFFFFFFFFF00FFFFFFFFFFFFFFFFFFFFFFFFFFFFFFFFFFFFFFFFFFFFFF00FFFFFFFFFFFFFF00FFFFFFFFFFFFFFFFFFFFFFFFFFFFFFFFFFFFFFFFFFFFFF
310
00FF00000000000000FFFFFFFFFFFFFFFFFFFFFFFFFFFFFFFFFFFFFFFFFFFFFF00FF00FFFFFFFFFFFFFFFFFFFFFFFFFFFFFFFFFFFFFFFFFFFFFFFFFFFFFFFFFF00FF00FFFFFFFFFFFFFFFFFFFFFFFFFFFFFFFFFFFFFFFFFFFFFFFFFFFFFFFFFF00FF00FFFFFFFFFFFFFFFFFFFFFFFFFFFFFFFFFFFFFFFFFFFFFFFFFFFFFFFF
310
FF00FF00FFFFFFFFFFFFFFFFFFFFFFFFFFFFFFFFFFFFFFFFFFFFFFFFFFFFFFFFFF00FF00FFFFFFFFFFFFFFFFFFFFFFFFFFFFFFFFFFFFFFFFFFFFFFFFFFFFFFFFFF00FF00FFFFFFFFFFFFFFFFFFFFFFFFFFFFFFFFFFFFFFFFFFFFFFFFFFFFFFFFFF00FF00FFFFFFFFFFFFFFFFFFFFFFFFFFFFFFFFFFFFFFFFFFFFFFFFFFFFFF
310
FFFF00FF0000000000000000FFFFFFFFFFFFFFFFFFFFFFFFFFFFFFFFFFFFFFFFFFFF00FFFFFFFFFFFFFFFF00FFFFFFFFFFFFFFFFFFFFFFFFFFFFFFFFFFFFFFFFFFFF00FFFFFFFFFFFFFFFF00FFFFFFFFFFFFFFFFFFFFFFFFFFFFFFFFFFFFFFFFFFFF00FFFFFFFFFFFFFFFF00FFFFFFFFFFFFFFFFFFFFFFFFFFFFFFFFFFFFFF
310
FFFFFF00000000000000000000FFFFFFFFFFFFFFFFFFFFFFFFFFFFFFFFFFFFFFFFFFFFFFFFFFFFFFFFFFFFFFFFFFFFFFFFFFFFFFFFFFFFFF
102
{BLKREFS
331
C43
102
}
  0
BLOCK_RECORD
  5
C35
330
842
100
AcDbSymbolTableRecord
100
AcDbBlockTableRecord
  2
HD_LLC_logo_OT5
340
0
310
2800000020000000200000000100080000000000000400000000000000000000000000000000000000000000000080000080000000808000800000008000800080800000C0C0C000C0DCC000F0CAA6000020400000206000002080000020A0000020C0000020E00000400000004020000040400000406000004080000040A0
310
000040C0000040E00000600000006020000060400000606000006080000060A0000060C0000060E00000800000008020000080400000806000008080000080A0000080C0000080E00000A0000000A0200000A0400000A0600000A0800000A0A00000A0C00000A0E00000C0000000C0200000C0400000C0600000C0800000C0
310
A00000C0C00000C0E00000E0000000E0200000E0400000E0600000E0800000E0A00000E0C00000E0E00040000000400020004000400040006000400080004000A0004000C0004000E00040200000402020004020400040206000402080004020A0004020C0004020E000404000004040200040404000404060004040800040
310
40A0004040C0004040E00040600000406020004060400040606000406080004060A0004060C0004060E00040800000408020004080400040806000408080004080A0004080C0004080E00040A0000040A0200040A0400040A0600040A0800040A0A00040A0C00040A0E00040C0000040C0200040C0400040C0600040C08000
310
40C0A00040C0C00040C0E00040E0000040E0200040E0400040E0600040E0800040E0A00040E0C00040E0E00080000000800020008000400080006000800080008000A0008000C0008000E00080200000802020008020400080206000802080008020A0008020C0008020E00080400000804020008040400080406000804080
310
008040A0008040C0008040E00080600000806020008060400080606000806080008060A0008060C0008060E00080800000808020008080400080806000808080008080A0008080C0008080E00080A0000080A0200080A0400080A0600080A0800080A0A00080A0C00080A0E00080C0000080C0200080C0400080C0600080C0
310
800080C0A00080C0C00080C0E00080E0000080E0200080E0400080E0600080E0800080E0A00080E0C00080E0E000C0000000C0002000C0004000C0006000C0008000C000A000C000C000C000E000C0200000C0202000C0204000C0206000C0208000C020A000C020C000C020E000C0400000C0402000C0404000C0406000C0
310
408000C040A000C040C000C040E000C0600000C0602000C0604000C0606000C0608000C060A000C060C000C060E000C0800000C0802000C0804000C0806000C0808000C080A000C080C000C080E000C0A00000C0A02000C0A04000C0A06000C0A08000C0A0A000C0A0C000C0A0E000C0C00000C0C02000C0C04000C0C06000
310
C0C08000C0C0A000F0FBFF00A4A0A000808080000000FF0000FF000000FFFF00FF000000FF00FF00FFFF0000FFFFFF00FFFFFFFFFFFFFFFFFFFFFFFFFFFFFFFFFFFFFFFFFFFFFFFFFFFFFFFFFFFFFFFFFFFFFFFFFFFFFFFFFFFFFFFFFFFFFFFFFFFFFFFFFFFFFFFFFFFFFFFFFFFFFFFFFFFFFFFFFFFFFFFFFFFFFFFFFFFFFF
310
FFFFFFFFFFFFFFFFFFFFFFFFFFFFFFFFFFFFFFFFFFFFFFFFFFFFFFFFFFFFFFFFFFFFFFFFFFFFFFFFFFFFFFFFFFFFFFFFFFFFFFFFFFFFFFFFFFFFFFFFFFFFFFFFFFFFFFFFFFFFFFFFFFFFFFFFFFFFFFFFFFFFFFFFFFFFFFFFFFFFFFFFFFFFFFFFFFFFFFFFFFFFFFFFFFFFFFFFFFFFFFFFFFFFFFFFFFFFFFFFFFFFFFFFFFFFFF
310
FFFFFFFFFFFFFFFFFFFFFFFFFFFFFFFFFFFFFFFFFFFFFFFFFFFFFFFFFFFFFFFFFFFFFFFFFFFFFFFFFFFFFFFFFFFFFFFFFFFFFFFFFFFFFFFFFFFFFFFFFFFFFFFFFFFFFFFFFFFFFFFFFFFFFFFFFFFFFFFFFFFFFFFFFFFFFFFFFFFFFFFFFFFFFFFFFFFFFFFFFFFFFFFFFFFFFFFFFFFFFFFFFFFFFFFFFFFFFFFFFFFFFFFFFFFFFF
310
FFFFFFFFFFFFFFFFFFFFFFFFFFFFFFFFFFFFFFFFFFFFFFFFFFFFFFFFFFFFFFFFFFFFFFFFFFFFFFFFFFFFFFFFFFFFFFFFFFFFFFFF0000000000000000000000000000000000000000000000000000000000FFFFFF0000000000000000000000000000000000FFFFFFFFFFFFFFFFFFFF0000FFFFFF0000000000000000000000
310
00000000000000FFFFFFFFFFFFFFFFFFFF0000FFFF000000000000000000000000000000000000FFFFFF00000000FFFFFF0000FFFF00FFFFFFFFFFFF00FFFFFF00FFFFFFFFFF00FFFFFF0000000000FFFF0000FFFF00FFFFFFFFFFFF00FFFFFF00FFFFFFFFFF00FFFFFF00FFFF0000FFFF0000FFFF00FFFFFFFFFFFF00FFFF
310
00FFFFFFFFFFFF00FFFFFF00FFFF0000FFFF0000FFFF0000000000FFFF00000000FFFFFF00000000FFFFFF00000000FFFFFF0000FFFFFFFFFFFF00FFFFFFFFFFFFFFFFFF00FFFFFFFFFFFFFFFFFFFFFFFFFF0000FFFFFFFFFFFF00FFFFFFFFFFFFFFFFFF00FFFFFFFFFFFFFFFFFFFFFFFFFF0000FFFFFFFFFFFF00FFFFFFFF
310
FFFFFFFFFF00FFFFFFFFFFFFFFFFFFFFFFFF0000FFFFFF0000000000FFFF00000000FFFFFF0000000000000000000000000000FFFFFFFF00FFFFFFFFFFFF00FFFF00FFFFFFFFFFFF00FFFFFFFFFFFFFFFFFFFFFFFFFFFF00FFFFFFFFFFFF00FFFFFF00FFFFFFFFFF00FFFFFFFFFFFFFFFFFFFFFFFFFFFF0000000000000000
310
FFFFFF00000000000000FFFFFFFFFFFFFFFFFFFFFFFFFFFFFFFFFFFFFFFFFFFFFFFFFFFFFFFFFFFFFFFFFFFFFFFFFFFFFFFFFFFFFFFFFFFFFFFFFFFFFFFFFFFFFFFFFFFFFFFFFFFFFFFFFFFFFFFFFFFFFFFFFFFFFFFFFFFFFFFFFFFFFFFFFFFFFFFFFFFFFFFFFFFFFFFFFFFFFFFFFFFFFFFFFFFFFFFFFFFFFFFFFFFFFFFFFF
310
FFFFFFFFFFFFFFFFFFFFFFFFFFFFFFFFFFFFFFFFFFFFFFFFFFFFFFFFFFFFFFFFFFFFFFFFFFFFFFFFFFFFFFFFFFFFFFFFFFFFFFFFFFFFFFFF
102
{BLKREFS
331
C5B
102
}
  0
BLOCK_RECORD
  5
C5A
330
842
100
AcDbSymbolTableRecord
100
AcDbBlockTableRecord
  2
HD logo-new
340
0
310
2800000020000000200000000100080000000000000400000000000000000000000000000000000000000000000080000080000000808000800000008000800080800000C0C0C000C0DCC000F0CAA6000020400000206000002080000020A0000020C0000020E00000400000004020000040400000406000004080000040A0
310
000040C0000040E00000600000006020000060400000606000006080000060A0000060C0000060E00000800000008020000080400000806000008080000080A0000080C0000080E00000A0000000A0200000A0400000A0600000A0800000A0A00000A0C00000A0E00000C0000000C0200000C0400000C0600000C0800000C0
310
A00000C0C00000C0E00000E0000000E0200000E0400000E0600000E0800000E0A00000E0C00000E0E00040000000400020004000400040006000400080004000A0004000C0004000E00040200000402020004020400040206000402080004020A0004020C0004020E000404000004040200040404000404060004040800040
310
40A0004040C0004040E00040600000406020004060400040606000406080004060A0004060C0004060E00040800000408020004080400040806000408080004080A0004080C0004080E00040A0000040A0200040A0400040A0600040A0800040A0A00040A0C00040A0E00040C0000040C0200040C0400040C0600040C08000
310
40C0A00040C0C00040C0E00040E0000040E0200040E0400040E0600040E0800040E0A00040E0C00040E0E00080000000800020008000400080006000800080008000A0008000C0008000E00080200000802020008020400080206000802080008020A0008020C0008020E00080400000804020008040400080406000804080
310
008040A0008040C0008040E00080600000806020008060400080606000806080008060A0008060C0008060E00080800000808020008080400080806000808080008080A0008080C0008080E00080A0000080A0200080A0400080A0600080A0800080A0A00080A0C00080A0E00080C0000080C0200080C0400080C0600080C0
310
800080C0A00080C0C00080C0E00080E0000080E0200080E0400080E0600080E0800080E0A00080E0C00080E0E000C0000000C0002000C0004000C0006000C0008000C000A000C000C000C000E000C0200000C0202000C0204000C0206000C0208000C020A000C020C000C020E000C0400000C0402000C0404000C0406000C0
310
408000C040A000C040C000C040E000C0600000C0602000C0604000C0606000C0608000C060A000C060C000C060E000C0800000C0802000C0804000C0806000C0808000C080A000C080C000C080E000C0A00000C0A02000C0A04000C0A06000C0A08000C0A0A000C0A0C000C0A0E000C0C00000C0C02000C0C04000C0C06000
310
C0C08000C0C0A000F0FBFF00A4A0A000808080000000FF0000FF000000FFFF00FF000000FF00FF00FFFF0000FFFFFF00FFFFFFFFFFFFFFFFFFFFFFFFFFFFFFFFFFFFFFFFFFFFFFFFFFFFFFFFFFFFFFFFFFFFFFFFFFFFFFFFFFFFFFFFFFFFFFFFFFFFFFFFFFFFFFFFFFFFFFFFFFFFFFFFFFFFFFFFFFFFFFFFFFFFFFFFFFFFFF
310
FFFFFFFFFFFFFFFFFFFFFFFFFFFFFFFFFFFFFFFFFFFFFFFFFFFFFFFFFFFFFFFFFFFFFFFFFFFFFFFFFFFFFFFFFFFFFFFFFFFFFFFFFFFFFFFFFFFFFFFFFFFFFFFFFFFFFFFFFFFFFFFFFFFFFFFFFFFFFFFFFFFFFFFFFFFFFFFFFFFFFFFFFFFFFFFFFFFFFFFFFFFFFFFFFFFFFFFFFFFFFFFFFFFFFFFFFFFFFFFFFFFFFFFFFFFFFF
310
FFFFFFFFFFFFFFFFFFFFFFFFFFFFFFFFFFFFFFFFFFFFFFFFFFFFFFFFFFFFFFFFFFFFFFFFFFFFFFFFFFFFFFFFFFFFFFFFFFFFFFFFFFFFFFFFFFFFFFFFFFFFFFFFFFFFFFFFFFFFFFFFFFFFFFFFFFFFFFFFFFFFFFFFFFFFFFFFFFFFFFFFFFFFFFFFFFFFFFFFFFFFFFFFFFFFFFFFFFFFFFFFFFFFFFFFFFFFFFFFFFFFFFFFFFFFFF
310
FFFFFFFFFFFFFFFFFFFFFFFFFFFFFFFFFFFFFFFFFFFFFFFFFFFFFFFFFFFFFFFFFFFFFFFFFFFFFFFFFFFFFFFFFFFFFFFFFFFFFFFF0000000000000000000000000000000000000000000000000000000000FFFFFF0000000000000000000000000000000000FFFFFFFFFFFFFFFFFFFF0000FFFFFF0000000000000000000000
310
00000000000000FFFFFFFFFFFFFFFFFFFF0000FFFF000000000000000000000000000000000000FFFFFF00000000FFFFFF0000FFFF00FFFFFFFFFFFF00FFFFFF00FFFFFFFFFF00FFFFFF0000000000FFFF0000FFFF00FFFFFFFFFFFF00FFFFFF00FFFFFFFFFF00FFFFFF00FFFF0000FFFF0000FFFF00FFFFFFFFFFFF00FFFF
310
00FFFFFFFFFFFF00FFFFFF00FFFF0000FFFF0000FFFF0000000000FFFF00000000FFFFFF00000000FFFFFF00000000FFFFFF0000FFFFFFFFFFFF00FFFFFFFFFFFFFFFFFF00FFFFFFFFFFFFFFFFFFFFFFFFFF0000FFFFFFFFFFFF00FFFFFFFFFFFFFFFFFF00FFFFFFFFFFFFFFFFFFFFFFFFFF0000FFFFFFFFFFFF00FFFFFFFF
310
FFFFFFFFFF00FFFFFFFFFFFFFFFFFFFFFFFF0000FFFFFF0000000000FFFF00000000FFFFFF0000000000000000000000000000FFFFFFFF00FFFFFFFFFFFF00FFFF00FFFFFFFFFFFF00FFFFFFFFFFFFFFFFFFFFFFFFFFFF00FFFFFFFFFFFF00FFFFFF00FFFFFFFFFF00FFFFFFFFFFFFFFFFFFFFFFFFFFFF0000000000000000
310
FFFFFF00000000000000FFFFFFFFFFFFFFFFFFFFFFFFFFFFFFFFFFFFFFFFFFFFFFFFFFFFFFFFFFFFFFFFFFFFFFFFFFFFFFFFFFFFFFFFFFFFFFFFFFFFFFFFFFFFFFFFFFFFFFFFFFFFFFFFFFFFFFFFFFFFFFFFFFFFFFFFFFFFFFFFFFFFFFFFFFFFFFFFFFFFFFFFFFFFFFFFFFFFFFFFFFFFFFFFFFFFFFFFFFFFFFFFFFFFFFFFFF
310
FFFFFFFFFFFFFFFFFFFFFFFFFFFFFFFFFFFFFFFFFFFFFFFFFFFFFFFFFFFFFFFFFFFFFFFFFFFFFFFFFFFFFFFFFFFFFFFFFFFFFFFFFFFFFFFF
102
{BLKREFS
331
C61
331
C65
102
}
  0
BLOCK_RECORD
  5
C72
330
842
100
AcDbSymbolTableRecord
100
AcDbBlockTableRecord
  2
Harmonic Drive LLC
340
0
310
2800000020000000200000000100080000000000000400000000000000000000000000000000000000000000000080000080000000808000800000008000800080800000C0C0C000C0DCC000F0CAA6000020400000206000002080000020A0000020C0000020E00000400000004020000040400000406000004080000040A0
310
000040C0000040E00000600000006020000060400000606000006080000060A0000060C0000060E00000800000008020000080400000806000008080000080A0000080C0000080E00000A0000000A0200000A0400000A0600000A0800000A0A00000A0C00000A0E00000C0000000C0200000C0400000C0600000C0800000C0
310
A00000C0C00000C0E00000E0000000E0200000E0400000E0600000E0800000E0A00000E0C00000E0E00040000000400020004000400040006000400080004000A0004000C0004000E00040200000402020004020400040206000402080004020A0004020C0004020E000404000004040200040404000404060004040800040
310
40A0004040C0004040E00040600000406020004060400040606000406080004060A0004060C0004060E00040800000408020004080400040806000408080004080A0004080C0004080E00040A0000040A0200040A0400040A0600040A0800040A0A00040A0C00040A0E00040C0000040C0200040C0400040C0600040C08000
310
40C0A00040C0C00040C0E00040E0000040E0200040E0400040E0600040E0800040E0A00040E0C00040E0E00080000000800020008000400080006000800080008000A0008000C0008000E00080200000802020008020400080206000802080008020A0008020C0008020E00080400000804020008040400080406000804080
310
008040A0008040C0008040E00080600000806020008060400080606000806080008060A0008060C0008060E00080800000808020008080400080806000808080008080A0008080C0008080E00080A0000080A0200080A0400080A0600080A0800080A0A00080A0C00080A0E00080C0000080C0200080C0400080C0600080C0
310
800080C0A00080C0C00080C0E00080E0000080E0200080E0400080E0600080E0800080E0A00080E0C00080E0E000C0000000C0002000C0004000C0006000C0008000C000A000C000C000C000E000C0200000C0202000C0204000C0206000C0208000C020A000C020C000C020E000C0400000C0402000C0404000C0406000C0
310
408000C040A000C040C000C040E000C0600000C0602000C0604000C0606000C0608000C060A000C060C000C060E000C0800000C0802000C0804000C0806000C0808000C080A000C080C000C080E000C0A00000C0A02000C0A04000C0A06000C0A08000C0A0A000C0A0C000C0A0E000C0C00000C0C02000C0C04000C0C06000
310
C0C08000C0C0A000F0FBFF00A4A0A000808080000000FF0000FF000000FFFF00FF000000FF00FF00FFFF0000FFFFFF00FFFFFFFFFFFFFFFFFFFFFFFFFFFFFFFFFFFFFFFFFFFFFFFFFFFFFFFFFFFFFFFFFFFFFFFFFFFFFFFFFFFFFFFFFFFFFFFFFFFFFFFFFFFFFFFFFFFFFFFFFFFFFFFFFFFFFFFFFFFFFFFFFFFFFFFFFFFFFF
310
FFFFFFFFFFFFFFFFFFFFFFFFFFFFFFFFFFFFFFFFFFFFFFFFFFFFFFFFFFFFFFFFFFFFFFFFFFFFFFFFFFFFFFFFFFFFFFFFFFFFFFFFFFFFFFFFFFFFFFFFFFFFFFFFFFFFFFFFFFFFFFFFFFFFFFFFFFFFFFFFFFFFFFFFFFFFFFFFFFFFFFFFFFFFFFFFFFFFFFFFFFFFFFFFFFFFFFFFFFFFFFFFFFFFFFFFFFFFFFFFFFFFFFFFFFFFFF
310
FFFFFFFFFFFFFFFFFFFFFFFFFFFFFFFFFFFFFFFFFFFFFFFFFFFFFFFFFFFFFFFFFFFFFFFFFFFFFFFFFFFFFFFFFFFFFFFFFFFFFFFFFFFFFFFFFFFFFFFFFFFFFFFFFFFFFFFFFFFFFFFFFFFFFFFFFFFFFFFFFFFFFFFFFFFFFFFFFFFFFFFFFFFFFFFFFFFFFFFFFFFFFFFFFFFFFFFFFFFFFFFFFFFFFFFFFFFFFFFFFFFFFFFFFFFFFF
310
FFFFFFFFFFFFFFFFFFFFFFFFFFFFFFFFFFFFFFFFFFFFFFFFFFFFFFFFFFFFFFFFFFFFFFFFFFFFFFFFFFFFFFFFFFFFFFFFFFFFFFFFFFFFFFFFFFFFFFFFFFFFFFFFFFFFFFFFFFFFFFFFFFFFFFFFFFFFFFFFFFFFFFFFFFFFFFFFFFFFFFFF0000000000000000000000000000FFFFFFFFFFFFFFFFFFFFFFFFFFFFFFFFFFFF000000
310
0000000000000000000000FFFFFFFFFFFFFFFFFFFFFFFFFFFFFFFFFFFFFFFFFF000000000000000000FFFFFFFFFFFFFFFFFFFFFFFFFFFFFFFFFFFFFFFFFFFFFF000000000000000000FFFFFFFFFFFFFFFFFFFFFFFFFFFFFFFFFFFFFFFFFF000000000000000000000000FFFFFFFFFFFFFFFFFFFFFFFFFFFFFFFFFFFFFFFF00
310
FFFFFF00FF0000FF000000FFFFFFFFFFFFFFFFFFFFFFFFFFFFFFFFFFFFFFFFFFFFFFFFFFFFFFFFFFFFFFFFFFFFFFFFFFFFFFFFFFFFFFFFFFFFFFFFFFFFFFFFFFFFFFFFFFFFFFFFFFFFFFFFFFFFFFFFFFFFFFFFFFFFFFFFFFFFFFFFFFFFFFFFFFFFFFFFFFFFFFFFFFFFFFFFFFFFFFFFFFFFFFFFFFFFFFFFFFFFFFFFFFFFFFFF
310
FFFFFFFFFFFFFFFFFFFFFFFFFFFFFFFFFFFFFFFFFFFFFFFFFFFFFFFFFFFFFFFFFFFFFFFFFFFFFFFFFFFFFFFFFFFFFFFFFFFFFFFFFFFFFFFFFFFFFFFFFFFFFFFFFFFFFFFFFFFFFFFFFFFFFFFFFFFFFFFFFFFFFFFFFFFFFFFFFFFFFFFFFFFFFFFFFFFFFFFFFFFFFFFFFFFFFFFFFFFFFFFFFFFFFFFFFFFFFFFFFFFFFFFFFFFFFF
310
FFFFFFFFFFFFFFFFFFFFFFFFFFFFFFFFFFFFFFFFFFFFFFFFFFFFFFFFFFFFFFFFFFFFFFFFFFFFFFFFFFFFFFFFFFFFFFFFFFFFFFFFFFFFFFFFFFFFFFFFFFFFFFFFFFFFFFFFFFFFFFFFFFFFFFFFFFFFFFFFFFFFFFFFFFFFFFFFFFFFFFFFFFFFFFFFFFFFFFFFFFFFFFFFFFFFFFFFFFFFFFFFFFFFFFFFFFFFFFFFFFFFFFFFFFFFFF
310
FFFFFFFFFFFFFFFFFFFFFFFFFFFFFFFFFFFFFFFFFFFFFFFFFFFFFFFFFFFFFFFFFFFFFFFFFFFFFFFFFFFFFFFFFFFFFFFFFFFFFFFFFFFFFFFF
102
{BLKREFS
331
C77
331
C7C
102
}
  0
BLOCK_RECORD
  5
C86
330
842
100
AcDbSymbolTableRecord
100
AcDbBlockTableRecord
  2
HD LLC
340
0
310
2800000020000000200000000100080000000000000400000000000000000000000000000000000000000000000080000080000000808000800000008000800080800000C0C0C000C0DCC000F0CAA6000020400000206000002080000020A0000020C0000020E00000400000004020000040400000406000004080000040A0
310
000040C0000040E00000600000006020000060400000606000006080000060A0000060C0000060E00000800000008020000080400000806000008080000080A0000080C0000080E00000A0000000A0200000A0400000A0600000A0800000A0A00000A0C00000A0E00000C0000000C0200000C0400000C0600000C0800000C0
310
A00000C0C00000C0E00000E0000000E0200000E0400000E0600000E0800000E0A00000E0C00000E0E00040000000400020004000400040006000400080004000A0004000C0004000E00040200000402020004020400040206000402080004020A0004020C0004020E000404000004040200040404000404060004040800040
310
40A0004040C0004040E00040600000406020004060400040606000406080004060A0004060C0004060E00040800000408020004080400040806000408080004080A0004080C0004080E00040A0000040A0200040A0400040A0600040A0800040A0A00040A0C00040A0E00040C0000040C0200040C0400040C0600040C08000
310
40C0A00040C0C00040C0E00040E0000040E0200040E0400040E0600040E0800040E0A00040E0C00040E0E00080000000800020008000400080006000800080008000A0008000C0008000E00080200000802020008020400080206000802080008020A0008020C0008020E00080400000804020008040400080406000804080
310
008040A0008040C0008040E00080600000806020008060400080606000806080008060A0008060C0008060E00080800000808020008080400080806000808080008080A0008080C0008080E00080A0000080A0200080A0400080A0600080A0800080A0A00080A0C00080A0E00080C0000080C0200080C0400080C0600080C0
310
800080C0A00080C0C00080C0E00080E0000080E0200080E0400080E0600080E0800080E0A00080E0C00080E0E000C0000000C0002000C0004000C0006000C0008000C000A000C000C000C000E000C0200000C0202000C0204000C0206000C0208000C020A000C020C000C020E000C0400000C0402000C0404000C0406000C0
310
408000C040A000C040C000C040E000C0600000C0602000C0604000C0606000C0608000C060A000C060C000C060E000C0800000C0802000C0804000C0806000C0808000C080A000C080C000C080E000C0A00000C0A02000C0A04000C0A06000C0A08000C0A0A000C0A0C000C0A0E000C0C00000C0C02000C0C04000C0C06000
310
C0C08000C0C0A000F0FBFF00A4A0A000808080000000FF0000FF000000FFFF00FF000000FF00FF00FFFF0000FFFFFF00FFFFFFFFFFFFFFFFFFFFFFFFFFFFFFFFFFFFFFFFFFFFFFFFFFFFFFFFFFFFFFFFFFFFFFFFFFFFFFFFFFFFFFFFFFFFFFFFFFFFFFFFFFFFFFFFFFFFFFFFFFFFFFFFFFFFFFFFFFFFFFFFFFFFFFFFFFFFFF
310
FFFFFFFFFFFFFFFFFFFFFFFFFFFFFFFFFFFFFFFFFFFFFFFFFFFFFFFFFFFFFFFFFFFFFFFFFFFFFFFFFFFFFFFFFFFFFFFFFFFFFFFFFFFFFFFFFFFFFFFFFFFFFFFFFFFFFFFFFFFFFFFFFFFFFFFFFFFFFFFFFFFFFFFFFFFFFFFFFFFFFFFFFFFFFFFFFFFFFFFFFFFFFFFFFFFFFFFFFFFFFFFFFFFFFFFFFFFFFFFFFFFFFFFFFFFFFF
310
FFFFFFFFFFFFFFFFFFFFFFFFFFFFFFFFFFFFFFFFFFFFFFFFFFFFFFFFFFFFFFFFFFFFFFFFFFFFFFFFFFFFFFFFFFFFFFFFFFFFFFFFFFFFFFFFFFFFFFFFFFFFFFFFFFFFFFFFFFFFFFFFFFFFFFFFFFFFFFFFFFFFFFFFFFFFFFFFFFFFFFFFFFFFFFFFFFFFFFFFFFFFFFFFFFFFFFFFFFFFFFFFFFFFFFFFFFFFFFFFFFFFFFFFFFFFFF
310
FFFFFFFFFFFFFFFFFFFFFFFFFFFFFFFFFFFFFFFFFFFFFFFFFFFFFFFFFFFFFFFFFFFFFFFFFFFFFFFFFFFFFFFFFFFFFFFFFFFFFFFFFFFFFFFFFFFFFFFFFFFFFFFFFFFFFFFFFFFFFFFFFFFFFFFFFFFFFFFFFFFFFFFFFFFFFFFFFFFFFFFFFFFFFFFFFFFFFFFFFFFFFFFFFFFFFFFFFFFFFFFFFFFFFFFFFFFFFFFFFFFFFFFFFFFF00
310
000000000000000000FFFFFFFFFFFFFFFFFFFFFFFFFFFFFFFFFFFFFFFFFFFF00000000000000000000FFFFFFFFFFFFFFFFFFFFFFFFFFFFFFFFFFFFFFFFFFFF00000000000000000000FFFFFFFFFFFFFFFFFFFFFFFFFFFFFFFFFFFFFFFFFFFF00000000000000000000FFFFFFFFFFFFFFFFFFFFFFFFFFFFFFFFFFFFFFFFFFFF
310
FFFFFFFFFFFFFFFFFFFFFFFFFFFFFFFFFFFFFFFFFFFFFFFFFFFFFFFFFFFFFFFFFFFFFFFFFFFFFFFFFFFFFFFFFFFFFFFFFFFFFFFFFFFFFFFFFFFFFFFFFFFFFFFFFFFFFFFFFFFFFFFFFFFFFFFFFFFFFFFFFFFFFFFFFFFFFFFFFFFFFFFFFFFFFFFFFFFFFFFFFFFFFFFFFFFFFFFFFFFFFFFFFFFFFFFFFFFFFFFFFFFFFFFFFFFFFF
310
FFFFFFFFFFFFFFFFFFFFFFFFFFFFFFFFFFFFFFFFFFFFFFFFFFFFFFFFFFFFFFFFFFFFFFFFFFFFFFFFFFFFFFFFFFFFFFFFFFFFFFFFFFFFFFFFFFFFFFFFFFFFFFFFFFFFFFFFFFFFFFFFFFFFFFFFFFFFFFFFFFFFFFFFFFFFFFFFFFFFFFFFFFFFFFFFFFFFFFFFFFFFFFFFFFFFFFFFFFFFFFFFFFFFFFFFFFFFFFFFFFFFFFFFFFFFFF
310
FFFFFFFFFFFFFFFFFFFFFFFFFFFFFFFFFFFFFFFFFFFFFFFFFFFFFFFFFFFFFFFFFFFFFFFFFFFFFFFFFFFFFFFFFFFFFFFFFFFFFFFFFFFFFFFFFFFFFFFFFFFFFFFFFFFFFFFFFFFFFFFFFFFFFFFFFFFFFFFFFFFFFFFFFFFFFFFFFFFFFFFFFFFFFFFFFFFFFFFFFFFFFFFFFFFFFFFFFFFFFFFFFFFFFFFFFFFFFFFFFFFFFFFFFFFFFF
310
FFFFFFFFFFFFFFFFFFFFFFFFFFFFFFFFFFFFFFFFFFFFFFFFFFFFFFFFFFFFFFFFFFFFFFFFFFFFFFFFFFFFFFFFFFFFFFFFFFFFFFFFFFFFFFFF
102
{BLKREFS
331
C8B
331
C8F
102
}
  0
BLOCK_RECORD
  5
C90
330
842
100
AcDbSymbolTableRecord
100
AcDbBlockTableRecord
  2
NTC
340
0
310
2800000020000000200000000100080000000000000400000000000000000000000000000000000000000000000080000080000000808000800000008000800080800000C0C0C000C0DCC000F0CAA6000020400000206000002080000020A0000020C0000020E00000400000004020000040400000406000004080000040A0
310
000040C0000040E00000600000006020000060400000606000006080000060A0000060C0000060E00000800000008020000080400000806000008080000080A0000080C0000080E00000A0000000A0200000A0400000A0600000A0800000A0A00000A0C00000A0E00000C0000000C0200000C0400000C0600000C0800000C0
310
A00000C0C00000C0E00000E0000000E0200000E0400000E0600000E0800000E0A00000E0C00000E0E00040000000400020004000400040006000400080004000A0004000C0004000E00040200000402020004020400040206000402080004020A0004020C0004020E000404000004040200040404000404060004040800040
310
40A0004040C0004040E00040600000406020004060400040606000406080004060A0004060C0004060E00040800000408020004080400040806000408080004080A0004080C0004080E00040A0000040A0200040A0400040A0600040A0800040A0A00040A0C00040A0E00040C0000040C0200040C0400040C0600040C08000
310
40C0A00040C0C00040C0E00040E0000040E0200040E0400040E0600040E0800040E0A00040E0C00040E0E00080000000800020008000400080006000800080008000A0008000C0008000E00080200000802020008020400080206000802080008020A0008020C0008020E00080400000804020008040400080406000804080
310
008040A0008040C0008040E00080600000806020008060400080606000806080008060A0008060C0008060E00080800000808020008080400080806000808080008080A0008080C0008080E00080A0000080A0200080A0400080A0600080A0800080A0A00080A0C00080A0E00080C0000080C0200080C0400080C0600080C0
310
800080C0A00080C0C00080C0E00080E0000080E0200080E0400080E0600080E0800080E0A00080E0C00080E0E000C0000000C0002000C0004000C0006000C0008000C000A000C000C000C000E000C0200000C0202000C0204000C0206000C0208000C020A000C020C000C020E000C0400000C0402000C0404000C0406000C0
310
408000C040A000C040C000C040E000C0600000C0602000C0604000C0606000C0608000C060A000C060C000C060E000C0800000C0802000C0804000C0806000C0808000C080A000C080C000C080E000C0A00000C0A02000C0A04000C0A06000C0A08000C0A0A000C0A0C000C0A0E000C0C00000C0C02000C0C04000C0C06000
310
C0C08000C0C0A000F0FBFF00A4A0A000808080000000FF0000FF000000FFFF00FF000000FF00FF00FFFF0000FFFFFF00FFFFFFFFFFFFFFFFFFFFFFFFFFFFFFFFFFFFFFFFFFFFFFFFFFFFFFFFFFFFFFFFFFFFFFFFFFFFFFFFFFFFFFFFFFFFFFFFFFFFFFFFFFFFFFFFFFFFFFFFFFFFFFFFFFFFFFFFFFFFFFFFFFFFFFFFFFFFFF
310
FFFFFFFFFFFFFFFFFFFFFFFFFFFFFFFFFFFFFFFFFFFFFFFFFFFFFFFFFFFFFFFFFFFFFFFFFFFFFFFFFFFFFFFFFFFFFFFFFFFFFFFFFFFFFFFFFFFFFFFFFFFFFFFFFFFFFFFFFFFFFFFFFFFFFFFFFFFFFFFFFFFFFFFFFFFFFFFFFFFFFFFFFFFFFFFFFFFFFFFFFFFFFFFFFFFFFFFFFFFFFFFFFFFFFFFFFFFFFFFFFFFFFFFFFFFFFF
310
FFFFFFFFFFFFFFFFFFFFFFFFFFFFFFFFFFFFFFFFFFFFFFFFFFFFFFFFFFFFFFFFFFFFFFFFFFFFFFFFFFFFFFFFFFFFFFFFFFFFFFFFFFFFFFFFFFFFFFFFFFFFFFFFFFFFFFFFFFFFFFFFFFFFFFFFFFFFFFFFFFFFFFFFFFFFFFFFFFFFFFFFFFFFFFFFFFFFFFFFFFFFFFFFFFFFFFFFFFFFFFFFFFFFFFFFFFFFFFFFFFFFFFFFFFFFFF
310
FFFFFFFFFFFFFFFFFFFFFFFFFFFFFFFFFFFFFFFF000000000000000000000000000000000000000000000000000000000000FFFF00FF0000000000000000FFFFFFFFFFFFFFFFFFFFFFFFFFFFFFFFFFFFFF00FFFF00FF0000000000000000FFFFFFFFFFFFFFFFFFFFFFFFFFFFFFFFFFFFFF00FFFF00FF000000000000000000
310
00000000000000000000000000FFFFFFFFFF00FFFF00FF0000000000000000000000000000000000000000000000000000FF00FFFF00FF0000000000000000000000000000000000000000000000000000FF00FFFF00FF0000000000000000000000000000000000000000000000000000FF00FFFF00FF0000000000000000
310
00000000000000000000000000000000FFFFFF00FFFF00FF0000000000FFFFFFFFFFFFFFFFFFFFFFFFFFFFFFFFFFFFFFFFFFFF00FFFF000000000000000000000000000000000000000000000000000000000000FFFFFFFFFFFFFFFFFFFFFFFFFFFFFFFFFFFFFFFFFFFFFFFFFFFFFFFFFFFFFFFFFFFFFFFFFFFFFFFFFFFFFF
310
FFFFFFFFFFFFFFFFFFFFFFFFFFFFFFFFFFFFFFFFFFFFFFFFFFFFFFFFFFFFFFFFFFFFFFFFFFFFFFFFFFFFFFFFFFFFFFFFFFFFFFFFFFFFFFFFFFFFFFFFFFFFFFFFFFFFFFFFFFFFFFFFFFFFFFFFFFFFFFFFFFFFFFFFFFFFFFFFFFFFFFFFFFFFFFFFFFFFFFFFFFFFFFFFFFFFFFFFFFFFFFFFFFFFFFFFFFFFFFFFFFFFFFFFFFFFFF
310
FFFFFFFFFFFFFFFFFFFFFFFFFFFFFFFFFFFFFFFFFFFFFFFFFFFFFFFFFFFFFFFFFFFFFFFFFFFFFFFFFFFFFFFFFFFFFFFFFFFFFFFFFFFFFFFFFFFFFFFFFFFFFFFFFFFFFFFFFFFFFFFFFFFFFFFFFFFFFFFFFFFFFFFFFFFFFFFFFFFFFFFFFFFFFFFFFFFFFFFFFFFFFFFFFFFFFFFFFFFFFFFFFFFFFFFFFFFFFFFFFFFFFFFFFFFFFF
310
FFFFFFFFFFFFFFFFFFFFFFFFFFFFFFFFFFFFFFFFFFFFFFFFFFFFFFFFFFFFFFFFFFFFFFFFFFFFFFFFFFFFFFFFFFFFFFFFFFFFFFFFFFFFFFFF
102
{BLKREFS
331
C96
331
C9B
102
}
  0
ENDTAB
  0
ENDSEC
  0
SECTION
  2
BLOCKS
  0
BLOCK
  5
860
330
85F
100
AcDbEntity
  8
0
100
AcDbBlockBegin
  2
*Model_Space
 70
     0
 10
0.0
 20
0.0
 30
0.0
  3
*Model_Space
  1

  0
ENDBLK
  5
861
330
85F
100
AcDbEntity
  8
0
100
AcDbBlockEnd
  0
BLOCK
  5
85C
330
85B
100
AcDbEntity
 67
     1
  8
0
100
AcDbBlockBegin
  2
*Paper_Space
 70
     0
 10
0.0
 20
0.0
 30
0.0
  3
*Paper_Space
  1

  0
ENDBLK
  5
85D
330
85B
100
AcDbEntity
 67
     1
  8
0
100
AcDbBlockEnd
  0
BLOCK
  5
86E
330
86D
100
AcDbEntity
  8
0
100
AcDbBlockBegin
  2
$MODEL_SPACE
 70
     0
 10
0.0
 20
0.0
 30
0.0
  3
$MODEL_SPACE
  1

  0
ENDBLK
  5
86F
330
86D
100
AcDbEntity
  8
0
100
AcDbBlockEnd
  0
BLOCK
  5
871
330
870
100
AcDbEntity
  8
0
100
AcDbBlockBegin
  2
$PAPER_SPACE
 70
     0
 10
0.0
 20
0.0
 30
0.0
  3
$PAPER_SPACE
  1

  0
ENDBLK
  5
872
330
870
100
AcDbEntity
  8
0
100
AcDbBlockEnd
  0
BLOCK
  5
874
330
873
100
AcDbEntity
  8
0
100
AcDbBlockBegin
  2
LITAINER
 70
     0
 10
835.9716650000001
 20
-1788.763669
 30
0.0
  3
LITAINER
  1

  0
CIRCLE
  5
875
330
873
100
AcDbEntity
  8
1
 62
     7
100
AcDbCircle
 10
835.9716650000001
 20
-1788.763669
 30
0.0
 40
19.58
  0
CIRCLE
  5
876
330
873
100
AcDbEntity
  8
1
 62
     7
100
AcDbCircle
 10
835.9716650000001
 20
-1788.763669
 30
0.0
 40
22.71
  0
ENDBLK
  5
877
330
873
100
AcDbEntity
  8
0
100
AcDbBlockEnd
  0
BLOCK
  5
879
330
878
100
AcDbEntity
  8
0
100
AcDbBlockBegin
  2
WB_020_R
 70
     0
 10
835.9716650000001
 20
-1788.763669
 30
0.0
  3
WB_020_R
  1

  0
ARC
  5
87A
330
878
100
AcDbEntity
  8
1
 62
     7
100
AcDbCircle
 10
841.688672
 20
-1768.364648
 30
0.0
 40
2.38125
100
AcDbArc
 50
280.4262449999999
 51
299.539902
  0
ARC
  5
87B
330
878
100
AcDbEntity
  8
1
 62
     7
100
AcDbCircle
 10
841.688672
 20
-1768.364648
 30
0.0
 40
2.38125
100
AcDbArc
 50
209.148098
 51
228.2617549999999
  0
ARC
  5
87C
330
878
100
AcDbEntity
  8
1
 62
     7
100
AcDbCircle
 10
841.688672
 20
-1768.364648
 30
0.0
 40
2.38125
100
AcDbArc
 50
102.165053
 51
126.951712
  0
ARC
  5
87D
330
878
100
AcDbEntity
  8
1
 62
     7
100
AcDbCircle
 10
841.688672
 20
-1768.364648
 30
0.0
 40
2.38125
100
AcDbArc
 50
21.736288
 51
46.52294699999999
  0
ARC
  5
87E
330
878
100
AcDbEntity
  8
1
 62
     7
100
AcDbCircle
 10
846.980205
 20
-1770.663495
 30
0.0
 40
2.38125
100
AcDbArc
 50
264.7742449999999
 51
283.8879019999998
  0
ARC
  5
87F
330
878
100
AcDbEntity
  8
1
 62
     7
100
AcDbCircle
 10
846.980205
 20
-1770.663495
 30
0.0
 40
2.38125
100
AcDbArc
 50
193.4960979999999
 51
212.6097549999999
  0
ARC
  5
880
330
878
100
AcDbEntity
  8
1
 62
     7
100
AcDbCircle
 10
846.980205
 20
-1770.663495
 30
0.0
 40
2.38125
100
AcDbArc
 50
86.513053
 51
111.299712
  0
ARC
  5
881
330
878
100
AcDbEntity
  8
1
 62
     7
100
AcDbCircle
 10
846.980205
 20
-1770.663495
 30
0.0
 40
2.38125
100
AcDbArc
 50
6.084287999999999
 51
30.87094699999999
  0
ARC
  5
882
330
878
100
AcDbEntity
  8
1
 62
     7
100
AcDbCircle
 10
851.455303
 20
-1774.304719999999
 30
0.0
 40
2.38125
100
AcDbArc
 50
249.122245
 51
268.235902
  0
ARC
  5
883
330
878
100
AcDbEntity
  8
1
 62
     7
100
AcDbCircle
 10
851.455303
 20
-1774.304719999999
 30
0.0
 40
2.38125
100
AcDbArc
 50
177.844098
 51
196.9577549999999
  0
ARC
  5
884
330
878
100
AcDbEntity
  8
1
 62
     7
100
AcDbCircle
 10
851.455303
 20
-1774.304719999999
 30
0.0
 40
2.38125
100
AcDbArc
 50
70.86105299999998
 51
95.647712
  0
ARC
  5
885
330
878
100
AcDbEntity
  8
1
 62
     7
100
AcDbCircle
 10
851.455303
 20
-1774.304719999999
 30
0.0
 40
2.38125
100
AcDbArc
 50
350.4322879999998
 51
15.218947
  0
ARC
  5
886
330
878
100
AcDbEntity
  8
1
 62
     7
100
AcDbCircle
 10
854.782076
 20
-1779.018276
 30
0.0
 40
2.38125
100
AcDbArc
 50
233.4702449999999
 51
252.583902
  0
ARC
  5
887
330
878
100
AcDbEntity
  8
1
 62
     7
100
AcDbCircle
 10
854.782076
 20
-1779.018276
 30
0.0
 40
2.38125
100
AcDbArc
 50
162.1920979999998
 51
181.305755
  0
ARC
  5
888
330
878
100
AcDbEntity
  8
1
 62
     7
100
AcDbCircle
 10
854.782076
 20
-1779.018276
 30
0.0
 40
2.38125
100
AcDbArc
 50
55.209053
 51
79.995712
  0
ARC
  5
889
330
878
100
AcDbEntity
  8
1
 62
     7
100
AcDbCircle
 10
854.782076
 20
-1779.018276
 30
0.0
 40
2.38125
100
AcDbArc
 50
334.7802879999998
 51
359.566947
  0
ARC
  5
88A
330
878
100
AcDbEntity
  8
1
 62
     7
100
AcDbCircle
 10
856.713797
 20
-1784.454586
 30
0.0
 40
2.38125
100
AcDbArc
 50
217.818245
 51
236.931902
  0
ARC
  5
88B
330
878
100
AcDbEntity
  8
1
 62
     7
100
AcDbCircle
 10
856.713797
 20
-1784.454586
 30
0.0
 40
2.38125
100
AcDbArc
 50
146.540098
 51
165.653755
  0
ARC
  5
88C
330
878
100
AcDbEntity
  8
1
 62
     7
100
AcDbCircle
 10
856.713797
 20
-1784.454586
 30
0.0
 40
2.38125
100
AcDbArc
 50
39.557053
 51
64.343712
  0
ARC
  5
88D
330
878
100
AcDbEntity
  8
1
 62
     7
100
AcDbCircle
 10
856.713797
 20
-1784.454586
 30
0.0
 40
2.38125
100
AcDbArc
 50
319.128288
 51
343.914947
  0
ARC
  5
88E
330
878
100
AcDbEntity
  8
1
 62
     7
100
AcDbCircle
 10
857.1072039999997
 20
-1790.210475
 30
0.0
 40
2.38125
100
AcDbArc
 50
202.1662449999999
 51
221.2799019999999
  0
ARC
  5
88F
330
878
100
AcDbEntity
  8
1
 62
     7
100
AcDbCircle
 10
857.1072039999997
 20
-1790.210475
 30
0.0
 40
2.38125
100
AcDbArc
 50
130.8880979999998
 51
150.001755
  0
ARC
  5
890
330
878
100
AcDbEntity
  8
1
 62
     7
100
AcDbCircle
 10
857.1072039999997
 20
-1790.210475
 30
0.0
 40
2.38125
100
AcDbArc
 50
23.905053
 51
48.691712
  0
ARC
  5
891
330
878
100
AcDbEntity
  8
1
 62
     7
100
AcDbCircle
 10
857.1072039999997
 20
-1790.210475
 30
0.0
 40
2.38125
100
AcDbArc
 50
303.476288
 51
328.2629469999998
  0
ARC
  5
892
330
878
100
AcDbEntity
  8
1
 62
     7
100
AcDbCircle
 10
855.9331179999999
 20
-1795.859062999999
 30
0.0
 40
2.38125
100
AcDbArc
 50
186.514245
 51
205.6279019999999
  0
ARC
  5
893
330
878
100
AcDbEntity
  8
1
 62
     7
100
AcDbCircle
 10
855.9331179999999
 20
-1795.859062999999
 30
0.0
 40
2.38125
100
AcDbArc
 50
115.236098
 51
134.349755
  0
ARC
  5
894
330
878
100
AcDbEntity
  8
1
 62
     7
100
AcDbCircle
 10
855.9331179999999
 20
-1795.859062999999
 30
0.0
 40
2.38125
100
AcDbArc
 50
8.253052999999999
 51
33.039712
  0
ARC
  5
895
330
878
100
AcDbEntity
  8
1
 62
     7
100
AcDbCircle
 10
855.9331179999999
 20
-1795.859062999999
 30
0.0
 40
2.38125
100
AcDbArc
 50
287.8242879999999
 51
312.610947
  0
ARC
  5
896
330
878
100
AcDbEntity
  8
1
 62
     7
100
AcDbCircle
 10
853.278616
 20
-1800.981429
 30
0.0
 40
2.38125
100
AcDbArc
 50
170.862245
 51
189.9759019999999
  0
ARC
  5
897
330
878
100
AcDbEntity
  8
1
 62
     7
100
AcDbCircle
 10
853.278616
 20
-1800.981429
 30
0.0
 40
2.38125
100
AcDbArc
 50
99.584098
 51
118.6977549999999
  0
ARC
  5
898
330
878
100
AcDbEntity
  8
1
 62
     7
100
AcDbCircle
 10
853.278616
 20
-1800.981429
 30
0.0
 40
2.38125
100
AcDbArc
 50
352.6010529999998
 51
17.387712
  0
ARC
  5
899
330
878
100
AcDbEntity
  8
1
 62
     7
100
AcDbCircle
 10
853.278616
 20
-1800.981429
 30
0.0
 40
2.38125
100
AcDbArc
 50
272.1722879999999
 51
296.958947
  0
ARC
  5
89A
330
878
100
AcDbEntity
  8
1
 62
     7
100
AcDbCircle
 10
849.3405650000001
 20
-1805.197681
 30
0.0
 40
2.38125
100
AcDbArc
 50
155.2102449999999
 51
174.323902
  0
ARC
  5
89B
330
878
100
AcDbEntity
  8
1
 62
     7
100
AcDbCircle
 10
849.3405650000001
 20
-1805.197681
 30
0.0
 40
2.38125
100
AcDbArc
 50
83.93209799999999
 51
103.0457549999999
  0
ARC
  5
89C
330
878
100
AcDbEntity
  8
1
 62
     7
100
AcDbCircle
 10
849.3405650000001
 20
-1805.197681
 30
0.0
 40
2.38125
100
AcDbArc
 50
336.949053
 51
1.735711999999999
  0
ARC
  5
89D
330
878
100
AcDbEntity
  8
1
 62
     7
100
AcDbCircle
 10
849.3405650000001
 20
-1805.197681
 30
0.0
 40
2.38125
100
AcDbArc
 50
256.520288
 51
281.306947
  0
ARC
  5
89E
330
878
100
AcDbEntity
  8
1
 62
     7
100
AcDbCircle
 10
844.411026
 20
-1808.195123
 30
0.0
 40
2.38125
100
AcDbArc
 50
139.558245
 51
158.6719019999998
  0
ARC
  5
89F
330
878
100
AcDbEntity
  8
1
 62
     7
100
AcDbCircle
 10
844.411026
 20
-1808.195123
 30
0.0
 40
2.38125
100
AcDbArc
 50
68.280098
 51
87.39375499999999
  0
ARC
  5
8A0
330
878
100
AcDbEntity
  8
1
 62
     7
100
AcDbCircle
 10
844.411026
 20
-1808.195123
 30
0.0
 40
2.38125
100
AcDbArc
 50
321.297053
 51
346.083712
  0
ARC
  5
8A1
330
878
100
AcDbEntity
  8
1
 62
     7
100
AcDbCircle
 10
844.411026
 20
-1808.195123
 30
0.0
 40
2.38125
100
AcDbArc
 50
240.8682879999999
 51
265.6549469999999
  0
ARC
  5
8A2
330
878
100
AcDbEntity
  8
1
 62
     7
100
AcDbCircle
 10
838.855591
 20
-1809.751456
 30
0.0
 40
2.38125
100
AcDbArc
 50
123.9062449999999
 51
143.019902
  0
ARC
  5
8A3
330
878
100
AcDbEntity
  8
1
 62
     7
100
AcDbCircle
 10
838.855591
 20
-1809.751456
 30
0.0
 40
2.38125
100
AcDbArc
 50
52.62809799999999
 51
71.741755
  0
ARC
  5
8A4
330
878
100
AcDbEntity
  8
1
 62
     7
100
AcDbCircle
 10
838.855591
 20
-1809.751456
 30
0.0
 40
2.38125
100
AcDbArc
 50
305.6450529999999
 51
330.431712
  0
ARC
  5
8A5
330
878
100
AcDbEntity
  8
1
 62
     7
100
AcDbCircle
 10
838.855591
 20
-1809.751456
 30
0.0
 40
2.38125
100
AcDbArc
 50
225.2162879999999
 51
250.002947
  0
ARC
  5
8A6
330
878
100
AcDbEntity
  8
1
 62
     7
100
AcDbCircle
 10
833.086274
 20
-1809.751254
 30
0.0
 40
2.38125
100
AcDbArc
 50
108.254245
 51
127.367902
  0
ARC
  5
8A7
330
878
100
AcDbEntity
  8
1
 62
     7
100
AcDbCircle
 10
833.086274
 20
-1809.751254
 30
0.0
 40
2.38125
100
AcDbArc
 50
36.976098
 51
56.08975500000001
  0
ARC
  5
8A8
330
878
100
AcDbEntity
  8
1
 62
     7
100
AcDbCircle
 10
833.086274
 20
-1809.751254
 30
0.0
 40
2.38125
100
AcDbArc
 50
289.9930529999998
 51
314.779712
  0
ARC
  5
8A9
330
878
100
AcDbEntity
  8
1
 62
     7
100
AcDbCircle
 10
833.086274
 20
-1809.751254
 30
0.0
 40
2.38125
100
AcDbArc
 50
209.5642879999999
 51
234.350947
  0
ARC
  5
8AA
330
878
100
AcDbEntity
  8
1
 62
     7
100
AcDbCircle
 10
827.5309490000001
 20
-1808.194534
 30
0.0
 40
2.38125
100
AcDbArc
 50
92.60224499999999
 51
111.715902
  0
ARC
  5
8AB
330
878
100
AcDbEntity
  8
1
 62
     7
100
AcDbCircle
 10
827.5309490000001
 20
-1808.194534
 30
0.0
 40
2.38125
100
AcDbArc
 50
21.324098
 51
40.43775499999998
  0
ARC
  5
8AC
330
878
100
AcDbEntity
  8
1
 62
     7
100
AcDbCircle
 10
827.5309490000001
 20
-1808.194534
 30
0.0
 40
2.38125
100
AcDbArc
 50
274.3410529999999
 51
299.127712
  0
ARC
  5
8AD
330
878
100
AcDbEntity
  8
1
 62
     7
100
AcDbCircle
 10
827.5309490000001
 20
-1808.194534
 30
0.0
 40
2.38125
100
AcDbArc
 50
193.912288
 51
218.698947
  0
ARC
  5
8AE
330
878
100
AcDbEntity
  8
1
 62
     7
100
AcDbCircle
 10
822.6016179999996
 20
-1805.196747
 30
0.0
 40
2.38125
100
AcDbArc
 50
76.95024499999998
 51
96.06390199999999
  0
ARC
  5
8AF
330
878
100
AcDbEntity
  8
1
 62
     7
100
AcDbCircle
 10
822.6016179999996
 20
-1805.196747
 30
0.0
 40
2.38125
100
AcDbArc
 50
5.672098
 51
24.78575499999999
  0
ARC
  5
8B0
330
878
100
AcDbEntity
  8
1
 62
     7
100
AcDbCircle
 10
822.6016179999996
 20
-1805.196747
 30
0.0
 40
2.38125
100
AcDbArc
 50
258.689053
 51
283.475712
  0
ARC
  5
8B1
330
878
100
AcDbEntity
  8
1
 62
     7
100
AcDbCircle
 10
822.6016179999996
 20
-1805.196747
 30
0.0
 40
2.38125
100
AcDbArc
 50
178.2602879999999
 51
203.046947
  0
ARC
  5
8B2
330
878
100
AcDbEntity
  8
1
 62
     7
100
AcDbCircle
 10
818.663862
 20
-1800.980221
 30
0.0
 40
2.38125
100
AcDbArc
 50
61.298245
 51
80.411902
  0
ARC
  5
8B3
330
878
100
AcDbEntity
  8
1
 62
     7
100
AcDbCircle
 10
818.663862
 20
-1800.980221
 30
0.0
 40
2.38125
100
AcDbArc
 50
350.020098
 51
9.133755
  0
ARC
  5
8B4
330
878
100
AcDbEntity
  8
1
 62
     7
100
AcDbCircle
 10
818.663862
 20
-1800.980221
 30
0.0
 40
2.38125
100
AcDbArc
 50
243.0370529999999
 51
267.8237119999999
  0
ARC
  5
8B5
330
878
100
AcDbEntity
  8
1
 62
     7
100
AcDbCircle
 10
818.663862
 20
-1800.980221
 30
0.0
 40
2.38125
100
AcDbArc
 50
162.608288
 51
187.394947
  0
ARC
  5
8B6
330
878
100
AcDbEntity
  8
1
 62
     7
100
AcDbCircle
 10
816.009717
 20
-1795.857669
 30
0.0
 40
2.38125
100
AcDbArc
 50
45.64624499999999
 51
64.759902
  0
ARC
  5
8B7
330
878
100
AcDbEntity
  8
1
 62
     7
100
AcDbCircle
 10
816.009717
 20
-1795.857669
 30
0.0
 40
2.38125
100
AcDbArc
 50
334.3680979999998
 51
353.4817549999998
  0
ARC
  5
8B8
330
878
100
AcDbEntity
  8
1
 62
     7
100
AcDbCircle
 10
816.009717
 20
-1795.857669
 30
0.0
 40
2.38125
100
AcDbArc
 50
227.3850529999999
 51
252.171712
  0
ARC
  5
8B9
330
878
100
AcDbEntity
  8
1
 62
     7
100
AcDbCircle
 10
816.009717
 20
-1795.857669
 30
0.0
 40
2.38125
100
AcDbArc
 50
146.9562879999999
 51
171.7429469999999
  0
ARC
  5
8BA
330
878
100
AcDbEntity
  8
1
 62
     7
100
AcDbCircle
 10
814.836026
 20
-1790.208999
 30
0.0
 40
2.38125
100
AcDbArc
 50
29.994245
 51
49.107902
  0
ARC
  5
8BB
330
878
100
AcDbEntity
  8
1
 62
     7
100
AcDbCircle
 10
814.836026
 20
-1790.208999
 30
0.0
 40
2.38125
100
AcDbArc
 50
318.7160979999998
 51
337.8297549999998
  0
ARC
  5
8BC
330
878
100
AcDbEntity
  8
1
 62
     7
100
AcDbCircle
 10
814.836026
 20
-1790.208999
 30
0.0
 40
2.38125
100
AcDbArc
 50
211.7330529999999
 51
236.519712
  0
ARC
  5
8BD
330
878
100
AcDbEntity
  8
1
 62
     7
100
AcDbCircle
 10
814.836026
 20
-1790.208999
 30
0.0
 40
2.38125
100
AcDbArc
 50
131.3042879999999
 51
156.090947
  0
ARC
  5
8BE
330
878
100
AcDbEntity
  8
1
 62
     7
100
AcDbCircle
 10
815.2298339999997
 20
-1784.453137999999
 30
0.0
 40
2.38125
100
AcDbArc
 50
14.342245
 51
33.455902
  0
ARC
  5
8BF
330
878
100
AcDbEntity
  8
1
 62
     7
100
AcDbCircle
 10
815.2298339999997
 20
-1784.453137999999
 30
0.0
 40
2.38125
100
AcDbArc
 50
303.064098
 51
322.177755
  0
ARC
  5
8C0
330
878
100
AcDbEntity
  8
1
 62
     7
100
AcDbCircle
 10
815.2298339999997
 20
-1784.453137999999
 30
0.0
 40
2.38125
100
AcDbArc
 50
196.081053
 51
220.867712
  0
ARC
  5
8C1
330
878
100
AcDbEntity
  8
1
 62
     7
100
AcDbCircle
 10
815.2298339999997
 20
-1784.453137999999
 30
0.0
 40
2.38125
100
AcDbArc
 50
115.652288
 51
140.4389469999999
  0
ARC
  5
8C2
330
878
100
AcDbEntity
  8
1
 62
     7
100
AcDbCircle
 10
817.161935
 20
-1779.016962999999
 30
0.0
 40
2.38125
100
AcDbArc
 50
358.690245
 51
17.80390199999998
  0
ARC
  5
8C3
330
878
100
AcDbEntity
  8
1
 62
     7
100
AcDbCircle
 10
817.161935
 20
-1779.016962999999
 30
0.0
 40
2.38125
100
AcDbArc
 50
287.412098
 51
306.525755
  0
ARC
  5
8C4
330
878
100
AcDbEntity
  8
1
 62
     7
100
AcDbCircle
 10
817.161935
 20
-1779.016962999999
 30
0.0
 40
2.38125
100
AcDbArc
 50
180.4290529999999
 51
205.215712
  0
ARC
  5
8C5
330
878
100
AcDbEntity
  8
1
 62
     7
100
AcDbCircle
 10
817.161935
 20
-1779.016962999999
 30
0.0
 40
2.38125
100
AcDbArc
 50
100.000288
 51
124.7869469999999
  0
ARC
  5
8C6
330
878
100
AcDbEntity
  8
1
 62
     7
100
AcDbCircle
 10
820.4890370000001
 20
-1774.303639
 30
0.0
 40
2.38125
100
AcDbArc
 50
343.038245
 51
2.151902
  0
ARC
  5
8C7
330
878
100
AcDbEntity
  8
1
 62
     7
100
AcDbCircle
 10
820.4890370000001
 20
-1774.303639
 30
0.0
 40
2.38125
100
AcDbArc
 50
271.7600979999999
 51
290.8737549999999
  0
ARC
  5
8C8
330
878
100
AcDbEntity
  8
1
 62
     7
100
AcDbCircle
 10
820.4890370000001
 20
-1774.303639
 30
0.0
 40
2.38125
100
AcDbArc
 50
164.777053
 51
189.563712
  0
ARC
  5
8C9
330
878
100
AcDbEntity
  8
1
 62
     7
100
AcDbCircle
 10
820.4890370000001
 20
-1774.303639
 30
0.0
 40
2.38125
100
AcDbArc
 50
84.348288
 51
109.1349469999999
  0
ARC
  5
8CA
330
878
100
AcDbEntity
  8
1
 62
     7
100
AcDbCircle
 10
824.9643889999997
 20
-1770.662726999999
 30
0.0
 40
2.38125
100
AcDbArc
 50
327.386245
 51
346.499902
  0
ARC
  5
8CB
330
878
100
AcDbEntity
  8
1
 62
     7
100
AcDbCircle
 10
824.9643889999997
 20
-1770.662726999999
 30
0.0
 40
2.38125
100
AcDbArc
 50
256.1080979999999
 51
275.2217549999999
  0
ARC
  5
8CC
330
878
100
AcDbEntity
  8
1
 62
     7
100
AcDbCircle
 10
824.9643889999997
 20
-1770.662726999999
 30
0.0
 40
2.38125
100
AcDbArc
 50
149.125053
 51
173.911712
  0
ARC
  5
8CD
330
878
100
AcDbEntity
  8
1
 62
     7
100
AcDbCircle
 10
824.9643889999997
 20
-1770.662726999999
 30
0.0
 40
2.38125
100
AcDbArc
 50
68.696288
 51
93.48294700000002
  0
ARC
  5
8CE
330
878
100
AcDbEntity
  8
1
 62
     7
100
AcDbCircle
 10
830.256083
 20
-1768.364248999999
 30
0.0
 40
2.38125
100
AcDbArc
 50
311.734245
 51
330.847902
  0
ARC
  5
8CF
330
878
100
AcDbEntity
  8
1
 62
     7
100
AcDbCircle
 10
830.256083
 20
-1768.364248999999
 30
0.0
 40
2.38125
100
AcDbArc
 50
240.4560979999998
 51
259.569755
  0
ARC
  5
8D0
330
878
100
AcDbEntity
  8
1
 62
     7
100
AcDbCircle
 10
830.256083
 20
-1768.364248999999
 30
0.0
 40
2.38125
100
AcDbArc
 50
133.4730529999999
 51
158.259712
  0
ARC
  5
8D1
330
878
100
AcDbEntity
  8
1
 62
     7
100
AcDbCircle
 10
830.256083
 20
-1768.364248999999
 30
0.0
 40
2.38125
100
AcDbArc
 50
53.04428800000001
 51
77.83094699999998
  0
ARC
  5
8D2
330
878
100
AcDbEntity
  8
1
 62
     7
100
AcDbCircle
 10
835.9716650000001
 20
-1767.578669
 30
0.0
 40
2.38125
100
AcDbArc
 50
117.821053
 51
142.607712
  0
ARC
  5
8D3
330
878
100
AcDbEntity
  8
1
 62
     7
100
AcDbCircle
 10
835.9716650000001
 20
-1767.578669
 30
0.0
 40
2.38125
100
AcDbArc
 50
296.082245
 51
315.195902
  0
ARC
  5
8D4
330
878
100
AcDbEntity
  8
1
 62
     7
100
AcDbCircle
 10
835.9716650000001
 20
-1767.578669
 30
0.0
 40
2.38125
100
AcDbArc
 50
224.8040979999999
 51
243.917755
  0
ARC
  5
8D5
330
878
100
AcDbEntity
  8
1
 62
     7
100
AcDbCircle
 10
835.9716650000001
 20
-1767.578669
 30
0.0
 40
2.38125
100
AcDbArc
 50
37.392288
 51
62.17894699999999
  0
CIRCLE
  5
8D6
330
878
100
AcDbEntity
  8
1
 62
     7
100
AcDbCircle
 10
835.9716650000001
 20
-1788.763669
 30
0.0
 40
24.5365
  0
CIRCLE
  5
8D7
330
878
100
AcDbEntity
  8
1
 62
     7
100
AcDbCircle
 10
835.9716650000001
 20
-1788.763669
 30
0.0
 40
23.31749999999999
  0
CIRCLE
  5
8D8
330
878
100
AcDbEntity
  8
1
 62
     7
100
AcDbCircle
 10
835.9716650000001
 20
-1788.763669
 30
0.0
 40
17.78
  0
CIRCLE
  5
8D9
330
878
100
AcDbEntity
  8
1
 62
     7
100
AcDbCircle
 10
835.9716650000001
 20
-1788.763669
 30
0.0
 40
19.07499999999998
  0
INSERT
  5
8DA
330
878
100
AcDbEntity
  8
0
100
AcDbBlockReference
  2
LITAINER
 10
835.9716650000001
 20
-1788.763669
 30
0.0
  0
ENDBLK
  5
8DB
330
878
100
AcDbEntity
  8
0
100
AcDbBlockEnd
  0
BLOCK
  5
8DD
330
8DC
100
AcDbEntity
  8
0
100
AcDbBlockBegin
  2
000000150-020B__1
 70
     0
 10
704.8584789999998
 20
-1813.595334
 30
0.0
  3
000000150-020B__1
  1

  0
LINE
  5
8DE
330
8DC
100
AcDbEntity
  8
1
 62
     7
100
AcDbLine
 10
720.7330889999998
 20
-1813.297668999999
 30
0.0
 11
716.5330889999998
 21
-1813.297668999999
 31
0.0
  0
LINE
  5
8DF
330
8DC
100
AcDbEntity
  8
1
 62
     7
100
AcDbLine
 10
721.2330889999998
 20
-1812.278669
 30
0.0
 11
721.2330889999998
 21
-1813.008994
 31
0.0
  0
LINE
  5
8E0
330
8DC
100
AcDbEntity
  8
1
 62
     7
100
AcDbLine
 10
717.573469
 20
-1812.078669
 30
0.0
 11
716.2330889999998
 21
-1812.078669
 31
0.0
  0
LINE
  5
8E1
330
8DC
100
AcDbEntity
  8
1
 62
     7
100
AcDbLine
 10
721.033089
 20
-1812.078669
 30
0.0
 11
719.692709
 21
-1812.078669
 31
0.0
  0
LINE
  5
8E2
330
8DC
100
AcDbEntity
  8
1
 62
     7
100
AcDbLine
 10
720.933089
 20
-1807.836169
 30
0.0
 11
719.736833
 21
-1807.836169
 31
0.0
  0
LINE
  5
8E3
330
8DC
100
AcDbEntity
  8
1
 62
     7
100
AcDbLine
 10
721.2330889999998
 20
-1813.008994
 30
0.0
 11
720.7330889999998
 21
-1813.297668999999
 31
0.0
  0
LINE
  5
8E4
330
8DC
100
AcDbEntity
  8
1
 62
     7
100
AcDbLine
 10
716.5330889999998
 20
-1813.297668999999
 30
0.0
 11
716.033089
 21
-1813.008994
 31
0.0
  0
LINE
  5
8E5
330
8DC
100
AcDbEntity
  8
1
 62
     7
100
AcDbLine
 10
721.2330889999998
 20
-1812.278669
 30
0.0
 11
721.033089
 21
-1812.078669
 31
0.0
  0
LINE
  5
8E6
330
8DC
100
AcDbEntity
  8
1
 62
     7
100
AcDbLine
 10
716.2330889999998
 20
-1812.078669
 30
0.0
 11
716.033089
 21
-1812.278669
 31
0.0
  0
LINE
  5
8E7
330
8DC
100
AcDbEntity
  8
1
 62
     7
100
AcDbLine
 10
716.033089
 20
-1813.008994
 30
0.0
 11
716.033089
 21
-1812.278669
 31
0.0
  0
LINE
  5
8E8
330
8DC
100
AcDbEntity
  8
1
 62
     7
100
AcDbLine
 10
721.2330889999998
 20
-1807.536169
 30
0.0
 11
720.933089
 21
-1807.836169
 31
0.0
  0
LINE
  5
8E9
330
8DC
100
AcDbEntity
  8
1
 62
     7
100
AcDbLine
 10
721.2330889999998
 20
-1806.841169
 30
0.0
 11
721.2330889999998
 21
-1807.536169
 31
0.0
  0
LINE
  5
8EA
330
8DC
100
AcDbEntity
  8
1
 62
     7
100
AcDbLine
 10
716.033089
 20
-1807.536169
 30
0.0
 11
716.333089
 21
-1807.836169
 31
0.0
  0
LINE
  5
8EB
330
8DC
100
AcDbEntity
  8
1
 62
     7
100
AcDbLine
 10
717.529345
 20
-1807.836169
 30
0.0
 11
716.333089
 21
-1807.836169
 31
0.0
  0
LINE
  5
8EC
330
8DC
100
AcDbEntity
  8
1
 62
     7
100
AcDbLine
 10
716.333089
 20
-1806.541169
 30
0.0
 11
716.033089
 21
-1806.841169
 31
0.0
  0
LINE
  5
8ED
330
8DC
100
AcDbEntity
  8
1
 62
     7
100
AcDbLine
 10
720.933089
 20
-1806.541169
 30
0.0
 11
716.333089
 21
-1806.541169
 31
0.0
  0
LINE
  5
8EE
330
8DC
100
AcDbEntity
  8
1
 62
     7
100
AcDbLine
 10
716.033089
 20
-1807.536169
 30
0.0
 11
716.033089
 21
-1806.841169
 31
0.0
  0
LINE
  5
8EF
330
8DC
100
AcDbEntity
  8
1
 62
     7
100
AcDbLine
 10
721.2330889999998
 20
-1806.841169
 30
0.0
 11
720.933089
 21
-1806.541169
 31
0.0
  0
CIRCLE
  5
8F0
330
8DC
100
AcDbEntity
  8
1
 62
     7
100
AcDbCircle
 10
718.6330889999998
 20
-1809.946169
 30
0.0
 40
2.38125
  0
ENDBLK
  5
8F1
330
8DC
100
AcDbEntity
  8
0
100
AcDbBlockEnd
  0
BLOCK
  5
8F3
330
8F2
100
AcDbEntity
  8
1
100
AcDbBlockBegin
  2
*X5
 70
     1
 10
0.0
 20
0.0
 30
0.0
  3
*X5
  1

  0
LINE
  5
8F4
330
8F2
100
AcDbEntity
  8
1
 62
     5
100
AcDbLine
 10
714.5518389999998
 20
-1809.819369999999
 30
0.0
 11
716.019749
 21
-1808.35146
 31
0.0
  0
LINE
  5
8F5
330
8F2
100
AcDbEntity
  8
1
 62
     5
100
AcDbLine
 10
715.0188599999999
 20
-1811.473669
 30
0.0
 11
716.251839
 21
-1810.240689999999
 31
0.0
  0
ENDBLK
  5
8F6
330
8F2
100
AcDbEntity
  8
0
100
AcDbBlockEnd
  0
BLOCK
  5
8F8
330
8F7
100
AcDbEntity
  8
1
100
AcDbBlockBegin
  2
*X6
 70
     1
 10
0.0
 20
0.0
 30
0.0
  3
*X6
  1

  0
LINE
  5
8F9
330
8F7
100
AcDbEntity
  8
1
 62
     5
100
AcDbLine
 10
721.151839
 20
-1809.583330999999
 30
0.0
 11
722.2999059999998
 21
-1808.435263999999
 31
0.0
  0
LINE
  5
8FA
330
8F7
100
AcDbEntity
  8
1
 62
     5
100
AcDbLine
 10
721.382821
 20
-1811.473669
 30
0.0
 11
722.2588779999998
 21
-1810.597612
 31
0.0
  0
ENDBLK
  5
8FB
330
8F7
100
AcDbEntity
  8
0
100
AcDbBlockEnd
  0
BLOCK
  5
8FD
330
8FC
100
AcDbEntity
  8
0
100
AcDbBlockBegin
  2
TOP__2
 70
     0
 10
944.103574
 20
-1575.055666
 30
0.0
  3
TOP__2
  1

  0
INSERT
  5
8FE
330
8FC
100
AcDbEntity
  8
1
100
AcDbBlockReference
  2
*X5
 10
0.0
 20
0.0
 30
0.0
  0
INSERT
  5
8FF
330
8FC
100
AcDbEntity
  8
1
100
AcDbBlockReference
  2
*X6
 10
0.0
 20
0.0
 30
0.0
  0
LINE
  5
900
330
8FC
100
AcDbEntity
  8
1
 62
     7
100
AcDbLine
 10
722.131839
 20
-1808.343669
 30
0.0
 11
721.151839
 21
-1808.343669
 31
0.0
  0
LINE
  5
901
330
8FC
100
AcDbEntity
  8
1
 62
     7
100
AcDbLine
 10
722.3318389999998
 20
-1809.763669
 30
0.0
 11
722.3318389999998
 21
-1808.543669
 31
0.0
  0
LINE
  5
902
330
8FC
100
AcDbEntity
  8
1
 62
     7
100
AcDbLine
 10
721.151839
 20
-1811.473669
 30
0.0
 11
721.998967
 21
-1811.473669
 31
0.0
  0
LINE
  5
903
330
8FC
100
AcDbEntity
  8
1
 62
     7
100
AcDbLine
 10
721.151839
 20
-1808.343669
 30
0.0
 11
721.151839
 21
-1811.473669
 31
0.0
  0
LINE
  5
904
330
8FC
100
AcDbEntity
  8
1
 62
     7
100
AcDbLine
 10
722.1982059999998
 20
-1811.2911
 30
0.0
 11
722.3318389999998
 21
-1809.763669
 31
0.0
  0
LINE
  5
905
330
8FC
100
AcDbEntity
  8
1
 62
     7
100
AcDbLine
 10
715.9518389999998
 20
-1808.343669
 30
0.0
 11
714.8518389999998
 21
-1808.343669
 31
0.0
  0
LINE
  5
906
330
8FC
100
AcDbEntity
  8
1
 62
     7
100
AcDbLine
 10
716.251839
 20
-1811.173669
 30
0.0
 11
716.251839
 21
-1808.643669
 31
0.0
  0
LINE
  5
907
330
8FC
100
AcDbEntity
  8
1
 62
     7
100
AcDbLine
 10
714.8518389999998
 20
-1811.473669
 30
0.0
 11
715.9518389999998
 21
-1811.473669
 31
0.0
  0
LINE
  5
908
330
8FC
100
AcDbEntity
  8
1
 62
     7
100
AcDbLine
 10
714.5518389999998
 20
-1808.643669
 30
0.0
 11
714.5518389999998
 21
-1811.173669
 31
0.0
  0
ARC
  5
909
330
8FC
100
AcDbEntity
  8
1
 62
     7
100
AcDbCircle
 10
721.998967
 20
-1811.273669
 30
0.0
 40
0.2
100
AcDbArc
 50
270.0
 51
355.0
  0
ARC
  5
90A
330
8FC
100
AcDbEntity
  8
1
 62
     7
100
AcDbCircle
 10
722.131839
 20
-1808.543669
 30
0.0
 40
0.2
100
AcDbArc
 50
0.0
 51
90.0
  0
ARC
  5
90B
330
8FC
100
AcDbEntity
  8
1
 62
     7
100
AcDbCircle
 10
714.8518389999998
 20
-1811.173669
 30
0.0
 40
0.3
100
AcDbArc
 50
180.0
 51
270.0
  0
ARC
  5
90C
330
8FC
100
AcDbEntity
  8
1
 62
     7
100
AcDbCircle
 10
715.9518389999998
 20
-1811.173669
 30
0.0
 40
0.3
100
AcDbArc
 50
270.0
 51
0.0
  0
ARC
  5
90D
330
8FC
100
AcDbEntity
  8
1
 62
     7
100
AcDbCircle
 10
715.9518389999998
 20
-1808.643669
 30
0.0
 40
0.3
100
AcDbArc
 50
0.0
 51
90.0
  0
ARC
  5
90E
330
8FC
100
AcDbEntity
  8
1
 62
     7
100
AcDbCircle
 10
714.8518389999998
 20
-1808.643669
 30
0.0
 40
0.3
100
AcDbArc
 50
90.0
 51
180.0
  0
ENDBLK
  5
90F
330
8FC
100
AcDbEntity
  8
0
100
AcDbBlockEnd
  0
BLOCK
  5
911
330
910
100
AcDbEntity
  8
1
100
AcDbBlockBegin
  2
*X8
 70
     1
 10
0.0
 20
0.0
 30
0.0
  3
*X8
  1

  0
LINE
  5
912
330
910
100
AcDbEntity
  8
1
 62
     5
100
AcDbLine
 10
714.5518389999998
 20
-1767.392962999999
 30
0.0
 11
715.8911329999998
 21
-1766.053669
 31
0.0
  0
LINE
  5
913
330
910
100
AcDbEntity
  8
1
 62
     5
100
AcDbLine
 10
714.882454
 20
-1769.183669
 30
0.0
 11
716.251839
 21
-1767.814282999999
 31
0.0
  0
ENDBLK
  5
914
330
910
100
AcDbEntity
  8
0
100
AcDbBlockEnd
  0
BLOCK
  5
916
330
915
100
AcDbEntity
  8
1
100
AcDbBlockBegin
  2
*X9
 70
     1
 10
0.0
 20
0.0
 30
0.0
  3
*X9
  1

  0
LINE
  5
917
330
915
100
AcDbEntity
  8
1
 62
     5
100
AcDbLine
 10
721.151839
 20
-1767.156924
 30
0.0
 11
722.165634
 21
-1766.143129
 31
0.0
  0
LINE
  5
918
330
915
100
AcDbEntity
  8
1
 62
     5
100
AcDbLine
 10
721.246415
 20
-1769.183669
 30
0.0
 11
722.3318389999998
 21
-1768.098244
 31
0.0
  0
ENDBLK
  5
919
330
915
100
AcDbEntity
  8
0
100
AcDbBlockEnd
  0
BLOCK
  5
91B
330
91A
100
AcDbEntity
  8
0
100
AcDbBlockBegin
  2
TOP__3
 70
     0
 10
944.103574
 20
-2002.471671999999
 30
0.0
  3
TOP__3
  1

  0
INSERT
  5
91C
330
91A
100
AcDbEntity
  8
1
100
AcDbBlockReference
  2
*X8
 10
0.0
 20
0.0
 30
0.0
  0
INSERT
  5
91D
330
91A
100
AcDbEntity
  8
1
100
AcDbBlockReference
  2
*X9
 10
0.0
 20
0.0
 30
0.0
  0
LINE
  5
91E
330
91A
100
AcDbEntity
  8
1
 62
     7
100
AcDbLine
 10
714.5518389999998
 20
-1766.353669
 30
0.0
 11
714.5518389999998
 21
-1768.883669
 31
0.0
  0
LINE
  5
91F
330
91A
100
AcDbEntity
  8
1
 62
     7
100
AcDbLine
 10
715.9518389999998
 20
-1766.053669
 30
0.0
 11
714.8518389999998
 21
-1766.053669
 31
0.0
  0
LINE
  5
920
330
91A
100
AcDbEntity
  8
1
 62
     7
100
AcDbLine
 10
716.251839
 20
-1768.883669
 30
0.0
 11
716.251839
 21
-1766.353669
 31
0.0
  0
LINE
  5
921
330
91A
100
AcDbEntity
  8
1
 62
     7
100
AcDbLine
 10
714.8518389999998
 20
-1769.183669
 30
0.0
 11
715.9518389999998
 21
-1769.183669
 31
0.0
  0
LINE
  5
922
330
91A
100
AcDbEntity
  8
1
 62
     7
100
AcDbLine
 10
722.3318389999998
 20
-1767.763669
 30
0.0
 11
722.1982059999998
 21
-1766.236238
 31
0.0
  0
LINE
  5
923
330
91A
100
AcDbEntity
  8
1
 62
     7
100
AcDbLine
 10
721.151839
 20
-1766.053669
 30
0.0
 11
721.151839
 21
-1769.183669
 31
0.0
  0
LINE
  5
924
330
91A
100
AcDbEntity
  8
1
 62
     7
100
AcDbLine
 10
721.998967
 20
-1766.053669
 30
0.0
 11
721.151839
 21
-1766.053669
 31
0.0
  0
LINE
  5
925
330
91A
100
AcDbEntity
  8
1
 62
     7
100
AcDbLine
 10
722.3318389999998
 20
-1768.983669
 30
0.0
 11
722.3318389999998
 21
-1767.763669
 31
0.0
  0
LINE
  5
926
330
91A
100
AcDbEntity
  8
1
 62
     7
100
AcDbLine
 10
721.151839
 20
-1769.183669
 30
0.0
 11
722.131839
 21
-1769.183669
 31
0.0
  0
ARC
  5
927
330
91A
100
AcDbEntity
  8
1
 62
     7
100
AcDbCircle
 10
714.8518389999998
 20
-1768.883669
 30
0.0
 40
0.3
100
AcDbArc
 50
180.0
 51
270.0
  0
ARC
  5
928
330
91A
100
AcDbEntity
  8
1
 62
     7
100
AcDbCircle
 10
715.9518389999998
 20
-1768.883669
 30
0.0
 40
0.3
100
AcDbArc
 50
270.0
 51
0.0
  0
ARC
  5
929
330
91A
100
AcDbEntity
  8
1
 62
     7
100
AcDbCircle
 10
715.9518389999998
 20
-1766.353669
 30
0.0
 40
0.3
100
AcDbArc
 50
0.0
 51
90.0
  0
ARC
  5
92A
330
91A
100
AcDbEntity
  8
1
 62
     7
100
AcDbCircle
 10
714.8518389999998
 20
-1766.353669
 30
0.0
 40
0.3
100
AcDbArc
 50
90.0
 51
180.0
  0
ARC
  5
92B
330
91A
100
AcDbEntity
  8
1
 62
     7
100
AcDbCircle
 10
722.131839
 20
-1768.983669
 30
0.0
 40
0.2
100
AcDbArc
 50
270.0
 51
0.0
  0
ARC
  5
92C
330
91A
100
AcDbEntity
  8
1
 62
     7
100
AcDbCircle
 10
721.998967
 20
-1766.253669
 30
0.0
 40
0.2
100
AcDbArc
 50
5.0
 51
90.0
  0
ENDBLK
  5
92D
330
91A
100
AcDbEntity
  8
0
100
AcDbBlockEnd
  0
BLOCK
  5
92F
330
92E
100
AcDbEntity
  8
0
100
AcDbBlockBegin
  2
000000150-020B__4
 70
     0
 10
704.8584789999998
 20
-1763.932004
 30
0.0
  3
000000150-020B__4
  1

  0
LINE
  5
930
330
92E
100
AcDbEntity
  8
1
 62
     7
100
AcDbLine
 10
720.933089
 20
-1770.986169
 30
0.0
 11
721.2330889999998
 21
-1770.686169
 31
0.0
  0
LINE
  5
931
330
92E
100
AcDbEntity
  8
1
 62
     7
100
AcDbLine
 10
716.033089
 20
-1770.686169
 30
0.0
 11
716.033089
 21
-1769.991169
 31
0.0
  0
LINE
  5
932
330
92E
100
AcDbEntity
  8
1
 62
     7
100
AcDbLine
 10
716.333089
 20
-1770.986169
 30
0.0
 11
720.933089
 21
-1770.986169
 31
0.0
  0
LINE
  5
933
330
92E
100
AcDbEntity
  8
1
 62
     7
100
AcDbLine
 10
716.033089
 20
-1770.686169
 30
0.0
 11
716.333089
 21
-1770.986169
 31
0.0
  0
LINE
  5
934
330
92E
100
AcDbEntity
  8
1
 62
     7
100
AcDbLine
 10
716.333089
 20
-1769.691169
 30
0.0
 11
717.529345
 21
-1769.691169
 31
0.0
  0
LINE
  5
935
330
92E
100
AcDbEntity
  8
1
 62
     7
100
AcDbLine
 10
716.333089
 20
-1769.691169
 30
0.0
 11
716.033089
 21
-1769.991169
 31
0.0
  0
LINE
  5
936
330
92E
100
AcDbEntity
  8
1
 62
     7
100
AcDbLine
 10
721.2330889999998
 20
-1769.991169
 30
0.0
 11
721.2330889999998
 21
-1770.686169
 31
0.0
  0
LINE
  5
937
330
92E
100
AcDbEntity
  8
1
 62
     7
100
AcDbLine
 10
720.933089
 20
-1769.691169
 30
0.0
 11
721.2330889999998
 21
-1769.991169
 31
0.0
  0
LINE
  5
938
330
92E
100
AcDbEntity
  8
1
 62
     7
100
AcDbLine
 10
716.033089
 20
-1765.248668999999
 30
0.0
 11
716.033089
 21
-1764.518344
 31
0.0
  0
LINE
  5
939
330
92E
100
AcDbEntity
  8
1
 62
     7
100
AcDbLine
 10
716.033089
 20
-1765.248668999999
 30
0.0
 11
716.2330889999998
 21
-1765.448669
 31
0.0
  0
LINE
  5
93A
330
92E
100
AcDbEntity
  8
1
 62
     7
100
AcDbLine
 10
721.033089
 20
-1765.448669
 30
0.0
 11
721.2330889999998
 21
-1765.248668999999
 31
0.0
  0
LINE
  5
93B
330
92E
100
AcDbEntity
  8
1
 62
     7
100
AcDbLine
 10
716.033089
 20
-1764.518344
 30
0.0
 11
716.5330889999998
 21
-1764.229669
 31
0.0
  0
LINE
  5
93C
330
92E
100
AcDbEntity
  8
1
 62
     7
100
AcDbLine
 10
720.7330889999998
 20
-1764.229669
 30
0.0
 11
721.2330889999998
 21
-1764.518344
 31
0.0
  0
LINE
  5
93D
330
92E
100
AcDbEntity
  8
1
 62
     7
100
AcDbLine
 10
719.736833
 20
-1769.691169
 30
0.0
 11
720.933089
 21
-1769.691169
 31
0.0
  0
LINE
  5
93E
330
92E
100
AcDbEntity
  8
1
 62
     7
100
AcDbLine
 10
719.692709
 20
-1765.448669
 30
0.0
 11
721.033089
 21
-1765.448669
 31
0.0
  0
LINE
  5
93F
330
92E
100
AcDbEntity
  8
1
 62
     7
100
AcDbLine
 10
716.2330889999998
 20
-1765.448669
 30
0.0
 11
717.573469
 21
-1765.448669
 31
0.0
  0
LINE
  5
940
330
92E
100
AcDbEntity
  8
1
 62
     7
100
AcDbLine
 10
721.2330889999998
 20
-1764.518344
 30
0.0
 11
721.2330889999998
 21
-1765.248668999999
 31
0.0
  0
LINE
  5
941
330
92E
100
AcDbEntity
  8
1
 62
     7
100
AcDbLine
 10
716.5330889999998
 20
-1764.229669
 30
0.0
 11
720.7330889999998
 21
-1764.229669
 31
0.0
  0
CIRCLE
  5
942
330
92E
100
AcDbEntity
  8
1
 62
     7
100
AcDbCircle
 10
718.6330889999998
 20
-1767.581169
 30
0.0
 40
2.38125
  0
ENDBLK
  5
943
330
92E
100
AcDbEntity
  8
0
100
AcDbBlockEnd
  0
BLOCK
  5
945
330
944
100
AcDbEntity
  8
1
100
AcDbBlockBegin
  2
*D12
 70
     1
 10
0.0
 20
0.0
 30
0.0
  3
*D12
  1

  0
LINE
  5
946
330
944
100
AcDbEntity
  8
1
 62
     2
100
AcDbLine
 10
721.533089
 20
-1804.763669
 30
0.0
 11
732.770904
 21
-1804.763669
 31
0.0
  0
LINE
  5
947
330
944
100
AcDbEntity
  8
1
 62
     2
100
AcDbLine
 10
721.2330889999998
 20
-1804.763669
 30
0.0
 11
721.533089
 21
-1804.763669
 31
0.0
  0
LINE
  5
948
330
944
100
AcDbEntity
  8
1
 62
     2
100
AcDbLine
 10
713.2330889999998
 20
-1804.763669
 30
0.0
 11
721.2330889999998
 21
-1804.763669
 31
0.0
  0
LINE
  5
949
330
944
100
AcDbEntity
  8
1
 62
     2
100
AcDbLine
 10
721.533089
 20
-1813.296668999999
 30
0.0
 11
721.533089
 21
-1803.763669
 31
0.0
  0
LINE
  5
94A
330
944
100
AcDbEntity
  8
1
 62
     2
100
AcDbLine
 10
721.2330889999998
 20
-1805.541168999999
 30
0.0
 11
721.2330889999998
 21
-1803.763669
 31
0.0
  0
SOLID
  5
94B
330
944
100
AcDbEntity
  8
1
 62
     2
100
AcDbTrace
 10
721.2330889999998
 20
-1804.763669
 30
0.0
 11
717.2330889999998
 21
-1805.283669
 31
0.0
 12
717.2330889999998
 22
-1804.243669
 32
0.0
 13
717.2330889999998
 23
-1804.243669
 33
0.0
  0
SOLID
  5
94C
330
944
100
AcDbEntity
  8
1
 62
     2
100
AcDbTrace
 10
721.533089
 20
-1804.763669
 30
0.0
 11
725.533089
 21
-1804.243669
 31
0.0
 12
725.533089
 22
-1805.283669
 32
0.0
 13
725.533089
 23
-1805.283669
 33
0.0
  0
TEXT
  5
94D
330
944
100
AcDbEntity
  8
1
 62
     2
100
AcDbText
 10
725.370904
 20
-1803.663669
 30
0.0
 40
4.0
  1
0.3
 41
0.9
100
AcDbText
  0
ENDBLK
  5
94E
330
944
100
AcDbEntity
  8
0
100
AcDbBlockEnd
  0
BLOCK
  5
950
330
94F
100
AcDbEntity
  8
1
100
AcDbBlockBegin
  2
*D13
 70
     1
 10
0.0
 20
0.0
 30
0.0
  3
*D13
  1

  0
LINE
  5
951
330
94F
100
AcDbEntity
  8
1
 62
     2
100
AcDbLine
 10
721.533089
 20
-1743.763669
 30
0.0
 11
731.70404
 21
-1743.763669
 31
0.0
  0
LINE
  5
952
330
94F
100
AcDbEntity
  8
1
 62
     2
100
AcDbLine
 10
718.2330889999998
 20
-1743.763669
 30
0.0
 11
721.533089
 21
-1743.763669
 31
0.0
  0
LINE
  5
953
330
94F
100
AcDbEntity
  8
1
 62
     2
100
AcDbLine
 10
710.2330889999998
 20
-1743.763669
 30
0.0
 11
718.2330889999998
 21
-1743.763669
 31
0.0
  0
LINE
  5
954
330
94F
100
AcDbEntity
  8
1
 62
     2
100
AcDbLine
 10
721.533089
 20
-1753.163669
 30
0.0
 11
721.533089
 21
-1742.763669
 31
0.0
  0
LINE
  5
955
330
94F
100
AcDbEntity
  8
1
 62
     2
100
AcDbLine
 10
718.2330889999998
 20
-1753.496036
 30
0.0
 11
718.2330889999998
 21
-1742.763669
 31
0.0
  0
SOLID
  5
956
330
94F
100
AcDbEntity
  8
1
 62
     2
100
AcDbTrace
 10
718.2330889999998
 20
-1743.763669
 30
0.0
 11
714.2330889999998
 21
-1744.283669
 31
0.0
 12
714.2330889999998
 22
-1743.243669
 32
0.0
 13
714.2330889999998
 23
-1743.243669
 33
0.0
  0
SOLID
  5
957
330
94F
100
AcDbEntity
  8
1
 62
     2
100
AcDbTrace
 10
721.533089
 20
-1743.763669
 30
0.0
 11
725.533089
 21
-1743.243669
 31
0.0
 12
725.533089
 22
-1744.283669
 32
0.0
 13
725.533089
 23
-1744.283669
 33
0.0
  0
TEXT
  5
958
330
94F
100
AcDbEntity
  8
1
 62
     2
100
AcDbText
 10
724.3040399999999
 20
-1742.663669
 30
0.0
 40
4.0
  1
3.3
 41
0.9
100
AcDbText
  0
ENDBLK
  5
959
330
94F
100
AcDbEntity
  8
0
100
AcDbBlockEnd
  0
BLOCK
  5
95B
330
95A
100
AcDbEntity
  8
1
100
AcDbBlockBegin
  2
*D14
 70
     1
 10
0.0
 20
0.0
 30
0.0
  3
*D14
  1

  0
LINE
  5
95C
330
95A
100
AcDbEntity
  8
1
 62
     2
100
AcDbLine
 10
740.6437209999998
 20
-1754.496036
 30
0.0
 11
740.6437209999998
 21
-1737.663669
 31
0.0
  0
LINE
  5
95D
330
95A
100
AcDbEntity
  8
1
 62
     2
100
AcDbLine
 10
740.6437209999998
 20
-1760.996035999999
 30
0.0
 11
740.6437209999998
 21
-1754.496036
 31
0.0
  0
LINE
  5
95E
330
95A
100
AcDbEntity
  8
1
 62
     2
100
AcDbLine
 10
740.6437209999998
 20
-1768.996036
 30
0.0
 11
740.6437209999998
 21
-1760.996035999999
 31
0.0
  0
LINE
  5
95F
330
95A
100
AcDbEntity
  8
1
 62
     2
100
AcDbLine
 10
722.533089
 20
-1754.496036
 30
0.0
 11
741.643721
 21
-1754.496036
 31
0.0
  0
LINE
  5
960
330
95A
100
AcDbEntity
  8
1
 62
     2
100
AcDbLine
 10
722.533089
 20
-1760.996035999999
 30
0.0
 11
741.643721
 21
-1760.996035999999
 31
0.0
  0
SOLID
  5
961
330
95A
100
AcDbEntity
  8
1
 62
     2
100
AcDbTrace
 10
740.6437209999998
 20
-1754.496036
 30
0.0
 11
740.123721
 21
-1750.496036
 31
0.0
 12
741.163721
 22
-1750.496036
 32
0.0
 13
741.163721
 23
-1750.496036
 33
0.0
  0
SOLID
  5
962
330
95A
100
AcDbEntity
  8
1
 62
     2
100
AcDbTrace
 10
740.6437209999998
 20
-1760.996035999999
 30
0.0
 11
741.163721
 21
-1764.996036
 31
0.0
 12
740.123721
 22
-1764.996036
 32
0.0
 13
740.123721
 23
-1764.996036
 33
0.0
  0
TEXT
  5
963
330
95A
100
AcDbEntity
  8
1
 62
     2
100
AcDbText
 10
739.5437209999998
 20
-1745.063669
 30
0.0
 40
4.0
  1
6.5
 50
90.0
 41
0.9
100
AcDbText
  0
TEXT
  5
964
330
95A
100
AcDbEntity
  8
1
 62
     2
100
AcDbText
 10
739.5437209999998
 20
-1749.863669
 30
0.0
 40
4.0
  1
%%c
 50
90.0
 41
0.9
100
AcDbText
  0
ENDBLK
  5
965
330
95A
100
AcDbEntity
  8
0
100
AcDbBlockEnd
  0
BLOCK
  5
967
330
966
100
AcDbEntity
  8
1
100
AcDbBlockBegin
  2
*D15
 70
     1
 10
0.0
 20
0.0
 30
0.0
  3
*D15
  1

  0
LINE
  5
968
330
966
100
AcDbEntity
  8
1
 62
     2
100
AcDbLine
 10
761.533089
 20
-1823.763668
 30
0.0
 11
761.533089
 21
-1753.763669
 31
0.0
  0
LINE
  5
969
330
966
100
AcDbEntity
  8
1
 62
     2
100
AcDbLine
 10
722.1330889999998
 20
-1753.763669
 30
0.0
 11
762.533089
 21
-1753.763669
 31
0.0
  0
LINE
  5
96A
330
966
100
AcDbEntity
  8
1
 62
     2
100
AcDbLine
 10
722.1330889999998
 20
-1823.763668
 30
0.0
 11
762.533089
 21
-1823.763668
 31
0.0
  0
SOLID
  5
96B
330
966
100
AcDbEntity
  8
1
 62
     2
100
AcDbTrace
 10
761.533089
 20
-1753.763669
 30
0.0
 11
762.053089
 21
-1757.763669
 31
0.0
 12
761.0130889999997
 22
-1757.763669
 32
0.0
 13
761.0130889999997
 23
-1757.763669
 33
0.0
  0
SOLID
  5
96C
330
966
100
AcDbEntity
  8
1
 62
     2
100
AcDbTrace
 10
761.533089
 20
-1823.763668
 30
0.0
 11
761.0130889999997
 21
-1819.763668
 31
0.0
 12
762.053089
 22
-1819.763668
 32
0.0
 13
762.053089
 23
-1819.763668
 33
0.0
  0
TEXT
  5
96D
330
966
100
AcDbEntity
  8
1
 62
     2
100
AcDbText
 10
759.4580889999998
 20
-1800.903669
 30
0.0
 40
4.0
  1
70 h7
 50
90.0
 41
0.9
100
AcDbText
  0
TEXT
  5
96E
330
966
100
AcDbEntity
  8
1
 62
     2
100
AcDbText
 10
756.843089
 20
-1782.503669
 30
0.0
 40
2.399999999999999
  1
 0
 50
90.0
 41
0.9
100
AcDbText
  0
TEXT
  5
96F
330
966
100
AcDbEntity
  8
1
 62
     2
100
AcDbText
 10
760.4730889999999
 20
-1782.503669
 30
0.0
 40
2.399999999999999
  1
-0.030
 50
90.0
 41
0.9
100
AcDbText
  0
TEXT
  5
970
330
966
100
AcDbEntity
  8
1
 62
     2
100
AcDbText
 10
759.4580889999998
 20
-1805.703669
 30
0.0
 40
4.0
  1
%%c
 50
90.0
 41
0.9
100
AcDbText
  0
ENDBLK
  5
971
330
966
100
AcDbEntity
  8
0
100
AcDbBlockEnd
  0
BLOCK
  5
973
330
972
100
AcDbEntity
  8
1
100
AcDbBlockBegin
  2
*D16
 70
     1
 10
0.0
 20
0.0
 30
0.0
  3
*D16
  1

  0
LINE
  5
974
330
972
100
AcDbEntity
  8
1
 62
     2
100
AcDbLine
 10
721.533089
 20
-1728.763669
 30
0.0
 11
728.533089
 21
-1728.763669
 31
0.0
  0
LINE
  5
975
330
972
100
AcDbEntity
  8
1
 62
     2
100
AcDbLine
 10
715.533089
 20
-1728.763669
 30
0.0
 11
721.533089
 21
-1728.763669
 31
0.0
  0
LINE
  5
976
330
972
100
AcDbEntity
  8
1
 62
     2
100
AcDbLine
 10
721.533089
 20
-1753.163669
 30
0.0
 11
721.533089
 21
-1727.763669
 31
0.0
  0
LINE
  5
977
330
972
100
AcDbEntity
  8
1
 62
     2
100
AcDbLine
 10
715.533089
 20
-1753.163669
 30
0.0
 11
715.533089
 21
-1727.763669
 31
0.0
  0
CIRCLE
  5
978
330
972
100
AcDbEntity
  8
1
 62
     2
100
AcDbCircle
 10
715.533089
 20
-1728.763669
 30
0.0
 40
1.0
  0
SOLID
  5
979
330
972
100
AcDbEntity
  8
1
 62
     2
100
AcDbTrace
 10
721.533089
 20
-1728.763669
 30
0.0
 11
725.033089
 21
-1728.308669
 31
0.0
 12
725.033089
 22
-1729.218669
 32
0.0
 13
725.033089
 23
-1729.218669
 33
0.0
  0
TEXT
  5
97A
330
972
100
AcDbEntity
  8
1
 62
     2
100
AcDbText
 10
725.720638
 20
-1727.763669
 30
0.0
 40
4.0
  1
6
 41
0.9
100
AcDbText
  0
ENDBLK
  5
97B
330
972
100
AcDbEntity
  8
0
100
AcDbBlockEnd
  0
BLOCK
  5
97D
330
97C
100
AcDbEntity
  8
1
100
AcDbBlockBegin
  2
*D17
 70
     1
 10
0.0
 20
0.0
 30
0.0
  3
*D17
  1

  0
LINE
  5
97E
330
97C
100
AcDbEntity
  8
1
 62
     2
100
AcDbLine
 10
707.533089
 20
-1728.763669
 30
0.0
 11
693.48912
 21
-1728.763669
 31
0.0
  0
LINE
  5
97F
330
97C
100
AcDbEntity
  8
1
 62
     2
100
AcDbLine
 10
707.533089
 20
-1728.763669
 30
0.0
 11
715.533089
 21
-1728.763669
 31
0.0
  0
LINE
  5
980
330
97C
100
AcDbEntity
  8
1
 62
     2
100
AcDbLine
 10
715.533089
 20
-1728.763669
 30
0.0
 11
715.533089
 21
-1728.763669
 31
0.0
  0
LINE
  5
981
330
97C
100
AcDbEntity
  8
1
 62
     2
100
AcDbLine
 10
715.533089
 20
-1753.163669
 30
0.0
 11
715.533089
 21
-1727.763669
 31
0.0
  0
LINE
  5
982
330
97C
100
AcDbEntity
  8
1
 62
     2
100
AcDbLine
 10
707.533089
 20
-1772.163669
 30
0.0
 11
707.533089
 21
-1727.763669
 31
0.0
  0
SOLID
  5
983
330
97C
100
AcDbEntity
  8
1
 62
     2
100
AcDbTrace
 10
707.533089
 20
-1728.763669
 30
0.0
 11
703.533089
 21
-1729.283669
 31
0.0
 12
703.533089
 22
-1728.243669
 32
0.0
 13
703.533089
 23
-1728.243669
 33
0.0
  0
TEXT
  5
984
330
97C
100
AcDbEntity
  8
1
 62
     2
100
AcDbText
 10
693.48912
 20
-1726.688669
 30
0.0
 40
4.0
  1
8
 41
0.9
100
AcDbText
  0
TEXT
  5
985
330
97C
100
AcDbEntity
  8
1
 62
     2
100
AcDbText
 10
697.88912
 20
-1724.013669
 30
0.0
 40
2.399999999999999
  1
+0.3
 41
0.9
100
AcDbText
  0
TEXT
  5
986
330
97C
100
AcDbEntity
  8
1
 62
     2
100
AcDbText
 10
697.88912
 20
-1727.763669
 30
0.0
 40
2.399999999999999
  1
 0
 41
0.9
100
AcDbText
  0
ENDBLK
  5
987
330
97C
100
AcDbEntity
  8
0
100
AcDbBlockEnd
  0
BLOCK
  5
989
330
988
100
AcDbEntity
  8
1
100
AcDbBlockBegin
  2
*D18
 70
     1
 10
0.0
 20
0.0
 30
0.0
  3
*D18
  1

  0
LINE
  5
98A
330
988
100
AcDbEntity
  8
1
 62
     2
100
AcDbLine
 10
717.533089
 20
-1738.763669
 30
0.0
 11
709.533089
 21
-1738.763669
 31
0.0
  0
LINE
  5
98B
330
988
100
AcDbEntity
  8
1
 62
     2
100
AcDbLine
 10
707.533089
 20
-1738.763669
 30
0.0
 11
709.533089
 21
-1738.763669
 31
0.0
  0
LINE
  5
98C
330
988
100
AcDbEntity
  8
1
 62
     2
100
AcDbLine
 10
707.533089
 20
-1738.763669
 30
0.0
 11
699.117118
 21
-1738.763669
 31
0.0
  0
LINE
  5
98D
330
988
100
AcDbEntity
  8
1
 62
     2
100
AcDbLine
 10
707.533089
 20
-1772.163669
 30
0.0
 11
707.533089
 21
-1737.763669
 31
0.0
  0
LINE
  5
98E
330
988
100
AcDbEntity
  8
1
 62
     2
100
AcDbLine
 10
709.533089
 20
-1764.479668999999
 30
0.0
 11
709.533089
 21
-1737.763669
 31
0.0
  0
SOLID
  5
98F
330
988
100
AcDbEntity
  8
1
 62
     2
100
AcDbTrace
 10
707.533089
 20
-1738.763669
 30
0.0
 11
703.533089
 21
-1739.283669
 31
0.0
 12
703.533089
 22
-1738.243669
 32
0.0
 13
703.533089
 23
-1738.243669
 33
0.0
  0
SOLID
  5
990
330
988
100
AcDbEntity
  8
1
 62
     2
100
AcDbTrace
 10
709.533089
 20
-1738.763669
 30
0.0
 11
713.533089
 21
-1738.243669
 31
0.0
 12
713.533089
 22
-1739.283669
 32
0.0
 13
713.533089
 23
-1739.283669
 33
0.0
  0
TEXT
  5
991
330
988
100
AcDbEntity
  8
1
 62
     2
100
AcDbText
 10
699.117118
 20
-1737.763669
 30
0.0
 40
4.0
  1
2
 41
0.9
100
AcDbText
  0
ENDBLK
  5
992
330
988
100
AcDbEntity
  8
0
100
AcDbBlockEnd
  0
BLOCK
  5
994
330
993
100
AcDbEntity
  8
1
100
AcDbBlockBegin
  2
*D19
 70
     1
 10
0.0
 20
0.0
 30
0.0
  3
*D19
  1

  0
LINE
  5
995
330
993
100
AcDbEntity
  8
1
 62
     2
100
AcDbLine
 10
707.533089
 20
-1718.763669
 30
0.0
 11
721.533089
 21
-1718.763669
 31
0.0
  0
LINE
  5
996
330
993
100
AcDbEntity
  8
1
 62
     2
100
AcDbLine
 10
721.533089
 20
-1753.163669
 30
0.0
 11
721.533089
 21
-1717.763669
 31
0.0
  0
LINE
  5
997
330
993
100
AcDbEntity
  8
1
 62
     2
100
AcDbLine
 10
707.533089
 20
-1772.163669
 30
0.0
 11
707.533089
 21
-1717.763669
 31
0.0
  0
SOLID
  5
998
330
993
100
AcDbEntity
  8
1
 62
     2
100
AcDbTrace
 10
707.533089
 20
-1718.763669
 30
0.0
 11
711.533089
 21
-1718.243669
 31
0.0
 12
711.533089
 22
-1719.283669
 32
0.0
 13
711.533089
 23
-1719.283669
 33
0.0
  0
SOLID
  5
999
330
993
100
AcDbEntity
  8
1
 62
     2
100
AcDbTrace
 10
721.533089
 20
-1718.763669
 30
0.0
 11
717.533089
 21
-1719.283669
 31
0.0
 12
717.533089
 22
-1718.243669
 32
0.0
 13
717.533089
 23
-1718.243669
 33
0.0
  0
TEXT
  5
99A
330
993
100
AcDbEntity
  8
1
 62
     2
100
AcDbText
 10
712.0013339999998
 20
-1717.763669
 30
0.0
 40
4.0
  1
14
 41
0.9
100
AcDbText
  0
ENDBLK
  5
99B
330
993
100
AcDbEntity
  8
0
100
AcDbBlockEnd
  0
BLOCK
  5
99D
330
99C
100
AcDbEntity
  8
1
100
AcDbBlockBegin
  2
*D20
 70
     1
 10
0.0
 20
0.0
 30
0.0
  3
*D20
  1

  0
LINE
  5
99E
330
99C
100
AcDbEntity
  8
1
 62
     2
100
AcDbLine
 10
682.533089
 20
-1804.763669
 30
0.0
 11
682.533089
 21
-1772.763669
 31
0.0
  0
LINE
  5
99F
330
99C
100
AcDbEntity
  8
1
 62
     2
100
AcDbLine
 10
684.18624
 20
-1772.763669
 30
0.0
 11
681.533089
 21
-1772.763669
 31
0.0
  0
LINE
  5
9A0
330
99C
100
AcDbEntity
  8
1
 62
     2
100
AcDbLine
 10
706.9330889999998
 20
-1772.763669
 30
0.0
 11
690.7816669999998
 21
-1772.763669
 31
0.0
  0
LINE
  5
9A1
330
99C
100
AcDbEntity
  8
1
 62
     2
100
AcDbLine
 10
706.9330889999998
 20
-1804.763669
 30
0.0
 11
681.533089
 21
-1804.763669
 31
0.0
  0
SOLID
  5
9A2
330
99C
100
AcDbEntity
  8
1
 62
     2
100
AcDbTrace
 10
682.533089
 20
-1772.763669
 30
0.0
 11
683.053089
 21
-1776.763669
 31
0.0
 12
682.0130889999997
 22
-1776.763669
 32
0.0
 13
682.0130889999997
 23
-1776.763669
 33
0.0
  0
SOLID
  5
9A3
330
99C
100
AcDbEntity
  8
1
 62
     2
100
AcDbTrace
 10
682.533089
 20
-1804.763669
 30
0.0
 11
682.0130889999997
 21
-1800.763669
 31
0.0
 12
683.053089
 22
-1800.763669
 32
0.0
 13
683.053089
 23
-1800.763669
 33
0.0
  0
TEXT
  5
9A4
330
99C
100
AcDbEntity
  8
1
 62
     2
100
AcDbText
 10
681.533089
 20
-1789.363669
 30
0.0
 40
4.0
  1
32
 50
90.0
 41
0.9
100
AcDbText
  0
TEXT
  5
9A5
330
99C
100
AcDbEntity
  8
1
 62
     2
100
AcDbText
 10
681.533089
 20
-1794.163669
 30
0.0
 40
4.0
  1
%%c
 50
90.0
 41
0.9
100
AcDbText
  0
ENDBLK
  5
9A6
330
99C
100
AcDbEntity
  8
0
100
AcDbBlockEnd
  0
BLOCK
  5
9A8
330
9A7
100
AcDbEntity
  8
1
100
AcDbBlockBegin
  2
*D21
 70
     1
 10
0.0
 20
0.0
 30
0.0
  3
*D21
  1

  0
LINE
  5
9A9
330
9A7
100
AcDbEntity
  8
1
 62
     2
100
AcDbLine
 10
721.2330889999998
 20
-1787.219443
 30
0.0
 11
730.8195279999998
 21
-1787.219443
 31
0.0
  0
LINE
  5
9AA
330
9A7
100
AcDbEntity
  8
1
 62
     2
100
AcDbLine
 10
716.033089
 20
-1787.219443
 30
0.0
 11
721.2330889999998
 21
-1787.219443
 31
0.0
  0
LINE
  5
9AB
330
9A7
100
AcDbEntity
  8
1
 62
     2
100
AcDbLine
 10
708.0330889999998
 20
-1787.219443
 30
0.0
 11
716.033089
 21
-1787.219443
 31
0.0
  0
LINE
  5
9AC
330
9A7
100
AcDbEntity
  8
1
 62
     2
100
AcDbLine
 10
721.2330889999998
 20
-1775.563669
 30
0.0
 11
721.2330889999998
 21
-1788.219443
 31
0.0
  0
LINE
  5
9AD
330
9A7
100
AcDbEntity
  8
1
 62
     2
100
AcDbLine
 10
716.033089
 20
-1775.563669
 30
0.0
 11
716.033089
 21
-1788.219443
 31
0.0
  0
SOLID
  5
9AE
330
9A7
100
AcDbEntity
  8
1
 62
     2
100
AcDbTrace
 10
716.033089
 20
-1787.219443
 30
0.0
 11
712.0330889999998
 21
-1787.739442999999
 31
0.0
 12
712.0330889999998
 22
-1786.699443
 32
0.0
 13
712.0330889999998
 23
-1786.699443
 33
0.0
  0
SOLID
  5
9AF
330
9A7
100
AcDbEntity
  8
1
 62
     2
100
AcDbTrace
 10
721.2330889999998
 20
-1787.219443
 30
0.0
 11
725.2330889999998
 21
-1786.699443
 31
0.0
 12
725.2330889999998
 22
-1787.739442999999
 32
0.0
 13
725.2330889999998
 23
-1787.739442999999
 33
0.0
  0
TEXT
  5
9B0
330
9A7
100
AcDbEntity
  8
1
 62
     2
100
AcDbText
 10
723.419528
 20
-1786.119443
 30
0.0
 40
4.0
  1
5.2
 41
0.9
100
AcDbText
  0
ENDBLK
  5
9B1
330
9A7
100
AcDbEntity
  8
0
100
AcDbBlockEnd
  0
BLOCK
  5
9B3
330
9B2
100
AcDbEntity
  8
1
100
AcDbBlockBegin
  2
*D22
 70
     1
 10
0.0
 20
0.0
 30
0.0
  3
*D22
  1

  0
LINE
  5
9B4
330
9B2
100
AcDbEntity
  8
1
 62
     2
100
AcDbLine
 10
723.033089
 20
-1838.763668
 30
0.0
 11
749.5768759999998
 21
-1838.763668
 31
0.0
  0
LINE
  5
9B5
330
9B2
100
AcDbEntity
  8
1
 62
     2
100
AcDbLine
 10
721.533089
 20
-1838.763668
 30
0.0
 11
723.033089
 21
-1838.763668
 31
0.0
  0
LINE
  5
9B6
330
9B2
100
AcDbEntity
  8
1
 62
     2
100
AcDbLine
 10
713.533089
 20
-1838.763668
 30
0.0
 11
721.533089
 21
-1838.763668
 31
0.0
  0
LINE
  5
9B7
330
9B2
100
AcDbEntity
  8
1
 62
     2
100
AcDbLine
 10
723.033089
 20
-1816.263669
 30
0.0
 11
723.033089
 21
-1839.763668
 31
0.0
  0
LINE
  5
9B8
330
9B2
100
AcDbEntity
  8
1
 62
     2
100
AcDbLine
 10
721.533089
 20
-1824.363668
 30
0.0
 11
721.533089
 21
-1839.763668
 31
0.0
  0
SOLID
  5
9B9
330
9B2
100
AcDbEntity
  8
1
 62
     2
100
AcDbTrace
 10
721.533089
 20
-1838.763668
 30
0.0
 11
717.533089
 21
-1839.283668
 31
0.0
 12
717.533089
 22
-1838.243668
 32
0.0
 13
717.533089
 23
-1838.243668
 33
0.0
  0
SOLID
  5
9BA
330
9B2
100
AcDbEntity
  8
1
 62
     2
100
AcDbTrace
 10
723.033089
 20
-1838.763668
 30
0.0
 11
727.033089
 21
-1838.243668
 31
0.0
 12
727.033089
 22
-1839.283668
 32
0.0
 13
727.033089
 23
-1839.283668
 33
0.0
  0
TEXT
  5
9BB
330
9B2
100
AcDbEntity
  8
1
 62
     2
100
AcDbText
 10
743.3768759999998
 20
-1837.663668
 30
0.0
 40
4.0
  1
1.5
 41
0.9
100
AcDbText
  0
TEXT
  5
9BC
330
9B2
100
AcDbEntity
  8
1
 62
     2
100
AcDbText
 10
726.6768759999998
 20
-1837.663668
 30
0.0
 40
4.0
  1
M.H.C.
 41
0.9
100
AcDbText
  0
ENDBLK
  5
9BD
330
9B2
100
AcDbEntity
  8
0
100
AcDbBlockEnd
  0
BLOCK
  5
9BF
330
9BE
100
AcDbEntity
  8
1
100
AcDbBlockBegin
  2
*D23
 70
     1
 10
0.0
 20
0.0
 30
0.0
  3
*D23
  1

  0
LINE
  5
9C0
330
9BE
100
AcDbEntity
  8
1
 62
     2
100
AcDbLine
 10
707.533089
 20
-1848.763668
 30
0.0
 11
685.0827109999999
 21
-1848.763668
 31
0.0
  0
LINE
  5
9C1
330
9BE
100
AcDbEntity
  8
1
 62
     2
100
AcDbLine
 10
707.533089
 20
-1848.763668
 30
0.0
 11
715.533089
 21
-1848.763668
 31
0.0
  0
LINE
  5
9C2
330
9BE
100
AcDbEntity
  8
1
 62
     2
100
AcDbLine
 10
723.533089
 20
-1848.763668
 30
0.0
 11
715.533089
 21
-1848.763668
 31
0.0
  0
LINE
  5
9C3
330
9BE
100
AcDbEntity
  8
1
 62
     2
100
AcDbLine
 10
715.533089
 20
-1824.363668
 30
0.0
 11
715.533089
 21
-1849.763667999999
 31
0.0
  0
LINE
  5
9C4
330
9BE
100
AcDbEntity
  8
1
 62
     2
100
AcDbLine
 10
707.533089
 20
-1816.263669
 30
0.0
 11
707.533089
 21
-1849.763667999999
 31
0.0
  0
SOLID
  5
9C5
330
9BE
100
AcDbEntity
  8
1
 62
     2
100
AcDbTrace
 10
707.533089
 20
-1848.763668
 30
0.0
 11
703.533089
 21
-1849.283667999999
 31
0.0
 12
703.533089
 22
-1848.243668
 32
0.0
 13
703.533089
 23
-1848.243668
 33
0.0
  0
SOLID
  5
9C6
330
9BE
100
AcDbEntity
  8
1
 62
     2
100
AcDbTrace
 10
715.533089
 20
-1848.763668
 30
0.0
 11
719.533089
 21
-1848.243668
 31
0.0
 12
719.533089
 22
-1849.283667999999
 32
0.0
 13
719.533089
 23
-1849.283667999999
 33
0.0
  0
TEXT
  5
9C7
330
9BE
100
AcDbEntity
  8
1
 62
     2
100
AcDbText
 10
701.782711
 20
-1847.663668
 30
0.0
 40
4.0
  1
8
 41
0.9
100
AcDbText
  0
TEXT
  5
9C8
330
9BE
100
AcDbEntity
  8
1
 62
     2
100
AcDbText
 10
685.0827109999999
 20
-1847.663668
 30
0.0
 40
4.0
  1
M.H.C.
 41
0.9
100
AcDbText
  0
ENDBLK
  5
9C9
330
9BE
100
AcDbEntity
  8
0
100
AcDbBlockEnd
  0
BLOCK
  5
9CB
330
9CA
100
AcDbEntity
  8
1
100
AcDbBlockBegin
  2
*D24
 70
     1
 10
0.0
 20
0.0
 30
0.0
  3
*D24
  1

  0
LINE
  5
9CC
330
9CA
100
AcDbEntity
  8
1
 62
     2
100
AcDbLine
 10
692.533089
 20
-1796.763669
 30
0.0
 11
692.533089
 21
-1780.763669
 31
0.0
  0
LINE
  5
9CD
330
9CA
100
AcDbEntity
  8
1
 62
     2
100
AcDbLine
 10
706.533089
 20
-1796.763669
 30
0.0
 11
691.5330889999998
 21
-1796.763669
 31
0.0
  0
LINE
  5
9CE
330
9CA
100
AcDbEntity
  8
1
 62
     2
100
AcDbLine
 10
706.533089
 20
-1780.763669
 30
0.0
 11
691.5330889999998
 21
-1780.763669
 31
0.0
  0
SOLID
  5
9CF
330
9CA
100
AcDbEntity
  8
1
 62
     2
100
AcDbTrace
 10
692.533089
 20
-1780.763669
 30
0.0
 11
693.0530889999999
 21
-1784.763669
 31
0.0
 12
692.0130889999998
 22
-1784.763669
 32
0.0
 13
692.0130889999998
 23
-1784.763669
 33
0.0
  0
SOLID
  5
9D0
330
9CA
100
AcDbEntity
  8
1
 62
     2
100
AcDbTrace
 10
692.533089
 20
-1796.763669
 30
0.0
 11
692.0130889999998
 21
-1792.763669
 31
0.0
 12
693.0530889999999
 22
-1792.763669
 32
0.0
 13
693.0530889999999
 23
-1792.763669
 33
0.0
  0
TEXT
  5
9D1
330
9CA
100
AcDbEntity
  8
1
 62
     2
100
AcDbText
 10
690.458089
 20
-1798.320447
 30
0.0
 40
4.0
  1
16 H6
 50
90.0
 41
0.9
100
AcDbText
  0
TEXT
  5
9D2
330
9CA
100
AcDbEntity
  8
1
 62
     2
100
AcDbText
 10
687.783089
 20
-1780.720447
 30
0.0
 40
2.399999999999999
  1
+0.011
 50
90.0
 41
0.9
100
AcDbText
  0
TEXT
  5
9D3
330
9CA
100
AcDbEntity
  8
1
 62
     2
100
AcDbText
 10
691.5330889999998
 20
-1780.720447
 30
0.0
 40
2.399999999999999
  1
 0
 50
90.0
 41
0.9
100
AcDbText
  0
TEXT
  5
9D4
330
9CA
100
AcDbEntity
  8
1
 62
     2
100
AcDbText
 10
690.458089
 20
-1803.120446999999
 30
0.0
 40
4.0
  1
%%c
 50
90.0
 41
0.9
100
AcDbText
  0
ENDBLK
  5
9D5
330
9CA
100
AcDbEntity
  8
0
100
AcDbBlockEnd
  0
BLOCK
  5
9D7
330
9D6
100
AcDbEntity
  8
1
100
AcDbBlockBegin
  2
*D25
 70
     1
 10
0.0
 20
0.0
 30
0.0
  3
*D25
  1

  0
LINE
  5
9D8
330
9D6
100
AcDbEntity
  8
1
 62
     2
100
AcDbLine
 10
741.5330889999998
 20
-1778.763669
 30
0.0
 11
741.5330889999998
 21
-1813.958363
 31
0.0
  0
LINE
  5
9D9
330
9D6
100
AcDbEntity
  8
1
 62
     2
100
AcDbLine
 10
721.7330889999998
 20
-1778.763669
 30
0.0
 11
742.533089
 21
-1778.763669
 31
0.0
  0
SOLID
  5
9DA
330
9D6
100
AcDbEntity
  8
1
 62
     2
100
AcDbTrace
 10
741.5330889999998
 20
-1778.763669
 30
0.0
 11
742.053089
 21
-1782.763669
 31
0.0
 12
741.0130889999997
 22
-1782.763669
 32
0.0
 13
741.0130889999997
 23
-1782.763669
 33
0.0
  0
TEXT
  5
9DB
330
9D6
100
AcDbEntity
  8
1
 62
     2
100
AcDbText
 10
739.458089
 20
-1809.158362999999
 30
0.0
 40
4.0
  1
20 H7
 50
90.0
 41
0.9
100
AcDbText
  0
TEXT
  5
9DC
330
9D6
100
AcDbEntity
  8
1
 62
     2
100
AcDbText
 10
736.783089
 20
-1790.358363
 30
0.0
 40
2.399999999999999
  1
+0.021
 50
90.0
 41
0.9
100
AcDbText
  0
TEXT
  5
9DD
330
9D6
100
AcDbEntity
  8
1
 62
     2
100
AcDbText
 10
740.533089
 20
-1790.358363
 30
0.0
 40
2.399999999999999
  1
 0
 50
90.0
 41
0.9
100
AcDbText
  0
TEXT
  5
9DE
330
9D6
100
AcDbEntity
  8
1
 62
     2
100
AcDbText
 10
739.458089
 20
-1813.958363
 30
0.0
 40
4.0
  1
%%c
 50
90.0
 41
0.9
100
AcDbText
  0
ENDBLK
  5
9DF
330
9D6
100
AcDbEntity
  8
0
100
AcDbBlockEnd
  0
BLOCK
  5
9E1
330
9E0
100
AcDbEntity
  8
1
100
AcDbBlockBegin
  2
*D26
 70
     1
 10
0.0
 20
0.0
 30
0.0
  3
*D26
  1

  0
LINE
  5
9E2
330
9E0
100
AcDbEntity
  8
1
 62
     2
100
AcDbLine
 10
751.533089
 20
-1815.263669
 30
0.0
 11
751.533089
 21
-1775.463669
 31
0.0
  0
LINE
  5
9E3
330
9E0
100
AcDbEntity
  8
1
 62
     2
100
AcDbLine
 10
724.033089
 20
-1815.263669
 30
0.0
 11
752.533089
 21
-1815.263669
 31
0.0
  0
SOLID
  5
9E4
330
9E0
100
AcDbEntity
  8
1
 62
     2
100
AcDbTrace
 10
751.533089
 20
-1815.263669
 30
0.0
 11
751.0130889999998
 21
-1811.263669
 31
0.0
 12
752.0530889999998
 22
-1811.263669
 32
0.0
 13
752.0530889999998
 23
-1811.263669
 33
0.0
  0
TEXT
  5
9E5
330
9E0
100
AcDbEntity
  8
1
 62
     2
100
AcDbText
 10
750.433089
 20
-1781.463669
 30
0.0
 40
4.0
  1
53
 50
90.0
 41
0.9
100
AcDbText
  0
TEXT
  5
9E6
330
9E0
100
AcDbEntity
  8
1
 62
     2
100
AcDbText
 10
750.433089
 20
-1802.063668999998
 30
0.0
 40
4.0
  1
M.H.C.%%c
 50
90.0
 41
0.9
100
AcDbText
  0
ENDBLK
  5
9E7
330
9E0
100
AcDbEntity
  8
0
100
AcDbBlockEnd
  0
BLOCK
  5
9E9
330
9E8
100
AcDbEntity
  8
1
100
AcDbBlockBegin
  2
*D27
 70
     1
 10
0.0
 20
0.0
 30
0.0
  3
*D27
  1

  0
LINE
  5
9EA
330
9E8
100
AcDbEntity
  8
1
 62
     2
100
AcDbLine
 10
672.533089
 20
-1815.263669
 30
0.0
 11
672.533089
 21
-1775.463669
 31
0.0
  0
LINE
  5
9EB
330
9E8
100
AcDbEntity
  8
1
 62
     2
100
AcDbLine
 10
706.533089
 20
-1815.263669
 30
0.0
 11
671.533089
 21
-1815.263669
 31
0.0
  0
SOLID
  5
9EC
330
9E8
100
AcDbEntity
  8
1
 62
     2
100
AcDbTrace
 10
672.533089
 20
-1815.263669
 30
0.0
 11
672.0130889999998
 21
-1811.263669
 31
0.0
 12
673.0530889999998
 22
-1811.263669
 32
0.0
 13
673.0530889999998
 23
-1811.263669
 33
0.0
  0
TEXT
  5
9ED
330
9E8
100
AcDbEntity
  8
1
 62
     2
100
AcDbText
 10
671.433089
 20
-1781.463669
 30
0.0
 40
4.0
  1
53
 50
90.0
 41
0.9
100
AcDbText
  0
TEXT
  5
9EE
330
9E8
100
AcDbEntity
  8
1
 62
     2
100
AcDbText
 10
671.433089
 20
-1802.063668999998
 30
0.0
 40
4.0
  1
M.H.C.%%c
 50
90.0
 41
0.9
100
AcDbText
  0
ENDBLK
  5
9EF
330
9E8
100
AcDbEntity
  8
0
100
AcDbBlockEnd
  0
BLOCK
  5
9F1
330
9F0
100
AcDbEntity
  8
1
100
AcDbBlockBegin
  2
*D28
 70
     1
 10
0.0
 20
0.0
 30
0.0
  3
*D28
  1

  0
LINE
  5
9F2
330
9F0
100
AcDbEntity
  8
1
 62
     2
100
AcDbLine
 10
823.9037319999999
 20
-1783.929934
 30
0.0
 11
880.563616
 21
-1806.624695
 31
0.0
  0
SOLID
  5
9F3
330
9F0
100
AcDbEntity
  8
1
 62
     2
100
AcDbTrace
 10
848.039598
 20
-1793.597403999999
 30
0.0
 11
844.133039
 21
-1792.592818
 31
0.0
 12
844.5197380000001
 22
-1791.627382999999
 32
0.0
 13
844.5197380000001
 23
-1791.627382999999
 33
0.0
  0
SOLID
  5
9F4
330
9F0
100
AcDbEntity
  8
1
 62
     2
100
AcDbTrace
 10
823.9037319999999
 20
-1783.929934
 30
0.0
 11
827.810292
 21
-1784.93452
 31
0.0
 12
827.4235929999999
 22
-1785.899954
 32
0.0
 13
827.4235929999999
 23
-1785.899954
 33
0.0
  0
TEXT
  5
9F5
330
9F0
100
AcDbEntity
  8
1
 62
     2
100
AcDbText
 10
875.3656269999996
 20
-1803.465437999999
 30
0.0
 40
4.0
  1
26
 50
338.1717389999999
 41
0.9
100
AcDbText
  0
TEXT
  5
9F6
330
9F0
100
AcDbEntity
  8
1
 62
     2
100
AcDbText
 10
870.9097749999997
 20
-1801.680675
 30
0.0
 40
4.0
  1
%%c
 50
338.1717389999999
 41
0.9
100
AcDbText
  0
ENDBLK
  5
9F7
330
9F0
100
AcDbEntity
  8
0
100
AcDbBlockEnd
  0
BLOCK
  5
9F9
330
9F8
100
AcDbEntity
  8
1
100
AcDbBlockBegin
  2
*D29
 70
     1
 10
0.0
 20
0.0
 30
0.0
  3
*D29
  1

  0
LINE
  5
9FA
330
9F8
100
AcDbEntity
  8
1
 62
     2
100
AcDbLine
 10
806.920028
 20
-1799.580432
 30
0.0
 11
882.8576400000001
 21
-1771.306667
 31
0.0
  0
SOLID
  5
9FB
330
9F8
100
AcDbEntity
  8
1
 62
     2
100
AcDbTrace
 10
865.0233029999997
 20
-1777.946906
 30
0.0
 11
861.4561470000001
 21
-1779.829935
 31
0.0
 12
861.0932619999996
 22
-1778.855298999999
 32
0.0
 13
861.0932619999996
 23
-1778.855298999999
 33
0.0
  0
SOLID
  5
9FC
330
9F8
100
AcDbEntity
  8
1
 62
     2
100
AcDbTrace
 10
806.920028
 20
-1799.580432
 30
0.0
 11
810.4871839999997
 21
-1797.697403
 31
0.0
 12
810.8500690000001
 22
-1798.672038
 32
0.0
 13
810.8500690000001
 23
-1798.672038
 33
0.0
  0
TEXT
  5
9FD
330
9F8
100
AcDbEntity
  8
1
 62
     2
100
AcDbText
 10
876.8858150000001
 20
-1772.463085
 30
0.0
 40
4.0
  1
62
 50
20.421751
 41
0.9
100
AcDbText
  0
TEXT
  5
9FE
330
9F8
100
AcDbEntity
  8
1
 62
     2
100
AcDbText
 10
872.387497
 20
-1774.137937999999
 30
0.0
 40
4.0
  1
%%c
 50
20.421751
 41
0.9
100
AcDbText
  0
ENDBLK
  5
9FF
330
9F8
100
AcDbEntity
  8
0
100
AcDbBlockEnd
  0
BLOCK
  5
A01
330
A00
100
AcDbEntity
  8
1
100
AcDbBlockBegin
  2
*D30
 70
     1
 10
0.0
 20
0.0
 30
0.0
  3
*D30
  1

  0
LINE
  5
A02
330
A00
100
AcDbEntity
  8
1
 62
     2
100
AcDbLine
 10
615.421312
 20
-1792.088845
 30
0.0
 11
557.092483
 21
-1775.267339
 31
0.0
  0
SOLID
  5
A03
330
A00
100
AcDbEntity
  8
1
 62
     2
100
AcDbTrace
 10
592.361112
 20
-1785.438492
 30
0.0
 11
596.3485699999998
 21
-1786.047247
 31
0.0
 12
596.0603879999998
 22
-1787.046521999999
 32
0.0
 13
596.0603879999998
 23
-1787.046521999999
 33
0.0
  0
SOLID
  5
A04
330
A00
100
AcDbEntity
  8
1
 62
     2
100
AcDbTrace
 10
615.421312
 20
-1792.088845
 30
0.0
 11
611.433854
 21
-1791.480091
 31
0.0
 12
611.722036
 22
-1790.480815
 32
0.0
 13
611.722036
 23
-1790.480815
 33
0.0
  0
TEXT
  5
A05
330
A00
100
AcDbEntity
  8
1
 62
     2
100
AcDbText
 10
561.981621
 20
-1775.636567999999
 30
0.0
 40
4.0
  1
24
 50
343.912918
 41
0.9
100
AcDbText
  0
TEXT
  5
A06
330
A00
100
AcDbEntity
  8
1
 62
     2
100
AcDbText
 10
557.3695809999998
 20
-1774.306498
 30
0.0
 40
4.0
  1
%%c
 50
343.912918
 41
0.9
100
AcDbText
  0
ENDBLK
  5
A07
330
A00
100
AcDbEntity
  8
0
100
AcDbBlockEnd
  0
BLOCK
  5
A09
330
A08
100
AcDbEntity
  8
1
100
AcDbBlockBegin
  2
*D31
 70
     1
 10
0.0
 20
0.0
 30
0.0
  3
*D31
  1

  0
LINE
  5
A0A
330
A08
100
AcDbEntity
  8
1
 62
     2
100
AcDbLine
 10
827.1071130000001
 20
-1755.680708999999
 30
0.0
 11
823.859397
 21
-1743.560069
 31
0.0
  0
LINE
  5
A0B
330
A08
100
AcDbEntity
  8
1
 62
     2
100
AcDbLine
 10
835.9716650000001
 20
-1744.825953
 30
0.0
 11
835.9716650000001
 21
-1741.965458
 31
0.0
  0
LINE
  5
A0C
330
A08
100
AcDbEntity
  8
1
 62
     2
100
AcDbLine
 10
823.859397
 20
-1743.560069
 30
0.0
 11
823.6005780000001
 21
-1742.594143
 31
0.0
  0
LINE
  5
A0D
330
A08
100
AcDbEntity
  8
1
 62
     2
100
AcDbLine
 10
835.9716650000001
 20
-1741.965458
 30
0.0
 11
835.9716650000001
 21
-1740.965457999999
 31
0.0
  0
ARC
  5
A0E
330
A08
100
AcDbEntity
  8
1
 62
     2
100
AcDbCircle
 10
835.9716650000001
 20
-1788.763669
 30
0.0
 40
46.79820999999999
100
AcDbArc
 50
82.654106
 51
123.33959
  0
SOLID
  5
A0F
330
A08
100
AcDbEntity
  8
1
 62
     2
100
AcDbTrace
 10
835.9716650000001
 20
-1741.965458
 30
0.0
 11
839.9902289999996
 21
-1741.616828
 31
0.0
 12
839.945797
 22
-1742.655878
 32
0.0
 13
839.945797
 23
-1742.655878
 33
0.0
  0
SOLID
  5
A10
330
A08
100
AcDbEntity
  8
1
 62
     2
100
AcDbTrace
 10
823.859397
 20
-1743.560069
 30
0.0
 11
820.1993749999997
 21
-1745.255544
 31
0.0
 12
819.8875299999999
 22
-1744.263398
 32
0.0
 13
819.8875299999999
 23
-1744.263398
 33
0.0
  0
TEXT
  5
A11
330
A08
100
AcDbEntity
  8
1
 62
     2
100
AcDbText
 10
809.6188709999999
 20
-1748.705721
 30
0.0
 40
4.0
  1
15%%d
 50
28.794086
 41
0.9
100
AcDbText
  0
ENDBLK
  5
A12
330
A08
100
AcDbEntity
  8
0
100
AcDbBlockEnd
  0
BLOCK
  5
A14
330
A13
100
AcDbEntity
  8
0
100
AcDbBlockBegin
  2
*X32
 70
     1
 10
0.0
 20
0.0
 30
0.0
  3
*X32
  1

  0
LINE
  5
A15
330
A13
100
AcDbEntity
  8
0
 62
     0
100
AcDbLine
 10
0.196425
 20
-0.367493
 30
0.0
 11
0.211156
 21
-0.352761
 31
0.0
  0
LINE
  5
A16
330
A13
100
AcDbEntity
  8
0
 62
     0
100
AcDbLine
 10
0.211658
 20
-0.352259
 30
0.0
 11
0.218522
 21
-0.345396
 31
0.0
  0
LINE
  5
A17
330
A13
100
AcDbEntity
  8
0
 62
     0
100
AcDbLine
 10
0.195541
 20
-0.367493
 30
0.0
 11
0.210272
 21
-0.352761
 31
0.0
  0
LINE
  5
A18
330
A13
100
AcDbEntity
  8
0
 62
     0
100
AcDbLine
 10
0.211658
 20
-0.351375
 30
0.0
 11
0.217638
 21
-0.345396
 31
0.0
  0
LINE
  5
A19
330
A13
100
AcDbEntity
  8
0
 62
     0
100
AcDbLine
 10
0.194657
 20
-0.367493
 30
0.0
 11
0.209388
 21
-0.352761
 31
0.0
  0
LINE
  5
A1A
330
A13
100
AcDbEntity
  8
0
 62
     0
100
AcDbLine
 10
0.211658
 20
-0.350492
 30
0.0
 11
0.216754
 21
-0.345396
 31
0.0
  0
LINE
  5
A1B
330
A13
100
AcDbEntity
  8
0
 62
     0
100
AcDbLine
 10
0.193773
 20
-0.367493
 30
0.0
 11
0.208505
 21
-0.352761
 31
0.0
  0
LINE
  5
A1C
330
A13
100
AcDbEntity
  8
0
 62
     0
100
AcDbLine
 10
0.211658
 20
-0.349608
 30
0.0
 11
0.21587
 21
-0.345396
 31
0.0
  0
LINE
  5
A1D
330
A13
100
AcDbEntity
  8
0
 62
     0
100
AcDbLine
 10
0.192889
 20
-0.367493
 30
0.0
 11
0.207621
 21
-0.352761
 31
0.0
  0
LINE
  5
A1E
330
A13
100
AcDbEntity
  8
0
 62
     0
100
AcDbLine
 10
0.211658
 20
-0.348724
 30
0.0
 11
0.214986
 21
-0.345396
 31
0.0
  0
LINE
  5
A1F
330
A13
100
AcDbEntity
  8
0
 62
     0
100
AcDbLine
 10
0.192005
 20
-0.367493
 30
0.0
 11
0.206737
 21
-0.352761
 31
0.0
  0
LINE
  5
A20
330
A13
100
AcDbEntity
  8
0
 62
     0
100
AcDbLine
 10
0.211658
 20
-0.34784
 30
0.0
 11
0.214103
 21
-0.345396
 31
0.0
  0
LINE
  5
A21
330
A13
100
AcDbEntity
  8
0
 62
     0
100
AcDbLine
 10
0.191771
 20
-0.366843
 30
0.0
 11
0.198487
 21
-0.3601269999999999
 31
0.0
  0
LINE
  5
A22
330
A13
100
AcDbEntity
  8
0
 62
     0
100
AcDbLine
 10
0.211658
 20
-0.346956
 30
0.0
 11
0.213219
 21
-0.345396
 31
0.0
  0
LINE
  5
A23
330
A13
100
AcDbEntity
  8
0
 62
     0
100
AcDbLine
 10
0.199137
 20
-0.359478
 30
0.0
 11
0.205853
 21
-0.352761
 31
0.0
  0
LINE
  5
A24
330
A13
100
AcDbEntity
  8
0
 62
     0
100
AcDbLine
 10
0.191771
 20
-0.36596
 30
0.0
 11
0.197603
 21
-0.3601269999999999
 31
0.0
  0
LINE
  5
A25
330
A13
100
AcDbEntity
  8
0
 62
     0
100
AcDbLine
 10
0.211658
 20
-0.346072
 30
0.0
 11
0.212335
 21
-0.345396
 31
0.0
  0
LINE
  5
A26
330
A13
100
AcDbEntity
  8
0
 62
     0
100
AcDbLine
 10
0.199137
 20
-0.358594
 30
0.0
 11
0.205029
 21
-0.3527010000000001
 31
0.0
  0
LINE
  5
A27
330
A13
100
AcDbEntity
  8
0
 62
     0
100
AcDbLine
 10
0.191771
 20
-0.365076
 30
0.0
 11
0.196719
 21
-0.3601269999999999
 31
0.0
  0
LINE
  5
A28
330
A13
100
AcDbEntity
  8
0
 62
     0
100
AcDbLine
 10
0.199137
 20
-0.35771
 30
0.0
 11
0.205029
 21
-0.351817
 31
0.0
  0
LINE
  5
A29
330
A13
100
AcDbEntity
  8
0
 62
     0
100
AcDbLine
 10
0.191771
 20
-0.364192
 30
0.0
 11
0.195836
 21
-0.3601269999999999
 31
0.0
  0
LINE
  5
A2A
330
A13
100
AcDbEntity
  8
0
 62
     0
100
AcDbLine
 10
0.199137
 20
-0.356826
 30
0.0
 11
0.205029
 21
-0.350934
 31
0.0
  0
LINE
  5
A2B
330
A13
100
AcDbEntity
  8
0
 62
     0
100
AcDbLine
 10
0.191771
 20
-0.363308
 30
0.0
 11
0.194952
 21
-0.3601269999999999
 31
0.0
  0
LINE
  5
A2C
330
A13
100
AcDbEntity
  8
0
 62
     0
100
AcDbLine
 10
0.199137
 20
-0.355942
 30
0.0
 11
0.205029
 21
-0.35005
 31
0.0
  0
LINE
  5
A2D
330
A13
100
AcDbEntity
  8
0
 62
     0
100
AcDbLine
 10
0.191771
 20
-0.3624239999999999
 30
0.0
 11
0.194068
 21
-0.3601269999999999
 31
0.0
  0
LINE
  5
A2E
330
A13
100
AcDbEntity
  8
0
 62
     0
100
AcDbLine
 10
0.199137
 20
-0.355058
 30
0.0
 11
0.205029
 21
-0.3491659999999999
 31
0.0
  0
LINE
  5
A2F
330
A13
100
AcDbEntity
  8
0
 62
     0
100
AcDbLine
 10
0.191771
 20
-0.36154
 30
0.0
 11
0.193184
 21
-0.3601269999999999
 31
0.0
  0
LINE
  5
A30
330
A13
100
AcDbEntity
  8
0
 62
     0
100
AcDbLine
 10
0.199137
 20
-0.354174
 30
0.0
 11
0.205029
 21
-0.348282
 31
0.0
  0
LINE
  5
A31
330
A13
100
AcDbEntity
  8
0
 62
     0
100
AcDbLine
 10
0.191771
 20
-0.360656
 30
0.0
 11
0.1923
 21
-0.3601269999999999
 31
0.0
  0
LINE
  5
A32
330
A13
100
AcDbEntity
  8
0
 62
     0
100
AcDbLine
 10
0.199137
 20
-0.353291
 30
0.0
 11
0.205029
 21
-0.347398
 31
0.0
  0
LINE
  5
A33
330
A13
100
AcDbEntity
  8
0
 62
     0
100
AcDbLine
 10
0.198782
 20
-0.352761
 30
0.0
 11
0.205029
 21
-0.346514
 31
0.0
  0
LINE
  5
A34
330
A13
100
AcDbEntity
  8
0
 62
     0
100
AcDbLine
 10
0.197898
 20
-0.352761
 30
0.0
 11
0.205029
 21
-0.34563
 31
0.0
  0
LINE
  5
A35
330
A13
100
AcDbEntity
  8
0
 62
     0
100
AcDbLine
 10
0.197014
 20
-0.352761
 30
0.0
 11
0.20438
 21
-0.345396
 31
0.0
  0
LINE
  5
A36
330
A13
100
AcDbEntity
  8
0
 62
     0
100
AcDbLine
 10
0.19613
 20
-0.352761
 30
0.0
 11
0.203496
 21
-0.345396
 31
0.0
  0
LINE
  5
A37
330
A13
100
AcDbEntity
  8
0
 62
     0
100
AcDbLine
 10
0.195246
 20
-0.352761
 30
0.0
 11
0.202612
 21
-0.345396
 31
0.0
  0
LINE
  5
A38
330
A13
100
AcDbEntity
  8
0
 62
     0
100
AcDbLine
 10
0.194362
 20
-0.352761
 30
0.0
 11
0.201728
 21
-0.345396
 31
0.0
  0
LINE
  5
A39
330
A13
100
AcDbEntity
  8
0
 62
     0
100
AcDbLine
 10
0.193479
 20
-0.352761
 30
0.0
 11
0.200844
 21
-0.345396
 31
0.0
  0
LINE
  5
A3A
330
A13
100
AcDbEntity
  8
0
 62
     0
100
AcDbLine
 10
0.192595
 20
-0.352761
 30
0.0
 11
0.19996
 21
-0.345396
 31
0.0
  0
LINE
  5
A3B
330
A13
100
AcDbEntity
  8
0
 62
     0
100
AcDbLine
 10
0.191771
 20
-0.3527010000000001
 30
0.0
 11
0.199077
 21
-0.345396
 31
0.0
  0
LINE
  5
A3C
330
A13
100
AcDbEntity
  8
0
 62
     0
100
AcDbLine
 10
0.191771
 20
-0.351817
 30
0.0
 11
0.198193
 21
-0.345396
 31
0.0
  0
LINE
  5
A3D
330
A13
100
AcDbEntity
  8
0
 62
     0
100
AcDbLine
 10
0.191771
 20
-0.350934
 30
0.0
 11
0.197309
 21
-0.345396
 31
0.0
  0
LINE
  5
A3E
330
A13
100
AcDbEntity
  8
0
 62
     0
100
AcDbLine
 10
0.191771
 20
-0.35005
 30
0.0
 11
0.196425
 21
-0.345396
 31
0.0
  0
LINE
  5
A3F
330
A13
100
AcDbEntity
  8
0
 62
     0
100
AcDbLine
 10
0.191771
 20
-0.3491659999999999
 30
0.0
 11
0.195541
 21
-0.345396
 31
0.0
  0
LINE
  5
A40
330
A13
100
AcDbEntity
  8
0
 62
     0
100
AcDbLine
 10
0.191771
 20
-0.348282
 30
0.0
 11
0.194657
 21
-0.345396
 31
0.0
  0
LINE
  5
A41
330
A13
100
AcDbEntity
  8
0
 62
     0
100
AcDbLine
 10
0.191771
 20
-0.347398
 30
0.0
 11
0.193773
 21
-0.345396
 31
0.0
  0
LINE
  5
A42
330
A13
100
AcDbEntity
  8
0
 62
     0
100
AcDbLine
 10
0.191771
 20
-0.346514
 30
0.0
 11
0.192889
 21
-0.345396
 31
0.0
  0
LINE
  5
A43
330
A13
100
AcDbEntity
  8
0
 62
     0
100
AcDbLine
 10
0.191771
 20
-0.34563
 30
0.0
 11
0.192005
 21
-0.345396
 31
0.0
  0
LINE
  5
A44
330
A13
100
AcDbEntity
  8
0
 62
     0
100
AcDbLine
 10
0.197309
 20
-0.367493
 30
0.0
 11
0.219406
 21
-0.345396
 31
0.0
  0
LINE
  5
A45
330
A13
100
AcDbEntity
  8
0
 62
     0
100
AcDbLine
 10
0.198193
 20
-0.367493
 30
0.0
 11
0.205029
 21
-0.360656
 31
0.0
  0
LINE
  5
A46
330
A13
100
AcDbEntity
  8
0
 62
     0
100
AcDbLine
 10
0.205558
 20
-0.3601269999999999
 30
0.0
 11
0.22029
 21
-0.345396
 31
0.0
  0
LINE
  5
A47
330
A13
100
AcDbEntity
  8
0
 62
     0
100
AcDbLine
 10
0.199076
 20
-0.367493
 30
0.0
 11
0.205029
 21
-0.36154
 31
0.0
  0
LINE
  5
A48
330
A13
100
AcDbEntity
  8
0
 62
     0
100
AcDbLine
 10
0.206442
 20
-0.3601269999999999
 30
0.0
 11
0.221174
 21
-0.345396
 31
0.0
  0
LINE
  5
A49
330
A13
100
AcDbEntity
  8
0
 62
     0
100
AcDbLine
 10
0.19996
 20
-0.367493
 30
0.0
 11
0.205029
 21
-0.3624239999999999
 31
0.0
  0
LINE
  5
A4A
330
A13
100
AcDbEntity
  8
0
 62
     0
100
AcDbLine
 10
0.207326
 20
-0.3601269999999999
 30
0.0
 11
0.222058
 21
-0.345396
 31
0.0
  0
LINE
  5
A4B
330
A13
100
AcDbEntity
  8
0
 62
     0
100
AcDbLine
 10
0.200844
 20
-0.367493
 30
0.0
 11
0.205029
 21
-0.363308
 31
0.0
  0
LINE
  5
A4C
330
A13
100
AcDbEntity
  8
0
 62
     0
100
AcDbLine
 10
0.20821
 20
-0.3601269999999999
 30
0.0
 11
0.222941
 21
-0.345396
 31
0.0
  0
LINE
  5
A4D
330
A13
100
AcDbEntity
  8
0
 62
     0
100
AcDbLine
 10
0.201728
 20
-0.367493
 30
0.0
 11
0.205029
 21
-0.364192
 31
0.0
  0
LINE
  5
A4E
330
A13
100
AcDbEntity
  8
0
 62
     0
100
AcDbLine
 10
0.209094
 20
-0.3601269999999999
 30
0.0
 11
0.223825
 21
-0.345396
 31
0.0
  0
LINE
  5
A4F
330
A13
100
AcDbEntity
  8
0
 62
     0
100
AcDbLine
 10
0.202612
 20
-0.367493
 30
0.0
 11
0.205029
 21
-0.365076
 31
0.0
  0
LINE
  5
A50
330
A13
100
AcDbEntity
  8
0
 62
     0
100
AcDbLine
 10
0.209978
 20
-0.3601269999999999
 30
0.0
 11
0.224709
 21
-0.345396
 31
0.0
  0
LINE
  5
A51
330
A13
100
AcDbEntity
  8
0
 62
     0
100
AcDbLine
 10
0.203496
 20
-0.367493
 30
0.0
 11
0.205029
 21
-0.36596
 31
0.0
  0
LINE
  5
A52
330
A13
100
AcDbEntity
  8
0
 62
     0
100
AcDbLine
 10
0.210862
 20
-0.3601269999999999
 30
0.0
 11
0.224917
 21
-0.346072
 31
0.0
  0
LINE
  5
A53
330
A13
100
AcDbEntity
  8
0
 62
     0
100
AcDbLine
 10
0.20438
 20
-0.367493
 30
0.0
 11
0.205029
 21
-0.366843
 31
0.0
  0
LINE
  5
A54
330
A13
100
AcDbEntity
  8
0
 62
     0
100
AcDbLine
 10
0.211658
 20
-0.360214
 30
0.0
 11
0.224917
 21
-0.346956
 31
0.0
  0
LINE
  5
A55
330
A13
100
AcDbEntity
  8
0
 62
     0
100
AcDbLine
 10
0.211658
 20
-0.361098
 30
0.0
 11
0.219392
 21
-0.353364
 31
0.0
  0
LINE
  5
A56
330
A13
100
AcDbEntity
  8
0
 62
     0
100
AcDbLine
 10
0.219995
 20
-0.352761
 30
0.0
 11
0.224917
 21
-0.34784
 31
0.0
  0
LINE
  5
A57
330
A13
100
AcDbEntity
  8
0
 62
     0
100
AcDbLine
 10
0.211658
 20
-0.361982
 30
0.0
 11
0.219392
 21
-0.354248
 31
0.0
  0
LINE
  5
A58
330
A13
100
AcDbEntity
  8
0
 62
     0
100
AcDbLine
 10
0.220879
 20
-0.352761
 30
0.0
 11
0.224917
 21
-0.348724
 31
0.0
  0
LINE
  5
A59
330
A13
100
AcDbEntity
  8
0
 62
     0
100
AcDbLine
 10
0.211658
 20
-0.3628659999999999
 30
0.0
 11
0.219392
 21
-0.355132
 31
0.0
  0
LINE
  5
A5A
330
A13
100
AcDbEntity
  8
0
 62
     0
100
AcDbLine
 10
0.221763
 20
-0.352761
 30
0.0
 11
0.224917
 21
-0.349608
 31
0.0
  0
LINE
  5
A5B
330
A13
100
AcDbEntity
  8
0
 62
     0
100
AcDbLine
 10
0.211658
 20
-0.36375
 30
0.0
 11
0.219392
 21
-0.356016
 31
0.0
  0
LINE
  5
A5C
330
A13
100
AcDbEntity
  8
0
 62
     0
100
AcDbLine
 10
0.222647
 20
-0.352761
 30
0.0
 11
0.224917
 21
-0.350491
 31
0.0
  0
LINE
  5
A5D
330
A13
100
AcDbEntity
  8
0
 62
     0
100
AcDbLine
 10
0.211658
 20
-0.364634
 30
0.0
 11
0.219392
 21
-0.3569
 31
0.0
  0
LINE
  5
A5E
330
A13
100
AcDbEntity
  8
0
 62
     0
100
AcDbLine
 10
0.223531
 20
-0.352761
 30
0.0
 11
0.224917
 21
-0.351375
 31
0.0
  0
LINE
  5
A5F
330
A13
100
AcDbEntity
  8
0
 62
     0
100
AcDbLine
 10
0.211658
 20
-0.365518
 30
0.0
 11
0.219392
 21
-0.357784
 31
0.0
  0
LINE
  5
A60
330
A13
100
AcDbEntity
  8
0
 62
     0
100
AcDbLine
 10
0.224415
 20
-0.352761
 30
0.0
 11
0.224917
 21
-0.352259
 31
0.0
  0
LINE
  5
A61
330
A13
100
AcDbEntity
  8
0
 62
     0
100
AcDbLine
 10
0.211658
 20
-0.366401
 30
0.0
 11
0.219392
 21
-0.358667
 31
0.0
  0
LINE
  5
A62
330
A13
100
AcDbEntity
  8
0
 62
     0
100
AcDbLine
 10
0.211658
 20
-0.3672849999999999
 30
0.0
 11
0.219392
 21
-0.359551
 31
0.0
  0
LINE
  5
A63
330
A13
100
AcDbEntity
  8
0
 62
     0
100
AcDbLine
 10
0.212335
 20
-0.367493
 30
0.0
 11
0.2197
 21
-0.3601269999999999
 31
0.0
  0
LINE
  5
A64
330
A13
100
AcDbEntity
  8
0
 62
     0
100
AcDbLine
 10
0.213219
 20
-0.367493
 30
0.0
 11
0.220584
 21
-0.3601269999999999
 31
0.0
  0
LINE
  5
A65
330
A13
100
AcDbEntity
  8
0
 62
     0
100
AcDbLine
 10
0.214102
 20
-0.367493
 30
0.0
 11
0.2214679999999999
 21
-0.3601269999999999
 31
0.0
  0
LINE
  5
A66
330
A13
100
AcDbEntity
  8
0
 62
     0
100
AcDbLine
 10
0.214986
 20
-0.367493
 30
0.0
 11
0.222352
 21
-0.3601269999999999
 31
0.0
  0
LINE
  5
A67
330
A13
100
AcDbEntity
  8
0
 62
     0
100
AcDbLine
 10
0.21587
 20
-0.367493
 30
0.0
 11
0.223236
 21
-0.3601269999999999
 31
0.0
  0
LINE
  5
A68
330
A13
100
AcDbEntity
  8
0
 62
     0
100
AcDbLine
 10
0.216754
 20
-0.367493
 30
0.0
 11
0.22412
 21
-0.3601269999999999
 31
0.0
  0
LINE
  5
A69
330
A13
100
AcDbEntity
  8
0
 62
     0
100
AcDbLine
 10
0.217638
 20
-0.367493
 30
0.0
 11
0.224917
 21
-0.360214
 31
0.0
  0
LINE
  5
A6A
330
A13
100
AcDbEntity
  8
0
 62
     0
100
AcDbLine
 10
0.218522
 20
-0.367493
 30
0.0
 11
0.224917
 21
-0.361098
 31
0.0
  0
LINE
  5
A6B
330
A13
100
AcDbEntity
  8
0
 62
     0
100
AcDbLine
 10
0.219406
 20
-0.367493
 30
0.0
 11
0.224917
 21
-0.361982
 31
0.0
  0
LINE
  5
A6C
330
A13
100
AcDbEntity
  8
0
 62
     0
100
AcDbLine
 10
0.22029
 20
-0.367493
 30
0.0
 11
0.224917
 21
-0.3628659999999999
 31
0.0
  0
LINE
  5
A6D
330
A13
100
AcDbEntity
  8
0
 62
     0
100
AcDbLine
 10
0.221174
 20
-0.367493
 30
0.0
 11
0.224917
 21
-0.36375
 31
0.0
  0
LINE
  5
A6E
330
A13
100
AcDbEntity
  8
0
 62
     0
100
AcDbLine
 10
0.222057
 20
-0.367493
 30
0.0
 11
0.224917
 21
-0.364634
 31
0.0
  0
LINE
  5
A6F
330
A13
100
AcDbEntity
  8
0
 62
     0
100
AcDbLine
 10
0.222941
 20
-0.367493
 30
0.0
 11
0.224917
 21
-0.365518
 31
0.0
  0
LINE
  5
A70
330
A13
100
AcDbEntity
  8
0
 62
     0
100
AcDbLine
 10
0.223825
 20
-0.367493
 30
0.0
 11
0.224917
 21
-0.366401
 31
0.0
  0
LINE
  5
A71
330
A13
100
AcDbEntity
  8
0
 62
     0
100
AcDbLine
 10
0.224709
 20
-0.367493
 30
0.0
 11
0.224917
 21
-0.3672849999999999
 31
0.0
  0
ENDBLK
  5
A72
330
A13
100
AcDbEntity
  8
0
100
AcDbBlockEnd
  0
BLOCK
  5
A74
330
A73
100
AcDbEntity
  8
0
100
AcDbBlockBegin
  2
PROPRIETARYDRAWINGNOTICE
 70
     0
 10
0.0
 20
0.0
 30
0.0
  3
PROPRIETARYDRAWINGNOTICE
  1

  0
TEXT
  5
A75
330
A73
100
AcDbEntity
  8
TITLEBOX
100
AcDbText
 10
-0.06467
 20
0.00182
 30
0.0
 40
0.003969
  1
shall not be traced, otherwise copied
100
AcDbText
  0
TEXT
  5
A76
330
A73
100
AcDbEntity
  8
TITLEBOX
100
AcDbText
 10
-0.06467
 20
-0.01141
 30
0.0
 40
0.003969
  1
agreed upon, nor communicated to any
100
AcDbText
  0
TEXT
  5
A77
330
A73
100
AcDbEntity
  8
TITLEBOX
100
AcDbText
 10
-0.06467
 20
-0.018025
 30
0.0
 40
0.003969
  1
third party without written permission
100
AcDbText
  0
TEXT
  5
A78
330
A73
100
AcDbEntity
  8
TITLEBOX
100
AcDbText
 10
-0.06467
 20
0.01505
 30
0.0
 40
0.003969
  1
This drawing (document) is the 
100
AcDbText
  0
TEXT
  5
A79
330
A73
100
AcDbEntity
  8
TITLEBOX
100
AcDbText
 10
-0.06467
 20
-0.02464
 30
0.0
 40
0.003969
  1
from HD Systems, Inc.
100
AcDbText
  0
TEXT
  5
A7A
330
A73
100
AcDbEntity
  8
TITLEBOX
100
AcDbText
 10
-0.064139
 20
0.023629
 30
0.0
 40
0.006075
  1
PROPRIETARY DRAWING
100
AcDbText
  0
TEXT
  5
A7B
330
A73
100
AcDbEntity
  8
TITLEBOX
100
AcDbText
 10
-0.06467
 20
-0.004795
 30
0.0
 40
0.003969
  1
or used for purposes other than
100
AcDbText
  0
TEXT
  5
A7C
330
A73
100
AcDbEntity
  8
TITLEBOX
100
AcDbText
 10
-0.06467
 20
0.008435
 30
0.0
 40
0.003969
  1
property of HD Systems, Inc. and 
100
AcDbText
  0
LINE
  5
A7D
330
A73
100
AcDbEntity
  8
TITLEBOX
100
AcDbLine
 10
-0.069021
 20
-0.028775
 30
0.0
 11
-0.069021
 21
0.033374
 31
0.0
  0
LINE
  5
A7E
330
A73
100
AcDbEntity
  8
TITLEBOX
100
AcDbLine
 10
-0.069021
 20
0.033374
 30
0.0
 11
0.082382
 21
0.033374
 31
0.0
  0
LINE
  5
A7F
330
A73
100
AcDbEntity
  8
TITLEBOX
100
AcDbLine
 10
0.082382
 20
0.033374
 30
0.0
 11
0.082382
 21
-0.028775
 31
0.0
  0
LINE
  5
A80
330
A73
100
AcDbEntity
  8
TITLEBOX
100
AcDbLine
 10
0.082382
 20
-0.028775
 30
0.0
 11
-0.069021
 21
-0.028775
 31
0.0
  0
ENDBLK
  5
A81
330
A73
100
AcDbEntity
  8
0
100
AcDbBlockEnd
  0
BLOCK
  5
BF9
330
BF6
100
AcDbEntity
  8
0
 62
     7
100
AcDbBlockBegin
  2
AI9-BLK14
 70
     0
 10
0.0
 20
0.0
 30
0.0
  3
AI9-BLK14
  1

  0
SPLINE
  5
BF7
330
BF6
100
AcDbEntity
  8
LAYER_1
 62
     7
100
AcDbSpline
210
0.0
220
0.0
230
1.0
 70
    11
 71
     3
 72
    23
 73
    19
 74
     0
 42
0.0000000001
 43
0.0000000001
 40
0.0
 40
0.0
 40
0.0
 40
0.0
 40
1.0
 40
1.0
 40
1.0
 40
2.0
 40
2.0
 40
2.0
 40
3.0
 40
3.0
 40
3.0
 40
4.0
 40
4.0
 40
4.0
 40
5.0
 40
5.0
 40
5.0
 40
6.0
 40
6.0
 40
6.0
 40
6.0
 10
-10.90321044921874
 20
10.88107571072048
 30
0.0
 10
-10.90321044921874
 20
10.88107571072048
 30
0.0
 10
-10.90321044921874
 20
-10.88107571072048
 30
0.0
 10
-10.90321044921874
 20
-10.88107571072048
 30
0.0
 10
-10.90321044921874
 20
-10.88107571072048
 30
0.0
 10
1.752692328559025
 20
-10.88107571072048
 30
0.0
 10
1.752692328559025
 20
-10.88107571072048
 30
0.0
 10
3.280592176649305
 20
-10.88107571072048
 30
0.0
 10
10.90321044921874
 20
-10.32383151584201
 30
0.0
 10
10.90321044921874
 20
0.6792867024739583
 30
0.0
 10
10.90321044921874
 20
10.61700914171006
 30
0.0
 10
2.773129611545138
 20
10.87952541775172
 30
0.0
 10
2.691136338975693
 20
10.88090345594618
 30
0.0
 10
2.691136338975693
 20
10.88090345594618
 30
0.0
 10
-9.903099229600693
 20
10.88107571072048
 30
0.0
 10
-9.903099229600693
 20
10.88107571072048
 30
0.0
 10
-9.903099229600693
 20
10.88107571072048
 30
0.0
 10
-10.90321044921874
 20
10.88107571072048
 30
0.0
 10
-10.90321044921874
 20
10.88107571072048
 30
0.0
  0
SPLINE
  5
BF8
330
BF6
100
AcDbEntity
  8
LAYER_1
 62
     7
100
AcDbSpline
210
0.0
220
0.0
230
1.0
 70
    11
 71
     3
 72
    20
 73
    16
 74
     0
 42
0.0000000001
 43
0.0000000001
 40
0.0
 40
0.0
 40
0.0
 40
0.0
 40
1.0
 40
1.0
 40
1.0
 40
2.0
 40
2.0
 40
2.0
 40
3.0
 40
3.0
 40
3.0
 40
4.0
 40
4.0
 40
4.0
 40
5.0
 40
5.0
 40
5.0
 40
5.0
 10
2.672877332899305
 20
8.881197781032986
 30
0.0
 10
2.905421278211805
 20
8.874307590060762
 30
0.0
 10
8.902988009982637
 20
8.616442192925347
 30
0.0
 10
8.902988009982637
 20
0.6792867024739583
 30
0.0
 10
8.902988009982637
 20
-8.191661919487842
 30
0.0
 10
3.430109320746526
 20
-8.881197781032986
 30
0.0
 10
1.752692328559025
 20
-8.881197781032986
 30
0.0
 10
1.752692328559025
 20
-8.881197781032986
 30
0.0
 10
-7.231427680121528
 20
-8.881197781032986
 30
0.0
 10
-8.902988009982637
 20
-8.881197781032986
 30
0.0
 10
-8.902988009982637
 20
-7.174497477213541
 30
0.0
 10
-8.902988009982637
 20
7.174497477213541
 30
0.0
 10
-8.902988009982637
 20
8.881197781032986
 30
0.0
 10
-7.208690049913191
 20
8.881197781032986
 30
0.0
 10
2.672877332899305
 20
8.881197781032986
 30
0.0
 10
2.672877332899305
 20
8.881197781032986
 30
0.0
  0
ENDBLK
  5
BFA
330
BF6
100
AcDbEntity
  8
0
100
AcDbBlockEnd
  0
BLOCK
  5
BFE
330
BFB
100
AcDbEntity
  8
0
 62
     7
100
AcDbBlockBegin
  2
AI9-BLK13
 70
     0
 10
0.0
 20
0.0
 30
0.0
  3
AI9-BLK13
  1

  0
LWPOLYLINE
  5
BFC
330
BFB
100
AcDbEntity
  8
LAYER_1
 62
     7
100
AcDbPolyline
 90
       12
 70
     1
 43
0.0
 10
-3.792361111111108
 20
10.7376736111111
 10
-2.469444444444443
 20
10.7376736111111
 10
-2.469444444444443
 20
1.874131944444444
 10
2.469444444444443
 20
1.874131944444444
 10
2.469444444444443
 20
10.7376736111111
 10
3.792361111111108
 20
10.7376736111111
 10
3.792361111111108
 20
-10.7376736111111
 10
2.469444444444443
 20
-10.7376736111111
 10
2.469444444444443
 20
-0.6835069444444444
 10
-2.469444444444443
 20
-0.6835069444444444
 10
-2.469444444444443
 20
-10.7376736111111
 10
-3.792361111111108
 20
-10.7376736111111
  0
HATCH
  5
BFD
330
BFB
100
AcDbEntity
  8
LAYER_1
 62
     7
100
AcDbHatch
 10
0.0
 20
0.0
 30
0.0
210
0.0
220
0.0
230
1.0
  2
SOLID
 70
     1
 71
     0
 91
        1
 92
        3
 72
     0
 73
     1
 93
       12
 10
-3.792361111111108
 20
10.7376736111111
 10
-2.469444444444443
 20
10.7376736111111
 10
-2.469444444444443
 20
1.874131944444444
 10
2.469444444444443
 20
1.874131944444444
 10
2.469444444444443
 20
10.7376736111111
 10
3.792361111111108
 20
10.7376736111111
 10
3.792361111111108
 20
-10.7376736111111
 10
2.469444444444443
 20
-10.7376736111111
 10
2.469444444444443
 20
-0.6835069444444444
 10
-2.469444444444443
 20
-0.6835069444444444
 10
-2.469444444444443
 20
-10.7376736111111
 10
-3.792361111111108
 20
-10.7376736111111
 97
        0
 75
     2
 76
     1
 98
        1
 10
0.0
 20
0.0
  0
ENDBLK
  5
BFF
330
BFB
100
AcDbEntity
  8
0
100
AcDbBlockEnd
  0
BLOCK
  5
C03
330
C00
100
AcDbEntity
  8
0
 62
     7
100
AcDbBlockBegin
  2
AI9-BLK11
 70
     0
 10
0.0
 20
0.0
 30
0.0
  3
AI9-BLK11
  1

  0
SPLINE
  5
C01
330
C00
100
AcDbEntity
  8
LAYER_1
 62
     7
100
AcDbSpline
210
0.0
220
0.0
230
1.0
 70
    11
 71
     3
 72
    26
 73
    22
 74
     0
 42
0.0000000001
 43
0.0000000001
 40
0.0
 40
0.0
 40
0.0
 40
0.0
 40
1.0
 40
1.0
 40
1.0
 40
2.0
 40
2.0
 40
2.0
 40
3.0
 40
3.0
 40
3.0
 40
4.0
 40
4.0
 40
4.0
 40
5.0
 40
5.0
 40
5.0
 40
6.0
 40
6.0
 40
6.0
 40
7.0
 40
7.0
 40
7.0
 40
7.0
 10
-2.645833333333333
 20
0.9039930555555551
 30
0.0
 10
-2.645833333333333
 20
0.9039930555555551
 30
0.0
 10
-2.645833333333333
 20
8.180034722222217
 30
0.0
 10
-2.645833333333333
 20
8.180034722222217
 30
0.0
 10
-2.645833333333333
 20
8.180034722222217
 30
0.0
 10
0.465087890625
 20
8.180034722222217
 30
0.0
 10
0.465087890625
 20
8.180034722222217
 30
0.0
 10
0.9026150173611108
 20
8.180034722222217
 30
0.0
 10
1.24988064236111
 20
8.034651692708331
 30
0.0
 10
1.506884765625
 20
7.745263671874997
 30
0.0
 10
2.001600477430554
 20
7.194048394097221
 30
0.0
 10
2.248958333333332
 20
6.160519748263887
 30
0.0
 10
2.248958333333332
 20
4.643299696180553
 30
0.0
 10
2.248958333333332
 20
3.232188585069443
 30
0.0
 10
2.072569444444444
 20
2.256537543402775
 30
0.0
 10
1.720480685763888
 20
1.715657552083333
 30
0.0
 10
1.368391927083333
 20
1.174088541666665
 30
0.0
 10
0.8929687499999998
 20
0.9039930555555551
 30
0.0
 10
0.2942111545138888
 20
0.9039930555555551
 30
0.0
 10
0.2942111545138888
 20
0.9039930555555551
 30
0.0
 10
-2.645833333333333
 20
0.9039930555555551
 30
0.0
 10
-2.645833333333333
 20
0.9039930555555551
 30
0.0
  0
SPLINE
  5
C02
330
C00
100
AcDbEntity
  8
LAYER_1
 62
     7
100
AcDbSpline
210
0.0
220
0.0
230
1.0
 70
    11
 71
     3
 72
    68
 73
    64
 74
     0
 42
0.0000000001
 43
0.0000000001
 40
0.0
 40
0.0
 40
0.0
 40
0.0
 40
1.0
 40
1.0
 40
1.0
 40
2.0
 40
2.0
 40
2.0
 40
3.0
 40
3.0
 40
3.0
 40
4.0
 40
4.0
 40
4.0
 40
5.0
 40
5.0
 40
5.0
 40
6.0
 40
6.0
 40
6.0
 40
7.0
 40
7.0
 40
7.0
 40
8.0
 40
8.0
 40
8.0
 40
9.0
 40
9.0
 40
9.0
 40
10.0
 40
10.0
 40
10.0
 40
11.0
 40
11.0
 40
11.0
 40
12.0
 40
12.0
 40
12.0
 40
13.0
 40
13.0
 40
13.0
 40
14.0
 40
14.0
 40
14.0
 40
15.0
 40
15.0
 40
15.0
 40
16.0
 40
16.0
 40
16.0
 40
17.0
 40
17.0
 40
17.0
 40
18.0
 40
18.0
 40
18.0
 40
19.0
 40
19.0
 40
19.0
 40
20.0
 40
20.0
 40
20.0
 40
21.0
 40
21.0
 40
21.0
 40
21.0
 10
-3.968749999999998
 20
-10.7376736111111
 30
0.0
 10
-3.968749999999998
 20
-10.7376736111111
 30
0.0
 10
-2.645833333333333
 20
-10.7376736111111
 30
0.0
 10
-2.645833333333333
 20
-10.7376736111111
 30
0.0
 10
-2.645833333333333
 20
-10.7376736111111
 30
0.0
 10
-2.645833333333333
 20
-1.521354166666665
 30
0.0
 10
-2.645833333333333
 20
-1.521354166666665
 30
0.0
 10
-2.645833333333333
 20
-1.521354166666665
 30
0.0
 10
0.2390896267361111
 20
-1.521354166666665
 30
0.0
 10
0.2390896267361111
 20
-1.521354166666665
 30
0.0
 10
0.7599880642361111
 20
-1.521354166666665
 30
0.0
 10
1.143771701388887
 20
-1.65295681423611
 30
0.0
 10
1.390440538194444
 20
-1.916162109374999
 30
0.0
 10
1.816254340277775
 20
-2.39434136284722
 30
0.0
 10
2.04363064236111
 20
-3.335541449652775
 30
0.0
 10
2.072569444444444
 20
-4.739762369791666
 30
0.0
 10
2.072569444444444
 20
-4.739762369791666
 30
0.0
 10
2.160763888888888
 20
-8.324039713541665
 30
0.0
 10
2.160763888888888
 20
-8.324039713541665
 30
0.0
 10
2.18005642361111
 20
-9.163264973958332
 30
0.0
 10
2.202794053819443
 20
-9.728949652777775
 30
0.0
 10
2.227598741319444
 20
-10.02109374999998
 30
0.0
 10
2.252403428819443
 20
-10.31392686631944
 30
0.0
 10
2.28892144097222
 20
-10.55301649305555
 30
0.0
 10
2.33853081597222
 20
-10.7376736111111
 30
0.0
 10
2.33853081597222
 20
-10.7376736111111
 30
0.0
 10
3.968749999999998
 20
-10.7376736111111
 30
0.0
 10
3.968749999999998
 20
-10.7376736111111
 30
0.0
 10
3.968749999999998
 20
-10.7376736111111
 30
0.0
 10
3.968749999999998
 20
-10.25260416666666
 30
0.0
 10
3.968749999999998
 20
-10.25260416666666
 30
0.0
 10
3.766867404513888
 20
-10.05830078125
 30
0.0
 10
3.625618489583333
 20
-9.621462673611112
 30
0.0
 10
3.545692274305555
 20
-8.942089843749997
 30
0.0
 10
3.49470486111111
 20
-8.543836805555555
 30
0.0
 10
3.459564887152775
 20
-7.937499999999999
 30
0.0
 10
3.439583333333333
 20
-7.121701388888887
 30
0.0
 10
3.439583333333333
 20
-7.121701388888887
 30
0.0
 10
3.395486111111108
 20
-4.232644314236108
 30
0.0
 10
3.395486111111108
 20
-4.232644314236108
 30
0.0
 10
3.375504557291666
 20
-2.981385633680555
 30
0.0
 10
3.26870659722222
 20
-2.077392578125
 30
0.0
 10
3.075781249999999
 20
-1.522043185763888
 30
0.0
 10
2.882166883680555
 20
-0.9666937934027776
 30
0.0
 10
2.592089843749999
 20
-0.5188313802083333
 30
0.0
 10
2.204861111111108
 20
-0.1770779079861111
 30
0.0
 10
2.63618706597222
 20
0.3197048611111111
 30
0.0
 10
2.971739366319443
 20
0.9770290798611107
 30
0.0
 10
3.211518012152775
 20
1.79558376736111
 30
0.0
 10
3.451296657986108
 20
2.613449435763888
 30
0.0
 10
3.571874999999999
 20
3.66558159722222
 30
0.0
 10
3.571874999999999
 20
4.951291232638888
 30
0.0
 10
3.571874999999999
 20
7.415912543402777
 30
0.0
 10
3.124701605902775
 20
9.106076388888887
 30
0.0
 10
2.231043836805555
 20
10.02178276909722
 30
0.0
 10
1.759754774305553
 20
10.498583984375
 30
0.0
 10
1.163753255208332
 20
10.7376736111111
 30
0.0
 10
0.443039279513889
 20
10.7376736111111
 30
0.0
 10
0.443039279513889
 20
10.7376736111111
 30
0.0
 10
-3.968749999999998
 20
10.7376736111111
 30
0.0
 10
-3.968749999999998
 20
10.7376736111111
 30
0.0
 10
-3.968749999999998
 20
10.7376736111111
 30
0.0
 10
-3.968749999999998
 20
-10.7376736111111
 30
0.0
 10
-3.968749999999998
 20
-10.7376736111111
 30
0.0
  0
ENDBLK
  5
C04
330
C00
100
AcDbEntity
  8
0
100
AcDbBlockEnd
  0
BLOCK
  5
C07
330
C05
100
AcDbEntity
  8
0
 62
     7
100
AcDbBlockBegin
  2
AI9-BLK10
 70
     0
 10
0.0
 20
0.0
 30
0.0
  3
AI9-BLK10
  1

  0
SPLINE
  5
C06
330
C05
100
AcDbEntity
  8
LAYER_1
 62
     7
100
AcDbSpline
210
0.0
220
0.0
230
1.0
 70
    11
 71
     3
 72
    59
 73
    55
 74
     0
 42
0.0000000001
 43
0.0000000001
 40
0.0
 40
0.0
 40
0.0
 40
0.0
 40
1.0
 40
1.0
 40
1.0
 40
2.0
 40
2.0
 40
2.0
 40
3.0
 40
3.0
 40
3.0
 40
4.0
 40
4.0
 40
4.0
 40
5.0
 40
5.0
 40
5.0
 40
6.0
 40
6.0
 40
6.0
 40
7.0
 40
7.0
 40
7.0
 40
8.0
 40
8.0
 40
8.0
 40
9.0
 40
9.0
 40
9.0
 40
10.0
 40
10.0
 40
10.0
 40
11.0
 40
11.0
 40
11.0
 40
12.0
 40
12.0
 40
12.0
 40
13.0
 40
13.0
 40
13.0
 40
14.0
 40
14.0
 40
14.0
 40
15.0
 40
15.0
 40
15.0
 40
16.0
 40
16.0
 40
16.0
 40
17.0
 40
17.0
 40
17.0
 40
18.0
 40
18.0
 40
18.0
 40
18.0
 10
-4.652256944444443
 20
10.7376736111111
 30
0.0
 10
-4.652256944444443
 20
10.7376736111111
 30
0.0
 10
-2.798795572916666
 20
10.7376736111111
 30
0.0
 10
-2.798795572916666
 20
10.7376736111111
 30
0.0
 10
-2.798795572916666
 20
10.7376736111111
 30
0.0
 10
0.0
 20
-7.419357638888887
 30
0.0
 10
0.0
 20
-7.419357638888887
 30
0.0
 10
0.0
 20
-7.419357638888887
 30
0.0
 10
2.793283420138888
 20
10.7376736111111
 30
0.0
 10
2.793283420138888
 20
10.7376736111111
 30
0.0
 10
2.793283420138888
 20
10.7376736111111
 30
0.0
 10
4.652256944444443
 20
10.7376736111111
 30
0.0
 10
4.652256944444443
 20
10.7376736111111
 30
0.0
 10
4.652256944444443
 20
10.7376736111111
 30
0.0
 10
4.652256944444443
 20
-10.7376736111111
 30
0.0
 10
4.652256944444443
 20
-10.7376736111111
 30
0.0
 10
4.652256944444443
 20
-10.7376736111111
 30
0.0
 10
3.41753472222222
 20
-10.7376736111111
 30
0.0
 10
3.41753472222222
 20
-10.7376736111111
 30
0.0
 10
3.41753472222222
 20
-10.7376736111111
 30
0.0
 10
3.41753472222222
 20
1.936832682291665
 30
0.0
 10
3.41753472222222
 20
1.936832682291665
 30
0.0
 10
3.41753472222222
 20
2.375048828124999
 30
0.0
 10
3.424424913194443
 20
3.101274956597221
 30
0.0
 10
3.439583333333333
 20
4.11482204861111
 30
0.0
 10
3.454052734374998
 20
5.128369140624998
 30
0.0
 10
3.461631944444443
 20
6.214952256944441
 30
0.0
 10
3.461631944444443
 20
7.375260416666666
 30
0.0
 10
3.461631944444443
 20
7.375260416666666
 30
0.0
 10
0.6538791232638889
 20
-10.7376736111111
 30
0.0
 10
0.6538791232638889
 20
-10.7376736111111
 30
0.0
 10
0.6538791232638889
 20
-10.7376736111111
 30
0.0
 10
-0.6628363715277778
 20
-10.7376736111111
 30
0.0
 10
-0.6628363715277778
 20
-10.7376736111111
 30
0.0
 10
-0.6628363715277778
 20
-10.7376736111111
 30
0.0
 10
-3.461631944444443
 20
7.375260416666666
 30
0.0
 10
-3.461631944444443
 20
7.375260416666666
 30
0.0
 10
-3.461631944444443
 20
7.375260416666666
 30
0.0
 10
-3.461631944444443
 20
6.717247178819441
 30
0.0
 10
-3.461631944444443
 20
6.717247178819441
 30
0.0
 10
-3.461631944444443
 20
6.190836588541666
 30
0.0
 10
-3.45474175347222
 20
5.389507378472222
 30
0.0
 10
-3.439583333333333
 20
4.312570529513888
 30
0.0
 10
-3.425113932291666
 20
3.235633680555555
 30
0.0
 10
-3.41753472222222
 20
2.44395073784722
 30
0.0
 10
-3.41753472222222
 20
1.936832682291665
 30
0.0
 10
-3.41753472222222
 20
1.936832682291665
 30
0.0
 10
-3.41753472222222
 20
-10.7376736111111
 30
0.0
 10
-3.41753472222222
 20
-10.7376736111111
 30
0.0
 10
-3.41753472222222
 20
-10.7376736111111
 30
0.0
 10
-4.652256944444443
 20
-10.7376736111111
 30
0.0
 10
-4.652256944444443
 20
-10.7376736111111
 30
0.0
 10
-4.652256944444443
 20
-10.7376736111111
 30
0.0
 10
-4.652256944444443
 20
10.7376736111111
 30
0.0
 10
-4.652256944444443
 20
10.7376736111111
 30
0.0
  0
ENDBLK
  5
C08
330
C05
100
AcDbEntity
  8
0
100
AcDbBlockEnd
  0
BLOCK
  5
C0C
330
C09
100
AcDbEntity
  8
0
 62
     7
100
AcDbBlockBegin
  2
AI9-BLK9
 70
     0
 10
0.0
 20
0.0
 30
0.0
  3
AI9-BLK9
  1

  0
SPLINE
  5
C0A
330
C09
100
AcDbEntity
  8
LAYER_1
 62
     7
100
AcDbSpline
210
0.0
220
0.0
230
1.0
 70
    11
 71
     3
 72
    29
 73
    25
 74
     0
 42
0.0000000001
 43
0.0000000001
 40
0.0
 40
0.0
 40
0.0
 40
0.0
 40
1.0
 40
1.0
 40
1.0
 40
2.0
 40
2.0
 40
2.0
 40
3.0
 40
3.0
 40
3.0
 40
4.0
 40
4.0
 40
4.0
 40
5.0
 40
5.0
 40
5.0
 40
6.0
 40
6.0
 40
6.0
 40
7.0
 40
7.0
 40
7.0
 40
8.0
 40
8.0
 40
8.0
 40
8.0
 10
0.0668348524305556
 20
-8.753298611111111
 30
0.0
 10
-0.9067491319444444
 20
-8.753298611111111
 30
0.0
 10
-1.60954861111111
 20
-7.936810980902778
 30
0.0
 10
-2.041563585069444
 20
-6.30383572048611
 30
0.0
 10
-2.474267578124999
 20
-4.670860460069443
 30
0.0
 10
-2.689930555555555
 20
-2.664436848958333
 30
0.0
 10
-2.689930555555555
 20
-0.28525390625
 30
0.0
 10
-2.689930555555555
 20
2.68855251736111
 30
0.0
 10
-2.439127604166666
 20
4.938199869791666
 30
0.0
 10
-1.937521701388888
 20
6.464377170138886
 30
0.0
 10
-1.43591579861111
 20
7.989865451388887
 30
0.0
 10
-0.7827256944444444
 20
8.753298611111111
 30
0.0
 10
0.0220486111111111
 20
8.753298611111111
 30
0.0
 10
0.8468044704861108
 20
8.753298611111111
 30
0.0
 10
1.49792751736111
 20
7.982975260416663
 30
0.0
 10
1.974728732638888
 20
6.442328559027776
 30
0.0
 10
2.451529947916665
 20
4.901681857638886
 30
0.0
 10
2.689930555555555
 20
2.868386501736111
 30
0.0
 10
2.689930555555555
 20
0.3438205295138888
 30
0.0
 10
2.689930555555555
 20
-2.045697699652775
 30
0.0
 10
2.483224826388886
 20
-4.15891927083333
 30
0.0
 10
2.071191406249999
 20
-5.996533203124998
 30
0.0
 10
1.65915798611111
 20
-7.834836154513887
 30
0.0
 10
0.9908094618055557
 20
-8.753298611111111
 30
0.0
 10
0.0668348524305556
 20
-8.753298611111111
 30
0.0
  0
SPLINE
  5
C0B
330
C09
100
AcDbEntity
  8
LAYER_1
 62
     7
100
AcDbSpline
210
0.0
220
0.0
230
1.0
 70
    11
 71
     3
 72
    29
 73
    25
 74
     0
 42
0.0000000001
 43
0.0000000001
 40
0.0
 40
0.0
 40
0.0
 40
0.0
 40
1.0
 40
1.0
 40
1.0
 40
2.0
 40
2.0
 40
2.0
 40
3.0
 40
3.0
 40
3.0
 40
4.0
 40
4.0
 40
4.0
 40
5.0
 40
5.0
 40
5.0
 40
6.0
 40
6.0
 40
6.0
 40
7.0
 40
7.0
 40
7.0
 40
8.0
 40
8.0
 40
8.0
 40
8.0
 10
-0.0289388020833333
 20
11.35503472222222
 30
0.0
 10
-1.317404513888887
 20
11.35503472222222
 30
0.0
 10
-2.28892144097222
 20
10.02798394097222
 30
0.0
 10
-2.94280056423611
 20
7.374571397569441
 30
0.0
 10
-3.450607638888888
 20
5.30613606770833
 30
0.0
 10
-3.704166666666666
 20
2.81877712673611
 30
0.0
 10
-3.704166666666666
 20
-0.0881944444444445
 30
0.0
 10
-3.704166666666666
 20
-3.307291666666666
 30
0.0
 10
-3.406510416666666
 20
-5.970350477430553
 30
0.0
 10
-2.811197916666666
 20
-8.077370876736106
 30
0.0
 10
-2.147672526041664
 20
-10.26293945312499
 30
0.0
 10
-1.229899088541666
 20
-11.35503472222222
 30
0.0
 10
-0.0585666232638889
 20
-11.35503472222222
 30
0.0
 10
1.20027126736111
 20
-11.35503472222222
 30
0.0
 10
2.166276041666665
 20
-10.10653211805555
 30
0.0
 10
2.840136718749998
 20
-7.609526909722221
 30
0.0
 10
3.416156684027776
 20
-5.483213975694441
 30
0.0
 10
3.704166666666666
 20
-2.814643012152775
 30
0.0
 10
3.704166666666666
 20
0.3948079427083333
 30
0.0
 10
3.704166666666666
 20
3.360346137152776
 30
0.0
 10
3.449918619791666
 20
5.793961588541666
 30
0.0
 10
2.94280056423611
 20
7.696343315972222
 30
0.0
 10
2.298567708333333
 20
10.13547092013888
 30
0.0
 10
1.307758246527777
 20
11.35503472222222
 30
0.0
 10
-0.0289388020833333
 20
11.35503472222222
 30
0.0
  0
ENDBLK
  5
C0D
330
C09
100
AcDbEntity
  8
0
100
AcDbBlockEnd
  0
BLOCK
  5
C11
330
C0E
100
AcDbEntity
  8
0
 62
     7
100
AcDbBlockBegin
  2
AI9-BLK8
 70
     0
 10
0.0
 20
0.0
 30
0.0
  3
AI9-BLK8
  1

  0
LWPOLYLINE
  5
C0F
330
C0E
100
AcDbEntity
  8
LAYER_1
 62
     7
100
AcDbPolyline
 90
       10
 70
     1
 43
0.0
 10
-3.792361111111108
 20
10.7376736111111
 10
-2.268939887152775
 20
10.7376736111111
 10
2.557638888888888
 20
-6.505718315972222
 10
2.557638888888888
 20
10.7376736111111
 10
3.792361111111108
 20
10.7376736111111
 10
3.792361111111108
 20
-10.7376736111111
 10
2.32612847222222
 20
-10.7376736111111
 10
-2.557638888888888
 20
6.549815538194441
 10
-2.557638888888888
 20
-10.7376736111111
 10
-3.792361111111108
 20
-10.7376736111111
  0
HATCH
  5
C10
330
C0E
100
AcDbEntity
  8
LAYER_1
 62
     7
100
AcDbHatch
 10
0.0
 20
0.0
 30
0.0
210
0.0
220
0.0
230
1.0
  2
SOLID
 70
     1
 71
     0
 91
        1
 92
        3
 72
     0
 73
     1
 93
       10
 10
-3.792361111111108
 20
10.7376736111111
 10
-2.268939887152775
 20
10.7376736111111
 10
2.557638888888888
 20
-6.505718315972222
 10
2.557638888888888
 20
10.7376736111111
 10
3.792361111111108
 20
10.7376736111111
 10
3.792361111111108
 20
-10.7376736111111
 10
2.32612847222222
 20
-10.7376736111111
 10
-2.557638888888888
 20
6.549815538194441
 10
-2.557638888888888
 20
-10.7376736111111
 10
-3.792361111111108
 20
-10.7376736111111
 97
        0
 75
     2
 76
     1
 98
        1
 10
0.0
 20
0.0
  0
ENDBLK
  5
C12
330
C0E
100
AcDbEntity
  8
0
100
AcDbBlockEnd
  0
BLOCK
  5
C16
330
C13
100
AcDbEntity
  8
0
 62
     7
100
AcDbBlockBegin
  2
AI9-BLK7
 70
     0
 10
0.0
 20
0.0
 30
0.0
  3
AI9-BLK7
  1

  0
LWPOLYLINE
  5
C14
330
C13
100
AcDbEntity
  8
LAYER_1
 62
     7
100
AcDbPolyline
 90
        4
 70
     1
 43
0.0
 10
-0.6614583333333333
 20
10.7376736111111
 10
0.6614583333333333
 20
10.7376736111111
 10
0.6614583333333333
 20
-10.7376736111111
 10
-0.6614583333333333
 20
-10.7376736111111
  0
HATCH
  5
C15
330
C13
100
AcDbEntity
  8
LAYER_1
 62
     7
100
AcDbHatch
 10
0.0
 20
0.0
 30
0.0
210
0.0
220
0.0
230
1.0
  2
SOLID
 70
     1
 71
     0
 91
        1
 92
        3
 72
     0
 73
     1
 93
        4
 10
-0.6614583333333333
 20
10.7376736111111
 10
0.6614583333333333
 20
10.7376736111111
 10
0.6614583333333333
 20
-10.7376736111111
 10
-0.6614583333333333
 20
-10.7376736111111
 97
        0
 75
     2
 76
     1
 98
        1
 10
0.0
 20
0.0
  0
ENDBLK
  5
C17
330
C13
100
AcDbEntity
  8
0
100
AcDbBlockEnd
  0
BLOCK
  5
C1A
330
C18
100
AcDbEntity
  8
0
 62
     7
100
AcDbBlockBegin
  2
AI9-BLK6
 70
     0
 10
0.0
 20
0.0
 30
0.0
  3
AI9-BLK6
  1

  0
SPLINE
  5
C19
330
C18
100
AcDbEntity
  8
LAYER_1
 62
     7
100
AcDbSpline
210
0.0
220
0.0
230
1.0
 70
    11
 71
     3
 72
    59
 73
    55
 74
     0
 42
0.0000000001
 43
0.0000000001
 40
0.0
 40
0.0
 40
0.0
 40
0.0
 40
1.0
 40
1.0
 40
1.0
 40
2.0
 40
2.0
 40
2.0
 40
3.0
 40
3.0
 40
3.0
 40
4.0
 40
4.0
 40
4.0
 40
5.0
 40
5.0
 40
5.0
 40
6.0
 40
6.0
 40
6.0
 40
7.0
 40
7.0
 40
7.0
 40
8.0
 40
8.0
 40
8.0
 40
9.0
 40
9.0
 40
9.0
 40
10.0
 40
10.0
 40
10.0
 40
11.0
 40
11.0
 40
11.0
 40
12.0
 40
12.0
 40
12.0
 40
13.0
 40
13.0
 40
13.0
 40
14.0
 40
14.0
 40
14.0
 40
15.0
 40
15.0
 40
15.0
 40
16.0
 40
16.0
 40
16.0
 40
17.0
 40
17.0
 40
17.0
 40
18.0
 40
18.0
 40
18.0
 40
18.0
 10
3.062689887152775
 20
9.168088107638887
 30
0.0
 10
3.735172526041666
 20
7.739062499999997
 30
0.0
 10
4.110687934027776
 20
6.116422526041666
 30
0.0
 10
4.189236111111108
 20
4.299479166666666
 30
0.0
 10
4.189236111111108
 20
4.299479166666666
 30
0.0
 10
2.866319444444443
 20
4.299479166666666
 30
0.0
 10
2.866319444444443
 20
4.299479166666666
 30
0.0
 10
2.720936414930555
 20
5.667871093749997
 30
0.0
 10
2.435682508680555
 20
6.752387152777776
 30
0.0
 10
2.00986870659722
 20
7.553027343749997
 30
0.0
 10
1.584054904513888
 20
8.352978515624997
 30
0.0
 10
0.9839192708333332
 20
8.753298611111111
 30
0.0
 10
0.2101508246527778
 20
8.753298611111111
 30
0.0
 10
-0.7386284722222222
 20
8.753298611111111
 30
0.0
 10
-1.503439670138888
 20
8.010536024305555
 30
0.0
 10
-2.083593749999999
 20
6.526388888888886
 30
0.0
 10
-2.664436848958333
 20
5.042241753472221
 30
0.0
 10
-2.954513888888888
 20
2.767100694444443
 30
0.0
 10
-2.954513888888888
 20
-0.2990342881944444
 30
0.0
 10
-2.954513888888888
 20
-2.811197916666666
 30
0.0
 10
-2.693375651041666
 20
-4.847938368055555
 30
0.0
 10
-2.17041015625
 20
-6.409944661458332
 30
0.0
 10
-1.648133680555553
 20
-7.972639973958332
 30
0.0
 10
-0.8640299479166666
 20
-8.753298611111111
 30
0.0
 10
0.1812120225694444
 20
-8.753298611111111
 30
0.0
 10
1.138948567708333
 20
-8.753298611111111
 30
0.0
 10
1.865174696180553
 20
-7.927853732638887
 30
0.0
 10
2.359201388888886
 20
-6.275585937499998
 30
0.0
 10
2.62998589409722
 20
-5.406043836805555
 30
0.0
 10
2.828423394097221
 20
-4.262272135416666
 30
0.0
 10
2.954513888888888
 20
-2.844270833333331
 30
0.0
 10
2.954513888888888
 20
-2.844270833333331
 30
0.0
 10
4.277430555555555
 20
-2.844270833333331
 30
0.0
 10
4.277430555555555
 20
-2.844270833333331
 30
0.0
 10
4.169943576388888
 20
-5.109765624999997
 30
0.0
 10
3.795117187499998
 20
-7.009391276041665
 30
0.0
 10
3.151573350694443
 20
-8.542458767361106
 30
0.0
 10
2.381249999999999
 20
-10.38834092881943
 30
0.0
 10
1.347721354166665
 20
-11.3109375
 30
0.0
 10
0.0509874131944445
 20
-11.3109375
 30
0.0
 10
-1.07004665798611
 20
-11.3109375
 30
0.0
 10
-2.010557725694444
 20
-10.55577256944443
 30
0.0
 10
-2.771234809027776
 20
-9.04475368923611
 30
0.0
 10
-3.775824652777775
 20
-7.046598307291666
 30
0.0
 10
-4.277430555555555
 20
-3.961170789930555
 30
0.0
 10
-4.277430555555555
 20
0.2115288628472222
 30
0.0
 10
-4.277430555555555
 20
3.379638671874998
 30
0.0
 10
-3.902604166666666
 20
5.977929687499997
 30
0.0
 10
-3.151573350694443
 20
8.005712890624996
 30
0.0
 10
-2.333018663194443
 20
10.20919596354165
 30
0.0
 10
-1.20647243923611
 20
11.3109375
 30
0.0
 10
0.2266872829861111
 20
11.3109375
 30
0.0
 10
1.444873046875
 20
11.3109375
 30
0.0
 10
2.390207248263886
 20
10.59642469618055
 30
0.0
 10
3.062689887152775
 20
9.168088107638887
 30
0.0
  0
ENDBLK
  5
C1B
330
C18
100
AcDbEntity
  8
0
100
AcDbBlockEnd
  0
BLOCK
  5
C1F
330
C1C
100
AcDbEntity
  8
0
 62
     7
100
AcDbBlockBegin
  2
AI9-BLK5
 70
     0
 10
0.0
 20
0.0
 30
0.0
  3
AI9-BLK5
  1

  0
SPLINE
  5
C1D
330
C1C
100
AcDbEntity
  8
LAYER_1
 62
     7
100
AcDbSpline
210
0.0
220
0.0
230
1.0
 70
    11
 71
     3
 72
    32
 73
    28
 74
     0
 42
0.0000000001
 43
0.0000000001
 40
0.0
 40
0.0
 40
0.0
 40
0.0
 40
1.0
 40
1.0
 40
1.0
 40
2.0
 40
2.0
 40
2.0
 40
3.0
 40
3.0
 40
3.0
 40
4.0
 40
4.0
 40
4.0
 40
5.0
 40
5.0
 40
5.0
 40
6.0
 40
6.0
 40
6.0
 40
7.0
 40
7.0
 40
7.0
 40
8.0
 40
8.0
 40
8.0
 40
9.0
 40
9.0
 40
9.0
 40
9.0
 10
-2.62378472222222
 20
-8.268229166666666
 30
0.0
 10
-2.62378472222222
 20
-8.268229166666666
 30
0.0
 10
-2.62378472222222
 20
8.180034722222217
 30
0.0
 10
-2.62378472222222
 20
8.180034722222217
 30
0.0
 10
-2.62378472222222
 20
8.180034722222217
 30
0.0
 10
-0.3376193576388888
 20
8.180034722222217
 30
0.0
 10
-0.3376193576388888
 20
8.180034722222217
 30
0.0
 10
0.6972873263888888
 20
8.180034722222217
 30
0.0
 10
1.449007161458333
 20
7.445540364583332
 30
0.0
 10
1.918918185763886
 20
5.977929687499997
 30
0.0
 10
2.388829210069443
 20
4.510319010416666
 30
0.0
 10
2.62378472222222
 20
2.449462890624999
 30
0.0
 10
2.62378472222222
 20
-0.204638671875
 30
0.0
 10
2.62378472222222
 20
-0.8950358072916666
 30
0.0
 10
2.590022786458332
 20
-1.643310546874999
 30
0.0
 10
2.523187934027775
 20
-2.45015190972222
 30
0.0
 10
2.408121744791666
 20
-3.80200737847222
 30
0.0
 10
2.226220703124999
 20
-4.909950086805555
 30
0.0
 10
1.976795789930553
 20
-5.774669053819441
 30
0.0
 10
1.659847005208333
 20
-6.853672960069442
 30
0.0
 10
1.252636718749998
 20
-7.583344184027778
 30
0.0
 10
0.7544759114583333
 20
-7.962304687499997
 30
0.0
 10
0.4664659288194444
 20
-8.166254340277777
 30
0.0
 10
0.1074869791666666
 20
-8.268229166666666
 30
0.0
 10
-0.3231499565972222
 20
-8.268229166666666
 30
0.0
 10
-0.3231499565972222
 20
-8.268229166666666
 30
0.0
 10
-2.62378472222222
 20
-8.268229166666666
 30
0.0
 10
-2.62378472222222
 20
-8.268229166666666
 30
0.0
  0
SPLINE
  5
C1E
330
C1C
100
AcDbEntity
  8
LAYER_1
 62
     7
100
AcDbSpline
210
0.0
220
0.0
230
1.0
 70
    11
 71
     3
 72
    26
 73
    22
 74
     0
 42
0.0000000001
 43
0.0000000001
 40
0.0
 40
0.0
 40
0.0
 40
0.0
 40
1.0
 40
1.0
 40
1.0
 40
2.0
 40
2.0
 40
2.0
 40
3.0
 40
3.0
 40
3.0
 40
4.0
 40
4.0
 40
4.0
 40
5.0
 40
5.0
 40
5.0
 40
6.0
 40
6.0
 40
6.0
 40
7.0
 40
7.0
 40
7.0
 40
7.0
 10
-3.946701388888888
 20
-10.7376736111111
 30
0.0
 10
-3.946701388888888
 20
-10.7376736111111
 30
0.0
 10
-0.0943956163194444
 20
-10.7376736111111
 30
0.0
 10
-0.0943956163194444
 20
-10.7376736111111
 30
0.0
 10
1.546847873263886
 20
-10.7376736111111
 30
0.0
 10
2.705777994791666
 20
-9.11021050347222
 30
0.0
 10
3.381705729166666
 20
-5.854595269097222
 30
0.0
 10
3.757910156249999
 20
-4.01284722222222
 30
0.0
 10
3.946701388888888
 20
-1.951991102430555
 30
0.0
 10
3.946701388888888
 20
0.328662109375
 30
0.0
 10
3.946701388888888
 20
3.281797960069443
 30
0.0
 10
3.622862413194443
 20
5.703700086805553
 30
0.0
 10
2.976562499999998
 20
7.594368489583332
 30
0.0
 10
2.25171440972222
 20
9.689675564236106
 30
0.0
 10
1.233344184027777
 20
10.7376736111111
 30
0.0
 10
-0.0799262152777778
 20
10.7376736111111
 30
0.0
 10
-0.0799262152777778
 20
10.7376736111111
 30
0.0
 10
-3.946701388888888
 20
10.7376736111111
 30
0.0
 10
-3.946701388888888
 20
10.7376736111111
 30
0.0
 10
-3.946701388888888
 20
10.7376736111111
 30
0.0
 10
-3.946701388888888
 20
-10.7376736111111
 30
0.0
 10
-3.946701388888888
 20
-10.7376736111111
 30
0.0
  0
ENDBLK
  5
C20
330
C1C
100
AcDbEntity
  8
0
100
AcDbBlockEnd
  0
BLOCK
  5
C24
330
C21
100
AcDbEntity
  8
0
 62
     7
100
AcDbBlockBegin
  2
AI9-BLK4
 70
     0
 10
0.0
 20
0.0
 30
0.0
  3
AI9-BLK4
  1

  0
SPLINE
  5
C22
330
C21
100
AcDbEntity
  8
LAYER_1
 62
     7
100
AcDbSpline
210
0.0
220
0.0
230
1.0
 70
    11
 71
     3
 72
    26
 73
    22
 74
     0
 42
0.0000000001
 43
0.0000000001
 40
0.0
 40
0.0
 40
0.0
 40
0.0
 40
1.0
 40
1.0
 40
1.0
 40
2.0
 40
2.0
 40
2.0
 40
3.0
 40
3.0
 40
3.0
 40
4.0
 40
4.0
 40
4.0
 40
5.0
 40
5.0
 40
5.0
 40
6.0
 40
6.0
 40
6.0
 40
7.0
 40
7.0
 40
7.0
 40
7.0
 10
-2.645833333333333
 20
0.9039930555555551
 30
0.0
 10
-2.645833333333333
 20
0.9039930555555551
 30
0.0
 10
-2.645833333333333
 20
8.180034722222217
 30
0.0
 10
-2.645833333333333
 20
8.180034722222217
 30
0.0
 10
-2.645833333333333
 20
8.180034722222217
 30
0.0
 10
0.465087890625
 20
8.180034722222217
 30
0.0
 10
0.465087890625
 20
8.180034722222217
 30
0.0
 10
0.9026150173611108
 20
8.180034722222217
 30
0.0
 10
1.24988064236111
 20
8.034651692708331
 30
0.0
 10
1.506884765625
 20
7.745263671874997
 30
0.0
 10
2.001600477430554
 20
7.194048394097221
 30
0.0
 10
2.248958333333332
 20
6.160519748263887
 30
0.0
 10
2.248958333333332
 20
4.643299696180553
 30
0.0
 10
2.248958333333332
 20
3.232188585069443
 30
0.0
 10
2.072569444444444
 20
2.256537543402775
 30
0.0
 10
1.720480685763888
 20
1.715657552083333
 30
0.0
 10
1.368391927083333
 20
1.174088541666665
 30
0.0
 10
0.8929687499999998
 20
0.9039930555555551
 30
0.0
 10
0.2942111545138888
 20
0.9039930555555551
 30
0.0
 10
0.2942111545138888
 20
0.9039930555555551
 30
0.0
 10
-2.645833333333333
 20
0.9039930555555551
 30
0.0
 10
-2.645833333333333
 20
0.9039930555555551
 30
0.0
  0
SPLINE
  5
C23
330
C21
100
AcDbEntity
  8
LAYER_1
 62
     7
100
AcDbSpline
210
0.0
220
0.0
230
1.0
 70
    11
 71
     3
 72
    68
 73
    64
 74
     0
 42
0.0000000001
 43
0.0000000001
 40
0.0
 40
0.0
 40
0.0
 40
0.0
 40
1.0
 40
1.0
 40
1.0
 40
2.0
 40
2.0
 40
2.0
 40
3.0
 40
3.0
 40
3.0
 40
4.0
 40
4.0
 40
4.0
 40
5.0
 40
5.0
 40
5.0
 40
6.0
 40
6.0
 40
6.0
 40
7.0
 40
7.0
 40
7.0
 40
8.0
 40
8.0
 40
8.0
 40
9.0
 40
9.0
 40
9.0
 40
10.0
 40
10.0
 40
10.0
 40
11.0
 40
11.0
 40
11.0
 40
12.0
 40
12.0
 40
12.0
 40
13.0
 40
13.0
 40
13.0
 40
14.0
 40
14.0
 40
14.0
 40
15.0
 40
15.0
 40
15.0
 40
16.0
 40
16.0
 40
16.0
 40
17.0
 40
17.0
 40
17.0
 40
18.0
 40
18.0
 40
18.0
 40
19.0
 40
19.0
 40
19.0
 40
20.0
 40
20.0
 40
20.0
 40
21.0
 40
21.0
 40
21.0
 40
21.0
 10
-3.968749999999998
 20
-10.7376736111111
 30
0.0
 10
-3.968749999999998
 20
-10.7376736111111
 30
0.0
 10
-2.645833333333333
 20
-10.7376736111111
 30
0.0
 10
-2.645833333333333
 20
-10.7376736111111
 30
0.0
 10
-2.645833333333333
 20
-10.7376736111111
 30
0.0
 10
-2.645833333333333
 20
-1.521354166666665
 30
0.0
 10
-2.645833333333333
 20
-1.521354166666665
 30
0.0
 10
-2.645833333333333
 20
-1.521354166666665
 30
0.0
 10
0.2390896267361111
 20
-1.521354166666665
 30
0.0
 10
0.2390896267361111
 20
-1.521354166666665
 30
0.0
 10
0.7599880642361111
 20
-1.521354166666665
 30
0.0
 10
1.143771701388887
 20
-1.65295681423611
 30
0.0
 10
1.390440538194444
 20
-1.916162109374999
 30
0.0
 10
1.816254340277775
 20
-2.39434136284722
 30
0.0
 10
2.04363064236111
 20
-3.335541449652775
 30
0.0
 10
2.072569444444444
 20
-4.739762369791666
 30
0.0
 10
2.072569444444444
 20
-4.739762369791666
 30
0.0
 10
2.160763888888888
 20
-8.324039713541665
 30
0.0
 10
2.160763888888888
 20
-8.324039713541665
 30
0.0
 10
2.18005642361111
 20
-9.163264973958332
 30
0.0
 10
2.202794053819443
 20
-9.728949652777775
 30
0.0
 10
2.227598741319444
 20
-10.02109374999998
 30
0.0
 10
2.252403428819443
 20
-10.31392686631944
 30
0.0
 10
2.28892144097222
 20
-10.55301649305555
 30
0.0
 10
2.33853081597222
 20
-10.7376736111111
 30
0.0
 10
2.33853081597222
 20
-10.7376736111111
 30
0.0
 10
3.968749999999998
 20
-10.7376736111111
 30
0.0
 10
3.968749999999998
 20
-10.7376736111111
 30
0.0
 10
3.968749999999998
 20
-10.7376736111111
 30
0.0
 10
3.968749999999998
 20
-10.25260416666666
 30
0.0
 10
3.968749999999998
 20
-10.25260416666666
 30
0.0
 10
3.766867404513888
 20
-10.05830078125
 30
0.0
 10
3.625618489583333
 20
-9.621462673611112
 30
0.0
 10
3.545692274305555
 20
-8.942089843749997
 30
0.0
 10
3.49470486111111
 20
-8.543836805555555
 30
0.0
 10
3.459564887152775
 20
-7.937499999999999
 30
0.0
 10
3.439583333333333
 20
-7.121701388888887
 30
0.0
 10
3.439583333333333
 20
-7.121701388888887
 30
0.0
 10
3.395486111111108
 20
-4.232644314236108
 30
0.0
 10
3.395486111111108
 20
-4.232644314236108
 30
0.0
 10
3.375504557291666
 20
-2.981385633680555
 30
0.0
 10
3.26870659722222
 20
-2.077392578125
 30
0.0
 10
3.075781249999999
 20
-1.522043185763888
 30
0.0
 10
2.882166883680555
 20
-0.9666937934027776
 30
0.0
 10
2.592089843749999
 20
-0.5188313802083333
 30
0.0
 10
2.204861111111108
 20
-0.1770779079861111
 30
0.0
 10
2.63618706597222
 20
0.3197048611111111
 30
0.0
 10
2.971739366319443
 20
0.9770290798611107
 30
0.0
 10
3.211518012152775
 20
1.79558376736111
 30
0.0
 10
3.451296657986108
 20
2.613449435763888
 30
0.0
 10
3.571874999999999
 20
3.66558159722222
 30
0.0
 10
3.571874999999999
 20
4.951291232638888
 30
0.0
 10
3.571874999999999
 20
7.415912543402777
 30
0.0
 10
3.124701605902775
 20
9.106076388888887
 30
0.0
 10
2.231043836805555
 20
10.02178276909722
 30
0.0
 10
1.759754774305553
 20
10.498583984375
 30
0.0
 10
1.163753255208332
 20
10.7376736111111
 30
0.0
 10
0.443039279513889
 20
10.7376736111111
 30
0.0
 10
0.443039279513889
 20
10.7376736111111
 30
0.0
 10
-3.968749999999998
 20
10.7376736111111
 30
0.0
 10
-3.968749999999998
 20
10.7376736111111
 30
0.0
 10
-3.968749999999998
 20
10.7376736111111
 30
0.0
 10
-3.968749999999998
 20
-10.7376736111111
 30
0.0
 10
-3.968749999999998
 20
-10.7376736111111
 30
0.0
  0
ENDBLK
  5
C25
330
C21
100
AcDbEntity
  8
0
100
AcDbBlockEnd
  0
BLOCK
  5
C29
330
C26
100
AcDbEntity
  8
0
 62
     7
100
AcDbBlockBegin
  2
AI9-BLK3
 70
     0
 10
0.0
 20
0.0
 30
0.0
  3
AI9-BLK3
  1

  0
LWPOLYLINE
  5
C27
330
C26
100
AcDbEntity
  8
LAYER_1
 62
     7
100
AcDbPolyline
 90
        4
 70
     1
 43
0.0
 10
-0.6613722059461808
 20
10.7376736111111
 10
0.6613722059461808
 20
10.7376736111111
 10
0.6613722059461808
 20
-10.7376736111111
 10
-0.6613722059461808
 20
-10.7376736111111
  0
HATCH
  5
C28
330
C26
100
AcDbEntity
  8
LAYER_1
 62
     7
100
AcDbHatch
 10
0.0
 20
0.0
 30
0.0
210
0.0
220
0.0
230
1.0
  2
SOLID
 70
     1
 71
     0
 91
        1
 92
        3
 72
     0
 73
     1
 93
        4
 10
-0.6613722059461808
 20
10.7376736111111
 10
0.6613722059461808
 20
10.7376736111111
 10
0.6613722059461808
 20
-10.7376736111111
 10
-0.6613722059461808
 20
-10.7376736111111
 97
        0
 75
     2
 76
     1
 98
        1
 10
0.0
 20
0.0
  0
ENDBLK
  5
C2A
330
C26
100
AcDbEntity
  8
0
100
AcDbBlockEnd
  0
BLOCK
  5
C2E
330
C2B
100
AcDbEntity
  8
0
 62
     7
100
AcDbBlockBegin
  2
AI9-BLK2
 70
     0
 10
0.0
 20
0.0
 30
0.0
  3
AI9-BLK2
  1

  0
LWPOLYLINE
  5
C2C
330
C2B
100
AcDbEntity
  8
LAYER_1
 62
     7
100
AcDbPolyline
 90
        7
 70
     1
 43
0.0
 10
-2.785704210069443
 20
10.7376736111111
 10
0.0
 20
-7.550960286458332
 10
2.771234809027776
 20
10.7376736111111
 10
4.233333333333331
 20
10.7376736111111
 10
0.6910861545138888
 20
-10.7376736111111
 10
-0.7055555555555558
 20
-10.7376736111111
 10
-4.233333333333331
 20
10.7376736111111
  0
HATCH
  5
C2D
330
C2B
100
AcDbEntity
  8
LAYER_1
 62
     7
100
AcDbHatch
 10
0.0
 20
0.0
 30
0.0
210
0.0
220
0.0
230
1.0
  2
SOLID
 70
     1
 71
     0
 91
        1
 92
        3
 72
     0
 73
     1
 93
        7
 10
-2.785704210069443
 20
10.7376736111111
 10
0.0
 20
-7.550960286458332
 10
2.771234809027776
 20
10.7376736111111
 10
4.233333333333331
 20
10.7376736111111
 10
0.6910861545138888
 20
-10.7376736111111
 10
-0.7055555555555558
 20
-10.7376736111111
 10
-4.233333333333331
 20
10.7376736111111
 97
        0
 75
     2
 76
     1
 98
        1
 10
0.0
 20
0.0
  0
ENDBLK
  5
C2F
330
C2B
100
AcDbEntity
  8
0
100
AcDbBlockEnd
  0
BLOCK
  5
C33
330
C30
100
AcDbEntity
  8
0
 62
     7
100
AcDbBlockBegin
  2
AI9-BLK1
 70
     0
 10
0.0
 20
0.0
 30
0.0
  3
AI9-BLK1
  1

  0
LWPOLYLINE
  5
C31
330
C30
100
AcDbEntity
  8
LAYER_1
 62
     7
100
AcDbPolyline
 90
       12
 70
     1
 43
0.0
 10
-3.571874999999999
 20
10.7376736111111
 10
3.483680555555555
 20
10.7376736111111
 10
3.483680555555555
 20
8.091840277777777
 10
-2.248958333333332
 20
8.091840277777777
 10
-2.248958333333332
 20
1.565451388888888
 10
3.042708333333333
 20
1.565451388888888
 10
3.042708333333333
 20
-0.9039930555555551
 10
-2.248958333333332
 20
-0.9039930555555551
 10
-2.248958333333332
 20
-8.180034722222217
 10
3.571874999999999
 20
-8.180034722222217
 10
3.571874999999999
 20
-10.7376736111111
 10
-3.571874999999999
 20
-10.7376736111111
  0
HATCH
  5
C32
330
C30
100
AcDbEntity
  8
LAYER_1
 62
     7
100
AcDbHatch
 10
0.0
 20
0.0
 30
0.0
210
0.0
220
0.0
230
1.0
  2
SOLID
 70
     1
 71
     0
 91
        1
 92
        3
 72
     0
 73
     1
 93
       12
 10
-3.571874999999999
 20
10.7376736111111
 10
3.483680555555555
 20
10.7376736111111
 10
3.483680555555555
 20
8.091840277777777
 10
-2.248958333333332
 20
8.091840277777777
 10
-2.248958333333332
 20
1.565451388888888
 10
3.042708333333333
 20
1.565451388888888
 10
3.042708333333333
 20
-0.9039930555555551
 10
-2.248958333333332
 20
-0.9039930555555551
 10
-2.248958333333332
 20
-8.180034722222217
 10
3.571874999999999
 20
-8.180034722222217
 10
3.571874999999999
 20
-10.7376736111111
 10
-3.571874999999999
 20
-10.7376736111111
 97
        0
 75
     2
 76
     1
 98
        1
 10
0.0
 20
0.0
  0
ENDBLK
  5
C34
330
C30
100
AcDbEntity
  8
0
100
AcDbBlockEnd
  0
BLOCK
  5
C58
330
C35
100
AcDbEntity
  8
0
100
AcDbBlockBegin
  2
HD_LLC_logo_OT5
 70
     0
 10
0.0
 20
0.0
 30
0.0
  3
HD_LLC_logo_OT5
  1

  0
SPLINE
  5
C36
102
{ACAD_REACTORS
330
C56
102
}
330
C35
100
AcDbEntity
  8
LAYER_1
 62
     7
100
AcDbSpline
210
0.0
220
0.0
230
1.0
 70
    11
 71
     3
 72
   113
 73
   109
 74
     0
 42
0.0000000001
 43
0.0000000001
 40
0.0
 40
0.0
 40
0.0
 40
0.0
 40
1.0
 40
1.0
 40
1.0
 40
2.0
 40
2.0
 40
2.0
 40
3.0
 40
3.0
 40
3.0
 40
4.0
 40
4.0
 40
4.0
 40
5.0
 40
5.0
 40
5.0
 40
6.0
 40
6.0
 40
6.0
 40
7.0
 40
7.0
 40
7.0
 40
8.0
 40
8.0
 40
8.0
 40
9.0
 40
9.0
 40
9.0
 40
10.0
 40
10.0
 40
10.0
 40
11.0
 40
11.0
 40
11.0
 40
12.0
 40
12.0
 40
12.0
 40
13.0
 40
13.0
 40
13.0
 40
14.0
 40
14.0
 40
14.0
 40
15.0
 40
15.0
 40
15.0
 40
16.0
 40
16.0
 40
16.0
 40
17.0
 40
17.0
 40
17.0
 40
18.0
 40
18.0
 40
18.0
 40
19.0
 40
19.0
 40
19.0
 40
20.0
 40
20.0
 40
20.0
 40
21.0
 40
21.0
 40
21.0
 40
22.0
 40
22.0
 40
22.0
 40
23.0
 40
23.0
 40
23.0
 40
24.0
 40
24.0
 40
24.0
 40
25.0
 40
25.0
 40
25.0
 40
26.0
 40
26.0
 40
26.0
 40
27.0
 40
27.0
 40
27.0
 40
28.0
 40
28.0
 40
28.0
 40
29.0
 40
29.0
 40
29.0
 40
30.0
 40
30.0
 40
30.0
 40
31.0
 40
31.0
 40
31.0
 40
32.0
 40
32.0
 40
32.0
 40
33.0
 40
33.0
 40
33.0
 40
34.0
 40
34.0
 40
34.0
 40
35.0
 40
35.0
 40
35.0
 40
36.0
 40
36.0
 40
36.0
 40
36.0
 10
193.3039632161458
 20
186.1548733181423
 30
0.0
 10
193.3039632161458
 20
186.1860514322916
 30
0.0
 10
193.3039632161458
 20
219.6932223849826
 30
0.0
 10
193.3039632161458
 20
219.6932223849826
 30
0.0
 10
193.3039632161458
 20
219.6932223849826
 30
0.0
 10
193.297417534722
 20
219.7488606770833
 30
0.0
 10
193.297417534722
 20
219.7488606770833
 30
0.0
 10
191.5293945312499
 20
235.455740017361
 30
0.0
 10
175.1458984374999
 20
235.2467949761284
 30
0.0
 10
174.9808783637151
 20
235.2428331163193
 30
0.0
 10
174.9808783637151
 20
235.2428331163193
 30
0.0
 10
125.8827555338541
 20
235.2430053710937
 30
0.0
 10
125.8827555338541
 20
235.2430053710937
 30
0.0
 10
125.8827555338541
 20
235.2430053710937
 30
0.0
 10
125.8827555338541
 20
255.5278998480901
 30
0.0
 10
125.8827555338541
 20
255.5278998480901
 30
0.0
 10
125.8827555338541
 20
255.5278998480901
 30
0.0
 10
84.5626247829861
 20
255.5278998480901
 30
0.0
 10
84.5626247829861
 20
255.5278998480901
 30
0.0
 10
84.5626247829861
 20
255.5278998480901
 30
0.0
 10
84.55711263020829
 20
233.7919311523436
 30
0.0
 10
84.55711263020829
 20
233.7919311523436
 30
0.0
 10
84.55711263020829
 20
233.7919311523436
 30
0.0
 10
64.42052951388888
 20
233.7919311523436
 30
0.0
 10
64.42052951388888
 20
233.7919311523436
 30
0.0
 10
64.42052951388888
 20
233.7919311523436
 30
0.0
 10
64.41501736111111
 20
255.5278998480901
 30
0.0
 10
64.41501736111111
 20
255.5278998480901
 30
0.0
 10
64.41501736111111
 20
255.5278998480901
 30
0.0
 10
23.91757541232637
 20
255.5278998480901
 30
0.0
 10
23.91757541232637
 20
255.5278998480901
 30
0.0
 10
23.91757541232637
 20
255.5278998480901
 30
0.0
 10
23.91757541232637
 20
233.2393378363715
 30
0.0
 10
23.91757541232637
 20
233.2393378363715
 30
0.0
 10
23.91757541232637
 20
233.2393378363715
 30
0.0
 10
43.65624999999999
 20
233.2393378363715
 30
0.0
 10
43.65624999999999
 20
233.2393378363715
 30
0.0
 10
43.65624999999999
 20
233.2393378363715
 30
0.0
 10
43.65624999999999
 20
211.5188720703125
 30
0.0
 10
43.65624999999999
 20
211.5188720703125
 30
0.0
 10
43.65624999999999
 20
211.5188720703125
 30
0.0
 10
23.91757541232637
 20
211.5188720703125
 30
0.0
 10
23.91757541232637
 20
211.5188720703125
 30
0.0
 10
23.91757541232637
 20
211.5188720703125
 30
0.0
 10
23.91757541232637
 20
189.2303100585936
 30
0.0
 10
23.91757541232637
 20
189.2303100585936
 30
0.0
 10
23.91757541232637
 20
189.2303100585936
 30
0.0
 10
64.41501736111111
 20
189.2303100585936
 30
0.0
 10
64.41501736111111
 20
189.2303100585936
 30
0.0
 10
64.41501736111111
 20
189.2303100585936
 30
0.0
 10
64.42052951388888
 20
211.069976128472
 30
0.0
 10
64.42052951388888
 20
211.069976128472
 30
0.0
 10
64.42052951388888
 20
211.069976128472
 30
0.0
 10
84.55711263020829
 20
211.069976128472
 30
0.0
 10
84.55711263020829
 20
211.069976128472
 30
0.0
 10
84.55711263020829
 20
211.069976128472
 30
0.0
 10
84.5626247829861
 20
189.2303100585936
 30
0.0
 10
84.5626247829861
 20
189.2303100585936
 30
0.0
 10
84.5626247829861
 20
189.2303100585936
 30
0.0
 10
125.8827555338541
 20
189.2303100585936
 30
0.0
 10
125.8827555338541
 20
189.2303100585936
 30
0.0
 10
125.8827555338541
 20
189.2303100585936
 30
0.0
 10
125.8827555338541
 20
211.5188720703125
 30
0.0
 10
125.8827555338541
 20
211.5188720703125
 30
0.0
 10
125.8827555338541
 20
211.5188720703125
 30
0.0
 10
105.3213921440971
 20
211.5188720703125
 30
0.0
 10
105.3213921440971
 20
211.5188720703125
 30
0.0
 10
105.3213921440971
 20
211.5188720703125
 30
0.0
 10
105.3213921440971
 20
233.2393378363715
 30
0.0
 10
105.3213921440971
 20
233.2393378363715
 30
0.0
 10
105.3213921440971
 20
233.2393378363715
 30
0.0
 10
175.0046495225693
 20
233.243127441406
 30
0.0
 10
175.0046495225693
 20
233.243127441406
 30
0.0
 10
175.6268337673611
 20
233.2560465494791
 30
0.0
 10
189.7165852864583
 20
233.3962619357638
 30
0.0
 10
191.3037407769094
 20
219.5690266927083
 30
0.0
 10
191.3037407769094
 20
219.4332899305555
 30
0.0
 10
191.3037407769094
 20
186.1142211914062
 30
0.0
 10
191.3037407769094
 20
186.1142211914062
 30
0.0
 10
191.3037407769094
 20
186.1142211914062
 30
0.0
 10
191.3051188151039
 20
186.0880384657115
 30
0.0
 10
191.3051188151039
 20
186.0880384657115
 30
0.0
 10
191.3054633246526
 20
186.0787367078991
 30
0.0
 10
191.3109754774304
 20
185.9566080729166
 30
0.0
 10
191.3109754774304
 20
185.7399115668401
 30
0.0
 10
191.3109754774304
 20
184.2090833875865
 30
0.0
 10
191.0488037109374
 20
177.9643310546874
 30
0.0
 10
186.9866916232638
 20
173.5652886284722
 30
0.0
 10
184.2540418836804
 20
170.6064683702255
 30
0.0
 10
180.3224989149304
 20
169.0308539496526
 30
0.0
 10
175.300927734375
 20
168.8825425889756
 30
0.0
 10
175.300927734375
 20
168.8825425889756
 30
0.0
 10
107.0094889322916
 20
168.8828870985243
 30
0.0
 10
107.0094889322916
 20
168.8828870985243
 30
0.0
 10
107.0094889322916
 20
168.8828870985243
 30
0.0
 10
107.0094889322916
 20
166.8830091688368
 30
0.0
 10
107.0094889322916
 20
166.8830091688368
 30
0.0
 10
107.0094889322916
 20
166.8830091688368
 30
0.0
 10
175.3305555555555
 20
166.8830091688368
 30
0.0
 10
175.3305555555555
 20
166.8830091688368
 30
0.0
 10
180.9467502170138
 20
167.0485460069444
 30
0.0
 10
185.3571614583333
 20
168.8448187934026
 30
0.0
 10
188.4687717013888
 20
172.2223904079861
 30
0.0
 10
192.9649658203124
 20
177.1034016927083
 30
0.0
 10
193.3136094835069
 20
183.7202243381076
 30
0.0
 10
193.3136094835069
 20
185.6520616319443
 30
0.0
 10
193.3136094835069
 20
185.9247409396701
 30
0.0
 10
193.3070638020833
 20
186.0868326822916
 30
0.0
 10
193.3039632161458
 20
186.1548733181423
 30
0.0
  0
INSERT
  5
C37
102
{ACAD_REACTORS
330
C57
102
}
330
C35
100
AcDbEntity
  8
LAYER_1
 62
     7
100
AcDbBlockReference
  2
AI9-BLK14
 10
159.5625257703993
 20
200.5118781195744
 30
0.0
  0
INSERT
  5
C38
330
C35
100
AcDbEntity
  8
LAYER_1
 62
     7
100
AcDbBlockReference
  2
AI9-BLK13
 10
27.69615614149305
 20
179.2145562065971
 30
0.0
 42
0.9200000000000001
  0
INSERT
  5
C39
102
{ACAD_REACTORS
330
C44
102
}
330
C35
100
AcDbEntity
  8
LAYER_1
 62
     7
100
AcDbBlockReference
  2
AI9-BLK11
 10
44.76591525607638
 20
179.2145562065971
 30
0.0
 42
0.9200000000000001
  0
INSERT
  5
C3A
102
{ACAD_REACTORS
330
C52
102
}
330
C35
100
AcDbEntity
  8
LAYER_1
 62
     7
100
AcDbBlockReference
  2
AI9-BLK10
 10
54.04665798611111
 20
179.2145562065971
 30
0.0
 42
0.9200000000000001
  0
INSERT
  5
C3B
102
{ACAD_REACTORS
330
C51
102
}
330
C35
100
AcDbEntity
  8
LAYER_1
 62
     7
100
AcDbBlockReference
  2
AI9-BLK9
 10
62.79013807508679
 20
179.2145562065971
 30
0.0
 42
0.9
  0
INSERT
  5
C3C
330
C35
100
AcDbEntity
  8
LAYER_1
 62
     7
100
AcDbBlockReference
  2
AI9-BLK8
 10
71.03046196831595
 20
179.2145562065971
 30
0.0
 42
0.9200000000000001
  0
INSERT
  5
C3D
330
C35
100
AcDbEntity
  8
LAYER_1
 62
     7
100
AcDbBlockReference
  2
AI9-BLK7
 10
76.93793945312498
 20
179.2145562065971
 30
0.0
 42
0.9200000000000001
  0
INSERT
  5
C3E
102
{ACAD_REACTORS
330
C45
102
}
330
C35
100
AcDbEntity
  8
LAYER_1
 62
     7
100
AcDbBlockReference
  2
AI9-BLK6
 10
82.55602891710069
 20
179.2145562065971
 30
0.0
 42
0.9
  0
INSERT
  5
C3F
102
{ACAD_REACTORS
330
C53
102
}
330
C35
100
AcDbEntity
  8
LAYER_1
 62
     7
100
AcDbBlockReference
  2
AI9-BLK5
 10
94.32430284288193
 20
179.2145562065971
 30
0.0
 42
0.9200000000000001
  0
INSERT
  5
C40
102
{ACAD_REACTORS
330
C54
102
}
330
C35
100
AcDbEntity
  8
LAYER_1
 62
     7
100
AcDbBlockReference
  2
AI9-BLK4
 10
103.2081705729166
 20
179.2145562065971
 30
0.0
 42
0.9200000000000001
  0
INSERT
  5
C41
330
C35
100
AcDbEntity
  8
LAYER_1
 62
     7
100
AcDbBlockReference
  2
AI9-BLK3
 10
108.850978597005
 20
179.2145562065971
 30
0.0
 42
0.9200000000000001
  0
INSERT
  5
C42
330
C35
100
AcDbEntity
  8
LAYER_1
 62
     7
100
AcDbBlockReference
  2
AI9-BLK2
 10
114.2045708550346
 20
179.2145562065971
 30
0.0
 42
0.9200000000000001
  0
INSERT
  5
C43
330
C35
100
AcDbEntity
  8
LAYER_1
 62
     7
100
AcDbBlockReference
  2
AI9-BLK1
 10
122.4125108506944
 20
179.2145562065971
 30
0.0
 42
0.9200000000000001
  0
HATCH
  5
C44
330
C35
100
AcDbEntity
  8
0
  6
Continuous
100
AcDbHatch
 10
0.0
 20
0.0
 30
0.0
210
0.0
220
0.0
230
1.0
  2
SOLID
 70
     1
 71
     1
 91
        2
 92
       16
 93
        1
 72
     4
 94
        3
 73
     0
 74
     0
 95
       26
 96
       22
 40
0.0
 40
0.0
 40
0.0
 40
0.0
 40
1.0
 40
1.0
 40
1.0
 40
2.0
 40
2.0
 40
2.0
 40
3.0
 40
3.0
 40
3.0
 40
4.0
 40
4.0
 40
4.0
 40
5.0
 40
5.0
 40
5.0
 40
6.0
 40
6.0
 40
6.0
 40
7.0
 40
7.0
 40
7.0
 40
7.0
 10
42.12008192274304
 20
180.0462298177081
 10
42.12008192274304
 20
180.0462298177081
 10
42.12008192274304
 20
186.7401881510414
 10
42.12008192274304
 20
186.7401881510414
 10
42.12008192274304
 20
186.7401881510414
 10
45.23100314670138
 20
186.7401881510414
 10
45.23100314670138
 20
186.7401881510414
 10
45.66853027343749
 20
186.7401881510414
 10
46.01579589843749
 20
186.6064357638888
 10
46.27280002170138
 20
186.340198784722
 10
46.76751573350694
 20
185.8330807291665
 10
47.01487358940972
 20
184.8822343749999
 10
47.01487358940972
 20
183.4863919270832
 10
47.01487358940972
 20
182.188169704861
 10
46.83848470052082
 20
181.2905707465276
 10
46.48639594184028
 20
180.7929611545138
 10
46.13430718315971
 20
180.2947176649304
 10
45.65888400607638
 20
180.0462298177081
 10
45.06012641059028
 20
180.0462298177081
 10
45.06012641059028
 20
180.0462298177081
 10
42.12008192274304
 20
180.0462298177081
 10
42.12008192274304
 20
180.0462298177081
 97
        1
330
C39
 92
        1
 93
        1
 72
     4
 94
        3
 73
     0
 74
     0
 95
       68
 96
       64
 40
0.0
 40
0.0
 40
0.0
 40
0.0
 40
1.0
 40
1.0
 40
1.0
 40
2.0
 40
2.0
 40
2.0
 40
3.0
 40
3.0
 40
3.0
 40
4.0
 40
4.0
 40
4.0
 40
5.0
 40
5.0
 40
5.0
 40
6.0
 40
6.0
 40
6.0
 40
7.0
 40
7.0
 40
7.0
 40
8.0
 40
8.0
 40
8.0
 40
9.0
 40
9.0
 40
9.0
 40
10.0
 40
10.0
 40
10.0
 40
11.0
 40
11.0
 40
11.0
 40
12.0
 40
12.0
 40
12.0
 40
13.0
 40
13.0
 40
13.0
 40
14.0
 40
14.0
 40
14.0
 40
15.0
 40
15.0
 40
15.0
 40
16.0
 40
16.0
 40
16.0
 40
17.0
 40
17.0
 40
17.0
 40
18.0
 40
18.0
 40
18.0
 40
19.0
 40
19.0
 40
19.0
 40
20.0
 40
20.0
 40
20.0
 40
21.0
 40
21.0
 40
21.0
 40
21.0
 10
40.79716525607638
 20
169.3358964843748
 10
40.79716525607638
 20
169.3358964843748
 10
42.12008192274304
 20
169.3358964843748
 10
42.12008192274304
 20
169.3358964843748
 10
42.12008192274304
 20
169.3358964843748
 10
42.12008192274304
 20
177.8149103732638
 10
42.12008192274304
 20
177.8149103732638
 10
42.12008192274304
 20
177.8149103732638
 10
45.00500488281249
 20
177.8149103732638
 10
45.00500488281249
 20
177.8149103732638
 10
45.52590332031249
 20
177.8149103732638
 10
45.90968695746528
 20
177.6938359374999
 10
46.15635579427083
 20
177.451687065972
 10
46.58216959635416
 20
177.0117621527776
 10
46.80954589843749
 20
176.1458580729166
 10
46.83848470052082
 20
174.8539748263888
 10
46.83848470052082
 20
174.8539748263888
 10
46.92667914496527
 20
171.5564396701388
 10
46.92667914496527
 20
171.5564396701388
 10
46.94597167968749
 20
170.7843524305554
 10
46.96870930989581
 20
170.2639225260416
 10
46.99351399739582
 20
169.9951499565971
 10
47.01831868489581
 20
169.7257434895831
 10
47.0548366970486
 20
169.5057810329859
 10
47.10444607204859
 20
169.3358964843748
 10
47.10444607204859
 20
169.3358964843748
 10
48.73466525607638
 20
169.3358964843748
 10
48.73466525607638
 20
169.3358964843748
 10
48.73466525607638
 20
169.3358964843748
 10
48.73466525607638
 20
169.7821603732638
 10
48.73466525607638
 20
169.7821603732638
 10
48.53278266059028
 20
169.9609194878471
 10
48.39153374565971
 20
170.3628105468748
 10
48.31160753038194
 20
170.9878335503471
 10
48.26062011718749
 20
171.3542263454859
 10
48.22548014322916
 20
171.9120562065971
 10
48.20549858940971
 20
172.6625909288193
 10
48.20549858940971
 20
172.6625909288193
 10
48.16140136718749
 20
175.3205234374999
 10
48.16140136718749
 20
175.3205234374999
 10
48.14141981336803
 20
176.4716814236109
 10
48.03462185329859
 20
177.303355034722
 10
47.84169650607638
 20
177.8142764756942
 10
47.64808213975693
 20
178.3251979166666
 10
47.35800509982638
 20
178.7372313368055
 10
46.97077636718749
 20
179.0516445312499
 10
47.4021023220486
 20
179.5086846788193
 10
47.73765462239582
 20
180.1134229600693
 10
47.97743326822916
 20
180.8664932725692
 10
48.2172119140625
 20
181.6189296874999
 10
48.33779025607638
 20
182.5868912760416
 10
48.33779025607638
 20
183.7697441406249
 10
48.33779025607638
 20
186.0371957465276
 10
47.89061686197916
 20
187.5921464843749
 10
46.99695909288194
 20
188.4345963541666
 10
46.52567003038194
 20
188.8732534722221
 10
45.92966851128472
 20
189.0932159288193
 10
45.20895453559027
 20
189.0932159288193
 10
45.20895453559027
 20
189.0932159288193
 10
40.79716525607638
 20
189.0932159288193
 10
40.79716525607638
 20
189.0932159288193
 10
40.79716525607638
 20
189.0932159288193
 10
40.79716525607638
 20
169.3358964843748
 10
40.79716525607638
 20
169.3358964843748
 97
        0
 75
     0
 76
     1
 98
        0
  0
HATCH
  5
C45
330
C35
100
AcDbEntity
  8
0
  6
Continuous
100
AcDbHatch
 10
0.0
 20
0.0
 30
0.0
210
0.0
220
0.0
230
1.0
  2
SOLID
 70
     1
 71
     1
 91
        1
 92
        1
 93
        1
 72
     4
 94
        3
 73
     0
 74
     0
 95
       59
 96
       55
 40
0.0
 40
0.0
 40
0.0
 40
0.0
 40
1.0
 40
1.0
 40
1.0
 40
2.0
 40
2.0
 40
2.0
 40
3.0
 40
3.0
 40
3.0
 40
4.0
 40
4.0
 40
4.0
 40
5.0
 40
5.0
 40
5.0
 40
6.0
 40
6.0
 40
6.0
 40
7.0
 40
7.0
 40
7.0
 40
8.0
 40
8.0
 40
8.0
 40
9.0
 40
9.0
 40
9.0
 40
10.0
 40
10.0
 40
10.0
 40
11.0
 40
11.0
 40
11.0
 40
12.0
 40
12.0
 40
12.0
 40
13.0
 40
13.0
 40
13.0
 40
14.0
 40
14.0
 40
14.0
 40
15.0
 40
15.0
 40
15.0
 40
16.0
 40
16.0
 40
16.0
 40
17.0
 40
17.0
 40
17.0
 40
18.0
 40
18.0
 40
18.0
 40
18.0
 10
85.61871880425345
 20
187.4658355034721
 10
86.29120144314233
 20
186.1797124565971
 10
86.66671685112847
 20
184.7193364800346
 10
86.7452650282118
 20
183.084087456597
 10
86.7452650282118
 20
183.084087456597
 10
85.42234836154511
 20
183.084087456597
 10
85.42234836154511
 20
183.084087456597
 10
85.27696533203123
 20
184.315640190972
 10
84.99171142578125
 20
185.2917046440971
 10
84.56589762369791
 20
186.012280815972
 10
84.14008382161458
 20
186.7322368706595
 10
83.53994818793401
 20
187.092524956597
 10
82.76617974175344
 20
187.092524956597
 10
81.81740044487847
 20
187.092524956597
 10
81.05258924696178
 20
186.4240386284721
 10
80.47243516710068
 20
185.0883062065971
 10
79.89159206814234
 20
183.752573784722
 10
79.6015150282118
 20
181.7049468315971
 10
79.6015150282118
 20
178.9454253472221
 10
79.6015150282118
 20
176.684478081597
 10
79.86265326605901
 20
174.8514116753471
 10
80.38561876085069
 20
173.4456060112846
 10
80.90789523654512
 20
172.0391802300345
 10
81.69199896918403
 20
171.3365874565971
 10
82.73724093967013
 20
171.3365874565971
 10
83.69497748480901
 20
171.3365874565971
 10
84.42120361328125
 20
172.0794878472221
 10
84.91523030598958
 20
173.566528862847
 10
85.18601481119791
 20
174.349116753472
 10
85.38445231119791
 20
175.3785112847221
 10
85.51054280598959
 20
176.6547124565971
 10
85.51054280598959
 20
176.6547124565971
 10
86.83345947265625
 20
176.6547124565971
 10
86.83345947265625
 20
176.6547124565971
 10
86.72597249348957
 20
174.6157671440971
 10
86.35114610460069
 20
172.9061040581596
 10
85.70760226779514
 20
171.526343315972
 10
84.93727891710069
 20
169.8650493706596
 10
83.90375027126735
 20
169.0347124565971
 10
82.60701633029514
 20
169.0347124565971
 10
81.48598225911458
 20
169.0347124565971
 10
80.54547119140625
 20
169.7143608940971
 10
79.78479410807292
 20
171.0742778862845
 10
78.78020426432292
 20
172.8726177300345
 10
78.27859836154512
 20
175.6495024956596
 10
78.27859836154512
 20
179.4049321831595
 10
78.27859836154512
 20
182.2562310112846
 10
78.65342475043402
 20
184.594692925347
 10
79.40445556640622
 20
186.4196978081596
 10
80.22301025390625
 20
188.4028325737846
 10
81.34955647786458
 20
189.3943999565971
 10
82.78271620008679
 20
189.3943999565971
 10
84.00090196397568
 20
189.3943999565971
 10
84.94623616536458
 20
188.7513384331595
 10
85.61871880425345
 20
187.4658355034721
 97
        1
330
C3E
 75
     0
 76
     1
 98
        1
 10
0.0
 20
0.0
  0
LINE
  5
C46
102
{ACAD_REACTORS
330
C55
102
}
330
C35
100
AcDbEntity
  8
LAYER_1
 62
     7
100
AcDbLine
 10
34.65766059027778
 20
177.4497853732638
 30
0.0
 11
36.19830729166666
 21
186.1658769531249
 31
0.0
  0
LINE
  5
C47
102
{ACAD_REACTORS
330
C55
102
}
330
C35
100
AcDbEntity
  8
LAYER_1
 62
     7
100
AcDbLine
 10
36.19830729166666
 20
186.1658769531249
 30
0.0
 11
37.67556423611111
 21
177.4497853732638
 31
0.0
  0
LINE
  5
C48
102
{ACAD_REACTORS
330
C55
102
}
330
C35
100
AcDbEntity
  8
LAYER_1
 62
     7
100
AcDbLine
 10
37.67556423611111
 20
177.4497853732638
 30
0.0
 11
34.65766059027778
 21
177.4497853732638
 31
0.0
  0
LINE
  5
C49
102
{ACAD_REACTORS
330
C55
102
}
330
C35
100
AcDbEntity
  8
LAYER_1
 62
     7
100
AcDbLine
 10
31.83957248263888
 20
169.3358964843748
 30
0.0
 11
33.22450086805555
 21
169.3358964843748
 31
0.0
  0
LINE
  5
C4A
102
{ACAD_REACTORS
330
C55
102
}
330
C35
100
AcDbEntity
  8
LAYER_1
 62
     7
100
AcDbLine
 10
33.22450086805555
 20
169.3358964843748
 30
0.0
 11
34.27043185763887
 21
175.2590353732638
 31
0.0
  0
LINE
  5
C4B
102
{ACAD_REACTORS
330
C55
102
}
330
C35
100
AcDbEntity
  8
LAYER_1
 62
     7
100
AcDbLine
 10
34.27043185763887
 20
175.2590353732638
 30
0.0
 11
38.04694552951389
 21
175.2590353732638
 31
0.0
  0
LINE
  5
C4C
102
{ACAD_REACTORS
330
C55
102
}
330
C35
100
AcDbEntity
  8
LAYER_1
 62
     7
100
AcDbLine
 10
38.04694552951389
 20
175.2590353732638
 30
0.0
 11
39.05015733506942
 21
169.3358964843748
 31
0.0
  0
LINE
  5
C4D
102
{ACAD_REACTORS
330
C55
102
}
330
C35
100
AcDbEntity
  8
LAYER_1
 62
     7
100
AcDbLine
 10
39.05015733506942
 20
169.3358964843748
 30
0.0
 11
40.43508572048611
 21
169.3358964843748
 31
0.0
  0
LINE
  5
C4E
102
{ACAD_REACTORS
330
C55
102
}
330
C35
100
AcDbEntity
  8
LAYER_1
 62
     7
100
AcDbLine
 10
40.43508572048611
 20
169.3358964843748
 30
0.0
 11
36.952783203125
 21
189.0932159288193
 31
0.0
  0
LINE
  5
C4F
102
{ACAD_REACTORS
330
C55
102
}
330
C35
100
AcDbEntity
  8
LAYER_1
 62
     7
100
AcDbLine
 10
36.952783203125
 20
189.0932159288193
 30
0.0
 11
35.47828233506943
 21
189.0932159288193
 31
0.0
  0
LINE
  5
C50
102
{ACAD_REACTORS
330
C55
102
}
330
C35
100
AcDbEntity
  8
LAYER_1
 62
     7
100
AcDbLine
 10
35.47828233506943
 20
189.0932159288193
 30
0.0
 11
31.83957248263888
 21
169.3358964843748
 31
0.0
  0
HATCH
  5
C51
330
C35
100
AcDbEntity
  8
0
  6
Continuous
100
AcDbHatch
 10
0.0
 20
0.0
 30
0.0
210
0.0
220
0.0
230
1.0
  2
SOLID
 70
     1
 71
     1
 91
        2
 92
       16
 93
        1
 72
     4
 94
        3
 73
     0
 74
     0
 95
       29
 96
       25
 40
0.0
 40
0.0
 40
0.0
 40
0.0
 40
1.0
 40
1.0
 40
1.0
 40
2.0
 40
2.0
 40
2.0
 40
3.0
 40
3.0
 40
3.0
 40
4.0
 40
4.0
 40
4.0
 40
5.0
 40
5.0
 40
5.0
 40
6.0
 40
6.0
 40
6.0
 40
7.0
 40
7.0
 40
7.0
 40
8.0
 40
8.0
 40
8.0
 40
8.0
 10
62.85697292751734
 20
171.3365874565971
 10
61.88338894314235
 20
171.3365874565971
 10
61.18058946397567
 20
172.0714263237845
 10
60.74857449001735
 20
173.5411040581595
 10
60.31587049696178
 20
175.0107817925345
 10
60.10020751953124
 20
176.8165630425345
 10
60.10020751953124
 20
178.9578276909721
 10
60.10020751953124
 20
181.6342534722221
 10
60.35101047092013
 20
183.6589360894095
 10
60.85261637369789
 20
185.032495659722
 10
61.35422227647567
 20
186.4054351128471
 10
62.00741238064235
 20
187.092524956597
 10
62.81218668619789
 20
187.092524956597
 10
63.63694254557291
 20
187.092524956597
 10
64.2880655924479
 20
186.3992339409721
 10
64.76486680772568
 20
185.0126519097221
 10
65.24166802300347
 20
183.626069878472
 10
65.48006863064235
 20
181.7961040581595
 10
65.48006863064235
 20
179.5239946831596
 10
65.48006863064235
 20
177.3734282769096
 10
65.27336290147568
 20
175.471528862847
 10
64.86132948133678
 20
173.8176763237846
 10
64.4492960611979
 20
172.1632036675345
 10
63.78094753689235
 20
171.3365874565971
 10
62.85697292751734
 20
171.3365874565971
 97
        1
330
C3B
 92
        1
 93
        1
 72
     4
 94
        3
 73
     0
 74
     0
 95
       29
 96
       25
 40
0.0
 40
0.0
 40
0.0
 40
0.0
 40
1.0
 40
1.0
 40
1.0
 40
2.0
 40
2.0
 40
2.0
 40
3.0
 40
3.0
 40
3.0
 40
4.0
 40
4.0
 40
4.0
 40
5.0
 40
5.0
 40
5.0
 40
6.0
 40
6.0
 40
6.0
 40
7.0
 40
7.0
 40
7.0
 40
8.0
 40
8.0
 40
8.0
 40
8.0
 10
62.76119927300346
 20
189.4340874565971
 10
61.47273356119789
 20
189.4340874565971
 10
60.50121663411457
 20
188.239741753472
 10
59.84733751085069
 20
185.8516704644095
 10
59.33953043619791
 20
183.9900786675345
 10
59.08597140842013
 20
181.7514556206596
 10
59.08597140842013
 20
179.1351812065971
 10
59.08597140842013
 20
176.2379937065971
 10
59.38362765842011
 20
173.8412407769095
 10
59.97894015842013
 20
171.9449224175346
 10
60.64246554904514
 20
169.9779106987846
 10
61.56023898654513
 20
168.9950249565971
 10
62.73157145182291
 20
168.9950249565971
 10
63.99040934244791
 20
168.9950249565971
 10
64.95641411675348
 20
170.118677300347
 10
65.63027479383679
 20
172.3659819878471
 10
66.20629475911457
 20
174.279663628472
 10
66.49430474175346
 20
176.6813774956595
 10
66.49430474175346
 20
179.5698833550345
 10
66.49430474175346
 20
182.2388677300345
 10
66.24005669487846
 20
184.4291216362845
 10
65.73293863932291
 20
186.141265190972
 10
65.08870578342011
 20
188.336480034722
 10
64.09789632161457
 20
189.4340874565971
 10
62.76119927300346
 20
189.4340874565971
 97
        0
 75
     0
 76
     1
 98
        0
  0
HATCH
  5
C52
330
C35
100
AcDbEntity
  8
0
  6
Continuous
100
AcDbHatch
 10
0.0
 20
0.0
 30
0.0
210
0.0
220
0.0
230
1.0
  2
SOLID
 70
     1
 71
     1
 91
        1
 92
        1
 93
        1
 72
     4
 94
        3
 73
     0
 74
     0
 95
       59
 96
       55
 40
0.0
 40
0.0
 40
0.0
 40
0.0
 40
1.0
 40
1.0
 40
1.0
 40
2.0
 40
2.0
 40
2.0
 40
3.0
 40
3.0
 40
3.0
 40
4.0
 40
4.0
 40
4.0
 40
5.0
 40
5.0
 40
5.0
 40
6.0
 40
6.0
 40
6.0
 40
7.0
 40
7.0
 40
7.0
 40
8.0
 40
8.0
 40
8.0
 40
9.0
 40
9.0
 40
9.0
 40
10.0
 40
10.0
 40
10.0
 40
11.0
 40
11.0
 40
11.0
 40
12.0
 40
12.0
 40
12.0
 40
13.0
 40
13.0
 40
13.0
 40
14.0
 40
14.0
 40
14.0
 40
15.0
 40
15.0
 40
15.0
 40
16.0
 40
16.0
 40
16.0
 40
17.0
 40
17.0
 40
17.0
 40
18.0
 40
18.0
 40
18.0
 40
18.0
 10
49.39440104166666
 20
189.0932159288193
 10
49.39440104166666
 20
189.0932159288193
 10
51.24786241319444
 20
189.0932159288193
 10
51.24786241319444
 20
189.0932159288193
 10
51.24786241319444
 20
189.0932159288193
 10
54.04665798611111
 20
172.3887471788193
 10
54.04665798611111
 20
172.3887471788193
 10
54.04665798611111
 20
172.3887471788193
 10
56.83994140624999
 20
189.0932159288193
 10
56.83994140624999
 20
189.0932159288193
 10
56.83994140624999
 20
189.0932159288193
 10
58.69891493055554
 20
189.0932159288193
 10
58.69891493055554
 20
189.0932159288193
 10
58.69891493055554
 20
189.0932159288193
 10
58.69891493055554
 20
169.3358964843748
 10
58.69891493055554
 20
169.3358964843748
 10
58.69891493055554
 20
169.3358964843748
 10
57.46419270833333
 20
169.3358964843748
 10
57.46419270833333
 20
169.3358964843748
 10
57.46419270833333
 20
169.3358964843748
 10
57.46419270833333
 20
180.9964422743055
 10
57.46419270833333
 20
180.9964422743055
 10
57.46419270833333
 20
181.3996011284721
 10
57.47108289930555
 20
182.0677291666664
 10
57.48624131944444
 20
183.0001924913193
 10
57.50071072048609
 20
183.9326558159721
 10
57.50828993055554
 20
184.932312282986
 10
57.50828993055554
 20
185.9997957899304
 10
57.50828993055554
 20
185.9997957899304
 10
54.700537109375
 20
169.3358964843748
 10
54.700537109375
 20
169.3358964843748
 10
54.700537109375
 20
169.3358964843748
 10
53.38382161458333
 20
169.3358964843748
 10
53.38382161458333
 20
169.3358964843748
 10
53.38382161458333
 20
169.3358964843748
 10
50.58502604166665
 20
185.9997957899304
 10
50.58502604166665
 20
185.9997957899304
 10
50.58502604166665
 20
185.9997957899304
 10
50.58502604166665
 20
185.3944236111109
 10
50.58502604166665
 20
185.3944236111109
 10
50.58502604166665
 20
184.9101258680555
 10
50.59191623263888
 20
184.1729029947916
 10
50.60707465277777
 20
183.1821210937499
 10
50.62154405381943
 20
182.1913391927082
 10
50.62912326388889
 20
181.4629908854166
 10
50.62912326388889
 20
180.9964422743055
 10
50.62912326388889
 20
180.9964422743055
 10
50.62912326388889
 20
169.3358964843748
 10
50.62912326388889
 20
169.3358964843748
 10
50.62912326388889
 20
169.3358964843748
 10
49.39440104166666
 20
169.3358964843748
 10
49.39440104166666
 20
169.3358964843748
 10
49.39440104166666
 20
169.3358964843748
 10
49.39440104166666
 20
189.0932159288193
 10
49.39440104166666
 20
189.0932159288193
 97
        1
330
C3A
 75
     0
 76
     1
 98
        1
 10
0.0
 20
0.0
  0
HATCH
  5
C53
330
C35
100
AcDbEntity
  8
0
  6
Continuous
100
AcDbHatch
 10
0.0
 20
0.0
 30
0.0
210
0.0
220
0.0
230
1.0
  2
SOLID
 70
     1
 71
     1
 91
        2
 92
       16
 93
        1
 72
     4
 94
        3
 73
     0
 74
     0
 95
       32
 96
       28
 40
0.0
 40
0.0
 40
0.0
 40
0.0
 40
1.0
 40
1.0
 40
1.0
 40
2.0
 40
2.0
 40
2.0
 40
3.0
 40
3.0
 40
3.0
 40
4.0
 40
4.0
 40
4.0
 40
5.0
 40
5.0
 40
5.0
 40
6.0
 40
6.0
 40
6.0
 40
7.0
 40
7.0
 40
7.0
 40
8.0
 40
8.0
 40
8.0
 40
9.0
 40
9.0
 40
9.0
 40
9.0
 10
91.70051812065969
 20
171.6077853732638
 10
91.70051812065969
 20
171.6077853732638
 10
91.70051812065969
 20
186.7401881510414
 10
91.70051812065969
 20
186.7401881510414
 10
91.70051812065969
 20
186.7401881510414
 10
93.98668348524305
 20
186.7401881510414
 10
93.98668348524305
 20
186.7401881510414
 10
95.02159016927082
 20
186.7401881510414
 10
95.77331000434028
 20
186.0644533420138
 10
96.24322102864582
 20
184.714251519097
 10
96.71313205295138
 20
183.3640496961804
 10
96.94808756510417
 20
181.4680620659721
 10
96.94808756510417
 20
179.026288628472
 10
96.94808756510417
 20
178.3911232638888
 10
96.91432562934028
 20
177.7027105034721
 10
96.84749077690971
 20
176.9604164496526
 10
96.7324245876736
 20
175.7167094184026
 10
96.55052354600693
 20
174.6974021267359
 10
96.30109863281248
 20
173.9018606770831
 10
95.98414984809028
 20
172.9091770833332
 10
95.57693956163193
 20
172.2378795572915
 10
95.07877875434026
 20
171.8892358940971
 10
94.79076877170138
 20
171.7016022135416
 10
94.43178982204859
 20
171.6077853732638
 10
94.00115288628471
 20
171.6077853732638
 10
94.00115288628471
 20
171.6077853732638
 10
91.70051812065969
 20
171.6077853732638
 10
91.70051812065969
 20
171.6077853732638
 97
        1
330
C3F
 92
        1
 93
        1
 72
     4
 94
        3
 73
     0
 74
     0
 95
       26
 96
       22
 40
0.0
 40
0.0
 40
0.0
 40
0.0
 40
1.0
 40
1.0
 40
1.0
 40
2.0
 40
2.0
 40
2.0
 40
3.0
 40
3.0
 40
3.0
 40
4.0
 40
4.0
 40
4.0
 40
5.0
 40
5.0
 40
5.0
 40
6.0
 40
6.0
 40
6.0
 40
7.0
 40
7.0
 40
7.0
 40
7.0
 10
90.37760145399305
 20
169.3358964843748
 10
90.37760145399305
 20
169.3358964843748
 10
94.22990722656248
 20
169.3358964843748
 10
94.22990722656248
 20
169.3358964843748
 10
95.87115071614581
 20
169.3358964843748
 10
97.03008083767359
 20
170.8331625434027
 10
97.70600857204859
 20
173.8283285590276
 10
98.08221299913194
 20
175.5227367621526
 10
98.27100423177082
 20
177.4187243923609
 10
98.27100423177082
 20
179.5169253472221
 10
98.27100423177082
 20
182.233810329861
 10
97.94716525607638
 20
184.4619602864582
 10
97.30086534288195
 20
186.2013752170138
 10
96.57601725260416
 20
188.1290577256944
 10
95.5576470269097
 20
189.0932159288193
 10
94.24437662760416
 20
189.0932159288193
 10
94.24437662760416
 20
189.0932159288193
 10
90.37760145399305
 20
189.0932159288193
 10
90.37760145399305
 20
189.0932159288193
 10
90.37760145399305
 20
189.0932159288193
 10
90.37760145399305
 20
169.3358964843748
 10
90.37760145399305
 20
169.3358964843748
 97
        0
 75
     0
 76
     1
 98
        0
  0
HATCH
  5
C54
330
C35
100
AcDbEntity
  8
0
  6
Continuous
100
AcDbHatch
 10
0.0
 20
0.0
 30
0.0
210
0.0
220
0.0
230
1.0
  2
SOLID
 70
     1
 71
     1
 91
        2
 92
       16
 93
        1
 72
     4
 94
        3
 73
     0
 74
     0
 95
       26
 96
       22
 40
0.0
 40
0.0
 40
0.0
 40
0.0
 40
1.0
 40
1.0
 40
1.0
 40
2.0
 40
2.0
 40
2.0
 40
3.0
 40
3.0
 40
3.0
 40
4.0
 40
4.0
 40
4.0
 40
5.0
 40
5.0
 40
5.0
 40
6.0
 40
6.0
 40
6.0
 40
7.0
 40
7.0
 40
7.0
 40
7.0
 10
100.5623372395832
 20
180.0462298177081
 10
100.5623372395832
 20
180.0462298177081
 10
100.5623372395832
 20
186.7401881510414
 10
100.5623372395832
 20
186.7401881510414
 10
100.5623372395832
 20
186.7401881510414
 10
103.6732584635416
 20
186.7401881510414
 10
103.6732584635416
 20
186.7401881510414
 10
104.1107855902777
 20
186.7401881510414
 10
104.4580512152777
 20
186.6064357638888
 10
104.7150553385415
 20
186.340198784722
 10
105.2097710503471
 20
185.8330807291665
 10
105.4571289062498
 20
184.8822343749999
 10
105.4571289062498
 20
183.4863919270832
 10
105.4571289062498
 20
182.188169704861
 10
105.280740017361
 20
181.2905707465276
 10
104.9286512586804
 20
180.7929611545138
 10
104.5765624999999
 20
180.2947176649304
 10
104.1011393229166
 20
180.0462298177081
 10
103.5023817274304
 20
180.0462298177081
 10
103.5023817274304
 20
180.0462298177081
 10
100.5623372395832
 20
180.0462298177081
 10
100.5623372395832
 20
180.0462298177081
 97
        1
330
C40
 92
        1
 93
        1
 72
     4
 94
        3
 73
     0
 74
     0
 95
       68
 96
       64
 40
0.0
 40
0.0
 40
0.0
 40
0.0
 40
1.0
 40
1.0
 40
1.0
 40
2.0
 40
2.0
 40
2.0
 40
3.0
 40
3.0
 40
3.0
 40
4.0
 40
4.0
 40
4.0
 40
5.0
 40
5.0
 40
5.0
 40
6.0
 40
6.0
 40
6.0
 40
7.0
 40
7.0
 40
7.0
 40
8.0
 40
8.0
 40
8.0
 40
9.0
 40
9.0
 40
9.0
 40
10.0
 40
10.0
 40
10.0
 40
11.0
 40
11.0
 40
11.0
 40
12.0
 40
12.0
 40
12.0
 40
13.0
 40
13.0
 40
13.0
 40
14.0
 40
14.0
 40
14.0
 40
15.0
 40
15.0
 40
15.0
 40
16.0
 40
16.0
 40
16.0
 40
17.0
 40
17.0
 40
17.0
 40
18.0
 40
18.0
 40
18.0
 40
19.0
 40
19.0
 40
19.0
 40
20.0
 40
20.0
 40
20.0
 40
21.0
 40
21.0
 40
21.0
 40
21.0
 10
99.23942057291661
 20
169.3358964843748
 10
99.23942057291661
 20
169.3358964843748
 10
100.5623372395832
 20
169.3358964843748
 10
100.5623372395832
 20
169.3358964843748
 10
100.5623372395832
 20
169.3358964843748
 10
100.5623372395832
 20
177.8149103732638
 10
100.5623372395832
 20
177.8149103732638
 10
100.5623372395832
 20
177.8149103732638
 10
103.4472601996527
 20
177.8149103732638
 10
103.4472601996527
 20
177.8149103732638
 10
103.9681586371527
 20
177.8149103732638
 10
104.3519422743053
 20
177.6938359374999
 10
104.5986111111109
 20
177.451687065972
 10
105.0244249131943
 20
177.0117621527776
 10
105.2518012152777
 20
176.1458580729166
 10
105.280740017361
 20
174.8539748263888
 10
105.280740017361
 20
174.8539748263888
 10
105.3689344618053
 20
171.5564396701388
 10
105.3689344618053
 20
171.5564396701388
 10
105.3882269965277
 20
170.7843524305554
 10
105.4109646267359
 20
170.2639225260416
 10
105.4357693142359
 20
169.9951499565971
 10
105.4605740017359
 20
169.7257434895831
 10
105.4970920138888
 20
169.5057810329859
 10
105.5467013888887
 20
169.3358964843748
 10
105.5467013888887
 20
169.3358964843748
 10
107.1769205729166
 20
169.3358964843748
 10
107.1769205729166
 20
169.3358964843748
 10
107.1769205729166
 20
169.3358964843748
 10
107.1769205729166
 20
169.7821603732638
 10
107.1769205729166
 20
169.7821603732638
 10
106.9750379774303
 20
169.9609194878471
 10
106.8337890624998
 20
170.3628105468748
 10
106.7538628472221
 20
170.9878335503471
 10
106.7028754340275
 20
171.3542263454859
 10
106.6677354600692
 20
171.9120562065971
 10
106.6477539062498
 20
172.6625909288193
 10
106.6477539062498
 20
172.6625909288193
 10
106.6036566840277
 20
175.3205234374999
 10
106.6036566840277
 20
175.3205234374999
 10
106.5836751302082
 20
176.4716814236109
 10
106.4768771701387
 20
177.303355034722
 10
106.2839518229166
 20
177.8142764756942
 10
106.0903374565971
 20
178.3251979166666
 10
105.8002604166666
 20
178.7372313368055
 10
105.4130316840277
 20
179.0516445312499
 10
105.8443576388887
 20
179.5086846788193
 10
106.179909939236
 20
180.1134229600693
 10
106.4196885850692
 20
180.8664932725692
 10
106.6594672309027
 20
181.6189296874999
 10
106.7800455729166
 20
182.5868912760416
 10
106.7800455729166
 20
183.7697441406249
 10
106.7800455729166
 20
186.0371957465276
 10
106.3328721788193
 20
187.5921464843749
 10
105.4392144097221
 20
188.4345963541666
 10
104.9679253472221
 20
188.8732534722221
 10
104.3719238281249
 20
189.0932159288193
 10
103.6512098524303
 20
189.0932159288193
 10
103.6512098524303
 20
189.0932159288193
 10
99.23942057291661
 20
189.0932159288193
 10
99.23942057291661
 20
189.0932159288193
 10
99.23942057291661
 20
189.0932159288193
 10
99.23942057291661
 20
169.3358964843748
 10
99.23942057291661
 20
169.3358964843748
 97
        0
 75
     0
 76
     1
 98
        0
  0
HATCH
  5
C55
330
C35
100
AcDbEntity
  8
0
  6
Continuous
100
AcDbHatch
 10
0.0
 20
0.0
 30
0.0
210
0.0
220
0.0
230
1.0
  2
SOLID
 70
     1
 71
     1
 91
        2
 92
        1
 93
        8
 72
     1
 10
35.47828233506943
 20
189.0932159288193
 11
31.83957248263888
 21
169.3358964843748
 72
     1
 10
31.83957248263888
 20
169.3358964843748
 11
33.22450086805555
 21
169.3358964843748
 72
     1
 10
33.22450086805555
 20
169.3358964843748
 11
34.27043185763887
 21
175.2590353732638
 72
     1
 10
34.27043185763887
 20
175.2590353732638
 11
38.04694552951389
 21
175.2590353732638
 72
     1
 10
38.04694552951389
 20
175.2590353732638
 11
39.05015733506942
 21
169.3358964843748
 72
     1
 10
39.05015733506942
 20
169.3358964843748
 11
40.43508572048611
 21
169.3358964843748
 72
     1
 10
40.43508572048611
 20
169.3358964843748
 11
36.952783203125
 21
189.0932159288193
 72
     1
 10
36.952783203125
 20
189.0932159288193
 11
35.47828233506943
 21
189.0932159288193
 97
        8
330
C50
330
C49
330
C4A
330
C4B
330
C4C
330
C4D
330
C4E
330
C4F
 92
       16
 93
        3
 72
     1
 10
37.67556423611111
 20
177.4497853732638
 11
34.65766059027778
 21
177.4497853732638
 72
     1
 10
34.65766059027778
 20
177.4497853732638
 11
36.19830729166666
 21
186.1658769531249
 72
     1
 10
36.19830729166666
 20
186.1658769531249
 11
37.67556423611111
 21
177.4497853732638
 97
        3
330
C48
330
C46
330
C47
 75
     0
 76
     1
 98
        1
 10
0.0
 20
0.0
  0
HATCH
  5
C56
330
C35
100
AcDbEntity
  8
0
  6
Continuous
100
AcDbHatch
 10
0.0
 20
0.0
 30
0.0
210
0.0
220
0.0
230
1.0
  2
SOLID
 70
     1
 71
     1
 91
        1
 92
        1
 93
        1
 72
     4
 94
        3
 73
     0
 74
     0
 95
      113
 96
      109
 40
0.0
 40
0.0
 40
0.0
 40
0.0
 40
1.0
 40
1.0
 40
1.0
 40
2.0
 40
2.0
 40
2.0
 40
3.0
 40
3.0
 40
3.0
 40
4.0
 40
4.0
 40
4.0
 40
5.0
 40
5.0
 40
5.0
 40
6.0
 40
6.0
 40
6.0
 40
7.0
 40
7.0
 40
7.0
 40
8.0
 40
8.0
 40
8.0
 40
9.0
 40
9.0
 40
9.0
 40
10.0
 40
10.0
 40
10.0
 40
11.0
 40
11.0
 40
11.0
 40
12.0
 40
12.0
 40
12.0
 40
13.0
 40
13.0
 40
13.0
 40
14.0
 40
14.0
 40
14.0
 40
15.0
 40
15.0
 40
15.0
 40
16.0
 40
16.0
 40
16.0
 40
17.0
 40
17.0
 40
17.0
 40
18.0
 40
18.0
 40
18.0
 40
19.0
 40
19.0
 40
19.0
 40
20.0
 40
20.0
 40
20.0
 40
21.0
 40
21.0
 40
21.0
 40
22.0
 40
22.0
 40
22.0
 40
23.0
 40
23.0
 40
23.0
 40
24.0
 40
24.0
 40
24.0
 40
25.0
 40
25.0
 40
25.0
 40
26.0
 40
26.0
 40
26.0
 40
27.0
 40
27.0
 40
27.0
 40
28.0
 40
28.0
 40
28.0
 40
29.0
 40
29.0
 40
29.0
 40
30.0
 40
30.0
 40
30.0
 40
31.0
 40
31.0
 40
31.0
 40
32.0
 40
32.0
 40
32.0
 40
33.0
 40
33.0
 40
33.0
 40
34.0
 40
34.0
 40
34.0
 40
35.0
 40
35.0
 40
35.0
 40
36.0
 40
36.0
 40
36.0
 40
36.0
 10
193.3039632161458
 20
186.1548733181423
 10
193.3039632161458
 20
186.1860514322916
 10
193.3039632161458
 20
219.6932223849826
 10
193.3039632161458
 20
219.6932223849826
 10
193.3039632161458
 20
219.6932223849826
 10
193.297417534722
 20
219.7488606770833
 10
193.297417534722
 20
219.7488606770833
 10
191.5293945312499
 20
235.455740017361
 10
175.1458984374999
 20
235.2467949761284
 10
174.9808783637151
 20
235.2428331163193
 10
174.9808783637151
 20
235.2428331163193
 10
125.8827555338541
 20
235.2430053710937
 10
125.8827555338541
 20
235.2430053710937
 10
125.8827555338541
 20
235.2430053710937
 10
125.8827555338541
 20
255.5278998480901
 10
125.8827555338541
 20
255.5278998480901
 10
125.8827555338541
 20
255.5278998480901
 10
84.5626247829861
 20
255.5278998480901
 10
84.5626247829861
 20
255.5278998480901
 10
84.5626247829861
 20
255.5278998480901
 10
84.55711263020829
 20
233.7919311523436
 10
84.55711263020829
 20
233.7919311523436
 10
84.55711263020829
 20
233.7919311523436
 10
64.42052951388888
 20
233.7919311523436
 10
64.42052951388888
 20
233.7919311523436
 10
64.42052951388888
 20
233.7919311523436
 10
64.41501736111111
 20
255.5278998480901
 10
64.41501736111111
 20
255.5278998480901
 10
64.41501736111111
 20
255.5278998480901
 10
23.91757541232637
 20
255.5278998480901
 10
23.91757541232637
 20
255.5278998480901
 10
23.91757541232637
 20
255.5278998480901
 10
23.91757541232637
 20
233.2393378363715
 10
23.91757541232637
 20
233.2393378363715
 10
23.91757541232637
 20
233.2393378363715
 10
43.65624999999999
 20
233.2393378363715
 10
43.65624999999999
 20
233.2393378363715
 10
43.65624999999999
 20
233.2393378363715
 10
43.65624999999999
 20
211.5188720703125
 10
43.65624999999999
 20
211.5188720703125
 10
43.65624999999999
 20
211.5188720703125
 10
23.91757541232637
 20
211.5188720703125
 10
23.91757541232637
 20
211.5188720703125
 10
23.91757541232637
 20
211.5188720703125
 10
23.91757541232637
 20
189.2303100585936
 10
23.91757541232637
 20
189.2303100585936
 10
23.91757541232637
 20
189.2303100585936
 10
64.41501736111111
 20
189.2303100585936
 10
64.41501736111111
 20
189.2303100585936
 10
64.41501736111111
 20
189.2303100585936
 10
64.42052951388888
 20
211.069976128472
 10
64.42052951388888
 20
211.069976128472
 10
64.42052951388888
 20
211.069976128472
 10
84.55711263020829
 20
211.069976128472
 10
84.55711263020829
 20
211.069976128472
 10
84.55711263020829
 20
211.069976128472
 10
84.5626247829861
 20
189.2303100585936
 10
84.5626247829861
 20
189.2303100585936
 10
84.5626247829861
 20
189.2303100585936
 10
125.8827555338541
 20
189.2303100585936
 10
125.8827555338541
 20
189.2303100585936
 10
125.8827555338541
 20
189.2303100585936
 10
125.8827555338541
 20
211.5188720703125
 10
125.8827555338541
 20
211.5188720703125
 10
125.8827555338541
 20
211.5188720703125
 10
105.3213921440971
 20
211.5188720703125
 10
105.3213921440971
 20
211.5188720703125
 10
105.3213921440971
 20
211.5188720703125
 10
105.3213921440971
 20
233.2393378363715
 10
105.3213921440971
 20
233.2393378363715
 10
105.3213921440971
 20
233.2393378363715
 10
175.0046495225693
 20
233.243127441406
 10
175.0046495225693
 20
233.243127441406
 10
175.6268337673611
 20
233.2560465494791
 10
189.7165852864583
 20
233.3962619357638
 10
191.3037407769094
 20
219.5690266927083
 10
191.3037407769094
 20
219.4332899305555
 10
191.3037407769094
 20
186.1142211914062
 10
191.3037407769094
 20
186.1142211914062
 10
191.3037407769094
 20
186.1142211914062
 10
191.3051188151039
 20
186.0880384657115
 10
191.3051188151039
 20
186.0880384657115
 10
191.3054633246526
 20
186.0787367078991
 10
191.3109754774304
 20
185.9566080729166
 10
191.3109754774304
 20
185.7399115668401
 10
191.3109754774304
 20
184.2090833875865
 10
191.0488037109374
 20
177.9643310546874
 10
186.9866916232638
 20
173.5652886284722
 10
184.2540418836804
 20
170.6064683702255
 10
180.3224989149304
 20
169.0308539496526
 10
175.300927734375
 20
168.8825425889756
 10
175.300927734375
 20
168.8825425889756
 10
107.0094889322916
 20
168.8828870985243
 10
107.0094889322916
 20
168.8828870985243
 10
107.0094889322916
 20
168.8828870985243
 10
107.0094889322916
 20
166.8830091688368
 10
107.0094889322916
 20
166.8830091688368
 10
107.0094889322916
 20
166.8830091688368
 10
175.3305555555555
 20
166.8830091688368
 10
175.3305555555555
 20
166.8830091688368
 10
180.9467502170138
 20
167.0485460069444
 10
185.3571614583333
 20
168.8448187934026
 10
188.4687717013888
 20
172.2223904079861
 10
192.9649658203124
 20
177.1034016927083
 10
193.3136094835069
 20
183.7202243381076
 10
193.3136094835069
 20
185.6520616319443
 10
193.3136094835069
 20
185.9247409396701
 10
193.3070638020833
 20
186.0868326822916
 10
193.3039632161458
 20
186.1548733181423
 97
        1
330
C36
 75
     0
 76
     1
 98
        1
 10
0.0
 20
0.0
  0
HATCH
  5
C57
330
C35
100
AcDbEntity
  8
0
  6
Continuous
100
AcDbHatch
 10
0.0
 20
0.0
 30
0.0
210
0.0
220
0.0
230
1.0
  2
SOLID
 70
     1
 71
     1
 91
        2
 92
        1
 93
        1
 72
     4
 94
        3
 73
     0
 74
     0
 95
       23
 96
       19
 40
0.0
 40
0.0
 40
0.0
 40
0.0
 40
1.0
 40
1.0
 40
1.0
 40
2.0
 40
2.0
 40
2.0
 40
3.0
 40
3.0
 40
3.0
 40
4.0
 40
4.0
 40
4.0
 40
5.0
 40
5.0
 40
5.0
 40
6.0
 40
6.0
 40
6.0
 40
6.0
 10
148.6593153211804
 20
211.3929538302949
 10
148.6593153211804
 20
211.3929538302949
 10
148.6593153211804
 20
189.6308024088541
 10
148.6593153211804
 20
189.6308024088541
 10
148.6593153211804
 20
189.6308024088541
 10
161.3152180989583
 20
189.6308024088541
 10
161.3152180989583
 20
189.6308024088541
 10
162.8431179470484
 20
189.6308024088541
 10
170.4657362196179
 20
190.1880466037324
 10
170.4657362196179
 20
201.1911648220485
 10
170.4657362196179
 20
211.1288872612846
 10
162.3356553819444
 20
211.3914035373263
 10
162.2536621093749
 20
211.3927815755206
 10
162.2536621093749
 20
211.3927815755206
 10
149.6594265407986
 20
211.3929538302949
 10
149.6594265407986
 20
211.3929538302949
 10
149.6594265407986
 20
211.3929538302949
 10
148.6593153211804
 20
211.3929538302949
 10
148.6593153211804
 20
211.3929538302949
 97
        1
330
C37
 92
       16
 93
        1
 72
     4
 94
        3
 73
     0
 74
     0
 95
       20
 96
       16
 40
0.0
 40
0.0
 40
0.0
 40
0.0
 40
1.0
 40
1.0
 40
1.0
 40
2.0
 40
2.0
 40
2.0
 40
3.0
 40
3.0
 40
3.0
 40
4.0
 40
4.0
 40
4.0
 40
5.0
 40
5.0
 40
5.0
 40
5.0
 10
162.2354031032985
 20
209.3930759006076
 10
162.467947048611
 20
209.3861857096353
 10
168.4655137803819
 20
209.1283203124999
 10
168.4655137803819
 20
201.1911648220485
 10
168.4655137803819
 20
192.3202162000866
 10
162.9926350911458
 20
191.6306803385414
 10
161.3152180989583
 20
191.6306803385414
 10
161.3152180989583
 20
191.6306803385414
 10
152.3310980902776
 20
191.6306803385414
 10
150.6595377604166
 20
191.6306803385414
 10
150.6595377604166
 20
193.3373806423609
 10
150.6595377604166
 20
207.6863755967881
 10
150.6595377604166
 20
209.3930759006076
 10
152.353835720486
 20
209.3930759006076
 10
162.2354031032985
 20
209.3930759006076
 10
162.2354031032985
 20
209.3930759006076
 97
        0
 75
     0
 76
     1
 98
        0
  0
ENDBLK
  5
C59
330
C35
100
AcDbEntity
  8
0
100
AcDbBlockEnd
  0
BLOCK
  5
C5C
330
C5A
100
AcDbEntity
  8
0
100
AcDbBlockBegin
  2
HD logo-new
 70
     0
 10
0.0
 20
0.0
 30
0.0
  3
HD logo-new
  1

  0
INSERT
  5
C5B
330
C5A
100
AcDbEntity
  8
0
 62
     3
100
AcDbBlockReference
  2
HD_LLC_logo_OT5
 10
-27.1607188578505
 20
-68.37367811463031
 30
0.0
 41
0.2999999999999971
 42
0.3000000000000007
 43
0.3
  0
ENDBLK
  5
C5D
330
C5A
100
AcDbEntity
  8
0
100
AcDbBlockEnd
  0
BLOCK
  5
C74
330
C72
100
AcDbEntity
  8
0
100
AcDbBlockBegin
  2
Harmonic Drive LLC
 70
     0
 10
0.0
 20
0.0
 30
0.0
  3
Harmonic Drive LLC
  1

  0
MTEXT
  5
C73
330
C72
100
AcDbEntity
  8
0
100
AcDbMText
 10
8.730232253264317
 20
-1.454758693481394
 30
0.0
 40
5.25
 41
158.5992
 71
     5
 72
     5
  1
{\fArial|b0|i0|c0|p34;Harmonic Drive LLC\P800-921-3332\Pwww.harmonicdrive.net}
 73
     1
 44
1.0
  0
ENDBLK
  5
C75
330
C72
100
AcDbEntity
  8
0
100
AcDbBlockEnd
  0
BLOCK
  5
C88
330
C86
100
AcDbEntity
  8
0
100
AcDbBlockBegin
  2
HD LLC
 70
     0
 10
0.0
 20
0.0
 30
0.0
  3
HD LLC
  1

  0
MTEXT
  5
C87
330
C86
100
AcDbEntity
  8
0
100
AcDbMText
 10
-2.314970886968865
 20
1.247205085865914
 30
0.0
 40
5.675387507387601
 41
236.1828726592229
 71
     5
 72
     5
  1
Harmonic Drive LLC\P800-921-3332\Pwww.harmonicdrive.net
 73
     1
 44
1.0
  0
ENDBLK
  5
C89
330
C86
100
AcDbEntity
  8
0
100
AcDbBlockEnd
  0
BLOCK
  5
C93
330
C90
100
AcDbEntity
  8
0
100
AcDbBlockBegin
  2
NTC
 70
     0
 10
0.0
 20
0.0
 30
0.0
  3
NTC
  1

  0
LWPOLYLINE
  5
C91
330
C90
100
AcDbEntity
  8
0
100
AcDbPolyline
 90
        8
 70
     1
 43
0.0
 10
4.581008201925953
 20
-10.78862239032818
 10
319.3921777697513
 20
-10.78862239032818
 42
-0.4142135623730951
 10
324.9046777697513
 20
-16.30112239032816
 10
324.9046777697513
 20
-117.4075202476924
 42
-0.4142135623730951
 10
319.3921777697513
 20
-122.9200202476925
 10
4.581008201925838
 20
-122.9200202476925
 42
-0.4142135623730951
 10
-0.9314917980741483
 20
-117.4075202476924
 10
-0.9314917980740915
 20
-16.30112239032816
 42
-0.4142135623730951
  0
MTEXT
  5
C92
330
C90
100
AcDbEntity
  8
0
  6
Continuous
370
    30
100
AcDbMText
 10
21.65307678143926
 20
-17.4535155144544
 30
0.0
 40
8.75
 41
294.5432999999998
 71
     1
 72
     5
  3
{\fTxt|b1|i0|c0|p2;Notice:\P\Ftxt.shx;\H0.5714x;All specifications and dimensions shown in the drawing are subject to change without notice. This drawing is the property of Harmonic Drive LLC.   This data is believed to be accurate, however, Harmonic
  1
 Drive LLC assumes no liability for any errors or omissions in the specifications, models, or drawings.\P\PHarmonic Drive LLC\PTel: 800-921-3332\Pwww.harmonicdrive.net}
 73
     1
 44
1.0
  0
ENDBLK
  5
C94
330
C90
100
AcDbEntity
  8
0
100
AcDbBlockEnd
  0
ENDSEC
  0
SECTION
  2
ENTITIES
  0
LINE
  5
A82
330
85F
100
AcDbEntity
  8
1
  6
DASHDOT
 62
     3
100
AcDbLine
 10
714.533089
 20
-1757.746036
 30
0.0
 11
722.533089
 21
-1757.746036
 31
0.0
  0
LINE
  5
A83
330
85F
100
AcDbEntity
  8
1
 62
     7
100
AcDbLine
 10
718.2330889999998
 20
-1760.996035999999
 30
0.0
 11
721.533089
 21
-1760.996035999999
 31
0.0
  0
LINE
  5
A84
330
85F
100
AcDbEntity
  8
1
 62
     7
100
AcDbLine
 10
718.2330889999998
 20
-1754.496036
 30
0.0
 11
718.2330889999998
 21
-1760.996035999999
 31
0.0
  0
LINE
  5
A85
330
85F
100
AcDbEntity
  8
1
 62
     7
100
AcDbLine
 10
718.2330889999998
 20
-1754.496036
 30
0.0
 11
721.533089
 21
-1754.496036
 31
0.0
  0
LINE
  5
A86
330
85F
100
AcDbEntity
  8
1
 62
     7
100
AcDbLine
 10
721.533089
 20
-1760.996035999999
 30
0.0
 11
721.533089
 21
-1762.532168999999
 31
0.0
  0
LINE
  5
A87
330
85F
100
AcDbEntity
  8
1
 62
     7
100
AcDbLine
 10
718.2330889999998
 20
-1760.996035999999
 30
0.0
 11
718.2330889999998
 21
-1760.996035999999
 31
0.0
  0
LINE
  5
A88
330
85F
100
AcDbEntity
  8
0
 62
     7
100
AcDbLine
 10
715.533089
 20
-1759.446035999999
 30
0.0
 11
715.533089
 21
-1761.463669
 31
0.0
  0
LINE
  5
A89
330
85F
100
AcDbEntity
  8
1
 62
     7
100
AcDbLine
 10
715.533089
 20
-1759.446035999999
 30
0.0
 11
718.2330889999998
 21
-1759.446035999999
 31
0.0
  0
LINE
  5
A8A
330
85F
100
AcDbEntity
  8
0
 62
     7
100
AcDbLine
 10
715.533089
 20
-1756.046036
 30
0.0
 11
715.533089
 21
-1759.446035999999
 31
0.0
  0
LINE
  5
A8B
330
85F
100
AcDbEntity
  8
1
 62
     7
100
AcDbLine
 10
715.533089
 20
-1756.046036
 30
0.0
 11
718.2330889999998
 21
-1756.046036
 31
0.0
  0
LINE
  5
A8C
330
85F
100
AcDbEntity
  8
1
  6
CENTER
 62
     3
100
AcDbLine
 10
714.783089
 20
-1763.397169
 30
0.0
 11
721.935034
 21
-1763.397169
 31
0.0
  0
LINE
  5
A8D
330
85F
100
AcDbEntity
  8
1
 62
     7
100
AcDbLine
 10
716.033089
 20
-1778.763669
 30
0.0
 11
716.033089
 21
-1788.763669
 31
0.0
  0
LINE
  5
A8E
330
85F
100
AcDbEntity
  8
1
 62
     7
100
AcDbLine
 10
716.5330889999998
 20
-1778.763669
 30
0.0
 11
720.7330889999998
 21
-1778.763669
 31
0.0
  0
LINE
  5
A8F
330
85F
100
AcDbEntity
  8
1
 62
     7
100
AcDbLine
 10
716.5342820000001
 20
-1814.363669
 30
0.0
 11
720.833089
 21
-1814.363669
 31
0.0
  0
LINE
  5
A90
330
85F
100
AcDbEntity
  8
1
 62
     7
100
AcDbLine
 10
721.533089
 20
-1813.350077
 30
0.0
 11
720.5330889999998
 21
-1813.297668999999
 31
0.0
  0
LINE
  5
A91
330
85F
100
AcDbEntity
  8
1
 62
     7
100
AcDbLine
 10
721.533089
 20
-1813.663669
 30
0.0
 11
721.533089
 21
-1813.350077
 31
0.0
  0
LINE
  5
A92
330
85F
100
AcDbEntity
  8
1
 62
     7
100
AcDbLine
 10
720.833089
 20
-1814.363669
 30
0.0
 11
721.533089
 21
-1813.663669
 31
0.0
  0
LINE
  5
A93
330
85F
100
AcDbEntity
  8
1
 62
     7
100
AcDbLine
 10
715.9330889999998
 20
-1813.896669
 30
0.0
 11
715.533089
 21
-1814.296669
 31
0.0
  0
LINE
  5
A94
330
85F
100
AcDbEntity
  8
1
 62
     7
100
AcDbLine
 10
721.1330889999998
 20
-1813.896669
 30
0.0
 11
721.533089
 21
-1814.296669
 31
0.0
  0
LINE
  5
A95
330
85F
100
AcDbEntity
  8
1
 62
     7
100
AcDbLine
 10
721.533089
 20
-1814.296669
 30
0.0
 11
721.533089
 21
-1814.363669
 31
0.0
  0
LINE
  5
A96
330
85F
100
AcDbEntity
  8
1
 62
     7
100
AcDbLine
 10
715.533089
 20
-1814.296669
 30
0.0
 11
715.533089
 21
-1814.363669
 31
0.0
  0
LINE
  5
A97
330
85F
100
AcDbEntity
  8
1
 62
     7
100
AcDbLine
 10
721.533089
 20
-1814.363669
 30
0.0
 11
715.533089
 21
-1814.363669
 31
0.0
  0
LINE
  5
A98
330
85F
100
AcDbEntity
  8
1
 62
     7
100
AcDbLine
 10
715.9330889999998
 20
-1813.896669
 30
0.0
 11
721.1330889999998
 21
-1813.896669
 31
0.0
  0
LINE
  5
A99
330
85F
100
AcDbEntity
  8
1
 62
     7
100
AcDbLine
 10
721.533089
 20
-1814.363669
 30
0.0
 11
721.533089
 21
-1814.995169
 31
0.0
  0
LINE
  5
A9A
330
85F
100
AcDbEntity
  8
1
 62
     7
100
AcDbLine
 10
715.533089
 20
-1814.363669
 30
0.0
 11
715.533089
 21
-1816.063667999999
 31
0.0
  0
LINE
  5
A9B
330
85F
100
AcDbEntity
  8
0
 62
     7
100
AcDbLine
 10
721.1330889999998
 20
-1823.763668
 30
0.0
 11
721.533089
 21
-1823.363668
 31
0.0
  0
LINE
  5
A9C
330
85F
100
AcDbEntity
  8
0
 62
     7
100
AcDbLine
 10
715.9330889999998
 20
-1823.763668
 30
0.0
 11
721.1330889999998
 21
-1823.763668
 31
0.0
  0
LINE
  5
A9D
330
85F
100
AcDbEntity
  8
0
 62
     7
100
AcDbLine
 10
715.533089
 20
-1823.363668
 30
0.0
 11
715.9330889999998
 21
-1823.763668
 31
0.0
  0
LINE
  5
A9E
330
85F
100
AcDbEntity
  8
0
 62
     7
100
AcDbLine
 10
715.533089
 20
-1816.063667999999
 30
0.0
 11
715.533089
 21
-1818.281301999999
 31
0.0
  0
LINE
  5
A9F
330
85F
100
AcDbEntity
  8
0
 62
     7
100
AcDbLine
 10
721.533089
 20
-1821.531302
 30
0.0
 11
721.533089
 21
-1821.281302
 31
0.0
  0
LINE
  5
AA0
330
85F
100
AcDbEntity
  8
0
 62
     7
100
AcDbLine
 10
721.533089
 20
-1823.363668
 30
0.0
 11
721.533089
 21
-1821.531302
 31
0.0
  0
LINE
  5
AA1
330
85F
100
AcDbEntity
  8
1
 62
     7
100
AcDbLine
 10
721.533089
 20
-1814.995169
 30
0.0
 11
721.533089
 21
-1815.263669
 31
0.0
  0
LINE
  5
AA2
330
85F
100
AcDbEntity
  8
1
 62
     7
100
AcDbLine
 10
718.783089
 20
-1813.297668999999
 30
0.0
 11
716.783089
 21
-1813.297668999999
 31
0.0
  0
LINE
  5
AA3
330
85F
100
AcDbEntity
  8
1
 62
     7
100
AcDbLine
 10
720.283089
 20
-1813.297668999999
 30
0.0
 11
718.783089
 21
-1813.297668999999
 31
0.0
  0
LINE
  5
AA4
330
85F
100
AcDbEntity
  8
1
 62
     7
100
AcDbLine
 10
707.533089
 20
-1779.013669
 30
0.0
 11
707.533089
 21
-1780.763669
 31
0.0
  0
LINE
  5
AA5
330
85F
100
AcDbEntity
  8
1
 62
     7
100
AcDbLine
 10
709.533089
 20
-1779.013669
 30
0.0
 11
709.533089
 21
-1780.763669
 31
0.0
  0
LINE
  5
AA6
330
85F
100
AcDbEntity
  8
1
 62
     7
100
AcDbLine
 10
707.533089
 20
-1779.013669
 30
0.0
 11
707.533089
 21
-1780.763669
 31
0.0
  0
LINE
  5
AA7
330
85F
100
AcDbEntity
  8
1
 62
     7
100
AcDbLine
 10
709.533089
 20
-1779.013669
 30
0.0
 11
707.533089
 21
-1779.013669
 31
0.0
  0
LINE
  5
AA8
330
85F
100
AcDbEntity
  8
1
 62
     7
100
AcDbLine
 10
707.533089
 20
-1774.513669
 30
0.0
 11
707.533089
 21
-1775.763669
 31
0.0
  0
LINE
  5
AA9
330
85F
100
AcDbEntity
  8
1
 62
     7
100
AcDbLine
 10
709.533089
 20
-1774.513669
 30
0.0
 11
709.533089
 21
-1779.013669
 31
0.0
  0
LINE
  5
AAA
330
85F
100
AcDbEntity
  8
1
 62
     7
100
AcDbLine
 10
709.533089
 20
-1774.513669
 30
0.0
 11
707.533089
 21
-1774.513669
 31
0.0
  0
LINE
  5
AAB
330
85F
100
AcDbEntity
  8
1
  6
CENTER
 62
     3
100
AcDbLine
 10
710.533089
 20
-1776.763669
 30
0.0
 11
706.533089
 21
-1776.763669
 31
0.0
  0
LINE
  5
AAC
330
85F
100
AcDbEntity
  8
1
 62
     7
100
AcDbLine
 10
709.533089
 20
-1796.763669
 30
0.0
 11
709.533089
 21
-1812.047669
 31
0.0
  0
LINE
  5
AAD
330
85F
100
AcDbEntity
  8
1
 62
     7
100
AcDbLine
 10
707.533089
 20
-1796.763669
 30
0.0
 11
707.533089
 21
-1804.363668999999
 31
0.0
  0
LINE
  5
AAE
330
85F
100
AcDbEntity
  8
1
 62
     7
100
AcDbLine
 10
707.533089
 20
-1796.763669
 30
0.0
 11
707.533089
 21
-1803.513669
 31
0.0
  0
LINE
  5
AAF
330
85F
100
AcDbEntity
  8
1
 62
     7
100
AcDbLine
 10
707.533089
 20
-1796.763669
 30
0.0
 11
709.533089
 21
-1796.763669
 31
0.0
  0
LINE
  5
AB0
330
85F
100
AcDbEntity
  8
1
 62
     7
100
AcDbLine
 10
707.533089
 20
-1780.763669
 30
0.0
 11
707.533089
 21
-1781.20958
 31
0.0
  0
LINE
  5
AB1
330
85F
100
AcDbEntity
  8
1
 62
     7
100
AcDbLine
 10
709.533089
 20
-1780.763669
 30
0.0
 11
709.533089
 21
-1781.20958
 31
0.0
  0
LINE
  5
AB2
330
85F
100
AcDbEntity
  8
1
 62
     7
100
AcDbLine
 10
707.533089
 20
-1780.763669
 30
0.0
 11
709.533089
 21
-1780.763669
 31
0.0
  0
LINE
  5
AB3
330
85F
100
AcDbEntity
  8
1
 62
     7
100
AcDbLine
 10
707.533089
 20
-1796.013669
 30
0.0
 11
707.533089
 21
-1796.763669
 31
0.0
  0
LINE
  5
AB4
330
85F
100
AcDbEntity
  8
1
 62
     7
100
AcDbLine
 10
707.533089
 20
-1796.013669
 30
0.0
 11
707.533089
 21
-1796.763669
 31
0.0
  0
LINE
  5
AB5
330
85F
100
AcDbEntity
  8
1
 62
     7
100
AcDbLine
 10
707.533089
 20
-1773.163669
 30
0.0
 11
707.533089
 21
-1774.513669
 31
0.0
  0
LINE
  5
AB6
330
85F
100
AcDbEntity
  8
1
 62
     7
100
AcDbLine
 10
716.033089
 20
-1776.963669
 30
0.0
 11
716.033089
 21
-1777.263669
 31
0.0
  0
LINE
  5
AB7
330
85F
100
AcDbEntity
  8
1
 62
     7
100
AcDbLine
 10
721.2330889999998
 20
-1776.963669
 30
0.0
 11
721.2330889999998
 21
-1774.563669
 31
0.0
  0
LINE
  5
AB8
330
85F
100
AcDbEntity
  8
1
 62
     7
100
AcDbLine
 10
716.033089
 20
-1800.563669
 30
0.0
 11
721.2330889999998
 21
-1800.563669
 31
0.0
  0
LINE
  5
AB9
330
85F
100
AcDbEntity
  8
1
 62
     7
100
AcDbLine
 10
721.2330889999998
 20
-1774.563669
 30
0.0
 11
721.2330889999998
 21
-1774.263669
 31
0.0
  0
LINE
  5
ABA
330
85F
100
AcDbEntity
  8
1
 62
     7
100
AcDbLine
 10
716.033089
 20
-1774.563669
 30
0.0
 11
716.033089
 21
-1776.963669
 31
0.0
  0
LINE
  5
ABB
330
85F
100
AcDbEntity
  8
1
 62
     7
100
AcDbLine
 10
716.033089
 20
-1802.963669
 30
0.0
 11
721.2330889999998
 21
-1802.963669
 31
0.0
  0
LINE
  5
ABC
330
85F
100
AcDbEntity
  8
1
  6
CENTER
 62
     3
100
AcDbLine
 10
715.2330889999998
 20
-1801.763669
 30
0.0
 11
722.033089
 21
-1801.763669
 31
0.0
  0
LINE
  5
ABD
330
85F
100
AcDbEntity
  8
1
 62
     7
100
AcDbLine
 10
716.033089
 20
-1777.263669
 30
0.0
 11
716.033089
 21
-1778.763669
 31
0.0
  0
LINE
  5
ABE
330
85F
100
AcDbEntity
  8
1
 62
     7
100
AcDbLine
 10
721.2330889999998
 20
-1777.263669
 30
0.0
 11
721.2330889999998
 21
-1776.963669
 31
0.0
  0
LINE
  5
ABF
330
85F
100
AcDbEntity
  8
1
 62
     3
100
AcDbLine
 10
716.033089
 20
-1800.263669
 30
0.0
 11
721.2330889999998
 21
-1800.263669
 31
0.0
  0
LINE
  5
AC0
330
85F
100
AcDbEntity
  8
1
 62
     7
100
AcDbLine
 10
721.2330889999998
 20
-1774.263669
 30
0.0
 11
721.2330889999998
 21
-1770.986169
 31
0.0
  0
LINE
  5
AC1
330
85F
100
AcDbEntity
  8
1
 62
     7
100
AcDbLine
 10
716.033089
 20
-1774.263669
 30
0.0
 11
716.033089
 21
-1774.563669
 31
0.0
  0
LINE
  5
AC2
330
85F
100
AcDbEntity
  8
1
 62
     3
100
AcDbLine
 10
716.033089
 20
-1803.263669
 30
0.0
 11
721.2330889999998
 21
-1803.263669
 31
0.0
  0
LINE
  5
AC3
330
85F
100
AcDbEntity
  8
1
 62
     7
100
AcDbLine
 10
721.2330889999998
 20
-1778.763669
 30
0.0
 11
721.2330889999998
 21
-1777.263669
 31
0.0
  0
LINE
  5
AC4
330
85F
100
AcDbEntity
  8
1
 62
     7
100
AcDbLine
 10
716.033089
 20
-1770.986169
 30
0.0
 11
716.033089
 21
-1774.263669
 31
0.0
  0
LINE
  5
AC5
330
85F
100
AcDbEntity
  8
1
 62
     7
100
AcDbLine
 10
709.533089
 20
-1765.479669
 30
0.0
 11
709.533089
 21
-1774.513669
 31
0.0
  0
LINE
  5
AC6
330
85F
100
AcDbEntity
  8
1
 62
     7
100
AcDbLine
 10
707.533089
 20
-1774.013669
 30
0.0
 11
707.533089
 21
-1774.513669
 31
0.0
  0
LINE
  5
AC7
330
85F
100
AcDbEntity
  8
1
  6
CENTER
 62
     3
100
AcDbLine
 10
706.033089
 20
-1788.763669
 30
0.0
 11
709.533089
 21
-1788.763669
 31
0.0
  0
LINE
  5
AC8
330
85F
100
AcDbEntity
  8
1
 62
     7
100
AcDbLine
 10
720.833089
 20
-1763.163669
 30
0.0
 11
717.0342820000001
 21
-1763.163669
 31
0.0
  0
LINE
  5
AC9
330
85F
100
AcDbEntity
  8
1
 62
     7
100
AcDbLine
 10
710.682089
 20
-1763.928669
 30
0.0
 11
715.033089
 21
-1763.928669
 31
0.0
  0
LINE
  5
ACA
330
85F
100
AcDbEntity
  8
1
 62
     7
100
AcDbLine
 10
707.933089
 20
-1772.763669
 30
0.0
 11
708.7320889999999
 21
-1772.763669
 31
0.0
  0
LINE
  5
ACB
330
85F
100
AcDbEntity
  8
1
  6
CENTER
 62
     3
100
AcDbLine
 10
709.533089
 20
-1788.763669
 30
0.0
 11
723.033089
 21
-1788.763669
 31
0.0
  0
LINE
  5
ACC
330
85F
100
AcDbEntity
  8
1
 62
     7
100
AcDbLine
 10
720.5330889999998
 20
-1764.229669
 30
0.0
 11
721.533089
 21
-1764.177261
 31
0.0
  0
LINE
  5
ACD
330
85F
100
AcDbEntity
  8
1
 62
     7
100
AcDbLine
 10
720.5330889999998
 20
-1764.229669
 30
0.0
 11
710.783089
 21
-1764.229669
 31
0.0
  0
LINE
  5
ACE
330
85F
100
AcDbEntity
  8
1
 62
     7
100
AcDbLine
 10
721.533089
 20
-1764.177261
 30
0.0
 11
721.533089
 21
-1763.863669
 31
0.0
  0
LINE
  5
ACF
330
85F
100
AcDbEntity
  8
1
 62
     7
100
AcDbLine
 10
710.783089
 20
-1813.297668999999
 30
0.0
 11
720.5330889999998
 21
-1813.297668999999
 31
0.0
  0
LINE
  5
AD0
330
85F
100
AcDbEntity
  8
1
 62
     7
100
AcDbLine
 10
714.533089
 20
-1813.598669
 30
0.0
 11
710.682089
 21
-1813.598669
 31
0.0
  0
LINE
  5
AD1
330
85F
100
AcDbEntity
  8
1
 62
     7
100
AcDbLine
 10
721.533089
 20
-1763.863669
 30
0.0
 11
720.833089
 21
-1763.163669
 31
0.0
  0
LINE
  5
AD2
330
85F
100
AcDbEntity
  8
1
 62
     7
100
AcDbLine
 10
715.533089
 20
-1763.230669
 30
0.0
 11
715.9330889999998
 21
-1763.630669
 31
0.0
  0
LINE
  5
AD3
330
85F
100
AcDbEntity
  8
1
 62
     7
100
AcDbLine
 10
721.533089
 20
-1763.230669
 30
0.0
 11
721.1330889999998
 21
-1763.630669
 31
0.0
  0
LINE
  5
AD4
330
85F
100
AcDbEntity
  8
1
 62
     7
100
AcDbLine
 10
721.533089
 20
-1763.163669
 30
0.0
 11
721.533089
 21
-1763.230669
 31
0.0
  0
LINE
  5
AD5
330
85F
100
AcDbEntity
  8
1
 62
     7
100
AcDbLine
 10
715.533089
 20
-1763.163669
 30
0.0
 11
715.533089
 21
-1763.230669
 31
0.0
  0
LINE
  5
AD6
330
85F
100
AcDbEntity
  8
1
 62
     7
100
AcDbLine
 10
715.533089
 20
-1763.163669
 30
0.0
 11
721.533089
 21
-1763.163669
 31
0.0
  0
LINE
  5
AD7
330
85F
100
AcDbEntity
  8
1
 62
     7
100
AcDbLine
 10
721.1330889999998
 20
-1763.630669
 30
0.0
 11
715.9330889999998
 21
-1763.630669
 31
0.0
  0
LINE
  5
AD8
330
85F
100
AcDbEntity
  8
1
 62
     7
100
AcDbLine
 10
721.533089
 20
-1762.532168999999
 30
0.0
 11
721.533089
 21
-1763.163669
 31
0.0
  0
LINE
  5
AD9
330
85F
100
AcDbEntity
  8
1
 62
     7
100
AcDbLine
 10
715.533089
 20
-1761.463669
 30
0.0
 11
715.533089
 21
-1763.163669
 31
0.0
  0
LINE
  5
ADA
330
85F
100
AcDbEntity
  8
0
 62
     7
100
AcDbLine
 10
721.533089
 20
-1754.163669
 30
0.0
 11
721.1330889999998
 21
-1753.763669
 31
0.0
  0
LINE
  5
ADB
330
85F
100
AcDbEntity
  8
0
 62
     7
100
AcDbLine
 10
721.1330889999998
 20
-1753.763669
 30
0.0
 11
715.9330889999998
 21
-1753.763669
 31
0.0
  0
LINE
  5
ADC
330
85F
100
AcDbEntity
  8
0
 62
     7
100
AcDbLine
 10
715.9330889999998
 20
-1753.763669
 30
0.0
 11
715.533089
 21
-1754.163669
 31
0.0
  0
LINE
  5
ADD
330
85F
100
AcDbEntity
  8
0
 62
     7
100
AcDbLine
 10
715.533089
 20
-1754.163669
 30
0.0
 11
715.533089
 21
-1756.046036
 31
0.0
  0
LINE
  5
ADE
330
85F
100
AcDbEntity
  8
0
 62
     7
100
AcDbLine
 10
721.533089
 20
-1759.496036
 30
0.0
 11
721.533089
 21
-1755.996036
 31
0.0
  0
LINE
  5
ADF
330
85F
100
AcDbEntity
  8
0
 62
     7
100
AcDbLine
 10
721.533089
 20
-1755.996036
 30
0.0
 11
721.533089
 21
-1754.163669
 31
0.0
  0
LINE
  5
AE0
330
85F
100
AcDbEntity
  8
1
 62
     7
100
AcDbLine
 10
721.533089
 20
-1759.496036
 30
0.0
 11
721.533089
 21
-1760.996035999999
 31
0.0
  0
LINE
  5
AE1
330
85F
100
AcDbEntity
  8
1
 62
     7
100
AcDbLine
 10
707.533089
 20
-1774.013669
 30
0.0
 11
707.533089
 21
-1773.163669
 31
0.0
  0
LINE
  5
AE2
330
85F
100
AcDbEntity
  8
1
 62
     7
100
AcDbLine
 10
707.933089
 20
-1804.763669
 30
0.0
 11
707.533089
 21
-1804.363668999999
 31
0.0
  0
LINE
  5
AE3
330
85F
100
AcDbEntity
  8
1
 62
     7
100
AcDbLine
 10
707.533089
 20
-1773.163669
 30
0.0
 11
707.933089
 21
-1772.763669
 31
0.0
  0
LINE
  5
AE4
330
85F
100
AcDbEntity
  8
1
 62
     7
100
AcDbLine
 10
721.2330889999998
 20
-1788.763669
 30
0.0
 11
721.2330889999998
 21
-1778.763669
 31
0.0
  0
LINE
  5
AE5
330
85F
100
AcDbEntity
  8
1
 62
     7
100
AcDbLine
 10
716.033089
 20
-1788.763669
 30
0.0
 11
716.033089
 21
-1799.263669
 31
0.0
  0
LINE
  5
AE6
330
85F
100
AcDbEntity
  8
1
 62
     7
100
AcDbLine
 10
716.033089
 20
-1770.986169
 30
0.0
 11
721.2330889999998
 21
-1770.986169
 31
0.0
  0
LINE
  5
AE7
330
85F
100
AcDbEntity
  8
1
 62
     7
100
AcDbLine
 10
707.533089
 20
-1775.763669
 30
0.0
 11
707.533089
 21
-1779.013669
 31
0.0
  0
LINE
  5
AE8
330
85F
100
AcDbEntity
  8
1
 62
     7
100
AcDbLine
 10
716.333089
 20
-1806.541169
 30
0.0
 11
716.033089
 21
-1806.541169
 31
0.0
  0
LINE
  5
AE9
330
85F
100
AcDbEntity
  8
1
 62
     7
100
AcDbLine
 10
720.933089
 20
-1806.541169
 30
0.0
 11
721.2330889999998
 21
-1806.541169
 31
0.0
  0
LINE
  5
AEA
330
85F
100
AcDbEntity
  8
1
 62
     3
100
AcDbLine
 10
715.533089
 20
-1821.281302
 30
0.0
 11
721.533089
 21
-1821.281302
 31
0.0
  0
LINE
  5
AEB
330
85F
100
AcDbEntity
  8
0
 62
     7
100
AcDbLine
 10
715.533089
 20
-1821.281302
 30
0.0
 11
715.533089
 21
-1823.363668
 31
0.0
  0
LINE
  5
AEC
330
85F
100
AcDbEntity
  8
0
 62
     7
100
AcDbLine
 10
721.533089
 20
-1821.281302
 30
0.0
 11
721.533089
 21
-1820.981301999999
 31
0.0
  0
LINE
  5
AED
330
85F
100
AcDbEntity
  8
1
 62
     3
100
AcDbLine
 10
715.533089
 20
-1818.281301999999
 30
0.0
 11
721.533089
 21
-1818.281301999999
 31
0.0
  0
LINE
  5
AEE
330
85F
100
AcDbEntity
  8
0
 62
     7
100
AcDbLine
 10
715.533089
 20
-1818.281301999999
 30
0.0
 11
715.533089
 21
-1818.581302
 31
0.0
  0
LINE
  5
AEF
330
85F
100
AcDbEntity
  8
0
 62
     7
100
AcDbLine
 10
721.533089
 20
-1818.281301999999
 30
0.0
 11
721.533089
 21
-1818.031301999999
 31
0.0
  0
LINE
  5
AF0
330
85F
100
AcDbEntity
  8
1
  6
DASHDOT
 62
     3
100
AcDbLine
 10
722.7330889999998
 20
-1819.781301999999
 30
0.0
 11
714.3330889999998
 21
-1819.781301999999
 31
0.0
  0
LINE
  5
AF1
330
85F
100
AcDbEntity
  8
1
 62
     7
100
AcDbLine
 10
715.533089
 20
-1820.981301999999
 30
0.0
 11
721.533089
 21
-1820.981301999999
 31
0.0
  0
LINE
  5
AF2
330
85F
100
AcDbEntity
  8
0
 62
     7
100
AcDbLine
 10
721.533089
 20
-1820.981301999999
 30
0.0
 11
721.533089
 21
-1818.581302
 31
0.0
  0
LINE
  5
AF3
330
85F
100
AcDbEntity
  8
0
 62
     7
100
AcDbLine
 10
715.533089
 20
-1820.981301999999
 30
0.0
 11
715.533089
 21
-1821.281302
 31
0.0
  0
LINE
  5
AF4
330
85F
100
AcDbEntity
  8
1
 62
     7
100
AcDbLine
 10
715.533089
 20
-1818.581302
 30
0.0
 11
721.533089
 21
-1818.581302
 31
0.0
  0
LINE
  5
AF5
330
85F
100
AcDbEntity
  8
0
 62
     7
100
AcDbLine
 10
715.533089
 20
-1818.581302
 30
0.0
 11
715.533089
 21
-1820.981301999999
 31
0.0
  0
LINE
  5
AF6
330
85F
100
AcDbEntity
  8
0
 62
     7
100
AcDbLine
 10
721.533089
 20
-1818.581302
 30
0.0
 11
721.533089
 21
-1818.281301999999
 31
0.0
  0
LINE
  5
AF7
330
85F
100
AcDbEntity
  8
1
  6
CENTER
 62
     3
100
AcDbLine
 10
603.8912119999999
 20
-1804.313669
 30
0.0
 11
603.8912119999999
 21
-1799.213669
 31
0.0
  0
LINE
  5
AF8
330
85F
100
AcDbEntity
  8
1
  6
CENTER
 62
     3
100
AcDbLine
 10
567.53857
 20
-1788.763669
 30
0.0
 11
634.891212
 21
-1788.763669
 31
0.0
  0
LINE
  5
AF9
330
85F
100
AcDbEntity
  8
1
  6
CENTER
 62
     3
100
AcDbLine
 10
634.891212
 20
-1788.763669
 30
0.0
 11
640.243854
 21
-1788.763669
 31
0.0
  0
LINE
  5
AFA
330
85F
100
AcDbEntity
  8
1
  6
CENTER
 62
     3
100
AcDbLine
 10
603.8912119999999
 20
-1752.411026999999
 30
0.0
 11
603.8912119999999
 21
-1773.388669
 31
0.0
  0
LINE
  5
AFB
330
85F
100
AcDbEntity
  8
1
  6
CENTER
 62
     3
100
AcDbLine
 10
587.116212
 20
-1759.708515999999
 30
0.0
 11
589.666212
 21
-1764.125246
 31
0.0
  0
LINE
  5
AFC
330
85F
100
AcDbEntity
  8
1
  6
CENTER
 62
     3
100
AcDbLine
 10
574.8360599999998
 20
-1771.988669
 30
0.0
 11
579.252789
 21
-1774.538669
 31
0.0
  0
LINE
  5
AFD
330
85F
100
AcDbEntity
  8
1
  6
CENTER
 62
     3
100
AcDbLine
 10
574.8360599999998
 20
-1805.538669
 30
0.0
 11
579.252789
 21
-1802.988669
 31
0.0
  0
LINE
  5
AFE
330
85F
100
AcDbEntity
  8
1
  6
CENTER
 62
     3
100
AcDbLine
 10
587.116212
 20
-1817.818821
 30
0.0
 11
589.666212
 21
-1813.402092
 31
0.0
  0
LINE
  5
AFF
330
85F
100
AcDbEntity
  8
1
  6
CENTER
 62
     3
100
AcDbLine
 10
620.6662119999998
 20
-1817.818821
 30
0.0
 11
618.116212
 21
-1813.402092
 31
0.0
  0
LINE
  5
B00
330
85F
100
AcDbEntity
  8
1
  6
CENTER
 62
     3
100
AcDbLine
 10
632.946364
 20
-1805.538669
 30
0.0
 11
628.529635
 21
-1802.988669
 31
0.0
  0
LINE
  5
B01
330
85F
100
AcDbEntity
  8
1
  6
CENTER
 62
     3
100
AcDbLine
 10
632.946364
 20
-1771.988669
 30
0.0
 11
628.529635
 21
-1774.538669
 31
0.0
  0
LINE
  5
B02
330
85F
100
AcDbEntity
  8
1
  6
CENTER
 62
     3
100
AcDbLine
 10
620.6662119999998
 20
-1759.708515999999
 30
0.0
 11
618.116212
 21
-1764.125246
 31
0.0
  0
LINE
  5
B03
330
85F
100
AcDbEntity
  8
1
  6
CENTER
 62
     3
100
AcDbLine
 10
612.496945
 20
-1756.646635
 30
0.0
 11
611.33226
 21
-1760.993301
 31
0.0
  0
LINE
  5
B04
330
85F
100
AcDbEntity
  8
1
  6
CENTER
 62
     3
100
AcDbLine
 10
595.2854789999999
 20
-1820.880703
 30
0.0
 11
596.450165
 21
-1816.534036
 31
0.0
  0
LINE
  5
B05
330
85F
100
AcDbEntity
  8
1
  6
CENTER
 62
     3
100
AcDbLine
 10
835.9716650000001
 20
-1763.397169
 30
0.0
 11
835.9716650000001
 21
-1762.638669
 31
0.0
  0
LINE
  5
B06
330
85F
100
AcDbEntity
  8
1
  6
CENTER
 62
     3
100
AcDbLine
 10
835.9716650000001
 20
-1831.701385
 30
0.0
 11
835.9716650000001
 21
-1763.397169
 31
0.0
  0
LINE
  5
B07
330
85F
100
AcDbEntity
  8
1
  6
CENTER
 62
     3
100
AcDbLine
 10
878.909381
 20
-1788.763669
 30
0.0
 11
870.971665
 21
-1788.763669
 31
0.0
  0
LINE
  5
B08
330
85F
100
AcDbEntity
  8
1
  6
CENTER
 62
     3
100
AcDbLine
 10
866.9716649999998
 20
-1788.763669
 30
0.0
 11
848.971665
 21
-1788.763669
 31
0.0
  0
LINE
  5
B09
330
85F
100
AcDbEntity
  8
1
  6
CENTER
 62
     3
100
AcDbLine
 10
835.9716650000001
 20
-1752.888669
 30
0.0
 11
835.9716650000001
 21
-1762.638669
 31
0.0
  0
LINE
  5
B0A
330
85F
100
AcDbEntity
  8
1
  6
CENTER
 62
     3
100
AcDbLine
 10
835.9716650000001
 20
-1752.888669
 30
0.0
 11
835.9716650000001
 21
-1745.825952999999
 31
0.0
  0
LINE
  5
B0B
330
85F
100
AcDbEntity
  8
1
  6
CENTER
 62
     3
100
AcDbLine
 10
835.9716650000001
 20
-1762.638669
 30
0.0
 11
835.9716650000001
 21
-1752.888669
 31
0.0
  0
LINE
  5
B0C
330
85F
100
AcDbEntity
  8
1
  6
CENTER
 62
     3
100
AcDbLine
 10
818.034165
 20
-1757.695007
 30
0.0
 11
822.909165
 21
-1766.138755
 31
0.0
  0
LINE
  5
B0D
330
85F
100
AcDbEntity
  8
1
  6
CENTER
 62
     3
100
AcDbLine
 10
804.9030039999999
 20
-1770.826169
 30
0.0
 11
813.3467519999998
 21
-1775.701169
 31
0.0
  0
LINE
  5
B0E
330
85F
100
AcDbEntity
  8
1
  6
CENTER
 62
     3
100
AcDbLine
 10
800.096665
 20
-1788.763669
 30
0.0
 11
809.846665
 21
-1788.763669
 31
0.0
  0
LINE
  5
B0F
330
85F
100
AcDbEntity
  8
1
  6
CENTER
 62
     3
100
AcDbLine
 10
804.9030039999999
 20
-1806.701169
 30
0.0
 11
813.3467519999998
 21
-1801.826169
 31
0.0
  0
LINE
  5
B10
330
85F
100
AcDbEntity
  8
1
  6
CENTER
 62
     3
100
AcDbLine
 10
818.034165
 20
-1819.83233
 30
0.0
 11
822.909165
 21
-1811.388582
 31
0.0
  0
LINE
  5
B11
330
85F
100
AcDbEntity
  8
1
  6
CENTER
 62
     3
100
AcDbLine
 10
835.9716650000001
 20
-1824.638669
 30
0.0
 11
835.9716650000001
 21
-1814.888669
 31
0.0
  0
LINE
  5
B12
330
85F
100
AcDbEntity
  8
1
  6
CENTER
 62
     3
100
AcDbLine
 10
853.9091650000001
 20
-1819.83233
 30
0.0
 11
849.0341650000001
 21
-1811.388582
 31
0.0
  0
LINE
  5
B13
330
85F
100
AcDbEntity
  8
1
  6
CENTER
 62
     3
100
AcDbLine
 10
867.0403269999997
 20
-1806.701169
 30
0.0
 11
858.5965789999997
 21
-1801.826169
 31
0.0
  0
LINE
  5
B14
330
85F
100
AcDbEntity
  8
1
  6
CENTER
 62
     3
100
AcDbLine
 10
871.8466649999998
 20
-1788.763669
 30
0.0
 11
870.971665
 21
-1788.763669
 31
0.0
  0
LINE
  5
B15
330
85F
100
AcDbEntity
  8
1
  6
CENTER
 62
     3
100
AcDbLine
 10
867.0403269999997
 20
-1770.826169
 30
0.0
 11
858.5965789999997
 21
-1775.701169
 31
0.0
  0
LINE
  5
B16
330
85F
100
AcDbEntity
  8
1
  6
CENTER
 62
     3
100
AcDbLine
 10
853.9091650000001
 20
-1757.695007
 30
0.0
 11
849.0341650000001
 21
-1766.138755
 31
0.0
  0
LINE
  5
B17
330
85F
100
AcDbEntity
  8
1
  6
CENTER
 62
     3
100
AcDbLine
 10
827.365932
 20
-1756.646635
 30
0.0
 11
828.530618
 21
-1760.993301
 31
0.0
  0
LINE
  5
B18
330
85F
100
AcDbEntity
  8
1
  6
CENTER
 62
     3
100
AcDbLine
 10
844.5773990000001
 20
-1820.880703
 30
0.0
 11
843.412713
 21
-1816.534036
 31
0.0
  0
LINE
  5
B19
330
85F
100
AcDbEntity
  8
1
  6
CENTER
 62
     3
100
AcDbLine
 10
870.971665
 20
-1788.763669
 30
0.0
 11
866.9716649999998
 21
-1788.763669
 31
0.0
  0
LINE
  5
B1A
330
85F
100
AcDbEntity
  8
1
  6
CENTER
 62
     3
100
AcDbLine
 10
870.971665
 20
-1788.763669
 30
0.0
 11
862.0966649999997
 21
-1788.763669
 31
0.0
  0
LINE
  5
B1B
330
85F
100
AcDbEntity
  8
1
 62
     7
100
AcDbLine
 10
716.5330889999998
 20
-1798.763669
 30
0.0
 11
716.033089
 21
-1799.263669
 31
0.0
  0
LINE
  5
B1C
330
85F
100
AcDbEntity
  8
1
 62
     7
100
AcDbLine
 10
716.033089
 20
-1799.263669
 30
0.0
 11
716.033089
 21
-1806.541169
 31
0.0
  0
LINE
  5
B1D
330
85F
100
AcDbEntity
  8
1
 62
     7
100
AcDbLine
 10
721.2330889999998
 20
-1806.541169
 30
0.0
 11
721.2330889999998
 21
-1799.263669
 31
0.0
  0
LINE
  5
B1E
330
85F
100
AcDbEntity
  8
1
 62
     7
100
AcDbLine
 10
716.5330889999998
 20
-1798.763669
 30
0.0
 11
720.7330889999998
 21
-1798.763669
 31
0.0
  0
LINE
  5
B1F
330
85F
100
AcDbEntity
  8
1
 62
     7
100
AcDbLine
 10
720.7330889999998
 20
-1798.763669
 30
0.0
 11
721.2330889999998
 21
-1799.263669
 31
0.0
  0
LINE
  5
B20
330
85F
100
AcDbEntity
  8
1
 62
     7
100
AcDbLine
 10
721.2330889999998
 20
-1799.263669
 30
0.0
 11
721.2330889999998
 21
-1788.763669
 31
0.0
  0
LINE
  5
B21
330
85F
100
AcDbEntity
  8
1
 62
     7
100
AcDbLine
 10
716.033089
 20
-1778.263669
 30
0.0
 11
716.5330889999998
 21
-1778.763669
 31
0.0
  0
LINE
  5
B22
330
85F
100
AcDbEntity
  8
1
 62
     7
100
AcDbLine
 10
721.2330889999998
 20
-1778.263669
 30
0.0
 11
720.7330889999998
 21
-1778.763669
 31
0.0
  0
LINE
  5
B23
330
85F
100
AcDbEntity
  8
1
 62
     7
100
AcDbLine
 10
720.7330889999998
 20
-1778.763669
 30
0.0
 11
720.7330889999998
 21
-1798.763669
 31
0.0
  0
LINE
  5
B24
330
85F
100
AcDbEntity
  8
1
 62
     7
100
AcDbLine
 10
716.5330889999998
 20
-1778.763669
 30
0.0
 11
716.5330889999998
 21
-1798.763669
 31
0.0
  0
LINE
  5
B25
330
85F
100
AcDbEntity
  8
1
 62
     7
100
AcDbLine
 10
707.533089
 20
-1786.219443
 30
0.0
 11
707.533089
 21
-1796.013669
 31
0.0
  0
LINE
  5
B26
330
85F
100
AcDbEntity
  8
1
 62
     7
100
AcDbLine
 10
709.533089
 20
-1786.219443
 30
0.0
 11
709.533089
 21
-1796.763669
 31
0.0
  0
LINE
  5
B27
330
85F
100
AcDbEntity
  8
1
 62
     7
100
AcDbLine
 10
707.533089
 20
-1786.219443
 30
0.0
 11
707.533089
 21
-1796.013669
 31
0.0
  0
LINE
  5
B28
330
85F
100
AcDbEntity
  8
1
  6
DASHED
 62
     4
100
AcDbLine
 10
721.533089
 20
-1815.263669
 30
0.0
 11
723.033089
 21
-1815.263669
 31
0.0
  0
LINE
  5
B29
330
85F
100
AcDbEntity
  8
1
 62
     7
100
AcDbLine
 10
721.533089
 20
-1815.263669
 30
0.0
 11
721.533089
 21
-1818.031301999999
 31
0.0
  0
LINE
  5
B2A
330
85F
100
AcDbEntity
  8
1
  6
DASHED
 62
     4
100
AcDbLine
 10
723.033089
 20
-1815.263669
 30
0.0
 11
723.033089
 21
-1806.502398999999
 31
0.0
  0
LINE
  5
B2B
330
85F
100
AcDbEntity
  8
1
  6
DASHED
 62
     4
100
AcDbLine
 10
707.533089
 20
-1815.263669
 30
0.0
 11
707.533089
 21
-1808.027915
 31
0.0
  0
LINE
  5
B2C
330
85F
100
AcDbEntity
  8
1
  6
DASHED
 62
     4
100
AcDbLine
 10
707.533089
 20
-1815.263669
 30
0.0
 11
711.444201
 21
-1815.263669
 31
0.0
  0
LINE
  5
B2D
330
85F
100
AcDbEntity
  8
1
  6
CENTER
 62
     3
100
AcDbLine
 10
848.971665
 20
-1788.763669
 30
0.0
 11
845.971665
 21
-1788.763669
 31
0.0
  0
LINE
  5
B2E
330
85F
100
AcDbEntity
  8
1
  6
CENTER
 62
     3
100
AcDbLine
 10
845.971665
 20
-1788.763669
 30
0.0
 11
793.03395
 21
-1788.763669
 31
0.0
  0
LINE
  5
B2F
330
85F
100
AcDbEntity
  8
1
  6
CENTER
 62
     3
100
AcDbLine
 10
603.8912119999999
 20
-1773.388669
 30
0.0
 11
603.8912119999999
 21
-1780.138669
 31
0.0
  0
LINE
  5
B30
330
85F
100
AcDbEntity
  8
1
  6
CENTER
 62
     3
100
AcDbLine
 10
603.8912119999999
 20
-1773.388669
 30
0.0
 11
603.8912119999999
 21
-1780.138669
 31
0.0
  0
LINE
  5
B31
330
85F
100
AcDbEntity
  8
1
  6
CENTER
 62
     3
100
AcDbLine
 10
603.8912119999999
 20
-1780.138669
 30
0.0
 11
603.8912119999999
 21
-1825.116311
 31
0.0
  0
LINE
  5
B32
330
85F
100
AcDbEntity
  8
1
  6
CENTER
 62
     3
100
AcDbLine
 10
594.008353
 20
-1776.985735
 30
0.0
 11
598.347169
 21
-1782.156535
 31
0.0
  0
LINE
  5
B33
330
85F
100
AcDbEntity
  8
1
  6
CENTER
 62
     3
100
AcDbLine
 10
588.7497929999998
 20
-1786.093828
 30
0.0
 11
595.397245
 21
-1787.265953
 31
0.0
  0
LINE
  5
B34
330
85F
100
AcDbEntity
  8
1
  6
CENTER
 62
     3
100
AcDbLine
 10
590.5760719999998
 20
-1796.451169
 30
0.0
 11
596.4217429999998
 21
-1793.076169
 31
0.0
  0
LINE
  5
B35
330
85F
100
AcDbEntity
  8
1
  6
CENTER
 62
     3
100
AcDbLine
 10
598.632652
 20
-1803.211443
 30
0.0
 11
600.941288
 21
-1796.868518
 31
0.0
  0
LINE
  5
B36
330
85F
100
AcDbEntity
  8
1
  6
CENTER
 62
     3
100
AcDbLine
 10
609.1497719999998
 20
-1803.211443
 30
0.0
 11
606.8411359999998
 21
-1796.868518
 31
0.0
  0
LINE
  5
B37
330
85F
100
AcDbEntity
  8
1
  6
CENTER
 62
     3
100
AcDbLine
 10
617.206353
 20
-1796.451169
 30
0.0
 11
611.360681
 21
-1793.076169
 31
0.0
  0
LINE
  5
B38
330
85F
100
AcDbEntity
  8
1
  6
CENTER
 62
     3
100
AcDbLine
 10
619.0326309999997
 20
-1786.093828
 30
0.0
 11
612.3851789999998
 21
-1787.265953
 31
0.0
  0
LINE
  5
B39
330
85F
100
AcDbEntity
  8
1
  6
CENTER
 62
     3
100
AcDbLine
 10
613.7740719999998
 20
-1776.985735
 30
0.0
 11
609.4352549999999
 21
-1782.156535
 31
0.0
  0
ARC
  5
B3A
330
85F
100
AcDbEntity
  8
1
 62
     7
100
AcDbCircle
 10
714.533089
 20
-1816.598669
 30
0.0
 40
3.0
100
AcDbArc
 50
48.159099
 51
90.0
  0
ARC
  5
B3B
330
85F
100
AcDbEntity
  8
1
 62
     7
100
AcDbCircle
 10
715.033089
 20
-1760.928669
 30
0.0
 40
3.0
100
AcDbArc
 50
270.0
 51
311.8409009999998
  0
CIRCLE
  5
B3C
330
85F
100
AcDbEntity
  8
1
 62
     7
100
AcDbCircle
 10
603.8912119999999
 20
-1788.763669
 30
0.0
 40
34.999999
  0
CIRCLE
  5
B3D
330
85F
100
AcDbEntity
  8
1
 62
     7
100
AcDbCircle
 10
603.8912119999999
 20
-1788.763669
 30
0.0
 40
8.0
  0
CIRCLE
  5
B3E
330
85F
100
AcDbEntity
  8
1
 62
     7
100
AcDbCircle
 10
603.8912119999999
 20
-1788.763669
 30
0.0
 40
16.0
  0
CIRCLE
  5
B3F
330
85F
100
AcDbEntity
  8
1
 62
     7
100
AcDbCircle
 10
603.8912119999999
 20
-1788.763669
 30
0.0
 40
24.835
  0
CIRCLE
  5
B40
330
85F
100
AcDbEntity
  8
1
  6
CENTER
 62
     3
100
AcDbCircle
 10
603.8912119999999
 20
-1788.763669
 30
0.0
 40
25.36649999999999
  0
CIRCLE
  5
B41
330
85F
100
AcDbEntity
  8
1
  6
CENTER
 62
     3
100
AcDbCircle
 10
603.8912119999999
 20
-1788.763669
 30
0.0
 40
31.0
  0
CIRCLE
  5
B42
330
85F
100
AcDbEntity
  8
1
 62
     7
100
AcDbCircle
 10
603.8912119999999
 20
-1757.763669
 30
0.0
 40
1.7
  0
CIRCLE
  5
B43
330
85F
100
AcDbEntity
  8
1
 62
     7
100
AcDbCircle
 10
588.3912119999998
 20
-1761.916880999999
 30
0.0
 40
1.7
  0
CIRCLE
  5
B44
330
85F
100
AcDbEntity
  8
1
 62
     7
100
AcDbCircle
 10
577.044425
 20
-1773.263669
 30
0.0
 40
1.7
  0
CIRCLE
  5
B45
330
85F
100
AcDbEntity
  8
1
 62
     7
100
AcDbCircle
 10
572.891212
 20
-1788.763669
 30
0.0
 40
1.7
  0
CIRCLE
  5
B46
330
85F
100
AcDbEntity
  8
1
 62
     7
100
AcDbCircle
 10
577.044425
 20
-1804.263669
 30
0.0
 40
1.7
  0
CIRCLE
  5
B47
330
85F
100
AcDbEntity
  8
1
 62
     7
100
AcDbCircle
 10
588.3912119999998
 20
-1815.610455999999
 30
0.0
 40
1.7
  0
CIRCLE
  5
B48
330
85F
100
AcDbEntity
  8
1
 62
     7
100
AcDbCircle
 10
603.8912119999999
 20
-1819.763669
 30
0.0
 40
1.7
  0
CIRCLE
  5
B49
330
85F
100
AcDbEntity
  8
1
 62
     7
100
AcDbCircle
 10
619.391212
 20
-1815.610455999999
 30
0.0
 40
1.7
  0
CIRCLE
  5
B4A
330
85F
100
AcDbEntity
  8
1
 62
     7
100
AcDbCircle
 10
630.7380000000001
 20
-1804.263669
 30
0.0
 40
1.7
  0
CIRCLE
  5
B4B
330
85F
100
AcDbEntity
  8
1
 62
     7
100
AcDbCircle
 10
634.891212
 20
-1788.763669
 30
0.0
 40
1.7
  0
CIRCLE
  5
B4C
330
85F
100
AcDbEntity
  8
1
 62
     7
100
AcDbCircle
 10
630.7380000000001
 20
-1773.263669
 30
0.0
 40
1.7
  0
CIRCLE
  5
B4D
330
85F
100
AcDbEntity
  8
1
 62
     7
100
AcDbCircle
 10
619.391212
 20
-1761.916880999999
 30
0.0
 40
1.7
  0
CIRCLE
  5
B4E
330
85F
100
AcDbEntity
  8
1
 62
     3
100
AcDbCircle
 10
611.914603
 20
-1758.819968
 30
0.0
 40
1.5
  0
CIRCLE
  5
B4F
330
85F
100
AcDbEntity
  8
1
 62
     7
100
AcDbCircle
 10
611.914603
 20
-1758.819968
 30
0.0
 40
1.199999999999999
  0
CIRCLE
  5
B50
330
85F
100
AcDbEntity
  8
1
 62
     3
100
AcDbCircle
 10
595.8678219999998
 20
-1818.707369
 30
0.0
 40
1.5
  0
CIRCLE
  5
B51
330
85F
100
AcDbEntity
  8
1
 62
     7
100
AcDbCircle
 10
595.8678219999998
 20
-1818.707369
 30
0.0
 40
1.199999999999999
  0
CIRCLE
  5
B52
330
85F
100
AcDbEntity
  8
1
  6
CENTER
 62
     3
100
AcDbCircle
 10
835.9716650000001
 20
-1788.766682
 30
0.0
 40
25.369513
  0
CIRCLE
  5
B53
330
85F
100
AcDbEntity
  8
1
  6
CENTER
 62
     3
100
AcDbCircle
 10
835.9716650000001
 20
-1788.763669
 30
0.0
 40
31.0
  0
CIRCLE
  5
B54
330
85F
100
AcDbEntity
  8
1
 62
     7
100
AcDbCircle
 10
835.9716650000001
 20
-1757.763669
 30
0.0
 40
1.7
  0
CIRCLE
  5
B55
330
85F
100
AcDbEntity
  8
1
 62
     7
100
AcDbCircle
 10
835.9716650000001
 20
-1757.763669
 30
0.0
 40
3.25
  0
CIRCLE
  5
B56
330
85F
100
AcDbEntity
  8
1
 62
     7
100
AcDbCircle
 10
820.4716649999998
 20
-1761.916880999999
 30
0.0
 40
1.7
  0
CIRCLE
  5
B57
330
85F
100
AcDbEntity
  8
1
 62
     7
100
AcDbCircle
 10
820.4716649999998
 20
-1761.916880999999
 30
0.0
 40
3.25
  0
CIRCLE
  5
B58
330
85F
100
AcDbEntity
  8
1
 62
     7
100
AcDbCircle
 10
809.124878
 20
-1773.263669
 30
0.0
 40
1.7
  0
CIRCLE
  5
B59
330
85F
100
AcDbEntity
  8
1
 62
     7
100
AcDbCircle
 10
809.124878
 20
-1773.263669
 30
0.0
 40
3.25
  0
CIRCLE
  5
B5A
330
85F
100
AcDbEntity
  8
1
 62
     7
100
AcDbCircle
 10
804.971665
 20
-1788.763669
 30
0.0
 40
1.7
  0
CIRCLE
  5
B5B
330
85F
100
AcDbEntity
  8
1
 62
     7
100
AcDbCircle
 10
804.971665
 20
-1788.763669
 30
0.0
 40
3.25
  0
CIRCLE
  5
B5C
330
85F
100
AcDbEntity
  8
1
 62
     7
100
AcDbCircle
 10
809.124878
 20
-1804.263669
 30
0.0
 40
1.7
  0
CIRCLE
  5
B5D
330
85F
100
AcDbEntity
  8
1
 62
     7
100
AcDbCircle
 10
809.124878
 20
-1804.263669
 30
0.0
 40
3.25
  0
CIRCLE
  5
B5E
330
85F
100
AcDbEntity
  8
1
 62
     7
100
AcDbCircle
 10
820.4716649999998
 20
-1815.610455999999
 30
0.0
 40
1.7
  0
CIRCLE
  5
B5F
330
85F
100
AcDbEntity
  8
1
 62
     7
100
AcDbCircle
 10
820.4716649999998
 20
-1815.610455999999
 30
0.0
 40
3.25
  0
CIRCLE
  5
B60
330
85F
100
AcDbEntity
  8
1
 62
     7
100
AcDbCircle
 10
835.9716650000001
 20
-1819.763669
 30
0.0
 40
1.7
  0
CIRCLE
  5
B61
330
85F
100
AcDbEntity
  8
1
 62
     7
100
AcDbCircle
 10
835.9716650000001
 20
-1819.763669
 30
0.0
 40
3.25
  0
CIRCLE
  5
B62
330
85F
100
AcDbEntity
  8
1
 62
     7
100
AcDbCircle
 10
851.471665
 20
-1815.610455999999
 30
0.0
 40
1.7
  0
CIRCLE
  5
B63
330
85F
100
AcDbEntity
  8
1
 62
     7
100
AcDbCircle
 10
851.471665
 20
-1815.610455999999
 30
0.0
 40
3.25
  0
CIRCLE
  5
B64
330
85F
100
AcDbEntity
  8
1
 62
     7
100
AcDbCircle
 10
862.818453
 20
-1804.263669
 30
0.0
 40
1.7
  0
CIRCLE
  5
B65
330
85F
100
AcDbEntity
  8
1
 62
     7
100
AcDbCircle
 10
862.818453
 20
-1804.263669
 30
0.0
 40
3.25
  0
CIRCLE
  5
B66
330
85F
100
AcDbEntity
  8
1
 62
     7
100
AcDbCircle
 10
866.9716649999998
 20
-1788.763669
 30
0.0
 40
1.7
  0
CIRCLE
  5
B67
330
85F
100
AcDbEntity
  8
1
 62
     7
100
AcDbCircle
 10
866.9716649999998
 20
-1788.763669
 30
0.0
 40
3.25
  0
CIRCLE
  5
B68
330
85F
100
AcDbEntity
  8
1
 62
     7
100
AcDbCircle
 10
862.818453
 20
-1773.263669
 30
0.0
 40
1.7
  0
CIRCLE
  5
B69
330
85F
100
AcDbEntity
  8
1
 62
     7
100
AcDbCircle
 10
862.818453
 20
-1773.263669
 30
0.0
 40
3.25
  0
CIRCLE
  5
B6A
330
85F
100
AcDbEntity
  8
1
 62
     7
100
AcDbCircle
 10
851.471665
 20
-1761.916880999999
 30
0.0
 40
1.7
  0
CIRCLE
  5
B6B
330
85F
100
AcDbEntity
  8
1
 62
     7
100
AcDbCircle
 10
851.471665
 20
-1761.916880999999
 30
0.0
 40
3.25
  0
CIRCLE
  5
B6C
330
85F
100
AcDbEntity
  8
1
 62
     3
100
AcDbCircle
 10
827.9482749999997
 20
-1758.819968
 30
0.0
 40
1.5
  0
CIRCLE
  5
B6D
330
85F
100
AcDbEntity
  8
1
 62
     7
100
AcDbCircle
 10
827.9482749999997
 20
-1758.819968
 30
0.0
 40
1.199999999999999
  0
CIRCLE
  5
B6E
330
85F
100
AcDbEntity
  8
1
 62
     3
100
AcDbCircle
 10
843.9950560000001
 20
-1818.707369
 30
0.0
 40
1.5
  0
CIRCLE
  5
B6F
330
85F
100
AcDbEntity
  8
1
 62
     7
100
AcDbCircle
 10
843.9950560000001
 20
-1818.707369
 30
0.0
 40
1.199999999999999
  0
CIRCLE
  5
B70
330
85F
100
AcDbEntity
  8
1
 62
     7
100
AcDbCircle
 10
835.9716650000001
 20
-1788.763669
 30
0.0
 40
35.0
  0
CIRCLE
  5
B71
330
85F
100
AcDbEntity
  8
1
  6
CENTER
 62
     3
100
AcDbCircle
 10
835.9716650000001
 20
-1788.763669
 30
0.0
 40
13.0
  0
CIRCLE
  5
B72
330
85F
100
AcDbEntity
  8
1
 62
     3
100
AcDbCircle
 10
835.9695349999999
 20
-1775.764551
 30
0.0
 40
1.5
  0
CIRCLE
  5
B73
330
85F
100
AcDbEntity
  8
1
 62
     7
100
AcDbCircle
 10
835.9695349999999
 20
-1775.764551
 30
0.0
 40
1.199999999999999
  0
CIRCLE
  5
B74
330
85F
100
AcDbEntity
  8
1
 62
     3
100
AcDbCircle
 10
822.969535
 20
-1788.764551
 30
0.0
 40
1.5
  0
CIRCLE
  5
B75
330
85F
100
AcDbEntity
  8
1
 62
     7
100
AcDbCircle
 10
822.969535
 20
-1788.764551
 30
0.0
 40
1.199999999999999
  0
CIRCLE
  5
B76
330
85F
100
AcDbEntity
  8
1
 62
     3
100
AcDbCircle
 10
835.9695349999999
 20
-1801.764551
 30
0.0
 40
1.5
  0
CIRCLE
  5
B77
330
85F
100
AcDbEntity
  8
1
 62
     7
100
AcDbCircle
 10
835.9695349999999
 20
-1801.764551
 30
0.0
 40
1.199999999999999
  0
CIRCLE
  5
B78
330
85F
100
AcDbEntity
  8
1
 62
     3
100
AcDbCircle
 10
848.9695349999998
 20
-1788.764551
 30
0.0
 40
1.5
  0
CIRCLE
  5
B79
330
85F
100
AcDbEntity
  8
1
 62
     7
100
AcDbCircle
 10
848.9695349999998
 20
-1788.764551
 30
0.0
 40
1.199999999999999
  0
CIRCLE
  5
B7A
330
85F
100
AcDbEntity
  8
1
 62
     7
100
AcDbCircle
 10
835.9716650000001
 20
-1788.763669
 30
0.0
 40
10.0
  0
CIRCLE
  5
B7B
330
85F
100
AcDbEntity
  8
1
  6
CENTER
 62
     3
100
AcDbCircle
 10
603.8912119999999
 20
-1788.763669
 30
0.0
 40
12.0
  0
CIRCLE
  5
B7C
330
85F
100
AcDbEntity
  8
1
 62
     7
100
AcDbCircle
 10
603.8912119999999
 20
-1776.763669
 30
0.0
 40
2.25
  0
CIRCLE
  5
B7D
330
85F
100
AcDbEntity
  8
1
 62
     7
100
AcDbCircle
 10
596.177761
 20
-1779.571135
 30
0.0
 40
2.25
  0
CIRCLE
  5
B7E
330
85F
100
AcDbEntity
  8
1
 62
     7
100
AcDbCircle
 10
592.073519
 20
-1786.679891
 30
0.0
 40
2.25
  0
CIRCLE
  5
B7F
330
85F
100
AcDbEntity
  8
1
 62
     7
100
AcDbCircle
 10
593.498907
 20
-1794.763669
 30
0.0
 40
2.25
  0
CIRCLE
  5
B80
330
85F
100
AcDbEntity
  8
1
 62
     7
100
AcDbCircle
 10
599.7869699999998
 20
-1800.03998
 30
0.0
 40
2.25
  0
CIRCLE
  5
B81
330
85F
100
AcDbEntity
  8
1
 62
     7
100
AcDbCircle
 10
607.995454
 20
-1800.03998
 30
0.0
 40
2.25
  0
CIRCLE
  5
B82
330
85F
100
AcDbEntity
  8
1
 62
     7
100
AcDbCircle
 10
614.2835169999998
 20
-1794.763669
 30
0.0
 40
2.25
  0
CIRCLE
  5
B83
330
85F
100
AcDbEntity
  8
1
 62
     7
100
AcDbCircle
 10
615.7089049999998
 20
-1786.679891
 30
0.0
 40
2.25
  0
CIRCLE
  5
B84
330
85F
100
AcDbEntity
  8
1
 62
     7
100
AcDbCircle
 10
611.6046629999998
 20
-1779.571135
 30
0.0
 40
2.25
  0
ARC
  5
B85
330
85F
100
AcDbEntity
  8
1
 62
     7
100
AcDbCircle
 10
710.682089
 20
-1812.148669
 30
0.0
 40
1.45
100
AcDbArc
 50
180.0
 51
270.0
  0
ARC
  5
B86
330
85F
100
AcDbEntity
  8
1
 62
     7
100
AcDbCircle
 10
710.682089
 20
-1765.378669
 30
0.0
 40
1.45
100
AcDbArc
 50
90.0
 51
180.0
  0
ARC
  5
B87
330
85F
100
AcDbEntity
  8
1
 62
     7
100
AcDbCircle
 10
710.783089
 20
-1765.479669
 30
0.0
 40
1.25
100
AcDbArc
 50
90.0
 51
180.0
  0
ARC
  5
B88
330
85F
100
AcDbEntity
  8
1
 62
     7
100
AcDbCircle
 10
710.783089
 20
-1812.047669
 30
0.0
 40
1.25
100
AcDbArc
 50
180.0
 51
270.0
  0
LINE
  5
B89
330
85F
100
AcDbEntity
  8
1
 62
     3
100
AcDbLine
 10
831.581637
 20
-1728.763669
 30
0.0
 11
813.525583
 21
-1728.763669
 31
0.0
  0
LINE
  5
B8A
330
85F
100
AcDbEntity
  8
1
 62
     3
100
AcDbLine
 10
813.525583
 20
-1728.763669
 30
0.0
 11
827.3189740000001
 21
-1757.798214999999
 31
0.0
  0
SOLID
  5
B8B
330
85F
100
AcDbEntity
  8
1
 62
     3
100
AcDbTrace
 10
825.400894
 20
-1754.834553
 30
0.0
 11
826.233303
 21
-1754.439102
 31
0.0
 12
827.3189740000001
 22
-1757.798214999999
 32
0.0
 13
827.3189740000001
 23
-1757.798214999999
 33
0.0
  0
LINE
  5
B8C
330
85F
100
AcDbEntity
  8
1
 62
     3
100
AcDbLine
 10
560.5138059999998
 20
-1738.763669
 30
0.0
 11
588.5496019999997
 21
-1738.763669
 31
0.0
  0
LINE
  5
B8D
330
85F
100
AcDbEntity
  8
1
 62
     3
100
AcDbLine
 10
588.5496019999997
 20
-1738.763669
 30
0.0
 11
603.261419
 21
-1774.603609
 31
0.0
  0
SOLID
  5
B8E
330
85F
100
AcDbEntity
  8
1
 62
     3
100
AcDbTrace
 10
601.506065
 20
-1771.540758
 30
0.0
 11
602.3586019999997
 21
-1771.190803
 31
0.0
 12
603.261419
 22
-1774.603609
 32
0.0
 13
603.261419
 23
-1774.603609
 33
0.0
  0
LINE
  5
B8F
330
85F
100
AcDbEntity
  8
1
 62
     3
100
AcDbLine
 10
853.16334
 20
-1738.763669
 30
0.0
 11
826.5684359999998
 21
-1738.763669
 31
0.0
  0
LINE
  5
B90
330
85F
100
AcDbEntity
  8
1
 62
     3
100
AcDbLine
 10
826.5684359999998
 20
-1738.763669
 30
0.0
 11
834.863522
 21
-1756.474476
 31
0.0
  0
SOLID
  5
B91
330
85F
100
AcDbEntity
  8
1
 62
     3
100
AcDbTrace
 10
832.961726
 20
-1753.500338
 30
0.0
 11
833.796292
 21
-1753.109459
 31
0.0
 12
834.863522
 22
-1756.474476
 32
0.0
 13
834.863522
 23
-1756.474476
 33
0.0
  0
LINE
  5
B92
330
85F
100
AcDbEntity
  8
1
 62
     3
100
AcDbLine
 10
741.5330889999998
 20
-1830.315514
 30
0.0
 11
708.9846209999998
 21
-1830.315514
 31
0.0
  0
LINE
  5
B93
330
85F
100
AcDbEntity
  8
1
 62
     3
100
AcDbLine
 10
708.9846209999998
 20
-1830.315514
 30
0.0
 11
715.734778
 21
-1823.565357
 31
0.0
  0
SOLID
  5
B94
330
85F
100
AcDbEntity
  8
1
 62
     3
100
AcDbTrace
 10
713.5857269999997
 20
-1826.366054
 30
0.0
 11
712.934081
 21
-1825.714407999999
 31
0.0
 12
715.734778
 22
-1823.565357
 32
0.0
 13
715.734778
 23
-1823.565357
 33
0.0
  0
LINE
  5
B95
330
85F
100
AcDbEntity
  8
1
 62
     3
100
AcDbLine
 10
728.0967239999998
 20
-1830.315514
 30
0.0
 11
721.3389839999998
 21
-1823.557774
 31
0.0
  0
SOLID
  5
B96
330
85F
100
AcDbEntity
  8
1
 62
     3
100
AcDbTrace
 10
724.139681
 20
-1825.706824
 30
0.0
 11
723.488034
 21
-1826.358470999999
 31
0.0
 12
721.3389839999998
 22
-1823.557774
 32
0.0
 13
721.3389839999998
 23
-1823.557774
 33
0.0
  0
LINE
  5
B97
330
85F
100
AcDbEntity
  8
1
 62
     3
100
AcDbLine
 10
703.822515
 20
-1769.065072
 30
0.0
 11
707.7270999999998
 21
-1772.969657
 31
0.0
  0
SOLID
  5
B98
330
85F
100
AcDbEntity
  8
1
 62
     3
100
AcDbTrace
 10
704.926403
 20
-1770.820607
 30
0.0
 11
705.57805
 21
-1770.16896
 31
0.0
 12
707.7270999999998
 22
-1772.969657
 32
0.0
 13
707.7270999999998
 23
-1772.969657
 33
0.0
  0
LINE
  5
B99
330
85F
100
AcDbEntity
  8
1
 62
     3
100
AcDbLine
 10
703.628503
 20
-1792.859082999999
 30
0.0
 11
707.533089
 21
-1796.763669
 31
0.0
  0
SOLID
  5
B9A
330
85F
100
AcDbEntity
  8
1
 62
     3
100
AcDbTrace
 10
704.732392
 20
-1794.614617999999
 30
0.0
 11
705.384038
 21
-1793.962972
 31
0.0
 12
707.533089
 22
-1796.763669
 32
0.0
 13
707.533089
 23
-1796.763669
 33
0.0
  0
LINE
  5
B9B
330
85F
100
AcDbEntity
  8
1
 62
     3
100
AcDbLine
 10
712.3656999999998
 20
-1782.405450999999
 30
0.0
 11
716.2702849999998
 21
-1778.500864999999
 31
0.0
  0
SOLID
  5
B9C
330
85F
100
AcDbEntity
  8
1
 62
     3
100
AcDbTrace
 10
714.1212349999998
 20
-1781.301562
 30
0.0
 11
713.469588
 21
-1780.649916
 31
0.0
 12
716.2702849999998
 22
-1778.500864999999
 32
0.0
 13
716.2702849999998
 23
-1778.500864999999
 33
0.0
  0
LINE
  5
B9D
330
85F
100
AcDbEntity
  8
1
 62
     3
100
AcDbLine
 10
724.5441409999998
 20
-1795.451708999999
 30
0.0
 11
720.982635
 21
-1799.013215
 31
0.0
  0
SOLID
  5
B9E
330
85F
100
AcDbEntity
  8
1
 62
     3
100
AcDbTrace
 10
723.131686
 20
-1796.212518
 30
0.0
 11
723.783332
 21
-1796.864164999999
 31
0.0
 12
720.982635
 22
-1799.013215
 32
0.0
 13
720.982635
 23
-1799.013215
 33
0.0
  0
LINE
  5
B9F
330
85F
100
AcDbEntity
  8
1
 62
     3
100
AcDbLine
 10
841.6192380000001
 20
-1843.763668
 30
0.0
 11
821.619238
 21
-1843.763668
 31
0.0
  0
LINE
  5
BA0
330
85F
100
AcDbEntity
  8
1
 62
     3
100
AcDbLine
 10
821.619238
 20
-1843.763668
 30
0.0
 11
835.3784820000001
 21
-1802.808896
 31
0.0
  0
SOLID
  5
BA1
330
85F
100
AcDbEntity
  8
1
 62
     3
100
AcDbTrace
 10
834.7006309999997
 20
-1806.273408
 30
0.0
 11
833.827046
 21
-1805.979917
 31
0.0
 12
835.3784820000001
 22
-1802.808896
 32
0.0
 13
835.3784820000001
 23
-1802.808896
 33
0.0
  0
TEXT
  5
BA2
330
85F
100
AcDbEntity
  8
1
 62
     3
100
AcDbText
 10
816.7150379999997
 20
-1727.424327
 30
0.0
 40
4.0
  1
2-M3
 41
0.9
 11
816.7150379999997
 21
-1723.424327
 31
0.0
100
AcDbText
 73
     3
  0
TEXT
  5
BA3
330
85F
100
AcDbEntity
  8
1
 62
     3
100
AcDbText
 10
567.5496019999997
 20
-1737.563669
 30
0.0
 40
4.0
  1
9-%%c4.5
 41
0.9
 72
     2
 11
585.5496019999998
 21
-1737.563669
 31
0.0
100
AcDbText
  0
TEXT
  5
BA4
330
85F
100
AcDbEntity
  8
1
 62
     3
100
AcDbText
 10
829.085092
 20
-1736.991953999999
 30
0.0
 40
4.0
  1
12-%%c3.4
 41
0.9
 11
829.085092
 21
-1732.991954
 31
0.0
100
AcDbText
 73
     3
  0
TEXT
  5
BA5
330
85F
100
AcDbEntity
  8
1
 62
     3
100
AcDbText
 10
730.6709699999998
 20
-1829.604844999999
 30
0.0
 40
3.5
  1
C0.4
 41
0.9
100
AcDbText
  0
TEXT
  5
BA6
330
85F
100
AcDbEntity
  8
1
 62
     3
100
AcDbText
 10
694.450384
 20
-1767.940353
 30
0.0
 40
3.5
  1
C0.3
 41
0.9
100
AcDbText
  0
TEXT
  5
BA7
330
85F
100
AcDbEntity
  8
1
 62
     3
100
AcDbText
 10
694.679957
 20
-1791.703314
 30
0.0
 40
3.5
  1
C0.3
 41
0.9
100
AcDbText
  0
TEXT
  5
BA8
330
85F
100
AcDbEntity
  8
1
 62
     3
100
AcDbText
 10
703.306404
 20
-1785.290542
 30
0.0
 40
3.5
  1
C0.5
 41
0.72
100
AcDbText
  0
TEXT
  5
BA9
330
85F
100
AcDbEntity
  8
1
 62
     3
100
AcDbText
 10
723.9370690000002
 20
-1794.501453999999
 30
0.0
 40
3.5
  1
C0.5
 41
0.9
100
AcDbText
  0
TEXT
  5
BAA
330
85F
100
AcDbEntity
  8
1
 62
     3
100
AcDbText
 10
825.6192379999998
 20
-1842.563668
 30
0.0
 40
4.0
  1
4-M3
 41
0.9
100
AcDbText
  0
DIMENSION
  5
BAB
330
85F
100
AcDbEntity
  8
1
  6
Continuous
 62
     2
100
AcDbDimension
  2
*D12
 10
721.533089
 20
-1804.763669
 30
0.0
 11
729.070904
 21
-1801.713669
 31
0.0
 71
     5
 42
-1.0
  3
DMST_1
100
AcDbAlignedDimension
 13
721.2330889999998
 23
-1806.541169
 33
0.0
 14
721.533089
 24
-1814.296669
 34
0.0
100
AcDbRotatedDimension
  0
DIMENSION
  5
BAC
330
85F
100
AcDbEntity
  8
1
  6
Continuous
 62
     2
100
AcDbDimension
  2
*D13
 10
721.533089
 20
-1743.763669
 30
0.0
 11
728.00404
 21
-1740.713669
 31
0.0
 71
     5
 42
-1.0
  3
DMST_1
100
AcDbAlignedDimension
 13
718.2330889999998
 23
-1754.496036
 33
0.0
 14
721.533089
 24
-1754.163669
 34
0.0
100
AcDbRotatedDimension
  0
DIMENSION
  5
BAD
330
85F
100
AcDbEntity
  8
1
  6
Continuous
 62
     2
100
AcDbDimension
  2
*D14
 10
740.6437209999998
 20
-1754.496036
 30
0.0
 11
737.593721
 21
-1743.763669
 31
0.0
  1
%%c<>
 71
     5
 42
-1.0
  3
DMST_1
100
AcDbAlignedDimension
 13
721.533089
 23
-1760.996035999999
 33
0.0
 14
721.533089
 24
-1754.496036
 34
0.0
 50
90.0
100
AcDbRotatedDimension
  0
DIMENSION
  5
BAE
330
85F
100
AcDbEntity
  8
1
  6
Continuous
 62
     2
100
AcDbDimension
  2
*D15
 10
761.533089
 20
-1753.763669
 30
0.0
 11
757.458089
 21
-1788.763669
 31
0.0
  1
70 h7
 71
     5
 42
-1.0
  3
DMST_1
100
AcDbAlignedDimension
 13
721.1330889999998
 23
-1823.763668
 33
0.0
 14
721.1330889999998
 24
-1753.763669
 34
0.0
 50
90.0
100
AcDbRotatedDimension
  0
DIMENSION
  5
BAF
330
85F
100
AcDbEntity
  8
1
  6
Continuous
 62
     2
100
AcDbDimension
  2
*D16
 10
721.533089
 20
-1728.763669
 30
0.0
 11
726.9206379999998
 21
-1725.763669
 31
0.0
 71
     5
 42
-1.0
  3
DMST_1
100
AcDbAlignedDimension
 13
715.533089
 23
-1754.163669
 33
0.0
 14
721.533089
 24
-1754.163669
 34
0.0
100
AcDbRotatedDimension
  0
DIMENSION
  5
BB0
330
85F
100
AcDbEntity
  8
1
  6
Continuous
 62
     2
100
AcDbDimension
  2
*D18
 10
707.533089
 20
-1738.763669
 30
0.0
 11
700.3171179999998
 21
-1735.763669
 31
0.0
 71
     5
 42
-1.0
  3
DMST_1
100
AcDbAlignedDimension
 13
709.533089
 23
-1765.479669
 33
0.0
 14
707.533089
 24
-1773.163669
 34
0.0
100
AcDbRotatedDimension
  0
DIMENSION
  5
BB1
330
85F
100
AcDbEntity
  8
1
  6
Continuous
 62
     2
100
AcDbDimension
  2
*D19
 10
707.533089
 20
-1718.763669
 30
0.0
 11
714.401334
 21
-1715.763669
 31
0.0
 71
     5
 42
-1.0
  3
DMST_1
100
AcDbAlignedDimension
 13
721.533089
 23
-1754.163669
 33
0.0
 14
707.533089
 24
-1773.163669
 34
0.0
100
AcDbRotatedDimension
  0
DIMENSION
  5
BB2
330
85F
100
AcDbEntity
  8
1
  6
Continuous
 62
     2
100
AcDbDimension
  2
*D20
 10
682.533089
 20
-1772.763669
 30
0.0
 11
679.533089
 21
-1788.763669
 31
0.0
  1
%%c<>
 71
     5
 42
-1.0
  3
DMST_1
100
AcDbAlignedDimension
 13
707.933089
 23
-1804.763669
 33
0.0
 14
707.933089
 24
-1772.763669
 34
0.0
 50
90.0
100
AcDbRotatedDimension
  0
DIMENSION
  5
BB3
330
85F
100
AcDbEntity
  8
1
  6
Continuous
 62
     2
100
AcDbDimension
  2
*D21
 10
721.2330889999998
 20
-1787.219443
 30
0.0
 11
727.119528
 21
-1784.169443
 31
0.0
 71
     5
 42
-1.0
  3
DMST_1
100
AcDbAlignedDimension
 13
716.033089
 23
-1774.563669
 33
0.0
 14
721.2330889999998
 24
-1774.563669
 34
0.0
100
AcDbRotatedDimension
  0
DIMENSION
  5
BB4
330
85F
100
AcDbEntity
  8
1
  6
Continuous
 62
     2
100
AcDbDimension
  2
*D22
 10
723.033089
 20
-1838.763668
 30
0.0
 11
738.1268759999998
 21
-1835.713668
 31
0.0
  1
M.H.C.<>
 71
     5
 42
-1.0
  3
DMST_1
100
AcDbAlignedDimension
 13
721.533089
 23
-1823.363668
 33
0.0
 14
723.033089
 24
-1815.263669
 34
0.0
100
AcDbRotatedDimension
  0
DIMENSION
  5
BB5
330
85F
100
AcDbEntity
  8
1
  6
Continuous
 62
     2
100
AcDbDimension
  2
*D23
 10
707.533089
 20
-1848.763668
 30
0.0
 11
694.6327110000002
 21
-1845.713667999999
 31
0.0
  1
M.H.C.<>
 71
     5
 42
-1.0
  3
DMST_1
100
AcDbAlignedDimension
 13
715.533089
 23
-1823.363668
 33
0.0
 14
707.533089
 24
-1815.263669
 34
0.0
100
AcDbRotatedDimension
  0
DIMENSION
  5
BB6
330
85F
100
AcDbEntity
  8
1
  6
Continuous
 62
     2
100
AcDbDimension
  2
*D24
 10
692.533089
 20
-1780.763669
 30
0.0
 11
688.4580889999998
 21
-1787.300446999999
 31
0.0
  1
16 H6
 71
     5
 42
-1.0
  3
DMST_1
100
AcDbAlignedDimension
 13
707.533089
 23
-1796.763669
 33
0.0
 14
707.533089
 24
-1780.763669
 34
0.0
 50
90.0
100
AcDbRotatedDimension
  0
DIMENSION
  5
BB7
330
85F
100
AcDbEntity
  8
1
  6
Continuous
 62
     2
100
AcDbDimension
  2
*D28
 10
823.9037319999999
 20
-1783.929934
 30
0.0
 11
876.66626
 21
-1801.831929
 31
0.0
 70
     3
 71
     5
 42
-1.0
  3
DMST_1
100
AcDbDiametricDimension
 15
848.039598
 25
-1793.597403999999
 35
0.0
 40
0.0
  0
DIMENSION
  5
BB8
330
85F
100
AcDbEntity
  8
1
  6
Continuous
 62
     2
100
AcDbDimension
  2
*D29
 10
806.920028
 20
-1799.580432
 30
0.0
 11
876.750249
 21
-1770.379428999999
 31
0.0
 70
     3
 71
     5
 42
-1.0
  3
DMST_1
100
AcDbDiametricDimension
 15
865.0233029999997
 25
-1777.946906
 35
0.0
 40
0.0
  0
DIMENSION
  5
BB9
330
85F
100
AcDbEntity
  8
1
  6
Continuous
 62
     2
100
AcDbDimension
  2
*D30
 10
615.421312
 20
-1792.088845
 30
0.0
 11
563.1123219999998
 21
-1773.881144
 31
0.0
 70
     3
 71
     5
 42
-1.0
  3
DMST_1
100
AcDbDiametricDimension
 15
592.361112
 25
-1785.438492
 35
0.0
 40
0.0
  0
DIMENSION
  5
BBA
330
85F
100
AcDbEntity
  8
1
  6
Continuous
 62
     2
100
AcDbDimension
  2
*D31
 10
835.9716650000001
 20
-1752.888669
 30
0.0
 11
811.985699
 21
-1745.122688
 31
0.0
 70
     2
 71
     5
 42
-1.0
  3
DMST_1
100
AcDb2LineAngularDimension
 13
827.365932
 23
-1756.646635
 33
0.0
 14
828.530618
 24
-1760.993301
 34
0.0
 15
835.9716650000001
 25
-1745.825952999999
 35
0.0
 16
829.8632730000001
 26
-1742.365823999999
 36
0.0
  0
INSERT
  5
BBB
330
85F
100
AcDbEntity
  8
0
100
AcDbBlockReference
  2
WB_020_R
 10
835.9716650000001
 20
-1788.763669
 30
0.0
  0
INSERT
  5
BBC
330
85F
100
AcDbEntity
  8
0
100
AcDbBlockReference
  2
000000150-020B__1
 10
704.8584789999998
 20
-1813.595334
 30
0.0
  0
INSERT
  5
BBD
330
85F
100
AcDbEntity
  8
0
100
AcDbBlockReference
  2
TOP__2
 10
944.103574
 20
-1575.055666
 30
0.0
  0
INSERT
  5
BBE
330
85F
100
AcDbEntity
  8
0
100
AcDbBlockReference
  2
TOP__3
 10
944.103574
 20
-2002.471671999999
 30
0.0
  0
INSERT
  5
BBF
330
85F
100
AcDbEntity
  8
0
100
AcDbBlockReference
  2
000000150-020B__4
 10
704.8584789999998
 20
-1763.932004
 30
0.0
  0
INSERT
  5
BC0
330
85F
100
AcDbEntity
  8
1
100
AcDbBlockReference
  2
*D17
 10
0.0
 20
0.0
 30
0.0
  0
INSERT
  5
BC1
330
85F
100
AcDbEntity
  8
1
100
AcDbBlockReference
  2
*D25
 10
0.0
 20
0.0
 30
0.0
  0
INSERT
  5
BC2
330
85F
100
AcDbEntity
  8
1
100
AcDbBlockReference
  2
*D26
 10
0.0
 20
0.0
 30
0.0
  0
INSERT
  5
BC3
330
85F
100
AcDbEntity
  8
1
100
AcDbBlockReference
  2
*D27
 10
0.0
 20
0.0
 30
0.0
  0
TEXT
  5
BC5
330
85F
100
AcDbEntity
  8
0
100
AcDbText
 10
791.842
 20
-1863.349999999999
 30
0.0
 40
3.5
  1
CSD-20-XX-2A-GR
100
AcDbText
  0
LINE
  5
BF0
330
85F
100
AcDbEntity
  8
0
100
AcDbLine
 10
709.2320889999998
 20
-1765.378669
 30
0.0
 11
709.2320889999998
 21
-1772.263669
 31
0.0
  0
LINE
  5
BF1
330
85F
100
AcDbEntity
  8
0
100
AcDbLine
 10
709.2320889999998
 20
-1812.148669
 30
0.0
 11
709.2320889999998
 21
-1805.263669
 31
0.0
  0
ARC
  5
BF2
330
85F
100
AcDbEntity
  8
0
100
AcDbCircle
 10
708.7320889999999
 20
-1772.263669
 30
0.0
 40
0.5
100
AcDbArc
 50
270.0
 51
0.0
  0
ARC
  5
BF3
330
85F
100
AcDbEntity
  8
0
100
AcDbCircle
 10
708.7320889999999
 20
-1805.263669
 30
0.0
 40
0.5
100
AcDbArc
 50
0.0
 51
90.0
  0
LINE
  5
BF4
330
85F
100
AcDbEntity
  8
1
 62
     7
100
AcDbLine
 10
708.7320889999999
 20
-1804.763669
 30
0.0
 11
707.933089
 21
-1804.763669
 31
0.0
  0
INSERT
  5
C65
330
85F
100
AcDbEntity
  8
0
100
AcDbBlockReference
  2
HD logo-new
 10
751.7156776244924
 20
-1887.226976601373
 30
0.0
 41
0.9
 42
0.9
 43
0.9
  0
INSERT
  5
C8F
330
85F
100
AcDbEntity
  8
0
100
AcDbBlockReference
  2
HD LLC
 10
844.9242248432501
 20
-1893.841373659309
 30
0.0
 41
0.85
 42
0.85
 43
0.85
  0
INSERT
  5
C9B
330
85F
100
AcDbEntity
  8
0
100
AcDbBlockReference
  2
NTC
 10
544.5773741971984
 20
-1861.593147596737
 30
0.0
 41
0.5310000000000001
 42
0.5310000000000001
 43
0.5310000000000001
  0
ENDSEC
  0
SECTION
  2
OBJECTS
  0
DICTIONARY
  5
84D
330
0
100
AcDbDictionary
281
     1
  3
ACAD_GROUP
350
84E
  3
ACAD_LAYOUT
350
85A
  3
ACAD_MLINESTYLE
350
857
  3
ACAD_PLOTSETTINGS
350
859
  3
ACAD_PLOTSTYLENAME
350
84F
  3
AcDbVariableDictionary
350
C7D
  0
DICTIONARY
  5
84E
102
{ACAD_REACTORS
330
84D
102
}
330
84D
100
AcDbDictionary
281
     1
  0
DICTIONARY
  5
85A
102
{ACAD_REACTORS
330
84D
102
}
330
84D
100
AcDbDictionary
281
     1
  3
Layout1
350
85E
  3
Model
350
862
  0
DICTIONARY
  5
857
102
{ACAD_REACTORS
330
84D
102
}
330
84D
100
AcDbDictionary
281
     1
  3
Standard
350
858
  0
DICTIONARY
  5
859
102
{ACAD_REACTORS
330
84D
102
}
330
84D
100
AcDbDictionary
281
     1
  0
ACDBDICTIONARYWDFLT
  5
84F
102
{ACAD_REACTORS
330
84D
102
}
330
84D
100
AcDbDictionary
281
     1
  3
Normal
350
850
100
AcDbDictionaryWithDefault
340
850
  0
DICTIONARY
  5
C7D
102
{ACAD_REACTORS
330
84D
102
}
330
84D
100
AcDbDictionary
281
     1
  3
DIMASSOC
350
C7E
  0
LAYOUT
  5
85E
102
{ACAD_REACTORS
330
85A
102
}
330
85A
100
AcDbPlotSettings
  1

  2
\\SERVER9\HP LaserJet 5100 PCL 5e
  4

  6

 40
0.0
 41
0.0
 42
0.0
 43
0.0
 44
0.0
 45
0.0
 46
0.0
 47
0.0
 48
0.0
 49
0.0
140
0.0
141
0.0
142
1.0
143
1.0
 70
   688
 72
     0
 73
     0
 74
     5
  7

 75
    16
147
1.0
148
0.0
149
0.0
100
AcDbLayout
  1
Layout1
 70
     1
 71
     1
 10
0.0
 20
0.0
 11
12.0
 21
9.0
 12
0.0
 22
0.0
 32
0.0
 14
1.000000000000000E+20
 24
1.000000000000000E+20
 34
1.000000000000000E+20
 15
-1.000000000000000E+20
 25
-1.000000000000000E+20
 35
-1.000000000000000E+20
146
0.0
 13
0.0
 23
0.0
 33
0.0
 16
1.0
 26
0.0
 36
0.0
 17
0.0
 27
1.0
 37
0.0
 76
     0
330
85B
  0
LAYOUT
  5
862
102
{ACAD_REACTORS
330
85A
102
}
330
85A
100
AcDbPlotSettings
  1

  2
\\SERVER9\HP LaserJet 5100 PCL 5e
  4

  6

 40
0.0
 41
0.0
 42
0.0
 43
0.0
 44
0.0
 45
0.0
 46
0.0
 47
0.0
 48
0.0
 49
0.0
140
0.0
141
0.0
142
1.0
143
1.0
 70
  1712
 72
     0
 73
     0
 74
     0
  7

 75
     0
147
1.0
148
0.0
149
0.0
100
AcDbLayout
  1
Model
 70
     1
 71
     0
 10
0.0
 20
0.0
 11
12.0
 21
9.0
 12
0.0
 22
0.0
 32
0.0
 14
0.0
 24
0.0
 34
0.0
 15
0.0
 25
0.0
 35
0.0
146
0.0
 13
0.0
 23
0.0
 33
0.0
 16
1.0
 26
0.0
 36
0.0
 17
0.0
 27
1.0
 37
0.0
 76
     0
330
85F
  0
MLINESTYLE
  5
858
102
{ACAD_REACTORS
330
857
102
}
330
857
100
AcDbMlineStyle
  2
STANDARD
 70
     0
  3

 62
   256
 51
90.0
 52
90.0
 71
     2
 49
0.5
 62
   256
  6
BYLAYER
 49
-0.5
 62
   256
  6
BYLAYER
  0
ACDBPLACEHOLDER
  5
850
102
{ACAD_REACTORS
330
84F
102
}
330
84F
  0
DICTIONARYVAR
  5
C7E
102
{ACAD_REACTORS
330
C7D
102
}
330
C7D
100
DictionaryVariables
280
     0
  1
1
  0
ENDSEC
  0
EOF
