  0
SECTION
  2
HEADER
  9
$ACADVER
  1
AC1015
  9
$ACADMAINTVER
 70
    13
  9
$DWGCODEPAGE
  3
ANSI_1252
  9
$INSBASE
 10
0.0
 20
0.0
 30
0.0
  9
$EXTMIN
 10
-276.2071754343484
 20
-282.5100288450982
 30
0.0
  9
$EXTMAX
 10
238.1487722977144
 20
103.6249989859381
 30
0.0
  9
$LIMMIN
 10
-227.9999989106915
 20
-241.154205026665
  9
$LIMMAX
 10
227.2966322354878
 20
103.6249989859379
  9
$ORTHOMODE
 70
     0
  9
$REGENMODE
 70
     1
  9
$FILLMODE
 70
     1
  9
$QTEXTMODE
 70
     0
  9
$MIRRTEXT
 70
     1
  9
$LTSCALE
 40
1.0
  9
$ATTMODE
 70
     1
  9
$TEXTSIZE
 40
3.5
  9
$TRACEWID
 40
0.5
  9
$TEXTSTYLE
  7
STANDARD
  9
$CLAYER
  8
0
  9
$CELTYPE
  6
ByLayer
  9
$CECOLOR
 62
   256
  9
$CELTSCALE
 40
1.0
  9
$DISPSILH
 70
     0
  9
$DIMSCALE
 40
1.0
  9
$DIMASZ
 40
0.18
  9
$DIMEXO
 40
0.0625
  9
$DIMDLI
 40
0.38
  9
$DIMRND
 40
0.0
  9
$DIMDLE
 40
0.0
  9
$DIMEXE
 40
0.18
  9
$DIMTP
 40
0.0
  9
$DIMTM
 40
0.0
  9
$DIMTXT
 40
0.18
  9
$DIMCEN
 40
0.09
  9
$DIMTSZ
 40
0.0
  9
$DIMTOL
 70
     0
  9
$DIMLIM
 70
     0
  9
$DIMTIH
 70
     1
  9
$DIMTOH
 70
     1
  9
$DIMSE1
 70
     0
  9
$DIMSE2
 70
     0
  9
$DIMTAD
 70
     0
  9
$DIMZIN
 70
     0
  9
$DIMBLK
  1

  9
$DIMASO
 70
     1
  9
$DIMSHO
 70
     1
  9
$DIMPOST
  1

  9
$DIMAPOST
  1

  9
$DIMALT
 70
     0
  9
$DIMALTD
 70
     2
  9
$DIMALTF
 40
25.4
  9
$DIMLFAC
 40
1.0
  9
$DIMTOFL
 70
     0
  9
$DIMTVP
 40
0.0
  9
$DIMTIX
 70
     0
  9
$DIMSOXD
 70
     0
  9
$DIMSAH
 70
     0
  9
$DIMBLK1
  1

  9
$DIMBLK2
  1

  9
$DIMSTYLE
  2
DMST_1
  9
$DIMCLRD
 70
     0
  9
$DIMCLRE
 70
     0
  9
$DIMCLRT
 70
     0
  9
$DIMTFAC
 40
1.0
  9
$DIMGAP
 40
0.09
  9
$DIMJUST
 70
     0
  9
$DIMSD1
 70
     0
  9
$DIMSD2
 70
     0
  9
$DIMTOLJ
 70
     1
  9
$DIMTZIN
 70
     0
  9
$DIMALTZ
 70
     0
  9
$DIMALTTZ
 70
     0
  9
$DIMUPT
 70
     0
  9
$DIMDEC
 70
     4
  9
$DIMTDEC
 70
     4
  9
$DIMALTU
 70
     2
  9
$DIMALTTD
 70
     2
  9
$DIMTXSTY
  7
STANDARD
  9
$DIMAUNIT
 70
     0
  9
$DIMADEC
 70
     0
  9
$DIMALTRND
 40
0.0
  9
$DIMAZIN
 70
     0
  9
$DIMDSEP
 70
    46
  9
$DIMATFIT
 70
     3
  9
$DIMFRAC
 70
     0
  9
$DIMLDRBLK
  1

  9
$DIMLUNIT
 70
     2
  9
$DIMLWD
 70
    -2
  9
$DIMLWE
 70
    -2
  9
$DIMTMOVE
 70
     0
  9
$LUNITS
 70
     2
  9
$LUPREC
 70
     4
  9
$SKETCHINC
 40
0.1
  9
$FILLETRAD
 40
2.0
  9
$AUNITS
 70
     0
  9
$AUPREC
 70
     0
  9
$MENU
  1
ACAD
  9
$ELEVATION
 40
0.0
  9
$PELEVATION
 40
0.0
  9
$THICKNESS
 40
0.0
  9
$LIMCHECK
 70
     0
  9
$CHAMFERA
 40
0.0
  9
$CHAMFERB
 40
0.0
  9
$CHAMFERC
 40
0.0
  9
$CHAMFERD
 40
0.0
  9
$SKPOLY
 70
     0
  9
$TDCREATE
 40
2453838.530131284
  9
$TDUCREATE
 40
2453838.696797951
  9
$TDUPDATE
 40
2453864.649526909
  9
$TDUUPDATE
 40
2453864.816193576
  9
$TDINDWG
 40
0.1272710532
  9
$TDUSRTIMER
 40
0.1272710532
  9
$USRTIMER
 70
     1
  9
$ANGBASE
 50
0.0
  9
$ANGDIR
 70
     0
  9
$PDMODE
 70
     0
  9
$PDSIZE
 40
0.0
  9
$PLINEWID
 40
0.0
  9
$SPLFRAME
 70
     0
  9
$SPLINETYPE
 70
     6
  9
$SPLINESEGS
 70
     8
  9
$HANDSEED
  5
360
  9
$SURFTAB1
 70
     6
  9
$SURFTAB2
 70
     6
  9
$SURFTYPE
 70
     6
  9
$SURFU
 70
     6
  9
$SURFV
 70
     6
  9
$UCSBASE
  2

  9
$UCSNAME
  2

  9
$UCSORG
 10
0.0
 20
0.0
 30
0.0
  9
$UCSXDIR
 10
1.0
 20
0.0
 30
0.0
  9
$UCSYDIR
 10
0.0
 20
1.0
 30
0.0
  9
$UCSORTHOREF
  2

  9
$UCSORTHOVIEW
 70
     0
  9
$UCSORGTOP
 10
0.0
 20
0.0
 30
0.0
  9
$UCSORGBOTTOM
 10
0.0
 20
0.0
 30
0.0
  9
$UCSORGLEFT
 10
0.0
 20
0.0
 30
0.0
  9
$UCSORGRIGHT
 10
0.0
 20
0.0
 30
0.0
  9
$UCSORGFRONT
 10
0.0
 20
0.0
 30
0.0
  9
$UCSORGBACK
 10
0.0
 20
0.0
 30
0.0
  9
$PUCSBASE
  2

  9
$PUCSNAME
  2

  9
$PUCSORG
 10
0.0
 20
0.0
 30
0.0
  9
$PUCSXDIR
 10
1.0
 20
0.0
 30
0.0
  9
$PUCSYDIR
 10
0.0
 20
1.0
 30
0.0
  9
$PUCSORTHOREF
  2

  9
$PUCSORTHOVIEW
 70
     0
  9
$PUCSORGTOP
 10
0.0
 20
0.0
 30
0.0
  9
$PUCSORGBOTTOM
 10
0.0
 20
0.0
 30
0.0
  9
$PUCSORGLEFT
 10
0.0
 20
0.0
 30
0.0
  9
$PUCSORGRIGHT
 10
0.0
 20
0.0
 30
0.0
  9
$PUCSORGFRONT
 10
0.0
 20
0.0
 30
0.0
  9
$PUCSORGBACK
 10
0.0
 20
0.0
 30
0.0
  9
$USERI1
 70
     0
  9
$USERI2
 70
     0
  9
$USERI3
 70
     0
  9
$USERI4
 70
     0
  9
$USERI5
 70
     0
  9
$USERR1
 40
0.0
  9
$USERR2
 40
0.0
  9
$USERR3
 40
0.0
  9
$USERR4
 40
0.0
  9
$USERR5
 40
0.0
  9
$WORLDVIEW
 70
     1
  9
$SHADEDGE
 70
     3
  9
$SHADEDIF
 70
    70
  9
$TILEMODE
 70
     1
  9
$MAXACTVP
 70
    64
  9
$PINSBASE
 10
0.0
 20
0.0
 30
0.0
  9
$PLIMCHECK
 70
     0
  9
$PEXTMIN
 10
1.066223173712173
 20
0.7996673802841308
 30
-0.0015258207003583
  9
$PEXTMAX
 10
9.600769068115353
 20
7.200576801086516
 30
0.0000000349246037
  9
$PLIMMIN
 10
-0.1666668268639272
 20
-0.2499999962453767
  9
$PLIMMAX
 10
10.83333293284018
 20
8.249999763458731
  9
$UNITMODE
 70
     0
  9
$VISRETAIN
 70
     1
  9
$PLINEGEN
 70
     0
  9
$PSLTSCALE
 70
     1
  9
$TREEDEPTH
 70
  3020
  9
$CMLSTYLE
  2
Standard
  9
$CMLJUST
 70
     0
  9
$CMLSCALE
 40
1.0
  9
$PROXYGRAPHICS
 70
     1
  9
$MEASUREMENT
 70
     0
  9
$CELWEIGHT
370
    -1
  9
$ENDCAPS
280
     0
  9
$JOINSTYLE
280
     0
  9
$LWDISPLAY
290
     0
  9
$INSUNITS
 70
     0
  9
$HYPERLINKBASE
  1

  9
$STYLESHEET
  1

  9
$XEDIT
290
     1
  9
$CEPSNTYPE
380
     0
  9
$PSTYLEMODE
290
     1
  9
$FINGERPRINTGUID
  2
{235E3764-E969-4F7E-958B-91F4013E4F99}
  9
$VERSIONGUID
  2
{6978D6D1-4CEF-4792-8EC9-7E5DF4AA829F}
  9
$EXTNAMES
290
     1
  9
$PSVPSCALE
 40
0.0
  9
$OLESTARTUP
290
     0
  0
ENDSEC
  0
SECTION
  2
CLASSES
  0
CLASS
  1
ACDBDICTIONARYWDFLT
  2
AcDbDictionaryWithDefault
  3
AutoCAD 2000
 90
        0
280
     0
281
     0
  0
CLASS
  1
ACDBPLACEHOLDER
  2
AcDbPlaceHolder
  3
AutoCAD 2000
 90
        0
280
     0
281
     0
  0
CLASS
  1
LAYOUT
  2
AcDbLayout
  3
AutoCAD 2000
 90
        0
280
     0
281
     0
  0
CLASS
  1
DICTIONARYVAR
  2
AcDbDictionaryVar
  3
AutoCAD 2000
 90
        0
280
     0
281
     0
  0
ENDSEC
  0
SECTION
  2
TABLES
  0
TABLE
  2
VPORT
  5
8
330
0
100
AcDbSymbolTable
 70
     2
  0
VPORT
  5
35F
330
8
100
AcDbSymbolTableRecord
100
AcDbViewportTableRecord
  2
*Active
 70
     0
 10
0.0
 20
0.0
 11
1.0
 21
1.0
 12
2.468937835629731
 22
-90.26601412492381
 13
0.0
 23
0.0
 14
1.0
 24
1.0
 15
0.0
 25
0.0
 16
0.0
 26
0.0
 36
1.0
 17
0.0
 27
0.0
 37
0.0
 40
473.1617732706074
 41
1.182835820895522
 42
50.0
 43
0.0
 44
0.0
 50
0.0
 51
0.0
 71
     0
 72
   100
 73
     1
 74
     1
 75
     0
 76
     0
 77
     0
 78
     0
281
     0
 65
     1
110
0.0
120
0.0
130
0.0
111
1.0
121
0.0
131
0.0
112
0.0
122
1.0
132
0.0
 79
     0
146
0.0
  0
ENDTAB
  0
TABLE
  2
LTYPE
  5
5
330
0
100
AcDbSymbolTable
 70
     9
  0
LTYPE
  5
13
330
5
100
AcDbSymbolTableRecord
100
AcDbLinetypeTableRecord
  2
ByBlock
 70
     0
  3

 72
    65
 73
     0
 40
0.0
  0
LTYPE
  5
14
330
5
100
AcDbSymbolTableRecord
100
AcDbLinetypeTableRecord
  2
ByLayer
 70
     0
  3

 72
    65
 73
     0
 40
0.0
  0
LTYPE
  5
15
330
5
100
AcDbSymbolTableRecord
100
AcDbLinetypeTableRecord
  2
CONTINUOUS
 70
     0
  3
Solid line
 72
    65
 73
     0
 40
0.0
  0
LTYPE
  5
23
330
5
100
AcDbSymbolTableRecord
100
AcDbLinetypeTableRecord
  2
BORDER
 70
     0
  3
__ __ . __ __ .
 72
    65
 73
     6
 40
20.96760801331089
 49
5.990745146660252
 74
     0
 49
-2.995372573330127
 74
     0
 49
5.990745146660252
 74
     0
 49
-2.995372573330127
 74
     0
 49
0.0
 74
     0
 49
-2.995372573330127
 74
     0
  0
LTYPE
  5
24
330
5
100
AcDbSymbolTableRecord
100
AcDbLinetypeTableRecord
  2
CENTER
 70
     0
  3
____ _ ____ _
 72
    65
 73
     4
 40
23.962980586641
 49
14.97686286665063
 74
     0
 49
-2.995372573330127
 74
     0
 49
2.995372573330127
 74
     0
 49
-2.995372573330127
 74
     0
  0
LTYPE
  5
25
330
5
100
AcDbSymbolTableRecord
100
AcDbLinetypeTableRecord
  2
DASHDOT
 70
     0
  3
__ . __ . __ .
 72
    65
 73
     4
 40
11.98149029332051
 49
5.990745146660252
 74
     0
 49
-2.995372573330127
 74
     0
 49
0.0
 74
     0
 49
-2.995372573330127
 74
     0
  0
LTYPE
  5
26
330
5
100
AcDbSymbolTableRecord
100
AcDbLinetypeTableRecord
  2
DASHED
 70
     0
  3
__ __ __ __ __
 72
    65
 73
     2
 40
8.98611771999038
 49
5.990745146660252
 74
     0
 49
-2.995372573330127
 74
     0
  0
LTYPE
  5
27
330
5
100
AcDbSymbolTableRecord
100
AcDbLinetypeTableRecord
  2
DIVIDE
 70
     0
  3
__ . . __ . . 
 72
    65
 73
     6
 40
14.97686286665063
 49
5.990745146660252
 74
     0
 49
-2.995372573330127
 74
     0
 49
0.0
 74
     0
 49
-2.995372573330127
 74
     0
 49
0.0
 74
     0
 49
-2.995372573330127
 74
     0
  0
LTYPE
  5
28
330
5
100
AcDbSymbolTableRecord
100
AcDbLinetypeTableRecord
  2
DOT
 70
     0
  3
..............
 72
    65
 73
     4
 40
5.990745146660252
 49
0.0
 74
     0
 49
-2.995372573330127
 74
     0
 49
0.0
 74
     0
 49
-2.995372573330127
 74
     0
  0
LTYPE
  5
29
330
5
100
AcDbSymbolTableRecord
100
AcDbLinetypeTableRecord
  2
HIDDEN
 70
     0
  3
_ _ _ _ _ _ _
 72
    65
 73
     2
 40
4.49305885999519
 49
2.995372573330127
 74
     0
 49
-1.497686286665063
 74
     0
  0
LTYPE
  5
2A
330
5
100
AcDbSymbolTableRecord
100
AcDbLinetypeTableRecord
  2
PHANTOM
 70
     0
  3
_____ _ _ _____ _ _ 
 72
    65
 73
     6
 40
29.95372573330127
 49
14.97686286665063
 74
     0
 49
-2.995372573330127
 74
     0
 49
2.995372573330127
 74
     0
 49
-2.995372573330127
 74
     0
 49
2.995372573330127
 74
     0
 49
-2.995372573330127
 74
     0
  0
ENDTAB
  0
TABLE
  2
LAYER
  5
2
330
0
100
AcDbSymbolTable
 70
     4
  0
LAYER
  5
10
330
2
100
AcDbSymbolTableRecord
100
AcDbLayerTableRecord
  2
0
 70
     0
 62
     7
  6
CONTINUOUS
370
    -3
390
F
  0
LAYER
  5
2B
330
2
100
AcDbSymbolTableRecord
100
AcDbLayerTableRecord
  2
1
 70
     0
 62
     7
  6
CONTINUOUS
370
    -3
390
F
  0
LAYER
  5
2C
330
2
100
AcDbSymbolTableRecord
100
AcDbLayerTableRecord
  2
2
 70
     0
 62
     7
  6
CONTINUOUS
370
    -3
390
F
  0
LAYER
  5
346
330
2
100
AcDbSymbolTableRecord
100
AcDbLayerTableRecord
  2
LAYER_1
 70
     0
 62
     5
  6
CONTINUOUS
370
    -3
390
F
  0
ENDTAB
  0
TABLE
  2
STYLE
  5
3
330
0
100
AcDbSymbolTable
 70
     4
  0
STYLE
  5
11
330
3
100
AcDbSymbolTableRecord
100
AcDbTextStyleTableRecord
  2
STANDARD
 70
     0
 40
0.0
 41
1.0
 50
0.0
 71
     0
 42
3.5
  3
txt
  4

  0
STYLE
  5
2D
330
3
100
AcDbSymbolTableRecord
100
AcDbTextStyleTableRecord
  2
SIMPLEX
 70
     0
 40
0.0
 41
1.0
 50
0.0
 71
     0
 42
3.5
  3
simplex
  4

  0
STYLE
  5
2E
330
3
100
AcDbSymbolTableRecord
100
AcDbTextStyleTableRecord
  2
COMPLEX
 70
     0
 40
0.0
 41
1.0
 50
0.0
 71
     0
 42
3.5
  3
complex
  4

  0
STYLE
  5
2F
330
3
100
AcDbSymbolTableRecord
100
AcDbTextStyleTableRecord
  2
ITALIC
 70
     0
 40
0.0
 41
1.0
 50
0.0
 71
     0
 42
3.5
  3
italic
  4

  0
ENDTAB
  0
TABLE
  2
VIEW
  5
6
330
0
100
AcDbSymbolTable
 70
     0
  0
ENDTAB
  0
TABLE
  2
UCS
  5
7
330
0
100
AcDbSymbolTable
 70
     0
  0
ENDTAB
  0
TABLE
  2
APPID
  5
9
330
0
100
AcDbSymbolTable
 70
     1
  0
APPID
  5
12
330
9
100
AcDbSymbolTableRecord
100
AcDbRegAppTableRecord
  2
ACAD
 70
     0
  0
ENDTAB
  0
TABLE
  2
DIMSTYLE
  5
A
330
0
100
AcDbSymbolTable
 70
     2
100
AcDbDimStyleTable
 71
     0
  0
DIMSTYLE
105
22
102
{ACAD_REACTORS
330
2B8
330
2B9
330
2BA
330
2BB
102
}
330
A
100
AcDbSymbolTableRecord
100
AcDbDimStyleTableRecord
  2
DMST_1
 70
     0
 41
5.0
 42
1.0
 43
7.0
 44
1.0
 73
     0
 74
     0
 77
     1
 78
     9
140
5.0
141
0.0
176
     2
177
     2
178
     2
279
     2
340
11
  0
DIMSTYLE
105
2C0
330
A
100
AcDbSymbolTableRecord
100
AcDbDimStyleTableRecord
  2
Standard
 70
     0
340
11
  0
ENDTAB
  0
TABLE
  2
BLOCK_RECORD
  5
1
330
0
100
AcDbSymbolTable
 70
    25
  0
BLOCK_RECORD
  5
1E
330
1
100
AcDbSymbolTableRecord
100
AcDbBlockTableRecord
  2
*Model_Space
340
21
  0
BLOCK_RECORD
  5
1A
330
1
100
AcDbSymbolTableRecord
100
AcDbBlockTableRecord
  2
*Paper_Space
340
1D
  0
BLOCK_RECORD
  5
35
330
1
100
AcDbSymbolTableRecord
100
AcDbBlockTableRecord
  2
*D0
340
0
  0
BLOCK_RECORD
  5
3F
330
1
100
AcDbSymbolTableRecord
100
AcDbBlockTableRecord
  2
*D1
340
0
  0
BLOCK_RECORD
  5
4B
330
1
100
AcDbSymbolTableRecord
100
AcDbBlockTableRecord
  2
*D2
340
0
  0
BLOCK_RECORD
  5
55
330
1
100
AcDbSymbolTableRecord
100
AcDbBlockTableRecord
  2
*D3
340
0
  0
BLOCK_RECORD
  5
2BC
330
1
100
AcDbSymbolTableRecord
100
AcDbBlockTableRecord
  2
Harmonic Drive LLC
340
0
310
2800000020000000200000000100080000000000000400000000000000000000000000000000000000000000000080000080000000808000800000008000800080800000C0C0C000C0DCC000F0CAA6000020400000206000002080000020A0000020C0000020E00000400000004020000040400000406000004080000040A0
310
000040C0000040E00000600000006020000060400000606000006080000060A0000060C0000060E00000800000008020000080400000806000008080000080A0000080C0000080E00000A0000000A0200000A0400000A0600000A0800000A0A00000A0C00000A0E00000C0000000C0200000C0400000C0600000C0800000C0
310
A00000C0C00000C0E00000E0000000E0200000E0400000E0600000E0800000E0A00000E0C00000E0E00040000000400020004000400040006000400080004000A0004000C0004000E00040200000402020004020400040206000402080004020A0004020C0004020E000404000004040200040404000404060004040800040
310
40A0004040C0004040E00040600000406020004060400040606000406080004060A0004060C0004060E00040800000408020004080400040806000408080004080A0004080C0004080E00040A0000040A0200040A0400040A0600040A0800040A0A00040A0C00040A0E00040C0000040C0200040C0400040C0600040C08000
310
40C0A00040C0C00040C0E00040E0000040E0200040E0400040E0600040E0800040E0A00040E0C00040E0E00080000000800020008000400080006000800080008000A0008000C0008000E00080200000802020008020400080206000802080008020A0008020C0008020E00080400000804020008040400080406000804080
310
008040A0008040C0008040E00080600000806020008060400080606000806080008060A0008060C0008060E00080800000808020008080400080806000808080008080A0008080C0008080E00080A0000080A0200080A0400080A0600080A0800080A0A00080A0C00080A0E00080C0000080C0200080C0400080C0600080C0
310
800080C0A00080C0C00080C0E00080E0000080E0200080E0400080E0600080E0800080E0A00080E0C00080E0E000C0000000C0002000C0004000C0006000C0008000C000A000C000C000C000E000C0200000C0202000C0204000C0206000C0208000C020A000C020C000C020E000C0400000C0402000C0404000C0406000C0
310
408000C040A000C040C000C040E000C0600000C0602000C0604000C0606000C0608000C060A000C060C000C060E000C0800000C0802000C0804000C0806000C0808000C080A000C080C000C080E000C0A00000C0A02000C0A04000C0A06000C0A08000C0A0A000C0A0C000C0A0E000C0C00000C0C02000C0C04000C0C06000
310
C0C08000C0C0A000F0FBFF00A4A0A000808080000000FF0000FF000000FFFF00FF000000FF00FF00FFFF0000FFFFFF00FFFFFFFFFFFFFFFFFFFFFFFFFFFFFFFFFFFFFFFFFFFFFFFFFFFFFFFFFFFFFFFFFFFFFFFFFFFFFFFFFFFFFFFFFFFFFFFFFFFFFFFFFFFFFFFFFFFFFFFFFFFFFFFFFFFFFFFFFFFFFFFFFFFFFFFFFFFFFF
310
FFFFFFFFFFFFFFFFFFFFFFFFFFFFFFFFFFFFFFFFFFFFFFFFFFFFFFFFFFFFFFFFFFFFFFFFFFFFFFFFFFFFFFFFFFFFFFFFFFFFFFFFFFFFFFFFFFFFFFFFFFFFFFFFFFFFFFFFFFFFFFFFFFFFFFFFFFFFFFFFFFFFFFFFFFFFFFFFFFFFFFFFFFFFFFFFFFFFFFFFFFFFFFFFFFFFFFFFFFFFFFFFFFFFFFFFFFFFFFFFFFFFFFFFFFFFFF
310
FFFFFFFFFFFFFFFFFFFFFFFFFFFFFFFFFFFFFFFFFFFFFFFFFFFFFFFFFFFFFFFFFFFFFFFFFFFFFFFFFFFFFFFFFFFFFFFFFFFFFFFFFFFFFFFFFFFFFFFFFFFFFFFFFFFFFFFFFFFFFFFFFFFFFFFFFFFFFFFFFFFFFFFFFFFFFFFFFFFFFFFFFFFFFFFFFFFFFFFFFFFFFFFFFFFFFFFFFFFFFFFFFFFFFFFFFFFFFFFFFFFFFFFFFFFFFF
310
FFFFFFFFFFFFFFFFFFFFFFFFFFFFFFFFFFFFFFFFFFFFFFFFFFFFFFFFFFFFFFFFFFFFFFFFFFFFFFFFFFFFFFFFFFFFFFFFFFFFFFFFFFFFFFFFFFFFFFFFFFFFFFFFFFFFFFFFFFFFFFFFFFFFFFFFFFFFFFFFFFFFFFFFFFFFFF000000000000000000000000000000000000000000000000FFFFFFFFFFFFFFFF0000000000000000
310
00000000000000000000000000000000FFFFFFFFFFFFFFFFFFFFFFFF00000000FF00000000FF000000000000FFFFFFFFFFFFFFFFFFFFFFFFFFFFFFFF00000000000000000000000000000000FFFFFFFFFFFFFFFFFFFFFFFFFF00000000000000000000FF000000000000FF00000000FFFFFFFFFFFFFFFFFFFF000000000000
310
00000000FF000000000000FF00000000FFFFFFFFFFFFFFFFFFFFFFFFFFFFFFFFFFFFFFFFFFFFFFFFFFFFFFFFFFFFFFFFFFFFFFFFFFFFFFFFFFFFFFFFFFFFFFFFFFFFFFFFFFFFFFFFFFFFFFFFFFFFFFFFFFFFFFFFFFFFFFFFFFFFFFFFFFFFFFFFFFFFFFFFFFFFFFFFFFFFFFFFFFFFFFFFFFFFFFFFFFFFFFFFFFFFFFFFFFFFFF
310
FFFFFFFFFFFFFFFFFFFFFFFFFFFFFFFFFFFFFFFFFFFFFFFFFFFFFFFFFFFFFFFFFFFFFFFFFFFFFFFFFFFFFFFFFFFFFFFFFFFFFFFFFFFFFFFFFFFFFFFFFFFFFFFFFFFFFFFFFFFFFFFFFFFFFFFFFFFFFFFFFFFFFFFFFFFFFFFFFFFFFFFFFFFFFFFFFFFFFFFFFFFFFFFFFFFFFFFFFFFFFFFFFFFFFFFFFFFFFFFFFFFFFFFFFFFFFF
310
FFFFFFFFFFFFFFFFFFFFFFFFFFFFFFFFFFFFFFFFFFFFFFFFFFFFFFFFFFFFFFFFFFFFFFFFFFFFFFFFFFFFFFFFFFFFFFFFFFFFFFFFFFFFFFFFFFFFFFFFFFFFFFFFFFFFFFFFFFFFFFFFFFFFFFFFFFFFFFFFFFFFFFFFFFFFFFFFFFFFFFFFFFFFFFFFFFFFFFFFFFFFFFFFFFFFFFFFFFFFFFFFFFFFFFFFFFFFFFFFFFFFFFFFFFFFFF
310
FFFFFFFFFFFFFFFFFFFFFFFFFFFFFFFFFFFFFFFFFFFFFFFFFFFFFFFFFFFFFFFFFFFFFFFFFFFFFFFFFFFFFFFFFFFFFFFFFFFFFFFFFFFFFFFF
102
{BLKREFS
331
2C2
331
2C6
102
}
  0
BLOCK_RECORD
  5
2DA
330
1
100
AcDbSymbolTableRecord
100
AcDbBlockTableRecord
  2
AI9-BLK14
340
0
310
2800000020000000200000000100080000000000000400000000000000000000000000000000000000000000000080000080000000808000800000008000800080800000C0C0C000C0DCC000F0CAA6000020400000206000002080000020A0000020C0000020E00000400000004020000040400000406000004080000040A0
310
000040C0000040E00000600000006020000060400000606000006080000060A0000060C0000060E00000800000008020000080400000806000008080000080A0000080C0000080E00000A0000000A0200000A0400000A0600000A0800000A0A00000A0C00000A0E00000C0000000C0200000C0400000C0600000C0800000C0
310
A00000C0C00000C0E00000E0000000E0200000E0400000E0600000E0800000E0A00000E0C00000E0E00040000000400020004000400040006000400080004000A0004000C0004000E00040200000402020004020400040206000402080004020A0004020C0004020E000404000004040200040404000404060004040800040
310
40A0004040C0004040E00040600000406020004060400040606000406080004060A0004060C0004060E00040800000408020004080400040806000408080004080A0004080C0004080E00040A0000040A0200040A0400040A0600040A0800040A0A00040A0C00040A0E00040C0000040C0200040C0400040C0600040C08000
310
40C0A00040C0C00040C0E00040E0000040E0200040E0400040E0600040E0800040E0A00040E0C00040E0E00080000000800020008000400080006000800080008000A0008000C0008000E00080200000802020008020400080206000802080008020A0008020C0008020E00080400000804020008040400080406000804080
310
008040A0008040C0008040E00080600000806020008060400080606000806080008060A0008060C0008060E00080800000808020008080400080806000808080008080A0008080C0008080E00080A0000080A0200080A0400080A0600080A0800080A0A00080A0C00080A0E00080C0000080C0200080C0400080C0600080C0
310
800080C0A00080C0C00080C0E00080E0000080E0200080E0400080E0600080E0800080E0A00080E0C00080E0E000C0000000C0002000C0004000C0006000C0008000C000A000C000C000C000E000C0200000C0202000C0204000C0206000C0208000C020A000C020C000C020E000C0400000C0402000C0404000C0406000C0
310
408000C040A000C040C000C040E000C0600000C0602000C0604000C0606000C0608000C060A000C060C000C060E000C0800000C0802000C0804000C0806000C0808000C080A000C080C000C080E000C0A00000C0A02000C0A04000C0A06000C0A08000C0A0A000C0A0C000C0A0E000C0C00000C0C02000C0C04000C0C06000
310
C0C08000C0C0A000F0FBFF00A4A0A000808080000000FF0000FF000000FFFF00FF000000FF00FF00FFFF0000FFFFFF00FF00FFFFFFFF00FFFFFFFFFFFFFFFFFFFFFFFFFFFFFFFFFFFFFFFFFFFFFFFFFFFF00FFFFFFFF00FFFFFFFFFFFFFFFFFFFFFFFFFFFFFFFFFFFFFFFFFFFFFFFFFFFF00FFFFFFFF00FFFFFFFFFFFFFFFF
310
FFFFFFFFFFFFFFFFFFFFFFFFFFFFFFFFFFFF00FFFFFFFF00FFFFFFFFFFFFFFFFFFFFFFFFFFFFFFFFFFFFFFFFFFFFFFFFFFFF00FFFFFFFF00FFFFFFFFFFFFFFFFFFFFFFFFFFFFFFFFFFFFFFFFFFFFFFFFFFFF00FFFFFFFF00FFFFFFFFFFFFFFFFFFFFFFFFFFFFFFFFFFFFFFFFFFFFFFFFFFFF00FFFFFFFF00FFFFFFFFFFFFFF
310
FFFFFFFFFFFFFFFFFFFFFFFFFFFFFFFFFFFFFF00FFFFFFFF00FFFFFFFFFFFFFFFFFFFFFFFFFFFFFFFFFFFFFFFFFFFFFFFFFFFF00FFFFFFFF00FFFFFFFFFFFFFFFFFFFFFFFFFFFFFFFFFFFFFFFFFFFFFFFFFFFF00FFFFFFFF00FFFFFFFFFFFFFFFFFFFFFFFFFFFFFFFFFFFFFFFFFFFFFFFFFFFF00FFFFFFFF00FFFFFFFFFFFF
310
FFFFFFFFFFFFFFFFFFFFFFFFFFFFFFFFFFFFFFFF00FFFFFFFF00FFFFFFFFFFFFFFFFFFFFFFFFFFFFFFFFFFFFFFFFFFFFFFFFFFFF00FFFFFFFF00FFFFFFFFFFFFFFFFFFFFFFFFFFFFFFFFFFFFFFFFFFFFFFFFFFFF00FFFFFFFF0000000000000000000000000000000000000000000000000000FF00FFFFFFFFFFFFFFFFFFFF
310
FFFFFFFFFFFFFFFFFFFFFFFFFFFFFFFFFFFFFFFFFF00FFFFFFFFFFFFFFFFFFFFFFFFFFFFFFFFFFFFFFFFFFFFFFFFFFFFFFFFFFFFFF00FFFFFFFFFFFFFFFFFFFFFFFFFFFFFFFFFFFFFFFFFFFFFFFFFFFFFFFFFFFFFF00FFFFFFFFFFFFFFFFFFFFFFFFFFFFFFFFFFFFFFFFFFFFFFFFFFFFFFFFFF00FF00000000000000000000
310
0000000000000000000000000000000000000000FFFFFFFFFFFFFFFFFFFFFFFFFFFFFFFFFFFFFFFFFFFFFFFFFFFFFFFFFFFFFFFFFFFFFFFFFFFFFFFFFFFFFFFFFFFFFFFFFFFFFFFFFFFFFFFFFFFFFFFFFFFFFFFFFFFFFFFFFFFFFFFFFFFFFFFFFFFFFFFFFFFFFFFFFFFFFFFFFFFFFFFFFFFFFFFFFFFFFFFFFFFFFFFFFFFFFF
310
FFFFFFFFFFFFFFFFFFFFFFFFFFFFFFFFFFFFFFFFFFFFFFFFFFFFFFFFFFFFFFFFFFFFFFFFFFFFFFFFFFFFFFFFFFFFFFFFFFFFFFFFFFFFFFFFFFFFFFFFFFFFFFFFFFFFFFFFFFFFFFFFFFFFFFFFFFFFFFFFFFFFFFFFFFFFFFFFFFFFFFFFFFFFFFFFFFFFFFFFFFFFFFFFFFFFFFFFFFFFFFFFFFFFFFFFFFFFFFFFFFFFFFFFFFFFFF
310
FFFFFFFFFFFFFFFFFFFFFFFFFFFFFFFFFFFFFFFFFFFFFFFFFFFFFFFFFFFFFFFFFFFFFFFFFFFFFFFFFFFFFFFFFFFFFFFFFFFFFFFFFFFFFFFFFFFFFFFFFFFFFFFFFFFFFFFFFFFFFFFFFFFFFFFFFFFFFFFFFFFFFFFFFFFFFFFFFFFFFFFFFFFFFFFFFFFFFFFFFFFFFFFFFFFFFFFFFFFFFFFFFFFFFFFFFFFFFFFFFFFFFFFFFFFFFF
310
FFFFFFFFFFFFFFFFFFFFFFFFFFFFFFFFFFFFFFFFFFFFFFFFFFFFFFFFFFFFFFFFFFFFFFFFFFFFFFFFFFFFFFFFFFFFFFFFFFFFFFFFFFFFFFFF
102
{BLKREFS
331
31B
102
}
  0
BLOCK_RECORD
  5
2DF
330
1
100
AcDbSymbolTableRecord
100
AcDbBlockTableRecord
  2
AI9-BLK13
340
0
310
2800000020000000200000000100080000000000000400000000000000000000000000000000000000000000000080000080000000808000800000008000800080800000C0C0C000C0DCC000F0CAA6000020400000206000002080000020A0000020C0000020E00000400000004020000040400000406000004080000040A0
310
000040C0000040E00000600000006020000060400000606000006080000060A0000060C0000060E00000800000008020000080400000806000008080000080A0000080C0000080E00000A0000000A0200000A0400000A0600000A0800000A0A00000A0C00000A0E00000C0000000C0200000C0400000C0600000C0800000C0
310
A00000C0C00000C0E00000E0000000E0200000E0400000E0600000E0800000E0A00000E0C00000E0E00040000000400020004000400040006000400080004000A0004000C0004000E00040200000402020004020400040206000402080004020A0004020C0004020E000404000004040200040404000404060004040800040
310
40A0004040C0004040E00040600000406020004060400040606000406080004060A0004060C0004060E00040800000408020004080400040806000408080004080A0004080C0004080E00040A0000040A0200040A0400040A0600040A0800040A0A00040A0C00040A0E00040C0000040C0200040C0400040C0600040C08000
310
40C0A00040C0C00040C0E00040E0000040E0200040E0400040E0600040E0800040E0A00040E0C00040E0E00080000000800020008000400080006000800080008000A0008000C0008000E00080200000802020008020400080206000802080008020A0008020C0008020E00080400000804020008040400080406000804080
310
008040A0008040C0008040E00080600000806020008060400080606000806080008060A0008060C0008060E00080800000808020008080400080806000808080008080A0008080C0008080E00080A0000080A0200080A0400080A0600080A0800080A0A00080A0C00080A0E00080C0000080C0200080C0400080C0600080C0
310
800080C0A00080C0C00080C0E00080E0000080E0200080E0400080E0600080E0800080E0A00080E0C00080E0E000C0000000C0002000C0004000C0006000C0008000C000A000C000C000C000E000C0200000C0202000C0204000C0206000C0208000C020A000C020C000C020E000C0400000C0402000C0404000C0406000C0
310
408000C040A000C040C000C040E000C0600000C0602000C0604000C0606000C0608000C060A000C060C000C060E000C0800000C0802000C0804000C0806000C0808000C080A000C080C000C080E000C0A00000C0A02000C0A04000C0A06000C0A08000C0A0A000C0A0C000C0A0E000C0C00000C0C02000C0C04000C0C06000
310
C0C08000C0C0A000F0FBFF00A4A0A000808080000000FF0000FF000000FFFF00FF000000FF00FF00FFFF0000FFFFFF00FFFFFFFFFFFFFFFFFFFFFFFFFFFFFFFFFFFFFFFFFFFFFFFFFFFFFFFFFFFFFFFFFFFFFFFFFFFFFFFFFFFFFF0000FFFFFFFFFFFF0000FFFFFFFFFFFFFFFFFFFFFFFFFFFFFFFFFFFFFFFFFFFF0000FFFF
310
FFFFFFFF0000FFFFFFFFFFFFFFFFFFFFFFFFFFFFFFFFFFFFFFFFFFFF0000FFFFFFFFFFFF0000FFFFFFFFFFFFFFFFFFFFFFFFFFFFFFFFFFFFFFFFFFFF0000FFFFFFFFFFFF0000FFFFFFFFFFFFFFFFFFFFFFFFFFFFFFFFFFFFFFFFFFFF0000FFFFFFFFFFFF0000FFFFFFFFFFFFFFFFFFFFFFFFFFFFFFFFFFFFFFFFFFFF0000FF
310
FFFFFFFFFF0000FFFFFFFFFFFFFFFFFFFFFFFFFFFFFFFFFFFFFFFFFFFF0000FFFFFFFFFFFF0000FFFFFFFFFFFFFFFFFFFFFFFFFFFFFFFFFFFFFFFFFFFF0000FFFFFFFFFFFF0000FFFFFFFFFFFFFFFFFFFFFFFFFFFFFFFFFFFFFFFFFFFF0000FFFFFFFFFFFF0000FFFFFFFFFFFFFFFFFFFFFFFFFFFFFFFFFFFFFFFFFFFF0000
310
FFFFFFFFFFFF0000FFFFFFFFFFFFFFFFFFFFFFFFFFFFFFFFFFFFFFFFFFFF0000FFFFFFFFFFFF0000FFFFFFFFFFFFFFFFFFFFFFFFFFFFFFFFFFFFFFFFFFFF0000FFFFFFFFFFFF0000FFFFFFFFFFFFFFFFFFFFFFFFFFFFFFFFFFFFFFFFFFFF0000FFFFFFFFFFFF0000FFFFFFFFFFFFFFFFFFFFFFFFFFFFFFFFFFFFFFFFFFFF00
310
00FFFFFFFFFFFF0000FFFFFFFFFFFFFFFFFFFFFFFFFFFFFFFFFFFFFFFFFFFF00000000000000000000FFFFFFFFFFFFFFFFFFFFFFFFFFFFFFFFFFFFFFFFFFFF00FFFFFFFFFFFFFFFF00FFFFFFFFFFFFFFFFFFFFFFFFFFFFFFFFFFFFFFFFFFFF00FFFFFFFFFFFFFFFF00FFFFFFFFFFFFFFFFFFFFFFFFFFFFFFFFFFFFFFFFFFFF
310
00000000000000000000FFFFFFFFFFFFFFFFFFFFFFFFFFFFFFFFFFFFFFFFFFFF0000FFFFFFFFFFFF0000FFFFFFFFFFFFFFFFFFFFFFFFFFFFFFFFFFFFFFFFFFFF0000FFFFFFFFFFFF0000FFFFFFFFFFFFFFFFFFFFFFFFFFFFFFFFFFFFFFFFFFFF0000FFFFFFFFFFFF0000FFFFFFFFFFFFFFFFFFFFFFFFFFFFFFFFFFFFFFFFFF
310
FF0000FFFFFFFFFFFF0000FFFFFFFFFFFFFFFFFFFFFFFFFFFFFFFFFFFFFFFFFFFF0000FFFFFFFFFFFF0000FFFFFFFFFFFFFFFFFFFFFFFFFFFFFFFFFFFFFFFFFFFF0000FFFFFFFFFFFF0000FFFFFFFFFFFFFFFFFFFFFFFFFFFFFFFFFFFFFFFFFFFF0000FFFFFFFFFFFF0000FFFFFFFFFFFFFFFFFFFFFFFFFFFFFFFFFFFFFFFF
310
FFFF0000FFFFFFFFFFFF0000FFFFFFFFFFFFFFFFFFFFFFFFFFFFFFFFFFFFFFFFFFFF0000FFFFFFFFFFFF0000FFFFFFFFFFFFFFFFFFFFFFFFFFFFFFFFFFFFFFFFFFFF0000FFFFFFFFFFFF0000FFFFFFFFFFFFFFFFFFFFFFFFFFFFFFFFFFFFFFFFFFFF0000FFFFFFFFFFFF0000FFFFFFFFFFFFFFFFFFFFFFFFFFFFFFFFFFFFFF
310
FFFFFF0000FFFFFFFFFFFF0000FFFFFFFFFFFFFFFFFFFFFFFFFFFFFFFFFFFFFFFFFFFFFFFFFFFFFFFFFFFFFFFFFFFFFFFFFFFFFFFFFFFFFF
102
{BLKREFS
331
31C
102
}
  0
BLOCK_RECORD
  5
2E4
330
1
100
AcDbSymbolTableRecord
100
AcDbBlockTableRecord
  2
AI9-BLK11
340
0
310
2800000020000000200000000100080000000000000400000000000000000000000000000000000000000000000080000080000000808000800000008000800080800000C0C0C000C0DCC000F0CAA6000020400000206000002080000020A0000020C0000020E00000400000004020000040400000406000004080000040A0
310
000040C0000040E00000600000006020000060400000606000006080000060A0000060C0000060E00000800000008020000080400000806000008080000080A0000080C0000080E00000A0000000A0200000A0400000A0600000A0800000A0A00000A0C00000A0E00000C0000000C0200000C0400000C0600000C0800000C0
310
A00000C0C00000C0E00000E0000000E0200000E0400000E0600000E0800000E0A00000E0C00000E0E00040000000400020004000400040006000400080004000A0004000C0004000E00040200000402020004020400040206000402080004020A0004020C0004020E000404000004040200040404000404060004040800040
310
40A0004040C0004040E00040600000406020004060400040606000406080004060A0004060C0004060E00040800000408020004080400040806000408080004080A0004080C0004080E00040A0000040A0200040A0400040A0600040A0800040A0A00040A0C00040A0E00040C0000040C0200040C0400040C0600040C08000
310
40C0A00040C0C00040C0E00040E0000040E0200040E0400040E0600040E0800040E0A00040E0C00040E0E00080000000800020008000400080006000800080008000A0008000C0008000E00080200000802020008020400080206000802080008020A0008020C0008020E00080400000804020008040400080406000804080
310
008040A0008040C0008040E00080600000806020008060400080606000806080008060A0008060C0008060E00080800000808020008080400080806000808080008080A0008080C0008080E00080A0000080A0200080A0400080A0600080A0800080A0A00080A0C00080A0E00080C0000080C0200080C0400080C0600080C0
310
800080C0A00080C0C00080C0E00080E0000080E0200080E0400080E0600080E0800080E0A00080E0C00080E0E000C0000000C0002000C0004000C0006000C0008000C000A000C000C000C000E000C0200000C0202000C0204000C0206000C0208000C020A000C020C000C020E000C0400000C0402000C0404000C0406000C0
310
408000C040A000C040C000C040E000C0600000C0602000C0604000C0606000C0608000C060A000C060C000C060E000C0800000C0802000C0804000C0806000C0808000C080A000C080C000C080E000C0A00000C0A02000C0A04000C0A06000C0A08000C0A0A000C0A0C000C0A0E000C0C00000C0C02000C0C04000C0C06000
310
C0C08000C0C0A000F0FBFF00A4A0A000808080000000FF0000FF000000FFFF00FF000000FF00FF00FFFF0000FFFFFF00FFFFFFFFFFFFFFFFFFFFFFFFFFFFFFFFFFFFFFFFFFFFFFFFFFFFFFFFFFFFFFFFFFFFFFFFFFFFFFFFFFFFFFFFFFFF00000000FFFFFFFFFFFFFFFFFFFFFF000000FFFFFFFFFFFFFFFFFFFFFFFFFFFF00
310
FFFF00FFFFFFFFFFFFFFFFFFFFFF00FFFFFFFFFFFFFFFFFFFFFFFFFFFFFFFF00FFFF00FFFFFFFFFFFFFFFFFFFFFF00FFFFFFFFFFFFFFFFFFFFFFFFFFFFFFFF00FFFF00FFFFFFFFFFFFFFFFFFFFFF00FFFFFFFFFFFFFFFFFFFFFFFFFFFFFFFF00FFFF00FFFFFFFFFFFFFFFFFFFFFF00FFFFFFFFFFFFFFFFFFFFFFFFFFFFFFFF
310
00FFFF00FFFFFFFFFFFFFFFFFFFFFF00FFFFFFFFFFFFFFFFFFFFFFFFFFFFFFFF00FFFF00FFFFFFFFFFFFFFFFFFFFFF00FFFFFFFFFFFFFFFFFFFFFFFFFFFFFFFF00FFFF00FFFFFFFFFFFFFFFFFFFFFF00FFFFFFFFFFFFFFFFFFFFFFFFFFFFFFFF00FFFF00FFFFFFFFFFFFFFFFFFFFFF00FFFFFFFFFFFFFFFFFFFFFFFFFFFFFF
310
FF00FFFF00FFFFFFFFFFFFFFFFFFFFFF00FFFFFFFFFFFFFFFFFFFFFFFFFFFFFFFF00FFFF00FFFFFFFFFFFFFFFFFFFFFF00FFFFFFFFFFFFFFFFFFFFFFFFFFFFFFFF00FFFF00FFFFFFFFFFFFFFFFFFFFFF00FFFFFFFFFFFFFFFFFFFFFFFFFFFFFFFF00FFFF00FFFFFFFFFFFFFFFFFFFFFF00FFFFFFFFFFFFFFFFFFFFFFFFFFFF
310
FFFF00FFFF00FFFFFFFFFFFFFFFFFFFFFF00FFFFFFFFFFFFFFFFFFFFFFFFFFFFFFFF00FFFF00FFFFFFFFFFFFFFFFFFFFFF00FFFFFFFFFFFFFFFFFFFFFFFFFFFFFFFF00FFFF00FFFFFFFFFFFFFFFFFFFFFF00FFFFFFFFFFFFFFFFFFFFFFFFFFFFFFFF00FFFF00FFFFFFFFFFFFFFFFFFFF00FFFFFFFFFFFFFFFFFFFFFFFFFFFF
310
FFFFFF00FFFF00FFFFFFFFFFFFFFFFFFFF00FFFFFFFFFFFFFFFFFFFFFFFFFFFFFFFFFF00FFFF00FFFFFFFFFFFFFFFFFFFF00FFFFFFFFFFFFFFFFFFFFFFFFFFFFFFFFFF00FFFF00FFFFFFFFFFFFFFFFFFFF00FFFFFFFFFFFFFFFFFFFFFFFFFFFFFFFFFF00FFFF00FFFFFFFFFFFFFFFFFFFF00FFFFFFFFFFFFFFFFFFFFFFFFFF
310
FFFFFFFF00FFFF00FFFFFFFFFFFFFFFFFF0000FFFF00FFFFFFFFFFFFFFFFFFFFFFFFFFFF00FFFF00FFFFFFFFFFFFFFFF0000FFFFFF00FFFFFFFFFFFFFFFFFFFFFFFFFFFF00FFFF00000000000000000000FFFFFFFF00FFFFFFFFFFFFFFFFFFFFFFFFFFFF00FFFFFFFFFFFFFFFFFFFFFFFFFFFFFF00FFFFFFFFFFFFFFFFFFFF
310
FFFFFFFFFF00FFFFFFFFFFFFFFFFFFFFFFFFFFFF00FFFFFFFFFFFFFFFFFFFFFFFFFFFFFFFF00FFFFFFFFFFFFFFFFFFFFFFFFFFFF00FFFFFFFFFFFFFFFFFFFFFFFFFFFFFFFF00FFFFFFFFFFFFFFFFFFFFFFFFFFFFFF00FFFFFFFFFFFFFFFFFFFFFFFFFFFFFF00FFFFFFFFFFFFFFFFFFFFFFFFFFFFFF00FFFFFFFFFFFFFFFFFF
310
FFFFFFFFFFFF00FFFF00000000000000000000FFFFFFFF00FFFFFFFFFFFFFFFFFFFFFFFFFFFF00FFFF00FFFFFFFFFFFFFFFFFF0000FFFF00
102
{BLKREFS
331
31D
102
}
  0
BLOCK_RECORD
  5
2E9
330
1
100
AcDbSymbolTableRecord
100
AcDbBlockTableRecord
  2
AI9-BLK10
340
0
310
2800000020000000200000000100080000000000000400000000000000000000000000000000000000000000000080000080000000808000800000008000800080800000C0C0C000C0DCC000F0CAA6000020400000206000002080000020A0000020C0000020E00000400000004020000040400000406000004080000040A0
310
000040C0000040E00000600000006020000060400000606000006080000060A0000060C0000060E00000800000008020000080400000806000008080000080A0000080C0000080E00000A0000000A0200000A0400000A0600000A0800000A0A00000A0C00000A0E00000C0000000C0200000C0400000C0600000C0800000C0
310
A00000C0C00000C0E00000E0000000E0200000E0400000E0600000E0800000E0A00000E0C00000E0E00040000000400020004000400040006000400080004000A0004000C0004000E00040200000402020004020400040206000402080004020A0004020C0004020E000404000004040200040404000404060004040800040
310
40A0004040C0004040E00040600000406020004060400040606000406080004060A0004060C0004060E00040800000408020004080400040806000408080004080A0004080C0004080E00040A0000040A0200040A0400040A0600040A0800040A0A00040A0C00040A0E00040C0000040C0200040C0400040C0600040C08000
310
40C0A00040C0C00040C0E00040E0000040E0200040E0400040E0600040E0800040E0A00040E0C00040E0E00080000000800020008000400080006000800080008000A0008000C0008000E00080200000802020008020400080206000802080008020A0008020C0008020E00080400000804020008040400080406000804080
310
008040A0008040C0008040E00080600000806020008060400080606000806080008060A0008060C0008060E00080800000808020008080400080806000808080008080A0008080C0008080E00080A0000080A0200080A0400080A0600080A0800080A0A00080A0C00080A0E00080C0000080C0200080C0400080C0600080C0
310
800080C0A00080C0C00080C0E00080E0000080E0200080E0400080E0600080E0800080E0A00080E0C00080E0E000C0000000C0002000C0004000C0006000C0008000C000A000C000C000C000E000C0200000C0202000C0204000C0206000C0208000C020A000C020C000C020E000C0400000C0402000C0404000C0406000C0
310
408000C040A000C040C000C040E000C0600000C0602000C0604000C0606000C0608000C060A000C060C000C060E000C0800000C0802000C0804000C0806000C0808000C080A000C080C000C080E000C0A00000C0A02000C0A04000C0A06000C0A08000C0A0A000C0A0C000C0A0E000C0C00000C0C02000C0C04000C0C06000
310
C0C08000C0C0A000F0FBFF00A4A0A000808080000000FF0000FF000000FFFF00FF000000FF00FF00FFFF0000FFFFFF00FFFFFFFFFFFFFFFFFFFFFFFFFFFFFFFF00FFFFFFFFFFFFFFFFFFFFFFFF00FFFFFFFFFFFFFFFFFFFFFFFFFFFFFFFFFFFF00FFFFFFFFFFFFFFFFFFFFFF00FFFFFFFFFFFFFFFFFFFFFFFFFFFFFFFFFFFF
310
FF00FFFFFFFFFFFFFFFFFFFFFF00FFFFFFFFFFFFFFFFFFFFFFFFFFFFFFFFFFFFFF00FFFFFFFFFFFFFFFFFFFFFF00FFFFFFFFFFFFFFFFFFFFFFFFFFFFFFFFFFFFFF00FFFFFFFFFFFFFFFFFFFFFF00FFFFFFFFFFFFFFFFFFFFFFFFFFFFFFFFFFFFFF00FFFFFFFFFFFFFFFFFFFFFF00FFFFFFFFFFFFFFFFFFFFFFFFFFFFFFFFFF
310
FFFF00FFFFFFFFFFFFFFFFFFFFFF00FFFFFFFFFFFFFFFFFFFFFFFFFFFFFFFFFFFFFF00FFFFFFFFFFFFFFFFFFFF00FFFFFFFFFFFFFFFFFFFFFFFFFFFFFFFFFFFFFFFF00FFFFFFFFFFFFFFFFFFFF00FFFFFFFFFFFFFFFFFFFFFFFFFFFFFFFFFFFFFFFF00FFFFFFFFFFFFFFFFFFFF00FFFFFFFFFFFFFFFFFFFFFFFFFFFFFFFFFF
310
FFFFFF00FFFFFFFFFFFFFFFFFFFF00FFFFFFFFFFFFFFFFFFFFFFFFFFFFFFFFFFFFFFFF00FFFFFFFFFFFFFFFFFFFF00FFFFFFFFFFFFFFFFFFFFFFFFFFFFFFFFFFFFFFFF00FFFFFFFFFFFFFFFFFFFF00FFFFFFFFFFFFFFFFFFFFFFFFFFFFFFFFFFFFFFFF00FFFFFFFFFFFFFFFFFF00FFFFFFFFFFFFFFFFFFFFFFFFFFFFFFFFFF
310
FFFFFFFF00FFFFFFFFFFFFFFFFFF00FFFFFFFFFFFFFFFFFFFFFFFFFFFFFFFFFFFFFFFFFF00FFFFFFFFFFFFFFFFFF00FFFFFFFFFFFFFFFFFFFFFFFFFFFFFFFFFFFFFFFFFF0000000000000000000000FFFFFFFFFFFFFFFFFFFFFFFFFFFFFFFFFFFFFFFFFFFFFFFFFFFFFFFFFFFFFFFFFFFFFFFFFFFFFFFFFFFFFFFFFFFFFFFF
310
FFFFFFFFFFFFFFFFFFFFFFFFFFFFFFFFFFFFFFFFFFFFFFFFFFFFFFFFFFFFFFFFFFFFFFFFFFFFFFFFFFFFFFFFFFFFFFFFFFFFFFFFFFFFFFFFFFFFFFFFFFFFFFFFFFFFFFFFFFFFFFFFFFFFFFFFFFFFFFFFFFFFFFFFFFFFFFFFFFFFFFFFFFFFFFFFFFFFFFFFFFFFFFFFFFFFFFFFFFFFFFFFFFFFFFFFFFFFFFFFFFFFFFFFFFFFFF
310
FFFFFFFFFFFFFFFFFFFFFFFFFFFFFFFFFFFFFFFFFFFFFFFFFFFFFFFFFFFFFFFFFFFFFFFFFFFFFFFFFFFFFFFFFFFFFFFFFFFFFFFFFFFFFFFFFFFFFFFFFFFFFFFFFFFFFFFFFFFFFFFFFFFFFFFFFFFFFFFFFFFFFFFFFFFFFFFFFFFFFFFFFFFFFFFFFFFFFFFFFFFFFFFFFFFFFFFFFFFFFFFFFFFFFFFFFFFFFFFFFFFFFFFFFFFFFF
310
FFFFFFFFFFFFFFFFFFFFFFFFFFFFFFFFFFFFFFFFFFFFFFFFFFFFFFFFFFFFFFFFFFFFFFFFFFFFFFFFFFFFFFFFFFFFFFFFFFFFFFFFFFFFFFFFFFFFFFFFFFFFFFFFFFFFFFFFFFFFFFFFFFFFFFFFFFFFFFFFFFFFFFFFFFFFFFFFFFFFFFFFFFFFFFFFFFFFFFFFFFFFFFFFFFFFFFFFFFFFFFFFFFFFFFFFFFFFFFFFFFFFFFFFFFFFFF
310
FFFFFFFFFFFFFFFFFFFFFFFFFFFFFFFFFFFFFFFFFFFFFFFFFFFFFFFFFFFFFFFFFFFFFFFFFFFFFFFFFFFFFFFFFFFFFFFFFFFFFFFFFFFFFFFF
102
{BLKREFS
331
31E
102
}
  0
BLOCK_RECORD
  5
2ED
330
1
100
AcDbSymbolTableRecord
100
AcDbBlockTableRecord
  2
AI9-BLK9
340
0
310
2800000020000000200000000100080000000000000400000000000000000000000000000000000000000000000080000080000000808000800000008000800080800000C0C0C000C0DCC000F0CAA6000020400000206000002080000020A0000020C0000020E00000400000004020000040400000406000004080000040A0
310
000040C0000040E00000600000006020000060400000606000006080000060A0000060C0000060E00000800000008020000080400000806000008080000080A0000080C0000080E00000A0000000A0200000A0400000A0600000A0800000A0A00000A0C00000A0E00000C0000000C0200000C0400000C0600000C0800000C0
310
A00000C0C00000C0E00000E0000000E0200000E0400000E0600000E0800000E0A00000E0C00000E0E00040000000400020004000400040006000400080004000A0004000C0004000E00040200000402020004020400040206000402080004020A0004020C0004020E000404000004040200040404000404060004040800040
310
40A0004040C0004040E00040600000406020004060400040606000406080004060A0004060C0004060E00040800000408020004080400040806000408080004080A0004080C0004080E00040A0000040A0200040A0400040A0600040A0800040A0A00040A0C00040A0E00040C0000040C0200040C0400040C0600040C08000
310
40C0A00040C0C00040C0E00040E0000040E0200040E0400040E0600040E0800040E0A00040E0C00040E0E00080000000800020008000400080006000800080008000A0008000C0008000E00080200000802020008020400080206000802080008020A0008020C0008020E00080400000804020008040400080406000804080
310
008040A0008040C0008040E00080600000806020008060400080606000806080008060A0008060C0008060E00080800000808020008080400080806000808080008080A0008080C0008080E00080A0000080A0200080A0400080A0600080A0800080A0A00080A0C00080A0E00080C0000080C0200080C0400080C0600080C0
310
800080C0A00080C0C00080C0E00080E0000080E0200080E0400080E0600080E0800080E0A00080E0C00080E0E000C0000000C0002000C0004000C0006000C0008000C000A000C000C000C000E000C0200000C0202000C0204000C0206000C0208000C020A000C020C000C020E000C0400000C0402000C0404000C0406000C0
310
408000C040A000C040C000C040E000C0600000C0602000C0604000C0606000C0608000C060A000C060C000C060E000C0800000C0802000C0804000C0806000C0808000C080A000C080C000C080E000C0A00000C0A02000C0A04000C0A06000C0A08000C0A0A000C0A0C000C0A0E000C0C00000C0C02000C0C04000C0C06000
310
C0C08000C0C0A000F0FBFF00A4A0A000808080000000FF0000FF000000FFFF00FF000000FF00FF00FFFF0000FFFFFF00FFFFFFFFFFFFFFFFFFFFFFFFFFFFFFFFFFFFFFFFFFFFFFFFFFFFFFFFFFFFFFFFFFFFFFFFFFFFFFFFFFFFFFFFFFFFFF0000FFFFFFFFFFFFFFFFFFFFFFFFFFFFFFFFFFFFFFFFFFFFFFFFFFFFFFFF0000
310
FF0000FFFFFFFFFFFFFFFFFFFFFFFFFFFFFFFFFFFFFFFFFFFFFFFFFFFFFF00FFFFFF0000FFFFFFFFFFFFFFFFFFFFFFFFFFFFFFFFFFFFFFFFFFFFFFFFFFFF00FFFFFFFF0000FFFFFFFFFFFFFFFFFFFFFFFFFFFFFFFFFFFFFFFFFFFFFFFF00FF00000000FF00FFFFFFFFFFFFFFFFFFFFFFFFFFFFFFFFFFFFFFFFFFFFFFFF0000
310
00FFFF00FF00FFFFFFFFFFFFFFFFFFFFFFFFFFFFFFFFFFFFFFFFFFFFFFFF0000FFFFFFFF0000FFFFFFFFFFFFFFFFFFFFFFFFFFFFFFFFFFFFFFFFFFFFFFFF0000FFFFFFFF0000FFFFFFFFFFFFFFFFFFFFFFFFFFFFFFFFFFFFFFFFFFFFFF00FF00FFFFFFFF00FF00FFFFFFFFFFFFFFFFFFFFFFFFFFFFFFFFFFFFFFFFFFFF0000
310
FFFFFFFFFF00FF00FFFFFFFFFFFFFFFFFFFFFFFFFFFFFFFFFFFFFFFFFFFF0000FFFFFFFFFFFF0000FFFFFFFFFFFFFFFFFFFFFFFFFFFFFFFFFFFFFFFFFFFF0000FFFFFFFFFFFF0000FFFFFFFFFFFFFFFFFFFFFFFFFFFFFFFFFFFFFFFFFFFF0000FFFFFFFFFFFF0000FFFFFFFFFFFFFFFFFFFFFFFFFFFFFFFFFFFFFFFFFFFF00
310
00FFFFFFFFFFFF0000FFFFFFFFFFFFFFFFFFFFFFFFFFFFFFFFFFFFFFFFFFFF0000FFFFFFFFFFFF0000FFFFFFFFFFFFFFFFFFFFFFFFFFFFFFFFFFFFFFFFFFFF0000FFFFFFFFFFFF0000FFFFFFFFFFFFFFFFFFFFFFFFFFFFFFFFFFFFFFFFFFFF0000FFFFFFFFFFFF0000FFFFFFFFFFFFFFFFFFFFFFFFFFFFFFFFFFFFFFFFFFFF
310
0000FFFFFFFFFFFF0000FFFFFFFFFFFFFFFFFFFFFFFFFFFFFFFFFFFFFFFFFFFF0000FFFFFFFFFFFF0000FFFFFFFFFFFFFFFFFFFFFFFFFFFFFFFFFFFFFFFFFFFF0000FFFFFFFFFFFF0000FFFFFFFFFFFFFFFFFFFFFFFFFFFFFFFFFFFFFFFFFFFF00FF00FFFFFFFF00FF00FFFFFFFFFFFFFFFFFFFFFFFFFFFFFFFFFFFFFFFFFF
310
FF00FF00FFFFFFFF00FF00FFFFFFFFFFFFFFFFFFFFFFFFFFFFFFFFFFFFFFFFFFFF00FF00FFFFFFFF00FF00FFFFFFFFFFFFFFFFFFFFFFFFFFFFFFFFFFFFFFFFFFFFFF0000FFFFFFFF0000FFFFFFFFFFFFFFFFFFFFFFFFFFFFFFFFFFFFFFFFFFFFFFFF00FF00FFFF00FF00FFFFFFFFFFFFFFFFFFFFFFFFFFFFFFFFFFFFFFFFFF
310
FFFFFF00FF00000000FF00FFFFFFFFFFFFFFFFFFFFFFFFFFFFFFFFFFFFFFFFFFFFFFFFFF00FFFFFFFF0000FFFFFFFFFFFFFFFFFFFFFFFFFFFFFFFFFFFFFFFFFFFFFFFFFF00FFFFFFFF00FFFFFFFFFFFFFFFFFFFFFFFFFFFFFFFFFFFFFFFFFFFFFFFFFFFFFF00000000FFFFFFFFFFFFFFFFFFFFFFFFFFFFFFFFFFFFFFFFFFFF
310
FFFFFFFFFFFFFF0000FFFFFFFFFFFFFFFFFFFFFFFFFFFFFFFFFFFFFFFFFFFFFFFFFFFFFFFFFFFFFFFFFFFFFFFFFFFFFFFFFFFFFFFFFFFFFF
102
{BLKREFS
331
31F
102
}
  0
BLOCK_RECORD
  5
2F2
330
1
100
AcDbSymbolTableRecord
100
AcDbBlockTableRecord
  2
AI9-BLK8
340
0
310
2800000020000000200000000100080000000000000400000000000000000000000000000000000000000000000080000080000000808000800000008000800080800000C0C0C000C0DCC000F0CAA6000020400000206000002080000020A0000020C0000020E00000400000004020000040400000406000004080000040A0
310
000040C0000040E00000600000006020000060400000606000006080000060A0000060C0000060E00000800000008020000080400000806000008080000080A0000080C0000080E00000A0000000A0200000A0400000A0600000A0800000A0A00000A0C00000A0E00000C0000000C0200000C0400000C0600000C0800000C0
310
A00000C0C00000C0E00000E0000000E0200000E0400000E0600000E0800000E0A00000E0C00000E0E00040000000400020004000400040006000400080004000A0004000C0004000E00040200000402020004020400040206000402080004020A0004020C0004020E000404000004040200040404000404060004040800040
310
40A0004040C0004040E00040600000406020004060400040606000406080004060A0004060C0004060E00040800000408020004080400040806000408080004080A0004080C0004080E00040A0000040A0200040A0400040A0600040A0800040A0A00040A0C00040A0E00040C0000040C0200040C0400040C0600040C08000
310
40C0A00040C0C00040C0E00040E0000040E0200040E0400040E0600040E0800040E0A00040E0C00040E0E00080000000800020008000400080006000800080008000A0008000C0008000E00080200000802020008020400080206000802080008020A0008020C0008020E00080400000804020008040400080406000804080
310
008040A0008040C0008040E00080600000806020008060400080606000806080008060A0008060C0008060E00080800000808020008080400080806000808080008080A0008080C0008080E00080A0000080A0200080A0400080A0600080A0800080A0A00080A0C00080A0E00080C0000080C0200080C0400080C0600080C0
310
800080C0A00080C0C00080C0E00080E0000080E0200080E0400080E0600080E0800080E0A00080E0C00080E0E000C0000000C0002000C0004000C0006000C0008000C000A000C000C000C000E000C0200000C0202000C0204000C0206000C0208000C020A000C020C000C020E000C0400000C0402000C0404000C0406000C0
310
408000C040A000C040C000C040E000C0600000C0602000C0604000C0606000C0608000C060A000C060C000C060E000C0800000C0802000C0804000C0806000C0808000C080A000C080C000C080E000C0A00000C0A02000C0A04000C0A06000C0A08000C0A0A000C0A0C000C0A0E000C0C00000C0C02000C0C04000C0C06000
310
C0C08000C0C0A000F0FBFF00A4A0A000808080000000FF0000FF000000FFFF00FF000000FF00FF00FFFF0000FFFFFF00FFFFFFFFFFFFFFFFFFFFFFFFFFFFFFFFFFFFFFFFFFFFFFFFFFFFFFFFFFFFFFFFFFFFFFFFFFFFFFFFFFFFFF0000FFFFFFFFFFFF0000FFFFFFFFFFFFFFFFFFFFFFFFFFFFFFFFFFFFFFFFFFFF0000FFFF
310
FFFFFFFF0000FFFFFFFFFFFFFFFFFFFFFFFFFFFFFFFFFFFFFFFFFFFF0000FFFFFFFFFF00FF00FFFFFFFFFFFFFFFFFFFFFFFFFFFFFFFFFFFFFFFFFFFF0000FFFFFFFFFF00FF00FFFFFFFFFFFFFFFFFFFFFFFFFFFFFFFFFFFFFFFFFFFF0000FFFFFFFFFF00FF00FFFFFFFFFFFFFFFFFFFFFFFFFFFFFFFFFFFFFFFFFFFF0000FF
310
FFFFFF00FFFF00FFFFFFFFFFFFFFFFFFFFFFFFFFFFFFFFFFFFFFFFFFFF0000FFFFFFFF00FF0000FFFFFFFFFFFFFFFFFFFFFFFFFFFFFFFFFFFFFFFFFFFF0000FFFFFFFF00FF0000FFFFFFFFFFFFFFFFFFFFFFFFFFFFFFFFFFFFFFFFFFFF0000FFFFFFFF00000000FFFFFFFFFFFFFFFFFFFFFFFFFFFFFFFFFFFFFFFFFFFF0000
310
FFFFFF00FF000000FFFFFFFFFFFFFFFFFFFFFFFFFFFFFFFFFFFFFFFFFFFF0000FFFFFF00FF000000FFFFFFFFFFFFFFFFFFFFFFFFFFFFFFFFFFFFFFFFFFFF0000FFFFFF00FF000000FFFFFFFFFFFFFFFFFFFFFFFFFFFFFFFFFFFFFFFFFFFF0000FFFF00FF00FF0000FFFFFFFFFFFFFFFFFFFFFFFFFFFFFFFFFFFFFFFFFFFF00
310
00FFFF00FF00FF0000FFFFFFFFFFFFFFFFFFFFFFFFFFFFFFFFFFFFFFFFFFFF0000FFFF00FF00FF0000FFFFFFFFFFFFFFFFFFFFFFFFFFFFFFFFFFFFFFFFFFFF0000FF00FFFF00FF0000FFFFFFFFFFFFFFFFFFFFFFFFFFFFFFFFFFFFFFFFFFFF0000FF00FF00FFFF0000FFFFFFFFFFFFFFFFFFFFFFFFFFFFFFFFFFFFFFFFFFFF
310
0000FF00FF00FFFF0000FFFFFFFFFFFFFFFFFFFFFFFFFFFFFFFFFFFFFFFFFFFF0000FF00FF00FFFF0000FFFFFFFFFFFFFFFFFFFFFFFFFFFFFFFFFFFFFFFFFFFF000000FFFF00FFFF0000FFFFFFFFFFFFFFFFFFFFFFFFFFFFFFFFFFFFFFFFFFFF000000FF00FFFFFF0000FFFFFFFFFFFFFFFFFFFFFFFFFFFFFFFFFFFFFFFFFF
310
FF000000FF00FFFFFF0000FFFFFFFFFFFFFFFFFFFFFFFFFFFFFFFFFFFFFFFFFFFF0000FFFF00FFFFFF0000FFFFFFFFFFFFFFFFFFFFFFFFFFFFFFFFFFFFFFFFFFFF0000FFFF00FFFFFF0000FFFFFFFFFFFFFFFFFFFFFFFFFFFFFFFFFFFFFFFFFFFF00FFFF00FFFFFFFF0000FFFFFFFFFFFFFFFFFFFFFFFFFFFFFFFFFFFFFFFF
310
FFFF00FFFF00FFFFFFFF0000FFFFFFFFFFFFFFFFFFFFFFFFFFFFFFFFFFFFFFFFFFFF00FFFF00FFFFFFFF0000FFFFFFFFFFFFFFFFFFFFFFFFFFFFFFFFFFFFFFFFFFFF00FFFF00FFFFFFFF0000FFFFFFFFFFFFFFFFFFFFFFFFFFFFFFFFFFFFFFFFFFFF00FF00FFFFFFFFFF0000FFFFFFFFFFFFFFFFFFFFFFFFFFFFFFFFFFFFFF
310
FFFFFF000000FFFFFFFFFF0000FFFFFFFFFFFFFFFFFFFFFFFFFFFFFFFFFFFFFFFFFFFFFFFFFFFFFFFFFFFFFFFFFFFFFFFFFFFFFFFFFFFFFF
102
{BLKREFS
331
320
102
}
  0
BLOCK_RECORD
  5
2F7
330
1
100
AcDbSymbolTableRecord
100
AcDbBlockTableRecord
  2
AI9-BLK7
340
0
310
2800000020000000200000000100080000000000000400000000000000000000000000000000000000000000000080000080000000808000800000008000800080800000C0C0C000C0DCC000F0CAA6000020400000206000002080000020A0000020C0000020E00000400000004020000040400000406000004080000040A0
310
000040C0000040E00000600000006020000060400000606000006080000060A0000060C0000060E00000800000008020000080400000806000008080000080A0000080C0000080E00000A0000000A0200000A0400000A0600000A0800000A0A00000A0C00000A0E00000C0000000C0200000C0400000C0600000C0800000C0
310
A00000C0C00000C0E00000E0000000E0200000E0400000E0600000E0800000E0A00000E0C00000E0E00040000000400020004000400040006000400080004000A0004000C0004000E00040200000402020004020400040206000402080004020A0004020C0004020E000404000004040200040404000404060004040800040
310
40A0004040C0004040E00040600000406020004060400040606000406080004060A0004060C0004060E00040800000408020004080400040806000408080004080A0004080C0004080E00040A0000040A0200040A0400040A0600040A0800040A0A00040A0C00040A0E00040C0000040C0200040C0400040C0600040C08000
310
40C0A00040C0C00040C0E00040E0000040E0200040E0400040E0600040E0800040E0A00040E0C00040E0E00080000000800020008000400080006000800080008000A0008000C0008000E00080200000802020008020400080206000802080008020A0008020C0008020E00080400000804020008040400080406000804080
310
008040A0008040C0008040E00080600000806020008060400080606000806080008060A0008060C0008060E00080800000808020008080400080806000808080008080A0008080C0008080E00080A0000080A0200080A0400080A0600080A0800080A0A00080A0C00080A0E00080C0000080C0200080C0400080C0600080C0
310
800080C0A00080C0C00080C0E00080E0000080E0200080E0400080E0600080E0800080E0A00080E0C00080E0E000C0000000C0002000C0004000C0006000C0008000C000A000C000C000C000E000C0200000C0202000C0204000C0206000C0208000C020A000C020C000C020E000C0400000C0402000C0404000C0406000C0
310
408000C040A000C040C000C040E000C0600000C0602000C0604000C0606000C0608000C060A000C060C000C060E000C0800000C0802000C0804000C0806000C0808000C080A000C080C000C080E000C0A00000C0A02000C0A04000C0A06000C0A08000C0A0A000C0A0C000C0A0E000C0C00000C0C02000C0C04000C0C06000
310
C0C08000C0C0A000F0FBFF00A4A0A000808080000000FF0000FF000000FFFF00FF000000FF00FF00FFFF0000FFFFFF00FFFFFFFFFFFFFFFFFFFFFFFFFFFFFFFFFFFFFFFFFFFFFFFFFFFFFFFFFFFFFFFFFFFFFFFFFFFFFFFFFFFFFFFFFFFFFF0000FFFFFFFFFFFFFFFFFFFFFFFFFFFFFFFFFFFFFFFFFFFFFFFFFFFFFFFFFFFF
310
0000FFFFFFFFFFFFFFFFFFFFFFFFFFFFFFFFFFFFFFFFFFFFFFFFFFFFFFFFFFFF0000FFFFFFFFFFFFFFFFFFFFFFFFFFFFFFFFFFFFFFFFFFFFFFFFFFFFFFFFFFFF0000FFFFFFFFFFFFFFFFFFFFFFFFFFFFFFFFFFFFFFFFFFFFFFFFFFFFFFFFFFFF0000FFFFFFFFFFFFFFFFFFFFFFFFFFFFFFFFFFFFFFFFFFFFFFFFFFFFFFFFFF
310
FF0000FFFFFFFFFFFFFFFFFFFFFFFFFFFFFFFFFFFFFFFFFFFFFFFFFFFFFFFFFFFF0000FFFFFFFFFFFFFFFFFFFFFFFFFFFFFFFFFFFFFFFFFFFFFFFFFFFFFFFFFFFF0000FFFFFFFFFFFFFFFFFFFFFFFFFFFFFFFFFFFFFFFFFFFFFFFFFFFFFFFFFFFF0000FFFFFFFFFFFFFFFFFFFFFFFFFFFFFFFFFFFFFFFFFFFFFFFFFFFFFFFF
310
FFFF0000FFFFFFFFFFFFFFFFFFFFFFFFFFFFFFFFFFFFFFFFFFFFFFFFFFFFFFFFFFFF0000FFFFFFFFFFFFFFFFFFFFFFFFFFFFFFFFFFFFFFFFFFFFFFFFFFFFFFFFFFFF0000FFFFFFFFFFFFFFFFFFFFFFFFFFFFFFFFFFFFFFFFFFFFFFFFFFFFFFFFFFFF0000FFFFFFFFFFFFFFFFFFFFFFFFFFFFFFFFFFFFFFFFFFFFFFFFFFFFFF
310
FFFFFF0000FFFFFFFFFFFFFFFFFFFFFFFFFFFFFFFFFFFFFFFFFFFFFFFFFFFFFFFFFFFF0000FFFFFFFFFFFFFFFFFFFFFFFFFFFFFFFFFFFFFFFFFFFFFFFFFFFFFFFFFFFF0000FFFFFFFFFFFFFFFFFFFFFFFFFFFFFFFFFFFFFFFFFFFFFFFFFFFFFFFFFFFF0000FFFFFFFFFFFFFFFFFFFFFFFFFFFFFFFFFFFFFFFFFFFFFFFFFFFF
310
FFFFFFFF0000FFFFFFFFFFFFFFFFFFFFFFFFFFFFFFFFFFFFFFFFFFFFFFFFFFFFFFFFFFFF0000FFFFFFFFFFFFFFFFFFFFFFFFFFFFFFFFFFFFFFFFFFFFFFFFFFFFFFFFFFFF0000FFFFFFFFFFFFFFFFFFFFFFFFFFFFFFFFFFFFFFFFFFFFFFFFFFFFFFFFFFFF0000FFFFFFFFFFFFFFFFFFFFFFFFFFFFFFFFFFFFFFFFFFFFFFFFFF
310
FFFFFFFFFF0000FFFFFFFFFFFFFFFFFFFFFFFFFFFFFFFFFFFFFFFFFFFFFFFFFFFFFFFFFFFF0000FFFFFFFFFFFFFFFFFFFFFFFFFFFFFFFFFFFFFFFFFFFFFFFFFFFFFFFFFFFF0000FFFFFFFFFFFFFFFFFFFFFFFFFFFFFFFFFFFFFFFFFFFFFFFFFFFFFFFFFFFF0000FFFFFFFFFFFFFFFFFFFFFFFFFFFFFFFFFFFFFFFFFFFFFFFF
310
FFFFFFFFFFFF0000FFFFFFFFFFFFFFFFFFFFFFFFFFFFFFFFFFFFFFFFFFFFFFFFFFFFFFFFFFFF0000FFFFFFFFFFFFFFFFFFFFFFFFFFFFFFFFFFFFFFFFFFFFFFFFFFFFFFFFFFFF0000FFFFFFFFFFFFFFFFFFFFFFFFFFFFFFFFFFFFFFFFFFFFFFFFFFFFFFFFFFFF0000FFFFFFFFFFFFFFFFFFFFFFFFFFFFFFFFFFFFFFFFFFFFFF
310
FFFFFFFFFFFFFF0000FFFFFFFFFFFFFFFFFFFFFFFFFFFFFFFFFFFFFFFFFFFFFFFFFFFFFFFFFFFFFFFFFFFFFFFFFFFFFFFFFFFFFFFFFFFFFF
102
{BLKREFS
331
321
102
}
  0
BLOCK_RECORD
  5
2FC
330
1
100
AcDbSymbolTableRecord
100
AcDbBlockTableRecord
  2
AI9-BLK6
340
0
310
2800000020000000200000000100080000000000000400000000000000000000000000000000000000000000000080000080000000808000800000008000800080800000C0C0C000C0DCC000F0CAA6000020400000206000002080000020A0000020C0000020E00000400000004020000040400000406000004080000040A0
310
000040C0000040E00000600000006020000060400000606000006080000060A0000060C0000060E00000800000008020000080400000806000008080000080A0000080C0000080E00000A0000000A0200000A0400000A0600000A0800000A0A00000A0C00000A0E00000C0000000C0200000C0400000C0600000C0800000C0
310
A00000C0C00000C0E00000E0000000E0200000E0400000E0600000E0800000E0A00000E0C00000E0E00040000000400020004000400040006000400080004000A0004000C0004000E00040200000402020004020400040206000402080004020A0004020C0004020E000404000004040200040404000404060004040800040
310
40A0004040C0004040E00040600000406020004060400040606000406080004060A0004060C0004060E00040800000408020004080400040806000408080004080A0004080C0004080E00040A0000040A0200040A0400040A0600040A0800040A0A00040A0C00040A0E00040C0000040C0200040C0400040C0600040C08000
310
40C0A00040C0C00040C0E00040E0000040E0200040E0400040E0600040E0800040E0A00040E0C00040E0E00080000000800020008000400080006000800080008000A0008000C0008000E00080200000802020008020400080206000802080008020A0008020C0008020E00080400000804020008040400080406000804080
310
008040A0008040C0008040E00080600000806020008060400080606000806080008060A0008060C0008060E00080800000808020008080400080806000808080008080A0008080C0008080E00080A0000080A0200080A0400080A0600080A0800080A0A00080A0C00080A0E00080C0000080C0200080C0400080C0600080C0
310
800080C0A00080C0C00080C0E00080E0000080E0200080E0400080E0600080E0800080E0A00080E0C00080E0E000C0000000C0002000C0004000C0006000C0008000C000A000C000C000C000E000C0200000C0202000C0204000C0206000C0208000C020A000C020C000C020E000C0400000C0402000C0404000C0406000C0
310
408000C040A000C040C000C040E000C0600000C0602000C0604000C0606000C0608000C060A000C060C000C060E000C0800000C0802000C0804000C0806000C0808000C080A000C080C000C080E000C0A00000C0A02000C0A04000C0A06000C0A08000C0A0A000C0A0C000C0A0E000C0C00000C0C02000C0C04000C0C06000
310
C0C08000C0C0A000F0FBFF00A4A0A000808080000000FF0000FF000000FFFF00FF000000FF00FF00FFFF0000FFFFFF00FFFFFFFFFFFFFFFFFFFFFFFF00FFFFFFFFFFFFFF00FFFFFFFFFFFFFFFFFFFFFFFFFFFFFFFFFFFFFFFFFFFFFF00FFFFFFFFFFFFFF00FFFFFFFFFFFFFFFFFFFFFFFFFFFFFFFFFFFFFFFFFFFFFF00FFFF
310
FFFFFFFFFF00FFFFFFFFFFFFFFFFFFFFFFFFFFFFFFFFFFFFFFFFFFFF00FFFFFFFFFFFFFFFF00FFFFFFFFFFFFFFFFFFFFFFFFFFFFFFFFFFFFFFFFFFFF00FFFFFFFFFFFFFF00FFFFFFFFFFFFFFFFFFFFFFFFFFFFFFFFFFFFFFFFFFFFFF00FFFFFFFFFFFFFF00FFFFFFFFFFFFFFFFFFFFFFFFFFFFFFFFFFFFFFFFFFFF00FFFFFF
310
FFFFFFFFFF00FFFFFFFFFFFFFFFFFFFFFFFFFFFFFFFFFFFFFFFFFFFF00FFFFFFFFFFFFFF00FFFFFFFFFFFFFFFFFFFFFFFFFFFFFFFFFFFFFFFFFFFF00FFFFFFFFFFFFFFFF00FFFFFFFFFFFFFFFFFFFFFFFFFFFFFFFFFFFFFFFFFF00FFFFFFFFFFFFFFFFFF00FFFFFFFFFFFFFFFFFFFFFFFFFFFFFFFFFFFFFFFF00FFFFFFFFFF
310
FFFFFFFFFF00FFFFFFFFFFFFFFFFFFFFFFFFFFFFFFFFFFFFFF00FFFFFFFFFFFFFFFFFFFF00FFFFFFFFFFFFFFFFFFFFFFFFFFFFFFFFFFFF0000FFFFFFFFFFFFFFFFFFFFFF00FFFFFFFFFFFFFFFFFFFFFFFFFFFF00000000FFFFFFFFFFFFFFFFFFFFFFFFFF00FFFFFFFFFFFFFFFFFFFFFFFFFFFFFFFFFFFFFFFFFFFFFFFFFFFF
310
FFFFFFFF00FFFFFFFFFFFFFFFFFFFFFFFFFFFFFFFFFFFFFFFFFFFFFFFFFFFFFFFFFFFFFF00FFFFFFFFFFFFFFFFFFFFFFFFFFFFFFFFFFFFFFFFFFFFFFFFFFFFFFFFFFFFFF00FFFFFFFFFFFFFFFFFFFFFFFFFFFFFFFFFFFFFFFFFFFFFFFFFFFFFFFFFFFF00FFFFFFFFFFFFFFFFFFFFFFFFFFFFFFFFFFFFFFFFFFFFFFFFFFFFFF
310
FFFFFFFF00FFFFFFFFFFFFFFFFFFFFFFFFFFFFFFFFFFFFFFFFFFFFFFFFFFFFFFFFFFFF00FFFFFFFFFFFFFFFFFFFFFFFFFFFFFFFFFFFFFFFFFFFFFFFFFFFFFFFFFFFF00FFFFFFFFFFFFFFFFFFFFFFFFFFFFFFFFFFFFFFFFFFFFFFFFFFFFFFFFFFFF00FFFFFFFFFFFFFFFFFFFFFFFFFFFFFFFFFFFFFFFFFFFFFFFFFFFFFFFFFF
310
FF00FFFFFFFFFFFFFFFFFFFFFFFFFFFFFFFFFFFFFFFFFFFFFFFFFFFFFFFFFFFFFF00FFFFFFFFFFFFFFFFFFFFFFFFFFFFFFFFFFFFFFFFFFFFFFFFFFFFFFFFFFFF00FFFFFFFFFFFFFFFFFFFFFFFFFFFFFFFFFFFFFFFFFFFFFFFFFFFFFFFFFF0000FFFFFFFFFFFFFFFFFFFFFFFFFFFFFFFFFFFFFFFFFFFFFFFFFFFFFFFF0000FF
310
FFFFFFFFFFFFFFFFFFFFFFFFFFFFFFFFFFFFFFFFFFFFFFFFFF00000000FFFFFFFFFFFFFFFFFFFFFFFFFFFFFFFFFFFFFFFFFFFFFFFFFFFF0000FFFFFFFFFFFFFFFFFFFFFFFFFFFFFFFFFFFFFFFFFFFFFFFFFFFFFFFFFFFFFFFFFFFFFFFFFFFFFFFFFFFFFFFFFFFFFFFFFFFFFFFFFFFFFFFFFFFFFFFFFFFFFFFFFFFFFFFFFFFF
310
FFFFFFFFFFFFFFFFFFFFFFFFFFFFFFFFFFFFFFFFFFFFFFFFFFFFFFFFFFFFFFFFFFFFFFFFFFFFFFFFFFFFFFFFFFFFFFFFFFFFFFFFFFFFFFFF
102
{BLKREFS
331
322
102
}
  0
BLOCK_RECORD
  5
300
330
1
100
AcDbSymbolTableRecord
100
AcDbBlockTableRecord
  2
AI9-BLK5
340
0
310
2800000020000000200000000100080000000000000400000000000000000000000000000000000000000000000080000080000000808000800000008000800080800000C0C0C000C0DCC000F0CAA6000020400000206000002080000020A0000020C0000020E00000400000004020000040400000406000004080000040A0
310
000040C0000040E00000600000006020000060400000606000006080000060A0000060C0000060E00000800000008020000080400000806000008080000080A0000080C0000080E00000A0000000A0200000A0400000A0600000A0800000A0A00000A0C00000A0E00000C0000000C0200000C0400000C0600000C0800000C0
310
A00000C0C00000C0E00000E0000000E0200000E0400000E0600000E0800000E0A00000E0C00000E0E00040000000400020004000400040006000400080004000A0004000C0004000E00040200000402020004020400040206000402080004020A0004020C0004020E000404000004040200040404000404060004040800040
310
40A0004040C0004040E00040600000406020004060400040606000406080004060A0004060C0004060E00040800000408020004080400040806000408080004080A0004080C0004080E00040A0000040A0200040A0400040A0600040A0800040A0A00040A0C00040A0E00040C0000040C0200040C0400040C0600040C08000
310
40C0A00040C0C00040C0E00040E0000040E0200040E0400040E0600040E0800040E0A00040E0C00040E0E00080000000800020008000400080006000800080008000A0008000C0008000E00080200000802020008020400080206000802080008020A0008020C0008020E00080400000804020008040400080406000804080
310
008040A0008040C0008040E00080600000806020008060400080606000806080008060A0008060C0008060E00080800000808020008080400080806000808080008080A0008080C0008080E00080A0000080A0200080A0400080A0600080A0800080A0A00080A0C00080A0E00080C0000080C0200080C0400080C0600080C0
310
800080C0A00080C0C00080C0E00080E0000080E0200080E0400080E0600080E0800080E0A00080E0C00080E0E000C0000000C0002000C0004000C0006000C0008000C000A000C000C000C000E000C0200000C0202000C0204000C0206000C0208000C020A000C020C000C020E000C0400000C0402000C0404000C0406000C0
310
408000C040A000C040C000C040E000C0600000C0602000C0604000C0606000C0608000C060A000C060C000C060E000C0800000C0802000C0804000C0806000C0808000C080A000C080C000C080E000C0A00000C0A02000C0A04000C0A06000C0A08000C0A0A000C0A0C000C0A0E000C0C00000C0C02000C0C04000C0C06000
310
C0C08000C0C0A000F0FBFF00A4A0A000808080000000FF0000FF000000FFFF00FF000000FF00FF00FFFF0000FFFFFF00FFFFFFFFFFFFFFFFFFFFFFFFFFFFFFFFFFFFFFFFFFFFFFFFFFFFFFFFFFFFFFFFFFFFFFFFFFFFFFFF000000000000000000000000000000000000000000000000FFFFFFFFFFFFFFFF00FFFFFFFFFFFF
310
FFFFFFFFFFFFFFFFFFFFFFFFFFFFFFFFFFFFFFFFFFFFFFFFFF00FFFFFFFFFFFFFFFFFFFFFFFFFFFFFFFFFFFFFFFFFFFFFFFFFFFFFFFFFFFFFF00FFFFFFFFFFFFFFFFFFFFFFFFFFFFFFFFFFFFFFFFFFFFFFFFFFFFFFFFFFFFFF00FFFFFFFFFFFFFFFFFFFFFFFFFFFFFFFFFFFFFFFFFFFFFFFFFFFFFFFFFFFFFF00FFFFFFFFFF
310
FFFFFFFFFFFFFFFFFFFFFFFFFFFFFFFFFFFFFFFFFFFFFFFFFFFF00FFFFFFFFFFFFFFFFFFFFFFFFFFFFFFFFFFFFFFFFFFFFFFFFFFFFFFFFFFFFFF00FFFFFFFFFFFFFFFFFFFFFFFFFFFFFFFFFFFFFFFFFFFFFFFFFFFFFFFFFFFFFF00FFFFFFFFFFFFFFFFFFFFFFFFFFFFFFFFFFFFFFFFFFFFFFFFFFFFFFFFFFFFFF00FFFFFFFF
310
FFFFFFFFFFFFFFFFFFFFFFFFFFFFFFFFFFFFFFFFFFFFFFFFFFFFFF00FFFFFFFFFFFFFFFFFFFFFFFFFFFFFFFFFFFFFFFFFFFFFFFFFFFFFFFFFFFFFF00FFFFFFFFFFFFFFFFFFFFFFFFFFFFFFFFFFFFFFFFFFFFFFFFFFFFFFFFFFFFFF00FFFFFFFFFFFFFFFFFFFFFFFFFFFFFFFFFFFFFFFFFFFFFFFFFFFFFFFFFFFFFF00FFFFFF
310
FFFFFFFFFFFFFFFFFFFFFFFFFFFFFFFFFFFFFFFFFFFFFFFFFFFFFFFF00FFFFFFFFFFFFFFFFFFFFFFFFFFFFFFFFFFFFFFFFFFFFFFFFFFFFFFFFFFFFFF00FFFFFFFFFFFFFFFFFFFFFFFFFFFFFFFFFFFFFFFFFFFFFFFFFFFFFFFFFFFFFF00FFFFFFFFFFFFFFFFFFFFFFFFFFFFFFFFFFFFFFFFFFFFFFFFFFFFFFFFFFFFFF00FFFF
310
FFFFFFFFFFFFFFFFFFFFFFFFFFFFFFFFFFFFFFFFFFFFFFFFFFFFFFFFFF00FFFFFFFFFFFFFFFFFFFFFFFFFFFFFFFFFFFFFFFFFFFFFFFFFFFFFFFFFFFFFF00FFFFFFFFFFFFFFFFFFFFFFFFFFFFFFFFFFFFFFFFFFFFFFFFFFFFFFFFFFFFFF00FFFFFFFFFFFFFFFFFFFFFFFFFFFFFFFFFFFFFFFFFFFFFFFFFFFFFFFFFFFFFF00FF
310
FFFFFFFFFFFFFFFFFFFFFFFFFFFFFFFFFFFFFFFFFFFFFFFFFFFFFFFFFFFF00FFFFFFFFFFFFFFFFFFFFFFFFFFFFFFFFFFFFFFFFFFFFFFFFFFFFFFFFFFFFFF00FFFFFFFFFFFFFFFFFFFFFFFFFFFFFFFFFFFFFFFFFFFFFFFFFFFFFFFFFFFFFF00FFFFFFFFFFFFFFFFFFFFFFFFFFFFFFFFFFFFFFFFFFFFFFFFFFFFFFFFFFFFFF00
310
FFFFFFFFFFFFFFFFFFFFFFFFFFFFFFFFFFFFFFFFFFFFFFFFFFFFFFFFFFFFFF00FFFFFFFFFFFFFFFFFFFFFFFFFFFFFFFFFFFFFFFFFFFFFFFFFFFFFFFFFFFFFF00FFFFFFFFFFFFFFFFFFFFFFFFFFFFFFFFFFFFFFFFFFFFFFFFFFFFFFFFFFFFFF00FFFFFFFFFFFFFFFFFFFFFFFFFFFFFFFFFFFFFFFFFFFFFFFFFFFFFFFFFFFFFF
310
00FFFFFFFFFFFFFFFFFFFFFFFFFFFF000000000000000000FFFFFFFFFFFFFFFF00FFFFFFFFFFFFFFFFFFFFFFFFFFFF00FFFFFFFFFFFFFFFF
102
{BLKREFS
331
323
102
}
  0
BLOCK_RECORD
  5
305
330
1
100
AcDbSymbolTableRecord
100
AcDbBlockTableRecord
  2
AI9-BLK4
340
0
310
2800000020000000200000000100080000000000000400000000000000000000000000000000000000000000000080000080000000808000800000008000800080800000C0C0C000C0DCC000F0CAA6000020400000206000002080000020A0000020C0000020E00000400000004020000040400000406000004080000040A0
310
000040C0000040E00000600000006020000060400000606000006080000060A0000060C0000060E00000800000008020000080400000806000008080000080A0000080C0000080E00000A0000000A0200000A0400000A0600000A0800000A0A00000A0C00000A0E00000C0000000C0200000C0400000C0600000C0800000C0
310
A00000C0C00000C0E00000E0000000E0200000E0400000E0600000E0800000E0A00000E0C00000E0E00040000000400020004000400040006000400080004000A0004000C0004000E00040200000402020004020400040206000402080004020A0004020C0004020E000404000004040200040404000404060004040800040
310
40A0004040C0004040E00040600000406020004060400040606000406080004060A0004060C0004060E00040800000408020004080400040806000408080004080A0004080C0004080E00040A0000040A0200040A0400040A0600040A0800040A0A00040A0C00040A0E00040C0000040C0200040C0400040C0600040C08000
310
40C0A00040C0C00040C0E00040E0000040E0200040E0400040E0600040E0800040E0A00040E0C00040E0E00080000000800020008000400080006000800080008000A0008000C0008000E00080200000802020008020400080206000802080008020A0008020C0008020E00080400000804020008040400080406000804080
310
008040A0008040C0008040E00080600000806020008060400080606000806080008060A0008060C0008060E00080800000808020008080400080806000808080008080A0008080C0008080E00080A0000080A0200080A0400080A0600080A0800080A0A00080A0C00080A0E00080C0000080C0200080C0400080C0600080C0
310
800080C0A00080C0C00080C0E00080E0000080E0200080E0400080E0600080E0800080E0A00080E0C00080E0E000C0000000C0002000C0004000C0006000C0008000C000A000C000C000C000E000C0200000C0202000C0204000C0206000C0208000C020A000C020C000C020E000C0400000C0402000C0404000C0406000C0
310
408000C040A000C040C000C040E000C0600000C0602000C0604000C0606000C0608000C060A000C060C000C060E000C0800000C0802000C0804000C0806000C0808000C080A000C080C000C080E000C0A00000C0A02000C0A04000C0A06000C0A08000C0A0A000C0A0C000C0A0E000C0C00000C0C02000C0C04000C0C06000
310
C0C08000C0C0A000F0FBFF00A4A0A000808080000000FF0000FF000000FFFF00FF000000FF00FF00FFFF0000FFFFFF00FFFFFFFFFFFFFFFFFFFFFFFFFFFFFFFFFFFFFFFFFFFFFFFFFFFFFFFFFFFFFFFFFFFFFFFFFFFFFFFFFFFFFFFFFFFF00000000FFFFFFFFFFFFFFFFFFFFFF000000FFFFFFFFFFFFFFFFFFFFFFFFFFFF00
310
FFFF00FFFFFFFFFFFFFFFFFFFFFF00FFFFFFFFFFFFFFFFFFFFFFFFFFFFFFFF00FFFF00FFFFFFFFFFFFFFFFFFFFFF00FFFFFFFFFFFFFFFFFFFFFFFFFFFFFFFF00FFFF00FFFFFFFFFFFFFFFFFFFFFF00FFFFFFFFFFFFFFFFFFFFFFFFFFFFFFFF00FFFF00FFFFFFFFFFFFFFFFFFFFFF00FFFFFFFFFFFFFFFFFFFFFFFFFFFFFFFF
310
00FFFF00FFFFFFFFFFFFFFFFFFFFFF00FFFFFFFFFFFFFFFFFFFFFFFFFFFFFFFF00FFFF00FFFFFFFFFFFFFFFFFFFFFF00FFFFFFFFFFFFFFFFFFFFFFFFFFFFFFFF00FFFF00FFFFFFFFFFFFFFFFFFFFFF00FFFFFFFFFFFFFFFFFFFFFFFFFFFFFFFF00FFFF00FFFFFFFFFFFFFFFFFFFFFF00FFFFFFFFFFFFFFFFFFFFFFFFFFFFFF
310
FF00FFFF00FFFFFFFFFFFFFFFFFFFFFF00FFFFFFFFFFFFFFFFFFFFFFFFFFFFFFFF00FFFF00FFFFFFFFFFFFFFFFFFFFFF00FFFFFFFFFFFFFFFFFFFFFFFFFFFFFFFF00FFFF00FFFFFFFFFFFFFFFFFFFFFF00FFFFFFFFFFFFFFFFFFFFFFFFFFFFFFFF00FFFF00FFFFFFFFFFFFFFFFFFFFFF00FFFFFFFFFFFFFFFFFFFFFFFFFFFF
310
FFFF00FFFF00FFFFFFFFFFFFFFFFFFFFFF00FFFFFFFFFFFFFFFFFFFFFFFFFFFFFFFF00FFFF00FFFFFFFFFFFFFFFFFFFFFF00FFFFFFFFFFFFFFFFFFFFFFFFFFFFFFFF00FFFF00FFFFFFFFFFFFFFFFFFFFFF00FFFFFFFFFFFFFFFFFFFFFFFFFFFFFFFF00FFFF00FFFFFFFFFFFFFFFFFFFF00FFFFFFFFFFFFFFFFFFFFFFFFFFFF
310
FFFFFF00FFFF00FFFFFFFFFFFFFFFFFFFF00FFFFFFFFFFFFFFFFFFFFFFFFFFFFFFFFFF00FFFF00FFFFFFFFFFFFFFFFFFFF00FFFFFFFFFFFFFFFFFFFFFFFFFFFFFFFFFF00FFFF00FFFFFFFFFFFFFFFFFFFF00FFFFFFFFFFFFFFFFFFFFFFFFFFFFFFFFFF00FFFF00FFFFFFFFFFFFFFFFFFFF00FFFFFFFFFFFFFFFFFFFFFFFFFF
310
FFFFFFFF00FFFF00FFFFFFFFFFFFFFFFFF0000FFFF00FFFFFFFFFFFFFFFFFFFFFFFFFFFF00FFFF00FFFFFFFFFFFFFFFF0000FFFFFF00FFFFFFFFFFFFFFFFFFFFFFFFFFFF00FFFF00000000000000000000FFFFFFFF00FFFFFFFFFFFFFFFFFFFFFFFFFFFF00FFFFFFFFFFFFFFFFFFFFFFFFFFFFFF00FFFFFFFFFFFFFFFFFFFF
310
FFFFFFFFFF00FFFFFFFFFFFFFFFFFFFFFFFFFFFF00FFFFFFFFFFFFFFFFFFFFFFFFFFFFFFFF00FFFFFFFFFFFFFFFFFFFFFFFFFFFF00FFFFFFFFFFFFFFFFFFFFFFFFFFFFFFFF00FFFFFFFFFFFFFFFFFFFFFFFFFFFFFF00FFFFFFFFFFFFFFFFFFFFFFFFFFFFFF00FFFFFFFFFFFFFFFFFFFFFFFFFFFFFF00FFFFFFFFFFFFFFFFFF
310
FFFFFFFFFFFF00FFFF00000000000000000000FFFFFFFF00FFFFFFFFFFFFFFFFFFFFFFFFFFFF00FFFF00FFFFFFFFFFFFFFFFFF0000FFFF00
102
{BLKREFS
331
324
102
}
  0
BLOCK_RECORD
  5
30A
330
1
100
AcDbSymbolTableRecord
100
AcDbBlockTableRecord
  2
AI9-BLK3
340
0
310
2800000020000000200000000100080000000000000400000000000000000000000000000000000000000000000080000080000000808000800000008000800080800000C0C0C000C0DCC000F0CAA6000020400000206000002080000020A0000020C0000020E00000400000004020000040400000406000004080000040A0
310
000040C0000040E00000600000006020000060400000606000006080000060A0000060C0000060E00000800000008020000080400000806000008080000080A0000080C0000080E00000A0000000A0200000A0400000A0600000A0800000A0A00000A0C00000A0E00000C0000000C0200000C0400000C0600000C0800000C0
310
A00000C0C00000C0E00000E0000000E0200000E0400000E0600000E0800000E0A00000E0C00000E0E00040000000400020004000400040006000400080004000A0004000C0004000E00040200000402020004020400040206000402080004020A0004020C0004020E000404000004040200040404000404060004040800040
310
40A0004040C0004040E00040600000406020004060400040606000406080004060A0004060C0004060E00040800000408020004080400040806000408080004080A0004080C0004080E00040A0000040A0200040A0400040A0600040A0800040A0A00040A0C00040A0E00040C0000040C0200040C0400040C0600040C08000
310
40C0A00040C0C00040C0E00040E0000040E0200040E0400040E0600040E0800040E0A00040E0C00040E0E00080000000800020008000400080006000800080008000A0008000C0008000E00080200000802020008020400080206000802080008020A0008020C0008020E00080400000804020008040400080406000804080
310
008040A0008040C0008040E00080600000806020008060400080606000806080008060A0008060C0008060E00080800000808020008080400080806000808080008080A0008080C0008080E00080A0000080A0200080A0400080A0600080A0800080A0A00080A0C00080A0E00080C0000080C0200080C0400080C0600080C0
310
800080C0A00080C0C00080C0E00080E0000080E0200080E0400080E0600080E0800080E0A00080E0C00080E0E000C0000000C0002000C0004000C0006000C0008000C000A000C000C000C000E000C0200000C0202000C0204000C0206000C0208000C020A000C020C000C020E000C0400000C0402000C0404000C0406000C0
310
408000C040A000C040C000C040E000C0600000C0602000C0604000C0606000C0608000C060A000C060C000C060E000C0800000C0802000C0804000C0806000C0808000C080A000C080C000C080E000C0A00000C0A02000C0A04000C0A06000C0A08000C0A0A000C0A0C000C0A0E000C0C00000C0C02000C0C04000C0C06000
310
C0C08000C0C0A000F0FBFF00A4A0A000808080000000FF0000FF000000FFFF00FF000000FF00FF00FFFF0000FFFFFF00FFFFFFFFFFFFFFFFFFFFFFFFFFFFFFFFFFFFFFFFFFFFFFFFFFFFFFFFFFFFFFFFFFFFFFFFFFFFFFFFFFFFFFFFFFFFFF0000FFFFFFFFFFFFFFFFFFFFFFFFFFFFFFFFFFFFFFFFFFFFFFFFFFFFFFFFFFFF
310
0000FFFFFFFFFFFFFFFFFFFFFFFFFFFFFFFFFFFFFFFFFFFFFFFFFFFFFFFFFFFF0000FFFFFFFFFFFFFFFFFFFFFFFFFFFFFFFFFFFFFFFFFFFFFFFFFFFFFFFFFFFF0000FFFFFFFFFFFFFFFFFFFFFFFFFFFFFFFFFFFFFFFFFFFFFFFFFFFFFFFFFFFF0000FFFFFFFFFFFFFFFFFFFFFFFFFFFFFFFFFFFFFFFFFFFFFFFFFFFFFFFFFF
310
FF0000FFFFFFFFFFFFFFFFFFFFFFFFFFFFFFFFFFFFFFFFFFFFFFFFFFFFFFFFFFFF0000FFFFFFFFFFFFFFFFFFFFFFFFFFFFFFFFFFFFFFFFFFFFFFFFFFFFFFFFFFFF0000FFFFFFFFFFFFFFFFFFFFFFFFFFFFFFFFFFFFFFFFFFFFFFFFFFFFFFFFFFFF0000FFFFFFFFFFFFFFFFFFFFFFFFFFFFFFFFFFFFFFFFFFFFFFFFFFFFFFFF
310
FFFF0000FFFFFFFFFFFFFFFFFFFFFFFFFFFFFFFFFFFFFFFFFFFFFFFFFFFFFFFFFFFF0000FFFFFFFFFFFFFFFFFFFFFFFFFFFFFFFFFFFFFFFFFFFFFFFFFFFFFFFFFFFF0000FFFFFFFFFFFFFFFFFFFFFFFFFFFFFFFFFFFFFFFFFFFFFFFFFFFFFFFFFFFF0000FFFFFFFFFFFFFFFFFFFFFFFFFFFFFFFFFFFFFFFFFFFFFFFFFFFFFF
310
FFFFFF0000FFFFFFFFFFFFFFFFFFFFFFFFFFFFFFFFFFFFFFFFFFFFFFFFFFFFFFFFFFFF0000FFFFFFFFFFFFFFFFFFFFFFFFFFFFFFFFFFFFFFFFFFFFFFFFFFFFFFFFFFFF0000FFFFFFFFFFFFFFFFFFFFFFFFFFFFFFFFFFFFFFFFFFFFFFFFFFFFFFFFFFFF0000FFFFFFFFFFFFFFFFFFFFFFFFFFFFFFFFFFFFFFFFFFFFFFFFFFFF
310
FFFFFFFF0000FFFFFFFFFFFFFFFFFFFFFFFFFFFFFFFFFFFFFFFFFFFFFFFFFFFFFFFFFFFF0000FFFFFFFFFFFFFFFFFFFFFFFFFFFFFFFFFFFFFFFFFFFFFFFFFFFFFFFFFFFF0000FFFFFFFFFFFFFFFFFFFFFFFFFFFFFFFFFFFFFFFFFFFFFFFFFFFFFFFFFFFF0000FFFFFFFFFFFFFFFFFFFFFFFFFFFFFFFFFFFFFFFFFFFFFFFFFF
310
FFFFFFFFFF0000FFFFFFFFFFFFFFFFFFFFFFFFFFFFFFFFFFFFFFFFFFFFFFFFFFFFFFFFFFFF0000FFFFFFFFFFFFFFFFFFFFFFFFFFFFFFFFFFFFFFFFFFFFFFFFFFFFFFFFFFFF0000FFFFFFFFFFFFFFFFFFFFFFFFFFFFFFFFFFFFFFFFFFFFFFFFFFFFFFFFFFFF0000FFFFFFFFFFFFFFFFFFFFFFFFFFFFFFFFFFFFFFFFFFFFFFFF
310
FFFFFFFFFFFF0000FFFFFFFFFFFFFFFFFFFFFFFFFFFFFFFFFFFFFFFFFFFFFFFFFFFFFFFFFFFF0000FFFFFFFFFFFFFFFFFFFFFFFFFFFFFFFFFFFFFFFFFFFFFFFFFFFFFFFFFFFF0000FFFFFFFFFFFFFFFFFFFFFFFFFFFFFFFFFFFFFFFFFFFFFFFFFFFFFFFFFFFF0000FFFFFFFFFFFFFFFFFFFFFFFFFFFFFFFFFFFFFFFFFFFFFF
310
FFFFFFFFFFFFFF0000FFFFFFFFFFFFFFFFFFFFFFFFFFFFFFFFFFFFFFFFFFFFFFFFFFFFFFFFFFFFFFFFFFFFFFFFFFFFFFFFFFFFFFFFFFFFFF
102
{BLKREFS
331
325
102
}
  0
BLOCK_RECORD
  5
30F
330
1
100
AcDbSymbolTableRecord
100
AcDbBlockTableRecord
  2
AI9-BLK2
340
0
310
2800000020000000200000000100080000000000000400000000000000000000000000000000000000000000000080000080000000808000800000008000800080800000C0C0C000C0DCC000F0CAA6000020400000206000002080000020A0000020C0000020E00000400000004020000040400000406000004080000040A0
310
000040C0000040E00000600000006020000060400000606000006080000060A0000060C0000060E00000800000008020000080400000806000008080000080A0000080C0000080E00000A0000000A0200000A0400000A0600000A0800000A0A00000A0C00000A0E00000C0000000C0200000C0400000C0600000C0800000C0
310
A00000C0C00000C0E00000E0000000E0200000E0400000E0600000E0800000E0A00000E0C00000E0E00040000000400020004000400040006000400080004000A0004000C0004000E00040200000402020004020400040206000402080004020A0004020C0004020E000404000004040200040404000404060004040800040
310
40A0004040C0004040E00040600000406020004060400040606000406080004060A0004060C0004060E00040800000408020004080400040806000408080004080A0004080C0004080E00040A0000040A0200040A0400040A0600040A0800040A0A00040A0C00040A0E00040C0000040C0200040C0400040C0600040C08000
310
40C0A00040C0C00040C0E00040E0000040E0200040E0400040E0600040E0800040E0A00040E0C00040E0E00080000000800020008000400080006000800080008000A0008000C0008000E00080200000802020008020400080206000802080008020A0008020C0008020E00080400000804020008040400080406000804080
310
008040A0008040C0008040E00080600000806020008060400080606000806080008060A0008060C0008060E00080800000808020008080400080806000808080008080A0008080C0008080E00080A0000080A0200080A0400080A0600080A0800080A0A00080A0C00080A0E00080C0000080C0200080C0400080C0600080C0
310
800080C0A00080C0C00080C0E00080E0000080E0200080E0400080E0600080E0800080E0A00080E0C00080E0E000C0000000C0002000C0004000C0006000C0008000C000A000C000C000C000E000C0200000C0202000C0204000C0206000C0208000C020A000C020C000C020E000C0400000C0402000C0404000C0406000C0
310
408000C040A000C040C000C040E000C0600000C0602000C0604000C0606000C0608000C060A000C060C000C060E000C0800000C0802000C0804000C0806000C0808000C080A000C080C000C080E000C0A00000C0A02000C0A04000C0A06000C0A08000C0A0A000C0A0C000C0A0E000C0C00000C0C02000C0C04000C0C06000
310
C0C08000C0C0A000F0FBFF00A4A0A000808080000000FF0000FF000000FFFF00FF000000FF00FF00FFFF0000FFFFFF00FFFFFFFFFFFFFFFFFFFFFFFFFFFFFFFFFFFFFFFFFFFFFFFFFFFFFFFFFFFFFFFFFFFFFFFFFFFFFFFFFFFFFFFFFFFFFF0000FFFFFFFFFFFFFFFFFFFFFFFFFFFFFFFFFFFFFFFFFFFFFFFFFFFFFFFFFFFF
310
0000FFFFFFFFFFFFFFFFFFFFFFFFFFFFFFFFFFFFFFFFFFFFFFFFFFFFFFFFFFFF0000FFFFFFFFFFFFFFFFFFFFFFFFFFFFFFFFFFFFFFFFFFFFFFFFFFFFFFFFFF00FFFF00FFFFFFFFFFFFFFFFFFFFFFFFFFFFFFFFFFFFFFFFFFFFFFFFFFFFFFFF00FFFF00FFFFFFFFFFFFFFFFFFFFFFFFFFFFFFFFFFFFFFFFFFFFFFFFFFFFFFFF
310
00FF0000FFFFFFFFFFFFFFFFFFFFFFFFFFFFFFFFFFFFFFFFFFFFFFFFFFFFFFFF00FF0000FFFFFFFFFFFFFFFFFFFFFFFFFFFFFFFFFFFFFFFFFFFFFFFFFFFFFFFF00FF0000FFFFFFFFFFFFFFFFFFFFFFFFFFFFFFFFFFFFFFFFFFFFFFFFFFFFFFFF00000000FFFFFFFFFFFFFFFFFFFFFFFFFFFFFFFFFFFFFFFFFFFFFFFFFFFFFF
310
00FF00FF0000FFFFFFFFFFFFFFFFFFFFFFFFFFFFFFFFFFFFFFFFFFFFFFFFFFFF00FF00FF0000FFFFFFFFFFFFFFFFFFFFFFFFFFFFFFFFFFFFFFFFFFFFFFFFFFFF00FF00FF0000FFFFFFFFFFFFFFFFFFFFFFFFFFFFFFFFFFFFFFFFFFFFFFFFFFFF00FF00FF0000FFFFFFFFFFFFFFFFFFFFFFFFFFFFFFFFFFFFFFFFFFFFFFFFFF
310
FF00FF00FF0000FFFFFFFFFFFFFFFFFFFFFFFFFFFFFFFFFFFFFFFFFFFFFFFFFFFF0000FFFF0000FFFFFFFFFFFFFFFFFFFFFFFFFFFFFFFFFFFFFFFFFFFFFFFFFF00FF00FFFF00FF00FFFFFFFFFFFFFFFFFFFFFFFFFFFFFFFFFFFFFFFFFFFFFFFF00FF00FFFF00FF00FFFFFFFFFFFFFFFFFFFFFFFFFFFFFFFFFFFFFFFFFFFFFF
310
FF00FF00FFFFFF0000FFFFFFFFFFFFFFFFFFFFFFFFFFFFFFFFFFFFFFFFFFFFFFFF00FF00FFFFFF0000FFFFFFFFFFFFFFFFFFFFFFFFFFFFFFFFFFFFFFFFFFFFFFFF00FF00FFFFFF0000FFFFFFFFFFFFFFFFFFFFFFFFFFFFFFFFFFFFFFFFFFFFFFFF0000FFFFFFFF0000FFFFFFFFFFFFFFFFFFFFFFFFFFFFFFFFFFFFFFFFFFFF
310
FF00FF00FFFFFFFF00FF00FFFFFFFFFFFFFFFFFFFFFFFFFFFFFFFFFFFFFFFFFFFF00FF00FFFFFFFF00FF00FFFFFFFFFFFFFFFFFFFFFFFFFFFFFFFFFFFFFFFFFFFF00FF00FFFFFFFF00FF00FFFFFFFFFFFFFFFFFFFFFFFFFFFFFFFFFFFFFFFFFFFF00FF00FFFFFFFF00FF00FFFFFFFFFFFFFFFFFFFFFFFFFFFFFFFFFFFFFFFF
310
FFFF00FF00FFFFFFFFFF0000FFFFFFFFFFFFFFFFFFFFFFFFFFFFFFFFFFFFFFFFFFFF0000FFFFFFFFFFFF0000FFFFFFFFFFFFFFFFFFFFFFFFFFFFFFFFFFFFFFFFFF00FF00FFFFFFFFFFFF00FF00FFFFFFFFFFFFFFFFFFFFFFFFFFFFFFFFFFFFFFFF00FF00FFFFFFFFFFFF00FF00FFFFFFFFFFFFFFFFFFFFFFFFFFFFFFFFFFFF
310
FFFF000000FFFFFFFFFFFF000000FFFFFFFFFFFFFFFFFFFFFFFFFFFFFFFFFFFFFFFFFFFFFFFFFFFFFFFFFFFFFFFFFFFFFFFFFFFFFFFFFFFF
102
{BLKREFS
331
326
102
}
  0
BLOCK_RECORD
  5
314
330
1
100
AcDbSymbolTableRecord
100
AcDbBlockTableRecord
  2
AI9-BLK1
340
0
310
2800000020000000200000000100080000000000000400000000000000000000000000000000000000000000000080000080000000808000800000008000800080800000C0C0C000C0DCC000F0CAA6000020400000206000002080000020A0000020C0000020E00000400000004020000040400000406000004080000040A0
310
000040C0000040E00000600000006020000060400000606000006080000060A0000060C0000060E00000800000008020000080400000806000008080000080A0000080C0000080E00000A0000000A0200000A0400000A0600000A0800000A0A00000A0C00000A0E00000C0000000C0200000C0400000C0600000C0800000C0
310
A00000C0C00000C0E00000E0000000E0200000E0400000E0600000E0800000E0A00000E0C00000E0E00040000000400020004000400040006000400080004000A0004000C0004000E00040200000402020004020400040206000402080004020A0004020C0004020E000404000004040200040404000404060004040800040
310
40A0004040C0004040E00040600000406020004060400040606000406080004060A0004060C0004060E00040800000408020004080400040806000408080004080A0004080C0004080E00040A0000040A0200040A0400040A0600040A0800040A0A00040A0C00040A0E00040C0000040C0200040C0400040C0600040C08000
310
40C0A00040C0C00040C0E00040E0000040E0200040E0400040E0600040E0800040E0A00040E0C00040E0E00080000000800020008000400080006000800080008000A0008000C0008000E00080200000802020008020400080206000802080008020A0008020C0008020E00080400000804020008040400080406000804080
310
008040A0008040C0008040E00080600000806020008060400080606000806080008060A0008060C0008060E00080800000808020008080400080806000808080008080A0008080C0008080E00080A0000080A0200080A0400080A0600080A0800080A0A00080A0C00080A0E00080C0000080C0200080C0400080C0600080C0
310
800080C0A00080C0C00080C0E00080E0000080E0200080E0400080E0600080E0800080E0A00080E0C00080E0E000C0000000C0002000C0004000C0006000C0008000C000A000C000C000C000E000C0200000C0202000C0204000C0206000C0208000C020A000C020C000C020E000C0400000C0402000C0404000C0406000C0
310
408000C040A000C040C000C040E000C0600000C0602000C0604000C0606000C0608000C060A000C060C000C060E000C0800000C0802000C0804000C0806000C0808000C080A000C080C000C080E000C0A00000C0A02000C0A04000C0A06000C0A08000C0A0A000C0A0C000C0A0E000C0C00000C0C02000C0C04000C0C06000
310
C0C08000C0C0A000F0FBFF00A4A0A000808080000000FF0000FF000000FFFF00FF000000FF00FF00FFFF0000FFFFFF00FFFFFFFFFFFFFFFFFFFFFFFFFFFFFFFFFFFFFFFFFFFFFFFFFFFFFFFFFFFFFFFFFFFFFFFFFFFFFFFFFFFFFF00000000000000000000FFFFFFFFFFFFFFFFFFFFFFFFFFFFFFFFFFFFFFFFFFFF00FFFFFF
310
FFFFFFFFFF00FFFFFFFFFFFFFFFFFFFFFFFFFFFFFFFFFFFFFFFFFFFF00FFFFFFFFFFFFFFFF00FFFFFFFFFFFFFFFFFFFFFFFFFFFFFFFFFFFFFFFFFFFF00FFFFFFFFFFFFFFFF00FFFFFFFFFFFFFFFFFFFFFFFFFFFFFFFFFFFFFFFFFFFF00FF0000000000000000FFFFFFFFFFFFFFFFFFFFFFFFFFFFFFFFFFFFFFFFFFFF00FF00
310
FFFFFFFFFFFFFFFFFFFFFFFFFFFFFFFFFFFFFFFFFFFFFFFFFFFFFFFFFF00FF00FFFFFFFFFFFFFFFFFFFFFFFFFFFFFFFFFFFFFFFFFFFFFFFFFFFFFFFFFF00FF00FFFFFFFFFFFFFFFFFFFFFFFFFFFFFFFFFFFFFFFFFFFFFFFFFFFFFFFFFF00FF00FFFFFFFFFFFFFFFFFFFFFFFFFFFFFFFFFFFFFFFFFFFFFFFFFFFFFFFFFF00FF
310
00FFFFFFFFFFFFFFFFFFFFFFFFFFFFFFFFFFFFFFFFFFFFFFFFFFFFFFFFFF00FF00FFFFFFFFFFFFFFFFFFFFFFFFFFFFFFFFFFFFFFFFFFFFFFFFFFFFFFFFFF00FF00FFFFFFFFFFFFFFFFFFFFFFFFFFFFFFFFFFFFFFFFFFFFFFFFFFFFFFFFFF00FF00FFFFFFFFFFFFFFFFFFFFFFFFFFFFFFFFFFFFFFFFFFFFFFFFFFFFFFFFFF00
310
FF00000000000000FFFFFFFFFFFFFFFFFFFFFFFFFFFFFFFFFFFFFFFFFFFFFF00FFFFFFFFFFFFFF00FFFFFFFFFFFFFFFFFFFFFFFFFFFFFFFFFFFFFFFFFFFFFF00FFFFFFFFFFFFFF00FFFFFFFFFFFFFFFFFFFFFFFFFFFFFFFFFFFFFFFFFFFFFF00FFFFFFFFFFFFFF00FFFFFFFFFFFFFFFFFFFFFFFFFFFFFFFFFFFFFFFFFFFFFF
310
00FF00000000000000FFFFFFFFFFFFFFFFFFFFFFFFFFFFFFFFFFFFFFFFFFFFFF00FF00FFFFFFFFFFFFFFFFFFFFFFFFFFFFFFFFFFFFFFFFFFFFFFFFFFFFFFFFFF00FF00FFFFFFFFFFFFFFFFFFFFFFFFFFFFFFFFFFFFFFFFFFFFFFFFFFFFFFFFFF00FF00FFFFFFFFFFFFFFFFFFFFFFFFFFFFFFFFFFFFFFFFFFFFFFFFFFFFFFFF
310
FF00FF00FFFFFFFFFFFFFFFFFFFFFFFFFFFFFFFFFFFFFFFFFFFFFFFFFFFFFFFFFF00FF00FFFFFFFFFFFFFFFFFFFFFFFFFFFFFFFFFFFFFFFFFFFFFFFFFFFFFFFFFF00FF00FFFFFFFFFFFFFFFFFFFFFFFFFFFFFFFFFFFFFFFFFFFFFFFFFFFFFFFFFF00FF00FFFFFFFFFFFFFFFFFFFFFFFFFFFFFFFFFFFFFFFFFFFFFFFFFFFFFF
310
FFFF00FF0000000000000000FFFFFFFFFFFFFFFFFFFFFFFFFFFFFFFFFFFFFFFFFFFF00FFFFFFFFFFFFFFFF00FFFFFFFFFFFFFFFFFFFFFFFFFFFFFFFFFFFFFFFFFFFF00FFFFFFFFFFFFFFFF00FFFFFFFFFFFFFFFFFFFFFFFFFFFFFFFFFFFFFFFFFFFF00FFFFFFFFFFFFFFFF00FFFFFFFFFFFFFFFFFFFFFFFFFFFFFFFFFFFFFF
310
FFFFFF00000000000000000000FFFFFFFFFFFFFFFFFFFFFFFFFFFFFFFFFFFFFFFFFFFFFFFFFFFFFFFFFFFFFFFFFFFFFFFFFFFFFFFFFFFFFF
102
{BLKREFS
331
327
102
}
  0
BLOCK_RECORD
  5
319
330
1
100
AcDbSymbolTableRecord
100
AcDbBlockTableRecord
  2
HD_LLC_logo_OT5
340
0
310
2800000020000000200000000100080000000000000400000000000000000000000000000000000000000000000080000080000000808000800000008000800080800000C0C0C000C0DCC000F0CAA6000020400000206000002080000020A0000020C0000020E00000400000004020000040400000406000004080000040A0
310
000040C0000040E00000600000006020000060400000606000006080000060A0000060C0000060E00000800000008020000080400000806000008080000080A0000080C0000080E00000A0000000A0200000A0400000A0600000A0800000A0A00000A0C00000A0E00000C0000000C0200000C0400000C0600000C0800000C0
310
A00000C0C00000C0E00000E0000000E0200000E0400000E0600000E0800000E0A00000E0C00000E0E00040000000400020004000400040006000400080004000A0004000C0004000E00040200000402020004020400040206000402080004020A0004020C0004020E000404000004040200040404000404060004040800040
310
40A0004040C0004040E00040600000406020004060400040606000406080004060A0004060C0004060E00040800000408020004080400040806000408080004080A0004080C0004080E00040A0000040A0200040A0400040A0600040A0800040A0A00040A0C00040A0E00040C0000040C0200040C0400040C0600040C08000
310
40C0A00040C0C00040C0E00040E0000040E0200040E0400040E0600040E0800040E0A00040E0C00040E0E00080000000800020008000400080006000800080008000A0008000C0008000E00080200000802020008020400080206000802080008020A0008020C0008020E00080400000804020008040400080406000804080
310
008040A0008040C0008040E00080600000806020008060400080606000806080008060A0008060C0008060E00080800000808020008080400080806000808080008080A0008080C0008080E00080A0000080A0200080A0400080A0600080A0800080A0A00080A0C00080A0E00080C0000080C0200080C0400080C0600080C0
310
800080C0A00080C0C00080C0E00080E0000080E0200080E0400080E0600080E0800080E0A00080E0C00080E0E000C0000000C0002000C0004000C0006000C0008000C000A000C000C000C000E000C0200000C0202000C0204000C0206000C0208000C020A000C020C000C020E000C0400000C0402000C0404000C0406000C0
310
408000C040A000C040C000C040E000C0600000C0602000C0604000C0606000C0608000C060A000C060C000C060E000C0800000C0802000C0804000C0806000C0808000C080A000C080C000C080E000C0A00000C0A02000C0A04000C0A06000C0A08000C0A0A000C0A0C000C0A0E000C0C00000C0C02000C0C04000C0C06000
310
C0C08000C0C0A000F0FBFF00A4A0A000808080000000FF0000FF000000FFFF00FF000000FF00FF00FFFF0000FFFFFF00FFFFFFFFFFFFFFFFFFFFFFFFFFFFFFFFFFFFFFFFFFFFFFFFFFFFFFFFFFFFFFFFFFFFFFFFFFFFFFFFFFFFFFFFFFFFFFFFFFFFFFFFFFFFFFFFFFFFFFFFFFFFFFFFFFFFFFFFFFFFFFFFFFFFFFFFFFFFFF
310
FFFFFFFFFFFFFFFFFFFFFFFFFFFFFFFFFFFFFFFFFFFFFFFFFFFFFFFFFFFFFFFFFFFFFFFFFFFFFFFFFFFFFFFFFFFFFFFFFFFFFFFFFFFFFFFFFFFFFFFFFFFFFFFFFFFFFFFFFFFFFFFFFFFFFFFFFFFFFFFFFFFFFFFFFFFFFFFFFFFFFFFFFFFFFFFFFFFFFFFFFFFFFFFFFFFFFFFFFFFFFFFFFFFFFFFFFFFFFFFFFFFFFFFFFFFFFF
310
FFFFFFFFFFFFFFFFFFFFFFFFFFFFFFFFFFFFFFFFFFFFFFFFFFFFFFFFFFFFFFFFFFFFFFFFFFFFFFFFFFFFFFFFFFFFFFFFFFFFFFFFFFFFFFFFFFFFFFFFFFFFFFFFFFFFFFFFFFFFFFFFFFFFFFFFFFFFFFFFFFFFFFFFFFFFFFFFFFFFFFFFFFFFFFFFFFFFFFFFFFFFFFFFFFFFFFFFFFFFFFFFFFFFFFFFFFFFFFFFFFFFFFFFFFFFFF
310
FFFFFFFFFFFFFFFFFFFFFFFFFFFFFFFFFFFFFFFFFFFFFFFFFFFFFFFFFFFFFFFFFFFFFFFFFFFFFFFFFFFFFFFFFFFFFFFFFFFFFFFF0000000000000000000000000000000000000000000000000000000000FFFFFF0000000000000000000000000000000000FFFFFFFFFFFFFFFFFFFF0000FFFFFF0000000000000000000000
310
00000000000000FFFFFFFFFFFFFFFFFFFF0000FFFF000000000000000000000000000000000000FFFFFF00000000FFFFFF0000FFFF00FFFFFFFFFFFF00FFFFFF00FFFFFFFFFF00FFFFFF0000000000FFFF0000FFFF00FFFFFFFFFFFF00FFFFFF00FFFFFFFFFF00FFFFFF00FFFF0000FFFF0000FFFF00FFFFFFFFFFFF00FFFF
310
00FFFFFFFFFFFF00FFFFFF00FFFF0000FFFF0000FFFF0000000000FFFF00000000FFFFFF00000000FFFFFF00000000FFFFFF0000FFFFFFFFFFFF00FFFFFFFFFFFFFFFFFF00FFFFFFFFFFFFFFFFFFFFFFFFFF0000FFFFFFFFFFFF00FFFFFFFFFFFFFFFFFF00FFFFFFFFFFFFFFFFFFFFFFFFFF0000FFFFFFFFFFFF00FFFFFFFF
310
FFFFFFFFFF00FFFFFFFFFFFFFFFFFFFFFFFF0000FFFFFF0000000000FFFF00000000FFFFFF0000000000000000000000000000FFFFFFFF00FFFFFFFFFFFF00FFFF00FFFFFFFFFFFF00FFFFFFFFFFFFFFFFFFFFFFFFFFFF00FFFFFFFFFFFF00FFFFFF00FFFFFFFFFF00FFFFFFFFFFFFFFFFFFFFFFFFFFFF0000000000000000
310
FFFFFF00000000000000FFFFFFFFFFFFFFFFFFFFFFFFFFFFFFFFFFFFFFFFFFFFFFFFFFFFFFFFFFFFFFFFFFFFFFFFFFFFFFFFFFFFFFFFFFFFFFFFFFFFFFFFFFFFFFFFFFFFFFFFFFFFFFFFFFFFFFFFFFFFFFFFFFFFFFFFFFFFFFFFFFFFFFFFFFFFFFFFFFFFFFFFFFFFFFFFFFFFFFFFFFFFFFFFFFFFFFFFFFFFFFFFFFFFFFFFFF
310
FFFFFFFFFFFFFFFFFFFFFFFFFFFFFFFFFFFFFFFFFFFFFFFFFFFFFFFFFFFFFFFFFFFFFFFFFFFFFFFFFFFFFFFFFFFFFFFFFFFFFFFFFFFFFFFF
102
{BLKREFS
331
33F
102
}
  0
BLOCK_RECORD
  5
33E
330
1
100
AcDbSymbolTableRecord
100
AcDbBlockTableRecord
  2
HD logo-new
340
0
310
2800000020000000200000000100080000000000000400000000000000000000000000000000000000000000000080000080000000808000800000008000800080800000C0C0C000C0DCC000F0CAA6000020400000206000002080000020A0000020C0000020E00000400000004020000040400000406000004080000040A0
310
000040C0000040E00000600000006020000060400000606000006080000060A0000060C0000060E00000800000008020000080400000806000008080000080A0000080C0000080E00000A0000000A0200000A0400000A0600000A0800000A0A00000A0C00000A0E00000C0000000C0200000C0400000C0600000C0800000C0
310
A00000C0C00000C0E00000E0000000E0200000E0400000E0600000E0800000E0A00000E0C00000E0E00040000000400020004000400040006000400080004000A0004000C0004000E00040200000402020004020400040206000402080004020A0004020C0004020E000404000004040200040404000404060004040800040
310
40A0004040C0004040E00040600000406020004060400040606000406080004060A0004060C0004060E00040800000408020004080400040806000408080004080A0004080C0004080E00040A0000040A0200040A0400040A0600040A0800040A0A00040A0C00040A0E00040C0000040C0200040C0400040C0600040C08000
310
40C0A00040C0C00040C0E00040E0000040E0200040E0400040E0600040E0800040E0A00040E0C00040E0E00080000000800020008000400080006000800080008000A0008000C0008000E00080200000802020008020400080206000802080008020A0008020C0008020E00080400000804020008040400080406000804080
310
008040A0008040C0008040E00080600000806020008060400080606000806080008060A0008060C0008060E00080800000808020008080400080806000808080008080A0008080C0008080E00080A0000080A0200080A0400080A0600080A0800080A0A00080A0C00080A0E00080C0000080C0200080C0400080C0600080C0
310
800080C0A00080C0C00080C0E00080E0000080E0200080E0400080E0600080E0800080E0A00080E0C00080E0E000C0000000C0002000C0004000C0006000C0008000C000A000C000C000C000E000C0200000C0202000C0204000C0206000C0208000C020A000C020C000C020E000C0400000C0402000C0404000C0406000C0
310
408000C040A000C040C000C040E000C0600000C0602000C0604000C0606000C0608000C060A000C060C000C060E000C0800000C0802000C0804000C0806000C0808000C080A000C080C000C080E000C0A00000C0A02000C0A04000C0A06000C0A08000C0A0A000C0A0C000C0A0E000C0C00000C0C02000C0C04000C0C06000
310
C0C08000C0C0A000F0FBFF00A4A0A000808080000000FF0000FF000000FFFF00FF000000FF00FF00FFFF0000FFFFFF00FFFFFFFFFFFFFFFFFFFFFFFFFFFFFFFFFFFFFFFFFFFFFFFFFFFFFFFFFFFFFFFFFFFFFFFFFFFFFFFFFFFFFFFFFFFFFFFFFFFFFFFFFFFFFFFFFFFFFFFFFFFFFFFFFFFFFFFFFFFFFFFFFFFFFFFFFFFFFF
310
FFFFFFFFFFFFFFFFFFFFFFFFFFFFFFFFFFFFFFFFFFFFFFFFFFFFFFFFFFFFFFFFFFFFFFFFFFFFFFFFFFFFFFFFFFFFFFFFFFFFFFFFFFFFFFFFFFFFFFFFFFFFFFFFFFFFFFFFFFFFFFFFFFFFFFFFFFFFFFFFFFFFFFFFFFFFFFFFFFFFFFFFFFFFFFFFFFFFFFFFFFFFFFFFFFFFFFFFFFFFFFFFFFFFFFFFFFFFFFFFFFFFFFFFFFFFFF
310
FFFFFFFFFFFFFFFFFFFFFFFFFFFFFFFFFFFFFFFFFFFFFFFFFFFFFFFFFFFFFFFFFFFFFFFFFFFFFFFFFFFFFFFFFFFFFFFFFFFFFFFFFFFFFFFFFFFFFFFFFFFFFFFFFFFFFFFFFFFFFFFFFFFFFFFFFFFFFFFFFFFFFFFFFFFFFFFFFFFFFFFFFFFFFFFFFFFFFFFFFFFFFFFFFFFFFFFFFFFFFFFFFFFFFFFFFFFFFFFFFFFFFFFFFFFFFF
310
FFFFFFFFFFFFFFFFFFFFFFFFFFFFFFFFFFFFFFFFFFFFFFFFFFFFFFFFFFFFFFFFFFFFFFFFFFFFFFFFFFFFFFFFFFFFFFFFFFFFFFFF0000000000000000000000000000000000000000000000000000000000FFFFFF0000000000000000000000000000000000FFFFFFFFFFFFFFFFFFFF0000FFFFFF0000000000000000000000
310
00000000000000FFFFFFFFFFFFFFFFFFFF0000FFFF000000000000000000000000000000000000FFFFFF00000000FFFFFF0000FFFF00FFFFFFFFFFFF00FFFFFF00FFFFFFFFFF00FFFFFF0000000000FFFF0000FFFF00FFFFFFFFFFFF00FFFFFF00FFFFFFFFFF00FFFFFF00FFFF0000FFFF0000FFFF00FFFFFFFFFFFF00FFFF
310
00FFFFFFFFFFFF00FFFFFF00FFFF0000FFFF0000FFFF0000000000FFFF00000000FFFFFF00000000FFFFFF00000000FFFFFF0000FFFFFFFFFFFF00FFFFFFFFFFFFFFFFFF00FFFFFFFFFFFFFFFFFFFFFFFFFF0000FFFFFFFFFFFF00FFFFFFFFFFFFFFFFFF00FFFFFFFFFFFFFFFFFFFFFFFFFF0000FFFFFFFFFFFF00FFFFFFFF
310
FFFFFFFFFF00FFFFFFFFFFFFFFFFFFFFFFFF0000FFFFFF0000000000FFFF00000000FFFFFF0000000000000000000000000000FFFFFFFF00FFFFFFFFFFFF00FFFF00FFFFFFFFFFFF00FFFFFFFFFFFFFFFFFFFFFFFFFFFF00FFFFFFFFFFFF00FFFFFF00FFFFFFFFFF00FFFFFFFFFFFFFFFFFFFFFFFFFFFF0000000000000000
310
FFFFFF00000000000000FFFFFFFFFFFFFFFFFFFFFFFFFFFFFFFFFFFFFFFFFFFFFFFFFFFFFFFFFFFFFFFFFFFFFFFFFFFFFFFFFFFFFFFFFFFFFFFFFFFFFFFFFFFFFFFFFFFFFFFFFFFFFFFFFFFFFFFFFFFFFFFFFFFFFFFFFFFFFFFFFFFFFFFFFFFFFFFFFFFFFFFFFFFFFFFFFFFFFFFFFFFFFFFFFFFFFFFFFFFFFFFFFFFFFFFFFF
310
FFFFFFFFFFFFFFFFFFFFFFFFFFFFFFFFFFFFFFFFFFFFFFFFFFFFFFFFFFFFFFFFFFFFFFFFFFFFFFFFFFFFFFFFFFFFFFFFFFFFFFFFFFFFFFFF
102
{BLKREFS
331
343
102
}
  0
BLOCK_RECORD
  5
342
330
1
100
AcDbSymbolTableRecord
100
AcDbBlockTableRecord
  2
HD Logo
340
0
310
2800000020000000200000000100080000000000000400000000000000000000000000000000000000000000000080000080000000808000800000008000800080800000C0C0C000C0DCC000F0CAA6000020400000206000002080000020A0000020C0000020E00000400000004020000040400000406000004080000040A0
310
000040C0000040E00000600000006020000060400000606000006080000060A0000060C0000060E00000800000008020000080400000806000008080000080A0000080C0000080E00000A0000000A0200000A0400000A0600000A0800000A0A00000A0C00000A0E00000C0000000C0200000C0400000C0600000C0800000C0
310
A00000C0C00000C0E00000E0000000E0200000E0400000E0600000E0800000E0A00000E0C00000E0E00040000000400020004000400040006000400080004000A0004000C0004000E00040200000402020004020400040206000402080004020A0004020C0004020E000404000004040200040404000404060004040800040
310
40A0004040C0004040E00040600000406020004060400040606000406080004060A0004060C0004060E00040800000408020004080400040806000408080004080A0004080C0004080E00040A0000040A0200040A0400040A0600040A0800040A0A00040A0C00040A0E00040C0000040C0200040C0400040C0600040C08000
310
40C0A00040C0C00040C0E00040E0000040E0200040E0400040E0600040E0800040E0A00040E0C00040E0E00080000000800020008000400080006000800080008000A0008000C0008000E00080200000802020008020400080206000802080008020A0008020C0008020E00080400000804020008040400080406000804080
310
008040A0008040C0008040E00080600000806020008060400080606000806080008060A0008060C0008060E00080800000808020008080400080806000808080008080A0008080C0008080E00080A0000080A0200080A0400080A0600080A0800080A0A00080A0C00080A0E00080C0000080C0200080C0400080C0600080C0
310
800080C0A00080C0C00080C0E00080E0000080E0200080E0400080E0600080E0800080E0A00080E0C00080E0E000C0000000C0002000C0004000C0006000C0008000C000A000C000C000C000E000C0200000C0202000C0204000C0206000C0208000C020A000C020C000C020E000C0400000C0402000C0404000C0406000C0
310
408000C040A000C040C000C040E000C0600000C0602000C0604000C0606000C0608000C060A000C060C000C060E000C0800000C0802000C0804000C0806000C0808000C080A000C080C000C080E000C0A00000C0A02000C0A04000C0A06000C0A08000C0A0A000C0A0C000C0A0E000C0C00000C0C02000C0C04000C0C06000
310
C0C08000C0C0A000F0FBFF00A4A0A000808080000000FF0000FF000000FFFF00FF000000FF00FF00FFFF0000FFFFFF00FFFFFFFFFFFFFFFFFFFFFFFFFFFFFFFFFFFFFFFFFFFFFFFFFFFFFFFFFFFFFFFFFFFFFFFFFFFFFFFFFFFFFFFFFFFFFFFFFFFFFFFFFFFFFFFFFFFFFFFFFFFFFFFFFFFFFFFFFFFFFFFFFFFFFFFFFFFFFF
310
FFFFFFFFFFFFFFFFFFFFFFFFFFFFFFFFFFFFFFFFFFFFFFFFFFFFFFFFFFFFFFFFFFFFFFFFFFFFFFFFFFFFFFFFFFFFFFFFFFFFFFFFFFFFFFFFFFFFFFFFFFFFFFFFFFFFFFFFFFFFFFFFFFFFFFFFFFFFFFFFFFFFFFFFFFFFFFFFFFFFFFFFFFFFFFFFFFFFFFFFFFFFFFFFFFFFFFFFFFFFFFFFFFFFFFFFFFFFFFFFFFFFFFFFFFFFFF
310
FFFFFFFFFFFFFFFFFFFFFFFFFFFFFFFFFFFFFFFFFFFFFFFFFFFFFFFFFFFFFFFFFFFFFFFFFFFFFFFFFFFFFFFFFFFFFFFFFFFFFFFFFFFFFFFFFFFFFFFFFFFFFFFFFFFFFFFFFFFFFFFFFFFFFFFFFFFFFFFFFFFFFFFFFFFFFFFFFFFFFFFFFFFFFFFFFFFFFFFFFFFFFFFFFFFFFFFFFFFFFFFFFFFFFFFFFFFFFFFFFFFFFFFFFFFFFF
310
FFFFFFFFFFFFFFFFFFFFFFFFFFFFFFFFFFFFFFFFFFFFFFFFFFFFFFFFFFFFFFFFFFFFFFFFFFFFFFFFFFFFFFFFFFFFFFFFFFFFFFFF0000000000000000000000000000000000000000000000000000000000FFFFFF0000000000000000000000000000000000FFFFFFFFFFFFFFFFFFFF0000FFFFFF0000000000000000000000
310
00000000000000FFFFFFFFFFFFFFFFFFFF0000FFFF000000000000000000000000000000000000FFFFFF00000000FFFFFF0000FFFF00FFFFFFFFFFFF00FFFFFF00FFFFFFFFFF00FFFFFF0000000000FFFF0000FFFF00FFFFFFFFFFFF00FFFFFF00FFFFFFFFFF00FFFFFF00FFFF0000FFFF0000FFFF00FFFFFFFFFFFF00FFFF
310
00FFFFFFFFFFFF00FFFFFF00FFFF0000FFFF0000FFFF0000000000FFFF00000000FFFFFF00000000FFFFFF00000000FFFFFF0000FFFFFFFFFFFF00FFFFFFFFFFFFFFFFFF00FFFFFFFFFFFFFFFFFFFFFFFFFF0000FFFFFFFFFFFF00FFFFFFFFFFFFFFFFFF00FFFFFFFFFFFFFFFFFFFFFFFFFF0000FFFFFFFFFFFF00FFFFFFFF
310
FFFFFFFFFF00FFFFFFFFFFFFFFFFFFFFFFFF0000FFFFFF0000000000FFFF00000000FFFFFF0000000000000000000000000000FFFFFFFF00FFFFFFFFFFFF00FFFF00FFFFFFFFFFFF00FFFFFFFFFFFFFFFFFFFFFFFFFFFF00FFFFFFFFFFFF00FFFFFF00FFFFFFFFFF00FFFFFFFFFFFFFFFFFFFFFFFFFFFF0000000000000000
310
FFFFFF00000000000000FFFFFFFFFFFFFFFFFFFFFFFFFFFFFFFFFFFFFFFFFFFFFFFFFFFFFFFFFFFFFFFFFFFFFFFFFFFFFFFFFFFFFFFFFFFFFFFFFFFFFFFFFFFFFFFFFFFFFFFFFFFFFFFFFFFFFFFFFFFFFFFFFFFFFFFFFFFFFFFFFFFFFFFFFFFFFFFFFFFFFFFFFFFFFFFFFFFFFFFFFFFFFFFFFFFFFFFFFFFFFFFFFFFFFFFFFF
310
FFFFFFFFFFFFFFFFFFFFFFFFFFFFFFFFFFFFFFFFFFFFFFFFFFFFFFFFFFFFFFFFFFFFFFFFFFFFFFFFFFFFFFFFFFFFFFFFFFFFFFFFFFFFFFFF
102
{BLKREFS
331
348
331
34C
331
34E
331
352
102
}
  0
BLOCK_RECORD
  5
353
330
1
100
AcDbSymbolTableRecord
100
AcDbBlockTableRecord
  2
NTC
340
0
310
2800000020000000200000000100080000000000000400000000000000000000000000000000000000000000000080000080000000808000800000008000800080800000C0C0C000C0DCC000F0CAA6000020400000206000002080000020A0000020C0000020E00000400000004020000040400000406000004080000040A0
310
000040C0000040E00000600000006020000060400000606000006080000060A0000060C0000060E00000800000008020000080400000806000008080000080A0000080C0000080E00000A0000000A0200000A0400000A0600000A0800000A0A00000A0C00000A0E00000C0000000C0200000C0400000C0600000C0800000C0
310
A00000C0C00000C0E00000E0000000E0200000E0400000E0600000E0800000E0A00000E0C00000E0E00040000000400020004000400040006000400080004000A0004000C0004000E00040200000402020004020400040206000402080004020A0004020C0004020E000404000004040200040404000404060004040800040
310
40A0004040C0004040E00040600000406020004060400040606000406080004060A0004060C0004060E00040800000408020004080400040806000408080004080A0004080C0004080E00040A0000040A0200040A0400040A0600040A0800040A0A00040A0C00040A0E00040C0000040C0200040C0400040C0600040C08000
310
40C0A00040C0C00040C0E00040E0000040E0200040E0400040E0600040E0800040E0A00040E0C00040E0E00080000000800020008000400080006000800080008000A0008000C0008000E00080200000802020008020400080206000802080008020A0008020C0008020E00080400000804020008040400080406000804080
310
008040A0008040C0008040E00080600000806020008060400080606000806080008060A0008060C0008060E00080800000808020008080400080806000808080008080A0008080C0008080E00080A0000080A0200080A0400080A0600080A0800080A0A00080A0C00080A0E00080C0000080C0200080C0400080C0600080C0
310
800080C0A00080C0C00080C0E00080E0000080E0200080E0400080E0600080E0800080E0A00080E0C00080E0E000C0000000C0002000C0004000C0006000C0008000C000A000C000C000C000E000C0200000C0202000C0204000C0206000C0208000C020A000C020C000C020E000C0400000C0402000C0404000C0406000C0
310
408000C040A000C040C000C040E000C0600000C0602000C0604000C0606000C0608000C060A000C060C000C060E000C0800000C0802000C0804000C0806000C0808000C080A000C080C000C080E000C0A00000C0A02000C0A04000C0A06000C0A08000C0A0A000C0A0C000C0A0E000C0C00000C0C02000C0C04000C0C06000
310
C0C08000C0C0A000F0FBFF00A4A0A000808080000000FF0000FF000000FFFF00FF000000FF00FF00FFFF0000FFFFFF00FFFFFFFFFFFFFFFFFFFFFFFFFFFFFFFFFFFFFFFFFFFFFFFFFFFFFFFFFFFFFFFFFFFFFFFFFFFFFFFFFFFFFFFFFFFFFFFFFFFFFFFFFFFFFFFFFFFFFFFFFFFFFFFFFFFFFFFFFFFFFFFFFFFFFFFFFFFFFF
310
FFFFFFFFFFFFFFFFFFFFFFFFFFFFFFFFFFFFFFFFFFFFFFFFFFFFFFFFFFFFFFFFFFFFFFFFFFFFFFFFFFFFFFFFFFFFFFFFFFFFFFFFFFFFFFFFFFFFFFFFFFFFFFFFFFFFFFFFFFFFFFFFFFFFFFFFFFFFFFFFFFFFFFFFFFFFFFFFFFFFFFFFFFFFFFFFFFFFFFFFFFFFFFFFFFFFFFFFFFFFFFFFFFFFFFFFFFFFFFFFFFFFFFFFFFFFFF
310
FFFFFFFFFFFFFFFFFFFFFFFFFFFFFFFFFFFFFFFFFFFFFFFFFFFFFFFFFFFFFFFFFFFFFFFFFFFFFFFFFFFFFFFFFFFFFFFFFFFFFFFFFFFFFFFFFFFFFFFFFFFFFFFFFFFFFFFFFFFFFFFFFFFFFFFFFFFFFFFFFFFFFFFFFFFFFFFFFFFFFFFFFFFFFFFFFFFFFFFFFFFFFFFFFFFFFFFFFFFFFFFFFFFFFFFFFFFFFFFFFFFFFFFFFFFFFF
310
FFFFFFFFFFFFFFFFFFFFFFFFFFFFFFFFFFFFFFFF000000000000000000000000000000000000000000000000000000000000FFFF00FF0000000000000000FFFFFFFFFFFFFFFFFFFFFFFFFFFFFFFFFFFFFF00FFFF00FF0000000000000000FFFFFFFFFFFFFFFFFFFFFFFFFFFFFFFFFFFFFF00FFFF00FF000000000000000000
310
00000000000000000000000000FFFFFFFFFF00FFFF00FF0000000000000000000000000000000000000000000000000000FF00FFFF00FF0000000000000000000000000000000000000000000000000000FF00FFFF00FF0000000000000000000000000000000000000000000000000000FF00FFFF00FF0000000000000000
310
00000000000000000000000000000000FFFFFF00FFFF00FF0000000000FFFFFFFFFFFFFFFFFFFFFFFFFFFFFFFFFFFFFFFFFFFF00FFFF000000000000000000000000000000000000000000000000000000000000FFFFFFFFFFFFFFFFFFFFFFFFFFFFFFFFFFFFFFFFFFFFFFFFFFFFFFFFFFFFFFFFFFFFFFFFFFFFFFFFFFFFFF
310
FFFFFFFFFFFFFFFFFFFFFFFFFFFFFFFFFFFFFFFFFFFFFFFFFFFFFFFFFFFFFFFFFFFFFFFFFFFFFFFFFFFFFFFFFFFFFFFFFFFFFFFFFFFFFFFFFFFFFFFFFFFFFFFFFFFFFFFFFFFFFFFFFFFFFFFFFFFFFFFFFFFFFFFFFFFFFFFFFFFFFFFFFFFFFFFFFFFFFFFFFFFFFFFFFFFFFFFFFFFFFFFFFFFFFFFFFFFFFFFFFFFFFFFFFFFFFF
310
FFFFFFFFFFFFFFFFFFFFFFFFFFFFFFFFFFFFFFFFFFFFFFFFFFFFFFFFFFFFFFFFFFFFFFFFFFFFFFFFFFFFFFFFFFFFFFFFFFFFFFFFFFFFFFFFFFFFFFFFFFFFFFFFFFFFFFFFFFFFFFFFFFFFFFFFFFFFFFFFFFFFFFFFFFFFFFFFFFFFFFFFFFFFFFFFFFFFFFFFFFFFFFFFFFFFFFFFFFFFFFFFFFFFFFFFFFFFFFFFFFFFFFFFFFFFFF
310
FFFFFFFFFFFFFFFFFFFFFFFFFFFFFFFFFFFFFFFFFFFFFFFFFFFFFFFFFFFFFFFFFFFFFFFFFFFFFFFFFFFFFFFFFFFFFFFFFFFFFFFFFFFFFFFF
102
{BLKREFS
331
359
331
35E
102
}
  0
ENDTAB
  0
ENDSEC
  0
SECTION
  2
BLOCKS
  0
BLOCK
  5
1F
330
1E
100
AcDbEntity
  8
0
100
AcDbBlockBegin
  2
*Model_Space
 70
     0
 10
0.0
 20
0.0
 30
0.0
  3
*Model_Space
  1

  0
ENDBLK
  5
20
330
1E
100
AcDbEntity
  8
0
100
AcDbBlockEnd
  0
BLOCK
  5
1B
330
1A
100
AcDbEntity
 67
     1
  8
0
100
AcDbBlockBegin
  2
*Paper_Space
 70
     0
 10
0.0
 20
0.0
 30
0.0
  3
*Paper_Space
  1

  0
ENDBLK
  5
1C
330
1A
100
AcDbEntity
 67
     1
  8
0
100
AcDbBlockEnd
  0
BLOCK
  5
36
330
35
100
AcDbEntity
  8
1
100
AcDbBlockBegin
  2
*D0
 70
     1
 10
0.0
 20
0.0
 30
0.0
  3
*D0
  1

  0
LINE
  5
37
330
35
100
AcDbEntity
  8
1
 62
     2
100
AcDbLine
 10
-24.5000000602552
 20
97.49999898593813
 30
0.0
 11
8.499999940024171
 21
97.49999898593813
 31
0.0
  0
LINE
  5
38
330
35
100
AcDbEntity
  8
1
 62
     2
100
AcDbLine
 10
-24.5000000602552
 20
54.00000000000003
 30
0.0
 11
-24.5000000602552
 21
98.49999898593814
 31
0.0
  0
LINE
  5
39
330
35
100
AcDbEntity
  8
1
 62
     2
100
AcDbLine
 10
8.499999940024171
 20
68.09999899214324
 30
0.0
 11
8.499999940024171
 21
98.49999898593814
 31
0.0
  0
SOLID
  5
3A
330
35
100
AcDbEntity
  8
1
 62
     2
100
AcDbTrace
 10
-24.5000000602552
 20
97.49999898593813
 30
0.0
 11
-19.50000006025519
 21
98.14999898593812
 31
0.0
 12
-19.50000006025519
 22
96.84999898593808
 32
0.0
 13
-19.50000006025519
 23
96.84999898593808
 33
0.0
  0
SOLID
  5
3B
330
35
100
AcDbEntity
  8
1
 62
     2
100
AcDbTrace
 10
8.499999940024171
 20
97.49999898593813
 30
0.0
 11
3.499999940024171
 21
96.84999898593808
 31
0.0
 12
3.499999940024171
 22
98.14999898593812
 32
0.0
 13
3.499999940024171
 23
98.14999898593812
 33
0.0
  0
TEXT
  5
3C
330
35
100
AcDbEntity
  8
1
 62
     2
100
AcDbText
 10
-0.4721285421737882
 20
98.62499898593815
 30
0.0
 40
5.0
  1
33
 41
0.9
100
AcDbText
  0
TEXT
  5
3D
330
35
100
AcDbEntity
  8
1
 62
     2
100
AcDbText
 10
-24.97212854217379
 20
98.62499898593815
 30
0.0
 40
5.0
  1
M.H.C 
 41
0.9
100
AcDbText
  0
ENDBLK
  5
3E
330
35
100
AcDbEntity
  8
0
100
AcDbBlockEnd
  0
BLOCK
  5
40
330
3F
100
AcDbEntity
  8
1
100
AcDbBlockBegin
  2
*D1
 70
     1
 10
0.0
 20
0.0
 30
0.0
  3
*D1
  1

  0
LINE
  5
41
330
3F
100
AcDbEntity
  8
1
 62
     2
100
AcDbLine
 10
15.49999999984779
 20
-97.49999898648979
 30
0.0
 11
25.4999999998478
 21
-97.49999898648979
 31
0.0
  0
LINE
  5
42
330
3F
100
AcDbEntity
  8
1
 62
     2
100
AcDbLine
 10
25.4999999998478
 20
-97.49999898648979
 30
0.0
 11
27.49999999986488
 21
-97.49999898648979
 31
0.0
  0
LINE
  5
43
330
3F
100
AcDbEntity
  8
1
 62
     2
100
AcDbLine
 10
27.49999999986488
 20
-97.49999898648979
 30
0.0
 11
64.7423786286557
 21
-97.49999898648979
 31
0.0
  0
LINE
  5
44
330
3F
100
AcDbEntity
  8
1
 62
     2
100
AcDbLine
 10
25.4999999998478
 20
-68.0999989921431
 30
0.0
 11
25.4999999998478
 21
-98.49999898648979
 31
0.0
  0
LINE
  5
45
330
3F
100
AcDbEntity
  8
1
 62
     2
100
AcDbLine
 10
27.49999999986488
 20
-54.00000000000001
 30
0.0
 11
27.49999999986488
 21
-98.49999898648979
 31
0.0
  0
SOLID
  5
46
330
3F
100
AcDbEntity
  8
1
 62
     2
100
AcDbTrace
 10
25.4999999998478
 20
-97.49999898648979
 30
0.0
 11
20.4999999998478
 21
-98.14999898648979
 31
0.0
 12
20.4999999998478
 22
-96.8499989864898
 32
0.0
 13
20.4999999998478
 23
-96.8499989864898
 33
0.0
  0
SOLID
  5
47
330
3F
100
AcDbEntity
  8
1
 62
     2
100
AcDbTrace
 10
27.49999999986488
 20
-97.49999898648979
 30
0.0
 11
32.49999999986487
 21
-96.8499989864898
 31
0.0
 12
32.49999999986487
 22
-98.14999898648979
 32
0.0
 13
32.49999999986487
 23
-98.14999898648979
 33
0.0
  0
TEXT
  5
48
330
3F
100
AcDbEntity
  8
1
 62
     2
100
AcDbText
 10
61.7423786286557
 20
-94.74195048115168
 30
0.0
 40
5.0
  1
2
 41
0.9
100
AcDbText
  0
TEXT
  5
49
330
3F
100
AcDbEntity
  8
1
 62
     2
100
AcDbText
 10
37.24237862865571
 20
-94.74195048115168
 30
0.0
 40
5.0
  1
M.H.C 
 41
0.9
100
AcDbText
  0
ENDBLK
  5
4A
330
3F
100
AcDbEntity
  8
0
100
AcDbBlockEnd
  0
BLOCK
  5
4C
330
4B
100
AcDbEntity
  8
1
100
AcDbBlockBegin
  2
*D2
 70
     1
 10
0.0
 20
0.0
 30
0.0
  3
*D2
  1

  0
LINE
  5
4D
330
4B
100
AcDbEntity
  8
1
 62
     2
100
AcDbLine
 10
-55.5
 20
-53.0
 30
0.0
 11
-55.5
 21
53.0
 31
0.0
  0
LINE
  5
4E
330
4B
100
AcDbEntity
  8
1
 62
     2
100
AcDbLine
 10
-25.5000000602552
 20
-53.0
 30
0.0
 11
-56.5
 21
-53.0
 31
0.0
  0
LINE
  5
4F
330
4B
100
AcDbEntity
  8
1
 62
     2
100
AcDbLine
 10
-25.5000000602552
 20
53.0
 30
0.0
 11
-56.5
 21
53.0
 31
0.0
  0
SOLID
  5
50
330
4B
100
AcDbEntity
  8
1
 62
     2
100
AcDbTrace
 10
-55.5
 20
-53.0
 30
0.0
 11
-56.15
 21
-48.0
 31
0.0
 12
-54.85
 22
-48.0
 32
0.0
 13
-54.85
 23
-48.0
 33
0.0
  0
SOLID
  5
51
330
4B
100
AcDbEntity
  8
1
 62
     2
100
AcDbTrace
 10
-55.5
 20
53.0
 30
0.0
 11
-54.85
 21
48.0
 31
0.0
 12
-56.15
 22
48.0
 32
0.0
 13
-56.15
 23
48.0
 33
0.0
  0
TEXT
  5
52
330
4B
100
AcDbEntity
  8
1
 62
     2
100
AcDbText
 10
-56.625
 20
8.2722089017899
 30
0.0
 40
5.0
  1
106
 50
90.0
 41
0.9
100
AcDbText
  0
TEXT
  5
53
330
4B
100
AcDbEntity
  8
1
 62
     2
100
AcDbText
 10
-56.625
 20
-16.22779109821009
 30
0.0
 40
5.0
  1
M.H.C 
 50
90.0
 41
0.9
100
AcDbText
  0
ENDBLK
  5
54
330
4B
100
AcDbEntity
  8
0
100
AcDbBlockEnd
  0
BLOCK
  5
56
330
55
100
AcDbEntity
  8
1
100
AcDbBlockBegin
  2
*D3
 70
     1
 10
0.0
 20
0.0
 30
0.0
  3
*D3
  1

  0
LINE
  5
57
330
55
100
AcDbEntity
  8
1
 62
     2
100
AcDbLine
 10
57.49999999990192
 20
-53.0
 30
0.0
 11
57.49999999990192
 21
53.0
 31
0.0
  0
LINE
  5
58
330
55
100
AcDbEntity
  8
1
 62
     2
100
AcDbLine
 10
28.49999999986489
 20
-53.0
 30
0.0
 11
58.49999999990192
 21
-53.0
 31
0.0
  0
LINE
  5
59
330
55
100
AcDbEntity
  8
1
 62
     2
100
AcDbLine
 10
28.49999999986489
 20
53.0
 30
0.0
 11
58.49999999990192
 21
53.0
 31
0.0
  0
SOLID
  5
5A
330
55
100
AcDbEntity
  8
1
 62
     2
100
AcDbTrace
 10
57.49999999990192
 20
-53.0
 30
0.0
 11
56.84999999990193
 21
-48.0
 31
0.0
 12
58.14999999990192
 22
-48.0
 32
0.0
 13
58.14999999990192
 23
-48.0
 33
0.0
  0
SOLID
  5
5B
330
55
100
AcDbEntity
  8
1
 62
     2
100
AcDbTrace
 10
57.49999999990192
 20
53.0
 30
0.0
 11
58.14999999990192
 21
48.0
 31
0.0
 12
56.84999999990193
 22
48.0
 32
0.0
 13
56.84999999990193
 23
48.0
 33
0.0
  0
TEXT
  5
5C
330
55
100
AcDbEntity
  8
1
 62
     2
100
AcDbText
 10
56.37499999990192
 20
6.968342567780267
 30
0.0
 40
5.0
  1
106
 50
90.0
 41
0.9
100
AcDbText
  0
TEXT
  5
5D
330
55
100
AcDbEntity
  8
1
 62
     2
100
AcDbText
 10
56.37499999990192
 20
-17.53165743221973
 30
0.0
 40
5.0
  1
M.H.C 
 50
90.0
 41
0.9
100
AcDbText
  0
ENDBLK
  5
5E
330
55
100
AcDbEntity
  8
0
100
AcDbBlockEnd
  0
BLOCK
  5
2BE
330
2BC
100
AcDbEntity
  8
0
100
AcDbBlockBegin
  2
Harmonic Drive LLC
 70
     0
 10
0.0
 20
0.0
 30
0.0
  3
Harmonic Drive LLC
  1

  0
MTEXT
  5
2BD
330
2BC
100
AcDbEntity
  8
0
100
AcDbMText
 10
189.3064368747376
 20
-164.4147342669637
 30
0.0
 40
3.5
 41
76.932
 71
     5
 72
     5
  1
Harmonic Drive LLC\P800-921-3332\Pwww.harmonicdrive.net
 73
     1
 44
1.0
  0
ENDBLK
  5
2BF
330
2BC
100
AcDbEntity
  8
0
100
AcDbBlockEnd
  0
BLOCK
  5
2DD
330
2DA
100
AcDbEntity
  8
0
 62
     7
100
AcDbBlockBegin
  2
AI9-BLK14
 70
     0
 10
0.0
 20
0.0
 30
0.0
  3
AI9-BLK14
  1

  0
SPLINE
  5
2DB
330
2DA
100
AcDbEntity
  8
LAYER_1
 62
     7
100
AcDbSpline
210
0.0
220
0.0
230
1.0
 70
    11
 71
     3
 72
    23
 73
    19
 74
     0
 42
0.0000000001
 43
0.0000000001
 40
0.0
 40
0.0
 40
0.0
 40
0.0
 40
1.0
 40
1.0
 40
1.0
 40
2.0
 40
2.0
 40
2.0
 40
3.0
 40
3.0
 40
3.0
 40
4.0
 40
4.0
 40
4.0
 40
5.0
 40
5.0
 40
5.0
 40
6.0
 40
6.0
 40
6.0
 40
6.0
 10
-10.90321044921874
 20
10.88107571072048
 30
0.0
 10
-10.90321044921874
 20
10.88107571072048
 30
0.0
 10
-10.90321044921874
 20
-10.88107571072048
 30
0.0
 10
-10.90321044921874
 20
-10.88107571072048
 30
0.0
 10
-10.90321044921874
 20
-10.88107571072048
 30
0.0
 10
1.752692328559025
 20
-10.88107571072048
 30
0.0
 10
1.752692328559025
 20
-10.88107571072048
 30
0.0
 10
3.280592176649305
 20
-10.88107571072048
 30
0.0
 10
10.90321044921874
 20
-10.32383151584201
 30
0.0
 10
10.90321044921874
 20
0.6792867024739583
 30
0.0
 10
10.90321044921874
 20
10.61700914171006
 30
0.0
 10
2.773129611545138
 20
10.87952541775172
 30
0.0
 10
2.691136338975693
 20
10.88090345594618
 30
0.0
 10
2.691136338975693
 20
10.88090345594618
 30
0.0
 10
-9.903099229600693
 20
10.88107571072048
 30
0.0
 10
-9.903099229600693
 20
10.88107571072048
 30
0.0
 10
-9.903099229600693
 20
10.88107571072048
 30
0.0
 10
-10.90321044921874
 20
10.88107571072048
 30
0.0
 10
-10.90321044921874
 20
10.88107571072048
 30
0.0
  0
SPLINE
  5
2DC
330
2DA
100
AcDbEntity
  8
LAYER_1
 62
     7
100
AcDbSpline
210
0.0
220
0.0
230
1.0
 70
    11
 71
     3
 72
    20
 73
    16
 74
     0
 42
0.0000000001
 43
0.0000000001
 40
0.0
 40
0.0
 40
0.0
 40
0.0
 40
1.0
 40
1.0
 40
1.0
 40
2.0
 40
2.0
 40
2.0
 40
3.0
 40
3.0
 40
3.0
 40
4.0
 40
4.0
 40
4.0
 40
5.0
 40
5.0
 40
5.0
 40
5.0
 10
2.672877332899305
 20
8.881197781032986
 30
0.0
 10
2.905421278211805
 20
8.874307590060762
 30
0.0
 10
8.902988009982637
 20
8.616442192925347
 30
0.0
 10
8.902988009982637
 20
0.6792867024739583
 30
0.0
 10
8.902988009982637
 20
-8.191661919487842
 30
0.0
 10
3.430109320746526
 20
-8.881197781032986
 30
0.0
 10
1.752692328559025
 20
-8.881197781032986
 30
0.0
 10
1.752692328559025
 20
-8.881197781032986
 30
0.0
 10
-7.231427680121528
 20
-8.881197781032986
 30
0.0
 10
-8.902988009982637
 20
-8.881197781032986
 30
0.0
 10
-8.902988009982637
 20
-7.174497477213541
 30
0.0
 10
-8.902988009982637
 20
7.174497477213541
 30
0.0
 10
-8.902988009982637
 20
8.881197781032986
 30
0.0
 10
-7.208690049913191
 20
8.881197781032986
 30
0.0
 10
2.672877332899305
 20
8.881197781032986
 30
0.0
 10
2.672877332899305
 20
8.881197781032986
 30
0.0
  0
ENDBLK
  5
2DE
330
2DA
100
AcDbEntity
  8
0
100
AcDbBlockEnd
  0
BLOCK
  5
2E2
330
2DF
100
AcDbEntity
  8
0
 62
     7
100
AcDbBlockBegin
  2
AI9-BLK13
 70
     0
 10
0.0
 20
0.0
 30
0.0
  3
AI9-BLK13
  1

  0
LWPOLYLINE
  5
2E0
330
2DF
100
AcDbEntity
  8
LAYER_1
 62
     7
100
AcDbPolyline
 90
       12
 70
     1
 43
0.0
 10
-3.792361111111107
 20
10.7376736111111
 10
-2.469444444444443
 20
10.7376736111111
 10
-2.469444444444443
 20
1.874131944444444
 10
2.469444444444443
 20
1.874131944444444
 10
2.469444444444443
 20
10.7376736111111
 10
3.792361111111107
 20
10.7376736111111
 10
3.792361111111107
 20
-10.7376736111111
 10
2.469444444444443
 20
-10.7376736111111
 10
2.469444444444443
 20
-0.6835069444444444
 10
-2.469444444444443
 20
-0.6835069444444444
 10
-2.469444444444443
 20
-10.7376736111111
 10
-3.792361111111107
 20
-10.7376736111111
  0
HATCH
  5
2E1
330
2DF
100
AcDbEntity
  8
LAYER_1
 62
     7
100
AcDbHatch
 10
0.0
 20
0.0
 30
0.0
210
0.0
220
0.0
230
1.0
  2
SOLID
 70
     1
 71
     0
 91
        1
 92
        3
 72
     0
 73
     1
 93
       12
 10
-3.792361111111107
 20
10.7376736111111
 10
-2.469444444444443
 20
10.7376736111111
 10
-2.469444444444443
 20
1.874131944444444
 10
2.469444444444443
 20
1.874131944444444
 10
2.469444444444443
 20
10.7376736111111
 10
3.792361111111107
 20
10.7376736111111
 10
3.792361111111107
 20
-10.7376736111111
 10
2.469444444444443
 20
-10.7376736111111
 10
2.469444444444443
 20
-0.6835069444444444
 10
-2.469444444444443
 20
-0.6835069444444444
 10
-2.469444444444443
 20
-10.7376736111111
 10
-3.792361111111107
 20
-10.7376736111111
 97
        0
 75
     2
 76
     1
 98
        1
 10
0.0
 20
0.0
  0
ENDBLK
  5
2E3
330
2DF
100
AcDbEntity
  8
0
100
AcDbBlockEnd
  0
BLOCK
  5
2E7
330
2E4
100
AcDbEntity
  8
0
 62
     7
100
AcDbBlockBegin
  2
AI9-BLK11
 70
     0
 10
0.0
 20
0.0
 30
0.0
  3
AI9-BLK11
  1

  0
SPLINE
  5
2E5
330
2E4
100
AcDbEntity
  8
LAYER_1
 62
     7
100
AcDbSpline
210
0.0
220
0.0
230
1.0
 70
    11
 71
     3
 72
    26
 73
    22
 74
     0
 42
0.0000000001
 43
0.0000000001
 40
0.0
 40
0.0
 40
0.0
 40
0.0
 40
1.0
 40
1.0
 40
1.0
 40
2.0
 40
2.0
 40
2.0
 40
3.0
 40
3.0
 40
3.0
 40
4.0
 40
4.0
 40
4.0
 40
5.0
 40
5.0
 40
5.0
 40
6.0
 40
6.0
 40
6.0
 40
7.0
 40
7.0
 40
7.0
 40
7.0
 10
-2.645833333333333
 20
0.9039930555555551
 30
0.0
 10
-2.645833333333333
 20
0.9039930555555551
 30
0.0
 10
-2.645833333333333
 20
8.180034722222217
 30
0.0
 10
-2.645833333333333
 20
8.180034722222217
 30
0.0
 10
-2.645833333333333
 20
8.180034722222217
 30
0.0
 10
0.465087890625
 20
8.180034722222217
 30
0.0
 10
0.465087890625
 20
8.180034722222217
 30
0.0
 10
0.9026150173611108
 20
8.180034722222217
 30
0.0
 10
1.24988064236111
 20
8.034651692708331
 30
0.0
 10
1.506884765625
 20
7.745263671874997
 30
0.0
 10
2.001600477430554
 20
7.194048394097221
 30
0.0
 10
2.248958333333332
 20
6.160519748263887
 30
0.0
 10
2.248958333333332
 20
4.643299696180553
 30
0.0
 10
2.248958333333332
 20
3.232188585069443
 30
0.0
 10
2.072569444444444
 20
2.256537543402775
 30
0.0
 10
1.720480685763888
 20
1.715657552083333
 30
0.0
 10
1.368391927083333
 20
1.174088541666665
 30
0.0
 10
0.8929687499999998
 20
0.9039930555555551
 30
0.0
 10
0.2942111545138888
 20
0.9039930555555551
 30
0.0
 10
0.2942111545138888
 20
0.9039930555555551
 30
0.0
 10
-2.645833333333333
 20
0.9039930555555551
 30
0.0
 10
-2.645833333333333
 20
0.9039930555555551
 30
0.0
  0
SPLINE
  5
2E6
330
2E4
100
AcDbEntity
  8
LAYER_1
 62
     7
100
AcDbSpline
210
0.0
220
0.0
230
1.0
 70
    11
 71
     3
 72
    68
 73
    64
 74
     0
 42
0.0000000001
 43
0.0000000001
 40
0.0
 40
0.0
 40
0.0
 40
0.0
 40
1.0
 40
1.0
 40
1.0
 40
2.0
 40
2.0
 40
2.0
 40
3.0
 40
3.0
 40
3.0
 40
4.0
 40
4.0
 40
4.0
 40
5.0
 40
5.0
 40
5.0
 40
6.0
 40
6.0
 40
6.0
 40
7.0
 40
7.0
 40
7.0
 40
8.0
 40
8.0
 40
8.0
 40
9.0
 40
9.0
 40
9.0
 40
10.0
 40
10.0
 40
10.0
 40
11.0
 40
11.0
 40
11.0
 40
12.0
 40
12.0
 40
12.0
 40
13.0
 40
13.0
 40
13.0
 40
14.0
 40
14.0
 40
14.0
 40
15.0
 40
15.0
 40
15.0
 40
16.0
 40
16.0
 40
16.0
 40
17.0
 40
17.0
 40
17.0
 40
18.0
 40
18.0
 40
18.0
 40
19.0
 40
19.0
 40
19.0
 40
20.0
 40
20.0
 40
20.0
 40
21.0
 40
21.0
 40
21.0
 40
21.0
 10
-3.968749999999998
 20
-10.7376736111111
 30
0.0
 10
-3.968749999999998
 20
-10.7376736111111
 30
0.0
 10
-2.645833333333333
 20
-10.7376736111111
 30
0.0
 10
-2.645833333333333
 20
-10.7376736111111
 30
0.0
 10
-2.645833333333333
 20
-10.7376736111111
 30
0.0
 10
-2.645833333333333
 20
-1.521354166666665
 30
0.0
 10
-2.645833333333333
 20
-1.521354166666665
 30
0.0
 10
-2.645833333333333
 20
-1.521354166666665
 30
0.0
 10
0.2390896267361111
 20
-1.521354166666665
 30
0.0
 10
0.2390896267361111
 20
-1.521354166666665
 30
0.0
 10
0.7599880642361111
 20
-1.521354166666665
 30
0.0
 10
1.143771701388887
 20
-1.65295681423611
 30
0.0
 10
1.390440538194444
 20
-1.916162109374999
 30
0.0
 10
1.816254340277773
 20
-2.39434136284722
 30
0.0
 10
2.04363064236111
 20
-3.335541449652775
 30
0.0
 10
2.072569444444444
 20
-4.739762369791666
 30
0.0
 10
2.072569444444444
 20
-4.739762369791666
 30
0.0
 10
2.160763888888888
 20
-8.324039713541665
 30
0.0
 10
2.160763888888888
 20
-8.324039713541665
 30
0.0
 10
2.18005642361111
 20
-9.163264973958332
 30
0.0
 10
2.202794053819443
 20
-9.728949652777775
 30
0.0
 10
2.227598741319444
 20
-10.02109374999998
 30
0.0
 10
2.252403428819443
 20
-10.31392686631944
 30
0.0
 10
2.28892144097222
 20
-10.55301649305555
 30
0.0
 10
2.33853081597222
 20
-10.7376736111111
 30
0.0
 10
2.33853081597222
 20
-10.7376736111111
 30
0.0
 10
3.968749999999998
 20
-10.7376736111111
 30
0.0
 10
3.968749999999998
 20
-10.7376736111111
 30
0.0
 10
3.968749999999998
 20
-10.7376736111111
 30
0.0
 10
3.968749999999998
 20
-10.25260416666666
 30
0.0
 10
3.968749999999998
 20
-10.25260416666666
 30
0.0
 10
3.766867404513888
 20
-10.05830078125
 30
0.0
 10
3.625618489583333
 20
-9.621462673611112
 30
0.0
 10
3.545692274305555
 20
-8.942089843749997
 30
0.0
 10
3.49470486111111
 20
-8.543836805555555
 30
0.0
 10
3.459564887152775
 20
-7.937499999999999
 30
0.0
 10
3.439583333333333
 20
-7.121701388888887
 30
0.0
 10
3.439583333333333
 20
-7.121701388888887
 30
0.0
 10
3.395486111111106
 20
-4.232644314236106
 30
0.0
 10
3.395486111111106
 20
-4.232644314236106
 30
0.0
 10
3.375504557291666
 20
-2.981385633680555
 30
0.0
 10
3.26870659722222
 20
-2.077392578125
 30
0.0
 10
3.075781249999999
 20
-1.522043185763888
 30
0.0
 10
2.882166883680555
 20
-0.9666937934027776
 30
0.0
 10
2.592089843749999
 20
-0.5188313802083333
 30
0.0
 10
2.204861111111104
 20
-0.1770779079861111
 30
0.0
 10
2.63618706597222
 20
0.3197048611111111
 30
0.0
 10
2.971739366319443
 20
0.9770290798611107
 30
0.0
 10
3.211518012152775
 20
1.79558376736111
 30
0.0
 10
3.451296657986107
 20
2.613449435763888
 30
0.0
 10
3.571874999999999
 20
3.66558159722222
 30
0.0
 10
3.571874999999999
 20
4.951291232638888
 30
0.0
 10
3.571874999999999
 20
7.415912543402777
 30
0.0
 10
3.124701605902775
 20
9.106076388888887
 30
0.0
 10
2.231043836805555
 20
10.02178276909722
 30
0.0
 10
1.759754774305553
 20
10.498583984375
 30
0.0
 10
1.163753255208332
 20
10.7376736111111
 30
0.0
 10
0.443039279513889
 20
10.7376736111111
 30
0.0
 10
0.443039279513889
 20
10.7376736111111
 30
0.0
 10
-3.968749999999998
 20
10.7376736111111
 30
0.0
 10
-3.968749999999998
 20
10.7376736111111
 30
0.0
 10
-3.968749999999998
 20
10.7376736111111
 30
0.0
 10
-3.968749999999998
 20
-10.7376736111111
 30
0.0
 10
-3.968749999999998
 20
-10.7376736111111
 30
0.0
  0
ENDBLK
  5
2E8
330
2E4
100
AcDbEntity
  8
0
100
AcDbBlockEnd
  0
BLOCK
  5
2EB
330
2E9
100
AcDbEntity
  8
0
 62
     7
100
AcDbBlockBegin
  2
AI9-BLK10
 70
     0
 10
0.0
 20
0.0
 30
0.0
  3
AI9-BLK10
  1

  0
SPLINE
  5
2EA
330
2E9
100
AcDbEntity
  8
LAYER_1
 62
     7
100
AcDbSpline
210
0.0
220
0.0
230
1.0
 70
    11
 71
     3
 72
    59
 73
    55
 74
     0
 42
0.0000000001
 43
0.0000000001
 40
0.0
 40
0.0
 40
0.0
 40
0.0
 40
1.0
 40
1.0
 40
1.0
 40
2.0
 40
2.0
 40
2.0
 40
3.0
 40
3.0
 40
3.0
 40
4.0
 40
4.0
 40
4.0
 40
5.0
 40
5.0
 40
5.0
 40
6.0
 40
6.0
 40
6.0
 40
7.0
 40
7.0
 40
7.0
 40
8.0
 40
8.0
 40
8.0
 40
9.0
 40
9.0
 40
9.0
 40
10.0
 40
10.0
 40
10.0
 40
11.0
 40
11.0
 40
11.0
 40
12.0
 40
12.0
 40
12.0
 40
13.0
 40
13.0
 40
13.0
 40
14.0
 40
14.0
 40
14.0
 40
15.0
 40
15.0
 40
15.0
 40
16.0
 40
16.0
 40
16.0
 40
17.0
 40
17.0
 40
17.0
 40
18.0
 40
18.0
 40
18.0
 40
18.0
 10
-4.652256944444443
 20
10.7376736111111
 30
0.0
 10
-4.652256944444443
 20
10.7376736111111
 30
0.0
 10
-2.798795572916666
 20
10.7376736111111
 30
0.0
 10
-2.798795572916666
 20
10.7376736111111
 30
0.0
 10
-2.798795572916666
 20
10.7376736111111
 30
0.0
 10
0.0
 20
-7.419357638888887
 30
0.0
 10
0.0
 20
-7.419357638888887
 30
0.0
 10
0.0
 20
-7.419357638888887
 30
0.0
 10
2.793283420138888
 20
10.7376736111111
 30
0.0
 10
2.793283420138888
 20
10.7376736111111
 30
0.0
 10
2.793283420138888
 20
10.7376736111111
 30
0.0
 10
4.652256944444443
 20
10.7376736111111
 30
0.0
 10
4.652256944444443
 20
10.7376736111111
 30
0.0
 10
4.652256944444443
 20
10.7376736111111
 30
0.0
 10
4.652256944444443
 20
-10.7376736111111
 30
0.0
 10
4.652256944444443
 20
-10.7376736111111
 30
0.0
 10
4.652256944444443
 20
-10.7376736111111
 30
0.0
 10
3.41753472222222
 20
-10.7376736111111
 30
0.0
 10
3.41753472222222
 20
-10.7376736111111
 30
0.0
 10
3.41753472222222
 20
-10.7376736111111
 30
0.0
 10
3.41753472222222
 20
1.936832682291665
 30
0.0
 10
3.41753472222222
 20
1.936832682291665
 30
0.0
 10
3.41753472222222
 20
2.375048828124999
 30
0.0
 10
3.424424913194443
 20
3.101274956597221
 30
0.0
 10
3.439583333333333
 20
4.11482204861111
 30
0.0
 10
3.454052734374998
 20
5.128369140624998
 30
0.0
 10
3.461631944444443
 20
6.214952256944441
 30
0.0
 10
3.461631944444443
 20
7.375260416666666
 30
0.0
 10
3.461631944444443
 20
7.375260416666666
 30
0.0
 10
0.6538791232638889
 20
-10.7376736111111
 30
0.0
 10
0.6538791232638889
 20
-10.7376736111111
 30
0.0
 10
0.6538791232638889
 20
-10.7376736111111
 30
0.0
 10
-0.6628363715277778
 20
-10.7376736111111
 30
0.0
 10
-0.6628363715277778
 20
-10.7376736111111
 30
0.0
 10
-0.6628363715277778
 20
-10.7376736111111
 30
0.0
 10
-3.461631944444443
 20
7.375260416666666
 30
0.0
 10
-3.461631944444443
 20
7.375260416666666
 30
0.0
 10
-3.461631944444443
 20
7.375260416666666
 30
0.0
 10
-3.461631944444443
 20
6.717247178819441
 30
0.0
 10
-3.461631944444443
 20
6.717247178819441
 30
0.0
 10
-3.461631944444443
 20
6.190836588541666
 30
0.0
 10
-3.45474175347222
 20
5.389507378472222
 30
0.0
 10
-3.439583333333333
 20
4.312570529513888
 30
0.0
 10
-3.425113932291666
 20
3.235633680555555
 30
0.0
 10
-3.41753472222222
 20
2.44395073784722
 30
0.0
 10
-3.41753472222222
 20
1.936832682291665
 30
0.0
 10
-3.41753472222222
 20
1.936832682291665
 30
0.0
 10
-3.41753472222222
 20
-10.7376736111111
 30
0.0
 10
-3.41753472222222
 20
-10.7376736111111
 30
0.0
 10
-3.41753472222222
 20
-10.7376736111111
 30
0.0
 10
-4.652256944444443
 20
-10.7376736111111
 30
0.0
 10
-4.652256944444443
 20
-10.7376736111111
 30
0.0
 10
-4.652256944444443
 20
-10.7376736111111
 30
0.0
 10
-4.652256944444443
 20
10.7376736111111
 30
0.0
 10
-4.652256944444443
 20
10.7376736111111
 30
0.0
  0
ENDBLK
  5
2EC
330
2E9
100
AcDbEntity
  8
0
100
AcDbBlockEnd
  0
BLOCK
  5
2F0
330
2ED
100
AcDbEntity
  8
0
 62
     7
100
AcDbBlockBegin
  2
AI9-BLK9
 70
     0
 10
0.0
 20
0.0
 30
0.0
  3
AI9-BLK9
  1

  0
SPLINE
  5
2EE
330
2ED
100
AcDbEntity
  8
LAYER_1
 62
     7
100
AcDbSpline
210
0.0
220
0.0
230
1.0
 70
    11
 71
     3
 72
    29
 73
    25
 74
     0
 42
0.0000000001
 43
0.0000000001
 40
0.0
 40
0.0
 40
0.0
 40
0.0
 40
1.0
 40
1.0
 40
1.0
 40
2.0
 40
2.0
 40
2.0
 40
3.0
 40
3.0
 40
3.0
 40
4.0
 40
4.0
 40
4.0
 40
5.0
 40
5.0
 40
5.0
 40
6.0
 40
6.0
 40
6.0
 40
7.0
 40
7.0
 40
7.0
 40
8.0
 40
8.0
 40
8.0
 40
8.0
 10
0.0668348524305556
 20
-8.753298611111111
 30
0.0
 10
-0.9067491319444444
 20
-8.753298611111111
 30
0.0
 10
-1.60954861111111
 20
-7.936810980902778
 30
0.0
 10
-2.041563585069444
 20
-6.30383572048611
 30
0.0
 10
-2.474267578124999
 20
-4.670860460069443
 30
0.0
 10
-2.689930555555555
 20
-2.664436848958333
 30
0.0
 10
-2.689930555555555
 20
-0.28525390625
 30
0.0
 10
-2.689930555555555
 20
2.68855251736111
 30
0.0
 10
-2.439127604166666
 20
4.938199869791666
 30
0.0
 10
-1.937521701388888
 20
6.464377170138886
 30
0.0
 10
-1.43591579861111
 20
7.989865451388887
 30
0.0
 10
-0.7827256944444444
 20
8.753298611111111
 30
0.0
 10
0.0220486111111111
 20
8.753298611111111
 30
0.0
 10
0.8468044704861108
 20
8.753298611111111
 30
0.0
 10
1.49792751736111
 20
7.982975260416663
 30
0.0
 10
1.974728732638888
 20
6.442328559027776
 30
0.0
 10
2.451529947916665
 20
4.901681857638886
 30
0.0
 10
2.689930555555555
 20
2.868386501736111
 30
0.0
 10
2.689930555555555
 20
0.3438205295138888
 30
0.0
 10
2.689930555555555
 20
-2.045697699652774
 30
0.0
 10
2.483224826388884
 20
-4.15891927083333
 30
0.0
 10
2.071191406249999
 20
-5.996533203124998
 30
0.0
 10
1.65915798611111
 20
-7.834836154513887
 30
0.0
 10
0.9908094618055557
 20
-8.753298611111111
 30
0.0
 10
0.0668348524305556
 20
-8.753298611111111
 30
0.0
  0
SPLINE
  5
2EF
330
2ED
100
AcDbEntity
  8
LAYER_1
 62
     7
100
AcDbSpline
210
0.0
220
0.0
230
1.0
 70
    11
 71
     3
 72
    29
 73
    25
 74
     0
 42
0.0000000001
 43
0.0000000001
 40
0.0
 40
0.0
 40
0.0
 40
0.0
 40
1.0
 40
1.0
 40
1.0
 40
2.0
 40
2.0
 40
2.0
 40
3.0
 40
3.0
 40
3.0
 40
4.0
 40
4.0
 40
4.0
 40
5.0
 40
5.0
 40
5.0
 40
6.0
 40
6.0
 40
6.0
 40
7.0
 40
7.0
 40
7.0
 40
8.0
 40
8.0
 40
8.0
 40
8.0
 10
-0.0289388020833333
 20
11.35503472222222
 30
0.0
 10
-1.317404513888887
 20
11.35503472222222
 30
0.0
 10
-2.28892144097222
 20
10.02798394097222
 30
0.0
 10
-2.94280056423611
 20
7.374571397569441
 30
0.0
 10
-3.450607638888888
 20
5.30613606770833
 30
0.0
 10
-3.704166666666666
 20
2.81877712673611
 30
0.0
 10
-3.704166666666666
 20
-0.0881944444444445
 30
0.0
 10
-3.704166666666666
 20
-3.307291666666666
 30
0.0
 10
-3.406510416666666
 20
-5.97035047743055
 30
0.0
 10
-2.811197916666666
 20
-8.077370876736106
 30
0.0
 10
-2.147672526041664
 20
-10.26293945312499
 30
0.0
 10
-1.229899088541666
 20
-11.35503472222222
 30
0.0
 10
-0.0585666232638889
 20
-11.35503472222222
 30
0.0
 10
1.20027126736111
 20
-11.35503472222222
 30
0.0
 10
2.166276041666665
 20
-10.10653211805555
 30
0.0
 10
2.840136718749998
 20
-7.609526909722221
 30
0.0
 10
3.416156684027776
 20
-5.483213975694441
 30
0.0
 10
3.704166666666666
 20
-2.814643012152775
 30
0.0
 10
3.704166666666666
 20
0.3948079427083333
 30
0.0
 10
3.704166666666666
 20
3.360346137152776
 30
0.0
 10
3.449918619791666
 20
5.793961588541666
 30
0.0
 10
2.94280056423611
 20
7.696343315972222
 30
0.0
 10
2.298567708333333
 20
10.13547092013888
 30
0.0
 10
1.307758246527777
 20
11.35503472222222
 30
0.0
 10
-0.0289388020833333
 20
11.35503472222222
 30
0.0
  0
ENDBLK
  5
2F1
330
2ED
100
AcDbEntity
  8
0
100
AcDbBlockEnd
  0
BLOCK
  5
2F5
330
2F2
100
AcDbEntity
  8
0
 62
     7
100
AcDbBlockBegin
  2
AI9-BLK8
 70
     0
 10
0.0
 20
0.0
 30
0.0
  3
AI9-BLK8
  1

  0
LWPOLYLINE
  5
2F3
330
2F2
100
AcDbEntity
  8
LAYER_1
 62
     7
100
AcDbPolyline
 90
       10
 70
     1
 43
0.0
 10
-3.792361111111107
 20
10.7376736111111
 10
-2.268939887152773
 20
10.7376736111111
 10
2.557638888888888
 20
-6.505718315972222
 10
2.557638888888888
 20
10.7376736111111
 10
3.792361111111107
 20
10.7376736111111
 10
3.792361111111107
 20
-10.7376736111111
 10
2.32612847222222
 20
-10.7376736111111
 10
-2.557638888888888
 20
6.549815538194441
 10
-2.557638888888888
 20
-10.7376736111111
 10
-3.792361111111107
 20
-10.7376736111111
  0
HATCH
  5
2F4
330
2F2
100
AcDbEntity
  8
LAYER_1
 62
     7
100
AcDbHatch
 10
0.0
 20
0.0
 30
0.0
210
0.0
220
0.0
230
1.0
  2
SOLID
 70
     1
 71
     0
 91
        1
 92
        3
 72
     0
 73
     1
 93
       10
 10
-3.792361111111107
 20
10.7376736111111
 10
-2.268939887152773
 20
10.7376736111111
 10
2.557638888888888
 20
-6.505718315972222
 10
2.557638888888888
 20
10.7376736111111
 10
3.792361111111107
 20
10.7376736111111
 10
3.792361111111107
 20
-10.7376736111111
 10
2.32612847222222
 20
-10.7376736111111
 10
-2.557638888888888
 20
6.549815538194441
 10
-2.557638888888888
 20
-10.7376736111111
 10
-3.792361111111107
 20
-10.7376736111111
 97
        0
 75
     2
 76
     1
 98
        1
 10
0.0
 20
0.0
  0
ENDBLK
  5
2F6
330
2F2
100
AcDbEntity
  8
0
100
AcDbBlockEnd
  0
BLOCK
  5
2FA
330
2F7
100
AcDbEntity
  8
0
 62
     7
100
AcDbBlockBegin
  2
AI9-BLK7
 70
     0
 10
0.0
 20
0.0
 30
0.0
  3
AI9-BLK7
  1

  0
LWPOLYLINE
  5
2F8
330
2F7
100
AcDbEntity
  8
LAYER_1
 62
     7
100
AcDbPolyline
 90
        4
 70
     1
 43
0.0
 10
-0.6614583333333333
 20
10.7376736111111
 10
0.6614583333333333
 20
10.7376736111111
 10
0.6614583333333333
 20
-10.7376736111111
 10
-0.6614583333333333
 20
-10.7376736111111
  0
HATCH
  5
2F9
330
2F7
100
AcDbEntity
  8
LAYER_1
 62
     7
100
AcDbHatch
 10
0.0
 20
0.0
 30
0.0
210
0.0
220
0.0
230
1.0
  2
SOLID
 70
     1
 71
     0
 91
        1
 92
        3
 72
     0
 73
     1
 93
        4
 10
-0.6614583333333333
 20
10.7376736111111
 10
0.6614583333333333
 20
10.7376736111111
 10
0.6614583333333333
 20
-10.7376736111111
 10
-0.6614583333333333
 20
-10.7376736111111
 97
        0
 75
     2
 76
     1
 98
        1
 10
0.0
 20
0.0
  0
ENDBLK
  5
2FB
330
2F7
100
AcDbEntity
  8
0
100
AcDbBlockEnd
  0
BLOCK
  5
2FE
330
2FC
100
AcDbEntity
  8
0
 62
     7
100
AcDbBlockBegin
  2
AI9-BLK6
 70
     0
 10
0.0
 20
0.0
 30
0.0
  3
AI9-BLK6
  1

  0
SPLINE
  5
2FD
330
2FC
100
AcDbEntity
  8
LAYER_1
 62
     7
100
AcDbSpline
210
0.0
220
0.0
230
1.0
 70
    11
 71
     3
 72
    59
 73
    55
 74
     0
 42
0.0000000001
 43
0.0000000001
 40
0.0
 40
0.0
 40
0.0
 40
0.0
 40
1.0
 40
1.0
 40
1.0
 40
2.0
 40
2.0
 40
2.0
 40
3.0
 40
3.0
 40
3.0
 40
4.0
 40
4.0
 40
4.0
 40
5.0
 40
5.0
 40
5.0
 40
6.0
 40
6.0
 40
6.0
 40
7.0
 40
7.0
 40
7.0
 40
8.0
 40
8.0
 40
8.0
 40
9.0
 40
9.0
 40
9.0
 40
10.0
 40
10.0
 40
10.0
 40
11.0
 40
11.0
 40
11.0
 40
12.0
 40
12.0
 40
12.0
 40
13.0
 40
13.0
 40
13.0
 40
14.0
 40
14.0
 40
14.0
 40
15.0
 40
15.0
 40
15.0
 40
16.0
 40
16.0
 40
16.0
 40
17.0
 40
17.0
 40
17.0
 40
18.0
 40
18.0
 40
18.0
 40
18.0
 10
3.062689887152775
 20
9.168088107638887
 30
0.0
 10
3.735172526041666
 20
7.739062499999997
 30
0.0
 10
4.110687934027776
 20
6.116422526041666
 30
0.0
 10
4.189236111111108
 20
4.299479166666666
 30
0.0
 10
4.189236111111108
 20
4.299479166666666
 30
0.0
 10
2.866319444444443
 20
4.299479166666666
 30
0.0
 10
2.866319444444443
 20
4.299479166666666
 30
0.0
 10
2.720936414930555
 20
5.667871093749997
 30
0.0
 10
2.435682508680555
 20
6.752387152777776
 30
0.0
 10
2.009868706597218
 20
7.553027343749997
 30
0.0
 10
1.584054904513888
 20
8.352978515624997
 30
0.0
 10
0.9839192708333332
 20
8.753298611111111
 30
0.0
 10
0.2101508246527778
 20
8.753298611111111
 30
0.0
 10
-0.7386284722222222
 20
8.753298611111111
 30
0.0
 10
-1.503439670138888
 20
8.010536024305555
 30
0.0
 10
-2.083593749999999
 20
6.526388888888886
 30
0.0
 10
-2.664436848958333
 20
5.042241753472221
 30
0.0
 10
-2.954513888888888
 20
2.767100694444443
 30
0.0
 10
-2.954513888888888
 20
-0.2990342881944444
 30
0.0
 10
-2.954513888888888
 20
-2.811197916666666
 30
0.0
 10
-2.693375651041666
 20
-4.847938368055555
 30
0.0
 10
-2.17041015625
 20
-6.409944661458332
 30
0.0
 10
-1.648133680555553
 20
-7.972639973958332
 30
0.0
 10
-0.8640299479166666
 20
-8.753298611111111
 30
0.0
 10
0.1812120225694444
 20
-8.753298611111111
 30
0.0
 10
1.138948567708333
 20
-8.753298611111111
 30
0.0
 10
1.865174696180553
 20
-7.927853732638887
 30
0.0
 10
2.359201388888884
 20
-6.275585937499998
 30
0.0
 10
2.62998589409722
 20
-5.406043836805555
 30
0.0
 10
2.828423394097221
 20
-4.262272135416666
 30
0.0
 10
2.954513888888888
 20
-2.844270833333331
 30
0.0
 10
2.954513888888888
 20
-2.844270833333331
 30
0.0
 10
4.277430555555555
 20
-2.844270833333331
 30
0.0
 10
4.277430555555555
 20
-2.844270833333331
 30
0.0
 10
4.169943576388888
 20
-5.109765624999996
 30
0.0
 10
3.795117187499998
 20
-7.009391276041665
 30
0.0
 10
3.151573350694443
 20
-8.542458767361106
 30
0.0
 10
2.381249999999999
 20
-10.38834092881943
 30
0.0
 10
1.347721354166665
 20
-11.3109375
 30
0.0
 10
0.0509874131944445
 20
-11.3109375
 30
0.0
 10
-1.07004665798611
 20
-11.3109375
 30
0.0
 10
-2.010557725694444
 20
-10.55577256944443
 30
0.0
 10
-2.771234809027776
 20
-9.04475368923611
 30
0.0
 10
-3.775824652777775
 20
-7.046598307291666
 30
0.0
 10
-4.277430555555555
 20
-3.961170789930555
 30
0.0
 10
-4.277430555555555
 20
0.2115288628472222
 30
0.0
 10
-4.277430555555555
 20
3.379638671874998
 30
0.0
 10
-3.902604166666666
 20
5.977929687499997
 30
0.0
 10
-3.151573350694443
 20
8.005712890624996
 30
0.0
 10
-2.333018663194443
 20
10.20919596354165
 30
0.0
 10
-1.20647243923611
 20
11.3109375
 30
0.0
 10
0.2266872829861111
 20
11.3109375
 30
0.0
 10
1.444873046875
 20
11.3109375
 30
0.0
 10
2.390207248263884
 20
10.59642469618055
 30
0.0
 10
3.062689887152775
 20
9.168088107638887
 30
0.0
  0
ENDBLK
  5
2FF
330
2FC
100
AcDbEntity
  8
0
100
AcDbBlockEnd
  0
BLOCK
  5
303
330
300
100
AcDbEntity
  8
0
 62
     7
100
AcDbBlockBegin
  2
AI9-BLK5
 70
     0
 10
0.0
 20
0.0
 30
0.0
  3
AI9-BLK5
  1

  0
SPLINE
  5
301
330
300
100
AcDbEntity
  8
LAYER_1
 62
     7
100
AcDbSpline
210
0.0
220
0.0
230
1.0
 70
    11
 71
     3
 72
    32
 73
    28
 74
     0
 42
0.0000000001
 43
0.0000000001
 40
0.0
 40
0.0
 40
0.0
 40
0.0
 40
1.0
 40
1.0
 40
1.0
 40
2.0
 40
2.0
 40
2.0
 40
3.0
 40
3.0
 40
3.0
 40
4.0
 40
4.0
 40
4.0
 40
5.0
 40
5.0
 40
5.0
 40
6.0
 40
6.0
 40
6.0
 40
7.0
 40
7.0
 40
7.0
 40
8.0
 40
8.0
 40
8.0
 40
9.0
 40
9.0
 40
9.0
 40
9.0
 10
-2.62378472222222
 20
-8.268229166666666
 30
0.0
 10
-2.62378472222222
 20
-8.268229166666666
 30
0.0
 10
-2.62378472222222
 20
8.180034722222217
 30
0.0
 10
-2.62378472222222
 20
8.180034722222217
 30
0.0
 10
-2.62378472222222
 20
8.180034722222217
 30
0.0
 10
-0.3376193576388888
 20
8.180034722222217
 30
0.0
 10
-0.3376193576388888
 20
8.180034722222217
 30
0.0
 10
0.6972873263888888
 20
8.180034722222217
 30
0.0
 10
1.449007161458333
 20
7.445540364583332
 30
0.0
 10
1.918918185763885
 20
5.977929687499997
 30
0.0
 10
2.388829210069443
 20
4.510319010416666
 30
0.0
 10
2.62378472222222
 20
2.449462890624999
 30
0.0
 10
2.62378472222222
 20
-0.204638671875
 30
0.0
 10
2.62378472222222
 20
-0.8950358072916666
 30
0.0
 10
2.590022786458332
 20
-1.643310546874999
 30
0.0
 10
2.523187934027772
 20
-2.45015190972222
 30
0.0
 10
2.408121744791666
 20
-3.80200737847222
 30
0.0
 10
2.226220703124999
 20
-4.909950086805555
 30
0.0
 10
1.976795789930553
 20
-5.774669053819441
 30
0.0
 10
1.659847005208333
 20
-6.853672960069442
 30
0.0
 10
1.252636718749998
 20
-7.583344184027778
 30
0.0
 10
0.7544759114583333
 20
-7.962304687499997
 30
0.0
 10
0.4664659288194444
 20
-8.166254340277777
 30
0.0
 10
0.1074869791666666
 20
-8.268229166666666
 30
0.0
 10
-0.3231499565972222
 20
-8.268229166666666
 30
0.0
 10
-0.3231499565972222
 20
-8.268229166666666
 30
0.0
 10
-2.62378472222222
 20
-8.268229166666666
 30
0.0
 10
-2.62378472222222
 20
-8.268229166666666
 30
0.0
  0
SPLINE
  5
302
330
300
100
AcDbEntity
  8
LAYER_1
 62
     7
100
AcDbSpline
210
0.0
220
0.0
230
1.0
 70
    11
 71
     3
 72
    26
 73
    22
 74
     0
 42
0.0000000001
 43
0.0000000001
 40
0.0
 40
0.0
 40
0.0
 40
0.0
 40
1.0
 40
1.0
 40
1.0
 40
2.0
 40
2.0
 40
2.0
 40
3.0
 40
3.0
 40
3.0
 40
4.0
 40
4.0
 40
4.0
 40
5.0
 40
5.0
 40
5.0
 40
6.0
 40
6.0
 40
6.0
 40
7.0
 40
7.0
 40
7.0
 40
7.0
 10
-3.946701388888888
 20
-10.7376736111111
 30
0.0
 10
-3.946701388888888
 20
-10.7376736111111
 30
0.0
 10
-0.0943956163194444
 20
-10.7376736111111
 30
0.0
 10
-0.0943956163194444
 20
-10.7376736111111
 30
0.0
 10
1.546847873263885
 20
-10.7376736111111
 30
0.0
 10
2.705777994791666
 20
-9.11021050347222
 30
0.0
 10
3.381705729166666
 20
-5.854595269097222
 30
0.0
 10
3.757910156249999
 20
-4.01284722222222
 30
0.0
 10
3.946701388888888
 20
-1.951991102430555
 30
0.0
 10
3.946701388888888
 20
0.328662109375
 30
0.0
 10
3.946701388888888
 20
3.281797960069443
 30
0.0
 10
3.622862413194443
 20
5.703700086805552
 30
0.0
 10
2.976562499999998
 20
7.594368489583332
 30
0.0
 10
2.25171440972222
 20
9.689675564236106
 30
0.0
 10
1.233344184027777
 20
10.7376736111111
 30
0.0
 10
-0.0799262152777778
 20
10.7376736111111
 30
0.0
 10
-0.0799262152777778
 20
10.7376736111111
 30
0.0
 10
-3.946701388888888
 20
10.7376736111111
 30
0.0
 10
-3.946701388888888
 20
10.7376736111111
 30
0.0
 10
-3.946701388888888
 20
10.7376736111111
 30
0.0
 10
-3.946701388888888
 20
-10.7376736111111
 30
0.0
 10
-3.946701388888888
 20
-10.7376736111111
 30
0.0
  0
ENDBLK
  5
304
330
300
100
AcDbEntity
  8
0
100
AcDbBlockEnd
  0
BLOCK
  5
308
330
305
100
AcDbEntity
  8
0
 62
     7
100
AcDbBlockBegin
  2
AI9-BLK4
 70
     0
 10
0.0
 20
0.0
 30
0.0
  3
AI9-BLK4
  1

  0
SPLINE
  5
306
330
305
100
AcDbEntity
  8
LAYER_1
 62
     7
100
AcDbSpline
210
0.0
220
0.0
230
1.0
 70
    11
 71
     3
 72
    26
 73
    22
 74
     0
 42
0.0000000001
 43
0.0000000001
 40
0.0
 40
0.0
 40
0.0
 40
0.0
 40
1.0
 40
1.0
 40
1.0
 40
2.0
 40
2.0
 40
2.0
 40
3.0
 40
3.0
 40
3.0
 40
4.0
 40
4.0
 40
4.0
 40
5.0
 40
5.0
 40
5.0
 40
6.0
 40
6.0
 40
6.0
 40
7.0
 40
7.0
 40
7.0
 40
7.0
 10
-2.645833333333333
 20
0.9039930555555551
 30
0.0
 10
-2.645833333333333
 20
0.9039930555555551
 30
0.0
 10
-2.645833333333333
 20
8.180034722222217
 30
0.0
 10
-2.645833333333333
 20
8.180034722222217
 30
0.0
 10
-2.645833333333333
 20
8.180034722222217
 30
0.0
 10
0.465087890625
 20
8.180034722222217
 30
0.0
 10
0.465087890625
 20
8.180034722222217
 30
0.0
 10
0.9026150173611108
 20
8.180034722222217
 30
0.0
 10
1.24988064236111
 20
8.034651692708331
 30
0.0
 10
1.506884765625
 20
7.745263671874997
 30
0.0
 10
2.001600477430554
 20
7.194048394097221
 30
0.0
 10
2.248958333333332
 20
6.160519748263887
 30
0.0
 10
2.248958333333332
 20
4.643299696180553
 30
0.0
 10
2.248958333333332
 20
3.232188585069443
 30
0.0
 10
2.072569444444444
 20
2.256537543402775
 30
0.0
 10
1.720480685763888
 20
1.715657552083333
 30
0.0
 10
1.368391927083333
 20
1.174088541666665
 30
0.0
 10
0.8929687499999998
 20
0.9039930555555551
 30
0.0
 10
0.2942111545138888
 20
0.9039930555555551
 30
0.0
 10
0.2942111545138888
 20
0.9039930555555551
 30
0.0
 10
-2.645833333333333
 20
0.9039930555555551
 30
0.0
 10
-2.645833333333333
 20
0.9039930555555551
 30
0.0
  0
SPLINE
  5
307
330
305
100
AcDbEntity
  8
LAYER_1
 62
     7
100
AcDbSpline
210
0.0
220
0.0
230
1.0
 70
    11
 71
     3
 72
    68
 73
    64
 74
     0
 42
0.0000000001
 43
0.0000000001
 40
0.0
 40
0.0
 40
0.0
 40
0.0
 40
1.0
 40
1.0
 40
1.0
 40
2.0
 40
2.0
 40
2.0
 40
3.0
 40
3.0
 40
3.0
 40
4.0
 40
4.0
 40
4.0
 40
5.0
 40
5.0
 40
5.0
 40
6.0
 40
6.0
 40
6.0
 40
7.0
 40
7.0
 40
7.0
 40
8.0
 40
8.0
 40
8.0
 40
9.0
 40
9.0
 40
9.0
 40
10.0
 40
10.0
 40
10.0
 40
11.0
 40
11.0
 40
11.0
 40
12.0
 40
12.0
 40
12.0
 40
13.0
 40
13.0
 40
13.0
 40
14.0
 40
14.0
 40
14.0
 40
15.0
 40
15.0
 40
15.0
 40
16.0
 40
16.0
 40
16.0
 40
17.0
 40
17.0
 40
17.0
 40
18.0
 40
18.0
 40
18.0
 40
19.0
 40
19.0
 40
19.0
 40
20.0
 40
20.0
 40
20.0
 40
21.0
 40
21.0
 40
21.0
 40
21.0
 10
-3.968749999999998
 20
-10.7376736111111
 30
0.0
 10
-3.968749999999998
 20
-10.7376736111111
 30
0.0
 10
-2.645833333333333
 20
-10.7376736111111
 30
0.0
 10
-2.645833333333333
 20
-10.7376736111111
 30
0.0
 10
-2.645833333333333
 20
-10.7376736111111
 30
0.0
 10
-2.645833333333333
 20
-1.521354166666665
 30
0.0
 10
-2.645833333333333
 20
-1.521354166666665
 30
0.0
 10
-2.645833333333333
 20
-1.521354166666665
 30
0.0
 10
0.2390896267361111
 20
-1.521354166666665
 30
0.0
 10
0.2390896267361111
 20
-1.521354166666665
 30
0.0
 10
0.7599880642361111
 20
-1.521354166666665
 30
0.0
 10
1.143771701388887
 20
-1.65295681423611
 30
0.0
 10
1.390440538194444
 20
-1.916162109374999
 30
0.0
 10
1.816254340277773
 20
-2.39434136284722
 30
0.0
 10
2.04363064236111
 20
-3.335541449652775
 30
0.0
 10
2.072569444444444
 20
-4.739762369791666
 30
0.0
 10
2.072569444444444
 20
-4.739762369791666
 30
0.0
 10
2.160763888888888
 20
-8.324039713541665
 30
0.0
 10
2.160763888888888
 20
-8.324039713541665
 30
0.0
 10
2.18005642361111
 20
-9.163264973958332
 30
0.0
 10
2.202794053819443
 20
-9.728949652777775
 30
0.0
 10
2.227598741319444
 20
-10.02109374999998
 30
0.0
 10
2.252403428819443
 20
-10.31392686631944
 30
0.0
 10
2.28892144097222
 20
-10.55301649305555
 30
0.0
 10
2.33853081597222
 20
-10.7376736111111
 30
0.0
 10
2.33853081597222
 20
-10.7376736111111
 30
0.0
 10
3.968749999999998
 20
-10.7376736111111
 30
0.0
 10
3.968749999999998
 20
-10.7376736111111
 30
0.0
 10
3.968749999999998
 20
-10.7376736111111
 30
0.0
 10
3.968749999999998
 20
-10.25260416666666
 30
0.0
 10
3.968749999999998
 20
-10.25260416666666
 30
0.0
 10
3.766867404513888
 20
-10.05830078125
 30
0.0
 10
3.625618489583333
 20
-9.621462673611112
 30
0.0
 10
3.545692274305555
 20
-8.942089843749997
 30
0.0
 10
3.49470486111111
 20
-8.543836805555555
 30
0.0
 10
3.459564887152775
 20
-7.937499999999999
 30
0.0
 10
3.439583333333333
 20
-7.121701388888887
 30
0.0
 10
3.439583333333333
 20
-7.121701388888887
 30
0.0
 10
3.395486111111106
 20
-4.232644314236106
 30
0.0
 10
3.395486111111106
 20
-4.232644314236106
 30
0.0
 10
3.375504557291666
 20
-2.981385633680555
 30
0.0
 10
3.26870659722222
 20
-2.077392578125
 30
0.0
 10
3.075781249999999
 20
-1.522043185763888
 30
0.0
 10
2.882166883680555
 20
-0.9666937934027776
 30
0.0
 10
2.592089843749999
 20
-0.5188313802083333
 30
0.0
 10
2.204861111111104
 20
-0.1770779079861111
 30
0.0
 10
2.63618706597222
 20
0.3197048611111111
 30
0.0
 10
2.971739366319443
 20
0.9770290798611107
 30
0.0
 10
3.211518012152775
 20
1.79558376736111
 30
0.0
 10
3.451296657986107
 20
2.613449435763888
 30
0.0
 10
3.571874999999999
 20
3.66558159722222
 30
0.0
 10
3.571874999999999
 20
4.951291232638888
 30
0.0
 10
3.571874999999999
 20
7.415912543402777
 30
0.0
 10
3.124701605902775
 20
9.106076388888887
 30
0.0
 10
2.231043836805555
 20
10.02178276909722
 30
0.0
 10
1.759754774305553
 20
10.498583984375
 30
0.0
 10
1.163753255208332
 20
10.7376736111111
 30
0.0
 10
0.443039279513889
 20
10.7376736111111
 30
0.0
 10
0.443039279513889
 20
10.7376736111111
 30
0.0
 10
-3.968749999999998
 20
10.7376736111111
 30
0.0
 10
-3.968749999999998
 20
10.7376736111111
 30
0.0
 10
-3.968749999999998
 20
10.7376736111111
 30
0.0
 10
-3.968749999999998
 20
-10.7376736111111
 30
0.0
 10
-3.968749999999998
 20
-10.7376736111111
 30
0.0
  0
ENDBLK
  5
309
330
305
100
AcDbEntity
  8
0
100
AcDbBlockEnd
  0
BLOCK
  5
30D
330
30A
100
AcDbEntity
  8
0
 62
     7
100
AcDbBlockBegin
  2
AI9-BLK3
 70
     0
 10
0.0
 20
0.0
 30
0.0
  3
AI9-BLK3
  1

  0
LWPOLYLINE
  5
30B
330
30A
100
AcDbEntity
  8
LAYER_1
 62
     7
100
AcDbPolyline
 90
        4
 70
     1
 43
0.0
 10
-0.6613722059461809
 20
10.7376736111111
 10
0.6613722059461809
 20
10.7376736111111
 10
0.6613722059461809
 20
-10.7376736111111
 10
-0.6613722059461809
 20
-10.7376736111111
  0
HATCH
  5
30C
330
30A
100
AcDbEntity
  8
LAYER_1
 62
     7
100
AcDbHatch
 10
0.0
 20
0.0
 30
0.0
210
0.0
220
0.0
230
1.0
  2
SOLID
 70
     1
 71
     0
 91
        1
 92
        3
 72
     0
 73
     1
 93
        4
 10
-0.6613722059461809
 20
10.7376736111111
 10
0.6613722059461809
 20
10.7376736111111
 10
0.6613722059461809
 20
-10.7376736111111
 10
-0.6613722059461809
 20
-10.7376736111111
 97
        0
 75
     2
 76
     1
 98
        1
 10
0.0
 20
0.0
  0
ENDBLK
  5
30E
330
30A
100
AcDbEntity
  8
0
100
AcDbBlockEnd
  0
BLOCK
  5
312
330
30F
100
AcDbEntity
  8
0
 62
     7
100
AcDbBlockBegin
  2
AI9-BLK2
 70
     0
 10
0.0
 20
0.0
 30
0.0
  3
AI9-BLK2
  1

  0
LWPOLYLINE
  5
310
330
30F
100
AcDbEntity
  8
LAYER_1
 62
     7
100
AcDbPolyline
 90
        7
 70
     1
 43
0.0
 10
-2.785704210069443
 20
10.7376736111111
 10
0.0
 20
-7.550960286458332
 10
2.771234809027776
 20
10.7376736111111
 10
4.233333333333331
 20
10.7376736111111
 10
0.6910861545138888
 20
-10.7376736111111
 10
-0.7055555555555558
 20
-10.7376736111111
 10
-4.233333333333331
 20
10.7376736111111
  0
HATCH
  5
311
330
30F
100
AcDbEntity
  8
LAYER_1
 62
     7
100
AcDbHatch
 10
0.0
 20
0.0
 30
0.0
210
0.0
220
0.0
230
1.0
  2
SOLID
 70
     1
 71
     0
 91
        1
 92
        3
 72
     0
 73
     1
 93
        7
 10
-2.785704210069443
 20
10.7376736111111
 10
0.0
 20
-7.550960286458332
 10
2.771234809027776
 20
10.7376736111111
 10
4.233333333333331
 20
10.7376736111111
 10
0.6910861545138888
 20
-10.7376736111111
 10
-0.7055555555555558
 20
-10.7376736111111
 10
-4.233333333333331
 20
10.7376736111111
 97
        0
 75
     2
 76
     1
 98
        1
 10
0.0
 20
0.0
  0
ENDBLK
  5
313
330
30F
100
AcDbEntity
  8
0
100
AcDbBlockEnd
  0
BLOCK
  5
317
330
314
100
AcDbEntity
  8
0
 62
     7
100
AcDbBlockBegin
  2
AI9-BLK1
 70
     0
 10
0.0
 20
0.0
 30
0.0
  3
AI9-BLK1
  1

  0
LWPOLYLINE
  5
315
330
314
100
AcDbEntity
  8
LAYER_1
 62
     7
100
AcDbPolyline
 90
       12
 70
     1
 43
0.0
 10
-3.571874999999999
 20
10.7376736111111
 10
3.483680555555555
 20
10.7376736111111
 10
3.483680555555555
 20
8.091840277777777
 10
-2.248958333333332
 20
8.091840277777777
 10
-2.248958333333332
 20
1.565451388888888
 10
3.042708333333333
 20
1.565451388888888
 10
3.042708333333333
 20
-0.9039930555555551
 10
-2.248958333333332
 20
-0.9039930555555551
 10
-2.248958333333332
 20
-8.180034722222217
 10
3.571874999999999
 20
-8.180034722222217
 10
3.571874999999999
 20
-10.7376736111111
 10
-3.571874999999999
 20
-10.7376736111111
  0
HATCH
  5
316
330
314
100
AcDbEntity
  8
LAYER_1
 62
     7
100
AcDbHatch
 10
0.0
 20
0.0
 30
0.0
210
0.0
220
0.0
230
1.0
  2
SOLID
 70
     1
 71
     0
 91
        1
 92
        3
 72
     0
 73
     1
 93
       12
 10
-3.571874999999999
 20
10.7376736111111
 10
3.483680555555555
 20
10.7376736111111
 10
3.483680555555555
 20
8.091840277777777
 10
-2.248958333333332
 20
8.091840277777777
 10
-2.248958333333332
 20
1.565451388888888
 10
3.042708333333333
 20
1.565451388888888
 10
3.042708333333333
 20
-0.9039930555555551
 10
-2.248958333333332
 20
-0.9039930555555551
 10
-2.248958333333332
 20
-8.180034722222217
 10
3.571874999999999
 20
-8.180034722222217
 10
3.571874999999999
 20
-10.7376736111111
 10
-3.571874999999999
 20
-10.7376736111111
 97
        0
 75
     2
 76
     1
 98
        1
 10
0.0
 20
0.0
  0
ENDBLK
  5
318
330
314
100
AcDbEntity
  8
0
100
AcDbBlockEnd
  0
BLOCK
  5
33C
330
319
100
AcDbEntity
  8
0
100
AcDbBlockBegin
  2
HD_LLC_logo_OT5
 70
     0
 10
0.0
 20
0.0
 30
0.0
  3
HD_LLC_logo_OT5
  1

  0
SPLINE
  5
31A
102
{ACAD_REACTORS
330
33A
102
}
330
319
100
AcDbEntity
  8
LAYER_1
 62
     7
100
AcDbSpline
210
0.0
220
0.0
230
1.0
 70
    11
 71
     3
 72
   113
 73
   109
 74
     0
 42
0.0000000001
 43
0.0000000001
 40
0.0
 40
0.0
 40
0.0
 40
0.0
 40
1.0
 40
1.0
 40
1.0
 40
2.0
 40
2.0
 40
2.0
 40
3.0
 40
3.0
 40
3.0
 40
4.0
 40
4.0
 40
4.0
 40
5.0
 40
5.0
 40
5.0
 40
6.0
 40
6.0
 40
6.0
 40
7.0
 40
7.0
 40
7.0
 40
8.0
 40
8.0
 40
8.0
 40
9.0
 40
9.0
 40
9.0
 40
10.0
 40
10.0
 40
10.0
 40
11.0
 40
11.0
 40
11.0
 40
12.0
 40
12.0
 40
12.0
 40
13.0
 40
13.0
 40
13.0
 40
14.0
 40
14.0
 40
14.0
 40
15.0
 40
15.0
 40
15.0
 40
16.0
 40
16.0
 40
16.0
 40
17.0
 40
17.0
 40
17.0
 40
18.0
 40
18.0
 40
18.0
 40
19.0
 40
19.0
 40
19.0
 40
20.0
 40
20.0
 40
20.0
 40
21.0
 40
21.0
 40
21.0
 40
22.0
 40
22.0
 40
22.0
 40
23.0
 40
23.0
 40
23.0
 40
24.0
 40
24.0
 40
24.0
 40
25.0
 40
25.0
 40
25.0
 40
26.0
 40
26.0
 40
26.0
 40
27.0
 40
27.0
 40
27.0
 40
28.0
 40
28.0
 40
28.0
 40
29.0
 40
29.0
 40
29.0
 40
30.0
 40
30.0
 40
30.0
 40
31.0
 40
31.0
 40
31.0
 40
32.0
 40
32.0
 40
32.0
 40
33.0
 40
33.0
 40
33.0
 40
34.0
 40
34.0
 40
34.0
 40
35.0
 40
35.0
 40
35.0
 40
36.0
 40
36.0
 40
36.0
 40
36.0
 10
193.3039632161458
 20
186.1548733181423
 30
0.0
 10
193.3039632161458
 20
186.1860514322916
 30
0.0
 10
193.3039632161458
 20
219.6932223849826
 30
0.0
 10
193.3039632161458
 20
219.6932223849826
 30
0.0
 10
193.3039632161458
 20
219.6932223849826
 30
0.0
 10
193.2974175347219
 20
219.7488606770833
 30
0.0
 10
193.2974175347219
 20
219.7488606770833
 30
0.0
 10
191.5293945312499
 20
235.455740017361
 30
0.0
 10
175.1458984374999
 20
235.2467949761284
 30
0.0
 10
174.9808783637151
 20
235.2428331163193
 30
0.0
 10
174.9808783637151
 20
235.2428331163193
 30
0.0
 10
125.8827555338541
 20
235.2430053710937
 30
0.0
 10
125.8827555338541
 20
235.2430053710937
 30
0.0
 10
125.8827555338541
 20
235.2430053710937
 30
0.0
 10
125.8827555338541
 20
255.5278998480901
 30
0.0
 10
125.8827555338541
 20
255.5278998480901
 30
0.0
 10
125.8827555338541
 20
255.5278998480901
 30
0.0
 10
84.5626247829861
 20
255.5278998480901
 30
0.0
 10
84.5626247829861
 20
255.5278998480901
 30
0.0
 10
84.5626247829861
 20
255.5278998480901
 30
0.0
 10
84.55711263020829
 20
233.7919311523436
 30
0.0
 10
84.55711263020829
 20
233.7919311523436
 30
0.0
 10
84.55711263020829
 20
233.7919311523436
 30
0.0
 10
64.42052951388888
 20
233.7919311523436
 30
0.0
 10
64.42052951388888
 20
233.7919311523436
 30
0.0
 10
64.42052951388888
 20
233.7919311523436
 30
0.0
 10
64.41501736111111
 20
255.5278998480901
 30
0.0
 10
64.41501736111111
 20
255.5278998480901
 30
0.0
 10
64.41501736111111
 20
255.5278998480901
 30
0.0
 10
23.91757541232637
 20
255.5278998480901
 30
0.0
 10
23.91757541232637
 20
255.5278998480901
 30
0.0
 10
23.91757541232637
 20
255.5278998480901
 30
0.0
 10
23.91757541232637
 20
233.2393378363715
 30
0.0
 10
23.91757541232637
 20
233.2393378363715
 30
0.0
 10
23.91757541232637
 20
233.2393378363715
 30
0.0
 10
43.65624999999999
 20
233.2393378363715
 30
0.0
 10
43.65624999999999
 20
233.2393378363715
 30
0.0
 10
43.65624999999999
 20
233.2393378363715
 30
0.0
 10
43.65624999999999
 20
211.5188720703125
 30
0.0
 10
43.65624999999999
 20
211.5188720703125
 30
0.0
 10
43.65624999999999
 20
211.5188720703125
 30
0.0
 10
23.91757541232637
 20
211.5188720703125
 30
0.0
 10
23.91757541232637
 20
211.5188720703125
 30
0.0
 10
23.91757541232637
 20
211.5188720703125
 30
0.0
 10
23.91757541232637
 20
189.2303100585936
 30
0.0
 10
23.91757541232637
 20
189.2303100585936
 30
0.0
 10
23.91757541232637
 20
189.2303100585936
 30
0.0
 10
64.41501736111111
 20
189.2303100585936
 30
0.0
 10
64.41501736111111
 20
189.2303100585936
 30
0.0
 10
64.41501736111111
 20
189.2303100585936
 30
0.0
 10
64.42052951388888
 20
211.069976128472
 30
0.0
 10
64.42052951388888
 20
211.069976128472
 30
0.0
 10
64.42052951388888
 20
211.069976128472
 30
0.0
 10
84.55711263020829
 20
211.069976128472
 30
0.0
 10
84.55711263020829
 20
211.069976128472
 30
0.0
 10
84.55711263020829
 20
211.069976128472
 30
0.0
 10
84.5626247829861
 20
189.2303100585936
 30
0.0
 10
84.5626247829861
 20
189.2303100585936
 30
0.0
 10
84.5626247829861
 20
189.2303100585936
 30
0.0
 10
125.8827555338541
 20
189.2303100585936
 30
0.0
 10
125.8827555338541
 20
189.2303100585936
 30
0.0
 10
125.8827555338541
 20
189.2303100585936
 30
0.0
 10
125.8827555338541
 20
211.5188720703125
 30
0.0
 10
125.8827555338541
 20
211.5188720703125
 30
0.0
 10
125.8827555338541
 20
211.5188720703125
 30
0.0
 10
105.3213921440971
 20
211.5188720703125
 30
0.0
 10
105.3213921440971
 20
211.5188720703125
 30
0.0
 10
105.3213921440971
 20
211.5188720703125
 30
0.0
 10
105.3213921440971
 20
233.2393378363715
 30
0.0
 10
105.3213921440971
 20
233.2393378363715
 30
0.0
 10
105.3213921440971
 20
233.2393378363715
 30
0.0
 10
175.0046495225693
 20
233.243127441406
 30
0.0
 10
175.0046495225693
 20
233.243127441406
 30
0.0
 10
175.6268337673611
 20
233.2560465494791
 30
0.0
 10
189.7165852864583
 20
233.3962619357638
 30
0.0
 10
191.3037407769094
 20
219.5690266927083
 30
0.0
 10
191.3037407769094
 20
219.4332899305555
 30
0.0
 10
191.3037407769094
 20
186.1142211914062
 30
0.0
 10
191.3037407769094
 20
186.1142211914062
 30
0.0
 10
191.3037407769094
 20
186.1142211914062
 30
0.0
 10
191.3051188151039
 20
186.0880384657115
 30
0.0
 10
191.3051188151039
 20
186.0880384657115
 30
0.0
 10
191.3054633246526
 20
186.0787367078991
 30
0.0
 10
191.3109754774304
 20
185.9566080729166
 30
0.0
 10
191.3109754774304
 20
185.7399115668401
 30
0.0
 10
191.3109754774304
 20
184.2090833875865
 30
0.0
 10
191.0488037109374
 20
177.9643310546874
 30
0.0
 10
186.9866916232638
 20
173.5652886284722
 30
0.0
 10
184.2540418836804
 20
170.6064683702255
 30
0.0
 10
180.3224989149304
 20
169.0308539496526
 30
0.0
 10
175.300927734375
 20
168.8825425889756
 30
0.0
 10
175.300927734375
 20
168.8825425889756
 30
0.0
 10
107.0094889322916
 20
168.8828870985243
 30
0.0
 10
107.0094889322916
 20
168.8828870985243
 30
0.0
 10
107.0094889322916
 20
168.8828870985243
 30
0.0
 10
107.0094889322916
 20
166.8830091688368
 30
0.0
 10
107.0094889322916
 20
166.8830091688368
 30
0.0
 10
107.0094889322916
 20
166.8830091688368
 30
0.0
 10
175.3305555555555
 20
166.8830091688368
 30
0.0
 10
175.3305555555555
 20
166.8830091688368
 30
0.0
 10
180.9467502170138
 20
167.0485460069444
 30
0.0
 10
185.3571614583333
 20
168.8448187934026
 30
0.0
 10
188.4687717013888
 20
172.2223904079861
 30
0.0
 10
192.9649658203124
 20
177.1034016927083
 30
0.0
 10
193.3136094835069
 20
183.7202243381076
 30
0.0
 10
193.3136094835069
 20
185.6520616319443
 30
0.0
 10
193.3136094835069
 20
185.9247409396701
 30
0.0
 10
193.3070638020833
 20
186.0868326822916
 30
0.0
 10
193.3039632161458
 20
186.1548733181423
 30
0.0
  0
INSERT
  5
31B
102
{ACAD_REACTORS
330
33B
102
}
330
319
100
AcDbEntity
  8
LAYER_1
 62
     7
100
AcDbBlockReference
  2
AI9-BLK14
 10
159.5625257703993
 20
200.5118781195744
 30
0.0
  0
INSERT
  5
31C
330
319
100
AcDbEntity
  8
LAYER_1
 62
     7
100
AcDbBlockReference
  2
AI9-BLK13
 10
27.69615614149305
 20
179.2145562065971
 30
0.0
 42
0.9200000000000001
  0
INSERT
  5
31D
102
{ACAD_REACTORS
330
328
102
}
330
319
100
AcDbEntity
  8
LAYER_1
 62
     7
100
AcDbBlockReference
  2
AI9-BLK11
 10
44.76591525607638
 20
179.2145562065971
 30
0.0
 42
0.9200000000000001
  0
INSERT
  5
31E
102
{ACAD_REACTORS
330
336
102
}
330
319
100
AcDbEntity
  8
LAYER_1
 62
     7
100
AcDbBlockReference
  2
AI9-BLK10
 10
54.04665798611111
 20
179.2145562065971
 30
0.0
 42
0.9200000000000001
  0
INSERT
  5
31F
102
{ACAD_REACTORS
330
335
102
}
330
319
100
AcDbEntity
  8
LAYER_1
 62
     7
100
AcDbBlockReference
  2
AI9-BLK9
 10
62.79013807508679
 20
179.2145562065971
 30
0.0
 42
0.9
  0
INSERT
  5
320
330
319
100
AcDbEntity
  8
LAYER_1
 62
     7
100
AcDbBlockReference
  2
AI9-BLK8
 10
71.03046196831595
 20
179.2145562065971
 30
0.0
 42
0.9200000000000001
  0
INSERT
  5
321
330
319
100
AcDbEntity
  8
LAYER_1
 62
     7
100
AcDbBlockReference
  2
AI9-BLK7
 10
76.93793945312498
 20
179.2145562065971
 30
0.0
 42
0.9200000000000001
  0
INSERT
  5
322
102
{ACAD_REACTORS
330
329
102
}
330
319
100
AcDbEntity
  8
LAYER_1
 62
     7
100
AcDbBlockReference
  2
AI9-BLK6
 10
82.55602891710069
 20
179.2145562065971
 30
0.0
 42
0.9
  0
INSERT
  5
323
102
{ACAD_REACTORS
330
337
102
}
330
319
100
AcDbEntity
  8
LAYER_1
 62
     7
100
AcDbBlockReference
  2
AI9-BLK5
 10
94.32430284288193
 20
179.2145562065971
 30
0.0
 42
0.9200000000000001
  0
INSERT
  5
324
102
{ACAD_REACTORS
330
338
102
}
330
319
100
AcDbEntity
  8
LAYER_1
 62
     7
100
AcDbBlockReference
  2
AI9-BLK4
 10
103.2081705729166
 20
179.2145562065971
 30
0.0
 42
0.9200000000000001
  0
INSERT
  5
325
330
319
100
AcDbEntity
  8
LAYER_1
 62
     7
100
AcDbBlockReference
  2
AI9-BLK3
 10
108.850978597005
 20
179.2145562065971
 30
0.0
 42
0.9200000000000001
  0
INSERT
  5
326
330
319
100
AcDbEntity
  8
LAYER_1
 62
     7
100
AcDbBlockReference
  2
AI9-BLK2
 10
114.2045708550346
 20
179.2145562065971
 30
0.0
 42
0.9200000000000001
  0
INSERT
  5
327
330
319
100
AcDbEntity
  8
LAYER_1
 62
     7
100
AcDbBlockReference
  2
AI9-BLK1
 10
122.4125108506944
 20
179.2145562065971
 30
0.0
 42
0.9200000000000001
  0
HATCH
  5
328
330
319
100
AcDbEntity
  8
0
  6
Continuous
100
AcDbHatch
 10
0.0
 20
0.0
 30
0.0
210
0.0
220
0.0
230
1.0
  2
SOLID
 70
     1
 71
     1
 91
        2
 92
       16
 93
        1
 72
     4
 94
        3
 73
     0
 74
     0
 95
       26
 96
       22
 40
0.0
 40
0.0
 40
0.0
 40
0.0
 40
1.0
 40
1.0
 40
1.0
 40
2.0
 40
2.0
 40
2.0
 40
3.0
 40
3.0
 40
3.0
 40
4.0
 40
4.0
 40
4.0
 40
5.0
 40
5.0
 40
5.0
 40
6.0
 40
6.0
 40
6.0
 40
7.0
 40
7.0
 40
7.0
 40
7.0
 10
42.12008192274304
 20
180.046229817708
 10
42.12008192274304
 20
180.046229817708
 10
42.12008192274304
 20
186.7401881510414
 10
42.12008192274304
 20
186.7401881510414
 10
42.12008192274304
 20
186.7401881510414
 10
45.23100314670138
 20
186.7401881510414
 10
45.23100314670138
 20
186.7401881510414
 10
45.66853027343749
 20
186.7401881510414
 10
46.01579589843749
 20
186.6064357638887
 10
46.27280002170138
 20
186.3401987847217
 10
46.76751573350694
 20
185.8330807291664
 10
47.01487358940972
 20
184.8822343749995
 10
47.01487358940972
 20
183.4863919270832
 10
47.01487358940972
 20
182.188169704861
 10
46.83848470052082
 20
181.2905707465276
 10
46.48639594184028
 20
180.7929611545137
 10
46.13430718315971
 20
180.2947176649304
 10
45.65888400607638
 20
180.046229817708
 10
45.06012641059028
 20
180.046229817708
 10
45.06012641059028
 20
180.046229817708
 10
42.12008192274304
 20
180.046229817708
 10
42.12008192274304
 20
180.046229817708
 97
        1
330
31D
 92
        1
 93
        1
 72
     4
 94
        3
 73
     0
 74
     0
 95
       68
 96
       64
 40
0.0
 40
0.0
 40
0.0
 40
0.0
 40
1.0
 40
1.0
 40
1.0
 40
2.0
 40
2.0
 40
2.0
 40
3.0
 40
3.0
 40
3.0
 40
4.0
 40
4.0
 40
4.0
 40
5.0
 40
5.0
 40
5.0
 40
6.0
 40
6.0
 40
6.0
 40
7.0
 40
7.0
 40
7.0
 40
8.0
 40
8.0
 40
8.0
 40
9.0
 40
9.0
 40
9.0
 40
10.0
 40
10.0
 40
10.0
 40
11.0
 40
11.0
 40
11.0
 40
12.0
 40
12.0
 40
12.0
 40
13.0
 40
13.0
 40
13.0
 40
14.0
 40
14.0
 40
14.0
 40
15.0
 40
15.0
 40
15.0
 40
16.0
 40
16.0
 40
16.0
 40
17.0
 40
17.0
 40
17.0
 40
18.0
 40
18.0
 40
18.0
 40
19.0
 40
19.0
 40
19.0
 40
20.0
 40
20.0
 40
20.0
 40
21.0
 40
21.0
 40
21.0
 40
21.0
 10
40.79716525607638
 20
169.3358964843748
 10
40.79716525607638
 20
169.3358964843748
 10
42.12008192274304
 20
169.3358964843748
 10
42.12008192274304
 20
169.3358964843748
 10
42.12008192274304
 20
169.3358964843748
 10
42.12008192274304
 20
177.8149103732637
 10
42.12008192274304
 20
177.8149103732637
 10
42.12008192274304
 20
177.8149103732637
 10
45.00500488281249
 20
177.8149103732637
 10
45.00500488281249
 20
177.8149103732637
 10
45.52590332031249
 20
177.8149103732637
 10
45.90968695746528
 20
177.6938359374998
 10
46.15635579427083
 20
177.4516870659718
 10
46.58216959635415
 20
177.0117621527776
 10
46.80954589843749
 20
176.1458580729164
 10
46.83848470052082
 20
174.8539748263887
 10
46.83848470052082
 20
174.8539748263887
 10
46.92667914496527
 20
171.5564396701385
 10
46.92667914496527
 20
171.5564396701385
 10
46.94597167968749
 20
170.7843524305554
 10
46.96870930989581
 20
170.2639225260415
 10
46.99351399739582
 20
169.9951499565971
 10
47.01831868489581
 20
169.725743489583
 10
47.0548366970486
 20
169.5057810329859
 10
47.10444607204859
 20
169.3358964843748
 10
47.10444607204859
 20
169.3358964843748
 10
48.73466525607638
 20
169.3358964843748
 10
48.73466525607638
 20
169.3358964843748
 10
48.73466525607638
 20
169.3358964843748
 10
48.73466525607638
 20
169.7821603732634
 10
48.73466525607638
 20
169.7821603732634
 10
48.53278266059028
 20
169.9609194878471
 10
48.39153374565971
 20
170.3628105468748
 10
48.31160753038194
 20
170.9878335503471
 10
48.26062011718749
 20
171.3542263454858
 10
48.22548014322915
 20
171.9120562065971
 10
48.20549858940971
 20
172.6625909288193
 10
48.20549858940971
 20
172.6625909288193
 10
48.16140136718749
 20
175.3205234374999
 10
48.16140136718749
 20
175.3205234374999
 10
48.14141981336803
 20
176.4716814236109
 10
48.03462185329859
 20
177.3033550347219
 10
47.84169650607638
 20
177.814276475694
 10
47.64808213975693
 20
178.3251979166665
 10
47.35800509982638
 20
178.7372313368054
 10
46.97077636718749
 20
179.0516445312498
 10
47.4021023220486
 20
179.5086846788193
 10
47.73765462239582
 20
180.1134229600693
 10
47.97743326822915
 20
180.866493272569
 10
48.21721191406249
 20
181.6189296874999
 10
48.33779025607638
 20
182.5868912760412
 10
48.33779025607638
 20
183.7697441406248
 10
48.33779025607638
 20
186.0371957465273
 10
47.89061686197913
 20
187.5921464843749
 10
46.99695909288194
 20
188.4345963541665
 10
46.52567003038194
 20
188.8732534722221
 10
45.92966851128472
 20
189.0932159288193
 10
45.20895453559027
 20
189.0932159288193
 10
45.20895453559027
 20
189.0932159288193
 10
40.79716525607638
 20
189.0932159288193
 10
40.79716525607638
 20
189.0932159288193
 10
40.79716525607638
 20
189.0932159288193
 10
40.79716525607638
 20
169.3358964843748
 10
40.79716525607638
 20
169.3358964843748
 97
        0
 75
     0
 76
     1
 98
        0
  0
HATCH
  5
329
330
319
100
AcDbEntity
  8
0
  6
Continuous
100
AcDbHatch
 10
0.0
 20
0.0
 30
0.0
210
0.0
220
0.0
230
1.0
  2
SOLID
 70
     1
 71
     1
 91
        1
 92
        1
 93
        1
 72
     4
 94
        3
 73
     0
 74
     0
 95
       59
 96
       55
 40
0.0
 40
0.0
 40
0.0
 40
0.0
 40
1.0
 40
1.0
 40
1.0
 40
2.0
 40
2.0
 40
2.0
 40
3.0
 40
3.0
 40
3.0
 40
4.0
 40
4.0
 40
4.0
 40
5.0
 40
5.0
 40
5.0
 40
6.0
 40
6.0
 40
6.0
 40
7.0
 40
7.0
 40
7.0
 40
8.0
 40
8.0
 40
8.0
 40
9.0
 40
9.0
 40
9.0
 40
10.0
 40
10.0
 40
10.0
 40
11.0
 40
11.0
 40
11.0
 40
12.0
 40
12.0
 40
12.0
 40
13.0
 40
13.0
 40
13.0
 40
14.0
 40
14.0
 40
14.0
 40
15.0
 40
15.0
 40
15.0
 40
16.0
 40
16.0
 40
16.0
 40
17.0
 40
17.0
 40
17.0
 40
18.0
 40
18.0
 40
18.0
 40
18.0
 10
85.61871880425345
 20
187.4658355034721
 10
86.29120144314232
 20
186.1797124565971
 10
86.66671685112847
 20
184.7193364800346
 10
86.7452650282118
 20
183.0840874565969
 10
86.7452650282118
 20
183.0840874565969
 10
85.42234836154511
 20
183.0840874565969
 10
85.42234836154511
 20
183.0840874565969
 10
85.27696533203123
 20
184.3156401909719
 10
84.99171142578125
 20
185.2917046440971
 10
84.56589762369791
 20
186.0122808159719
 10
84.14008382161458
 20
186.7322368706594
 10
83.53994818793401
 20
187.0925249565969
 10
82.76617974175342
 20
187.0925249565969
 10
81.81740044487847
 20
187.0925249565969
 10
81.05258924696178
 20
186.4240386284721
 10
80.47243516710068
 20
185.0883062065971
 10
79.89159206814234
 20
183.7525737847219
 10
79.6015150282118
 20
181.7049468315971
 10
79.6015150282118
 20
178.9454253472221
 10
79.6015150282118
 20
176.6844780815969
 10
79.86265326605901
 20
174.8514116753471
 10
80.38561876085069
 20
173.4456060112846
 10
80.90789523654512
 20
172.0391802300344
 10
81.69199896918403
 20
171.3365874565971
 10
82.73724093967013
 20
171.3365874565971
 10
83.69497748480901
 20
171.3365874565971
 10
84.42120361328125
 20
172.0794878472221
 10
84.91523030598958
 20
173.5665288628469
 10
85.18601481119791
 20
174.3491167534719
 10
85.38445231119791
 20
175.3785112847221
 10
85.51054280598959
 20
176.6547124565971
 10
85.51054280598959
 20
176.6547124565971
 10
86.83345947265625
 20
176.6547124565971
 10
86.83345947265625
 20
176.6547124565971
 10
86.72597249348957
 20
174.6157671440971
 10
86.35114610460069
 20
172.9061040581596
 10
85.70760226779514
 20
171.526343315972
 10
84.93727891710069
 20
169.8650493706596
 10
83.90375027126735
 20
169.0347124565971
 10
82.60701633029514
 20
169.0347124565971
 10
81.48598225911458
 20
169.0347124565971
 10
80.54547119140625
 20
169.7143608940971
 10
79.78479410807292
 20
171.0742778862845
 10
78.78020426432292
 20
172.8726177300344
 10
78.27859836154512
 20
175.6495024956596
 10
78.27859836154512
 20
179.4049321831594
 10
78.27859836154512
 20
182.2562310112846
 10
78.65342475043402
 20
184.5946929253469
 10
79.40445556640622
 20
186.4196978081596
 10
80.22301025390625
 20
188.4028325737846
 10
81.34955647786458
 20
189.3943999565971
 10
82.78271620008679
 20
189.3943999565971
 10
84.00090196397568
 20
189.3943999565971
 10
84.94623616536458
 20
188.7513384331594
 10
85.61871880425345
 20
187.4658355034721
 97
        1
330
322
 75
     0
 76
     1
 98
        1
 10
0.0
 20
0.0
  0
LINE
  5
32A
102
{ACAD_REACTORS
330
339
102
}
330
319
100
AcDbEntity
  8
LAYER_1
 62
     7
100
AcDbLine
 10
34.65766059027778
 20
177.4497853732638
 30
0.0
 11
36.19830729166666
 21
186.1658769531249
 31
0.0
  0
LINE
  5
32B
102
{ACAD_REACTORS
330
339
102
}
330
319
100
AcDbEntity
  8
LAYER_1
 62
     7
100
AcDbLine
 10
36.19830729166666
 20
186.1658769531249
 30
0.0
 11
37.67556423611111
 21
177.4497853732638
 31
0.0
  0
LINE
  5
32C
102
{ACAD_REACTORS
330
339
102
}
330
319
100
AcDbEntity
  8
LAYER_1
 62
     7
100
AcDbLine
 10
37.67556423611111
 20
177.4497853732638
 30
0.0
 11
34.65766059027778
 21
177.4497853732638
 31
0.0
  0
LINE
  5
32D
102
{ACAD_REACTORS
330
339
102
}
330
319
100
AcDbEntity
  8
LAYER_1
 62
     7
100
AcDbLine
 10
31.83957248263888
 20
169.3358964843748
 30
0.0
 11
33.22450086805555
 21
169.3358964843748
 31
0.0
  0
LINE
  5
32E
102
{ACAD_REACTORS
330
339
102
}
330
319
100
AcDbEntity
  8
LAYER_1
 62
     7
100
AcDbLine
 10
33.22450086805555
 20
169.3358964843748
 30
0.0
 11
34.27043185763887
 21
175.2590353732638
 31
0.0
  0
LINE
  5
32F
102
{ACAD_REACTORS
330
339
102
}
330
319
100
AcDbEntity
  8
LAYER_1
 62
     7
100
AcDbLine
 10
34.27043185763887
 20
175.2590353732638
 30
0.0
 11
38.04694552951389
 21
175.2590353732638
 31
0.0
  0
LINE
  5
330
102
{ACAD_REACTORS
330
339
102
}
330
319
100
AcDbEntity
  8
LAYER_1
 62
     7
100
AcDbLine
 10
38.04694552951389
 20
175.2590353732638
 30
0.0
 11
39.05015733506942
 21
169.3358964843748
 31
0.0
  0
LINE
  5
331
102
{ACAD_REACTORS
330
339
102
}
330
319
100
AcDbEntity
  8
LAYER_1
 62
     7
100
AcDbLine
 10
39.05015733506942
 20
169.3358964843748
 30
0.0
 11
40.43508572048611
 21
169.3358964843748
 31
0.0
  0
LINE
  5
332
102
{ACAD_REACTORS
330
339
102
}
330
319
100
AcDbEntity
  8
LAYER_1
 62
     7
100
AcDbLine
 10
40.43508572048611
 20
169.3358964843748
 30
0.0
 11
36.952783203125
 21
189.0932159288193
 31
0.0
  0
LINE
  5
333
102
{ACAD_REACTORS
330
339
102
}
330
319
100
AcDbEntity
  8
LAYER_1
 62
     7
100
AcDbLine
 10
36.952783203125
 20
189.0932159288193
 30
0.0
 11
35.47828233506943
 21
189.0932159288193
 31
0.0
  0
LINE
  5
334
102
{ACAD_REACTORS
330
339
102
}
330
319
100
AcDbEntity
  8
LAYER_1
 62
     7
100
AcDbLine
 10
35.47828233506943
 20
189.0932159288193
 30
0.0
 11
31.83957248263888
 21
169.3358964843748
 31
0.0
  0
HATCH
  5
335
330
319
100
AcDbEntity
  8
0
  6
Continuous
100
AcDbHatch
 10
0.0
 20
0.0
 30
0.0
210
0.0
220
0.0
230
1.0
  2
SOLID
 70
     1
 71
     1
 91
        2
 92
       16
 93
        1
 72
     4
 94
        3
 73
     0
 74
     0
 95
       29
 96
       25
 40
0.0
 40
0.0
 40
0.0
 40
0.0
 40
1.0
 40
1.0
 40
1.0
 40
2.0
 40
2.0
 40
2.0
 40
3.0
 40
3.0
 40
3.0
 40
4.0
 40
4.0
 40
4.0
 40
5.0
 40
5.0
 40
5.0
 40
6.0
 40
6.0
 40
6.0
 40
7.0
 40
7.0
 40
7.0
 40
8.0
 40
8.0
 40
8.0
 40
8.0
 10
62.85697292751734
 20
171.3365874565971
 10
61.88338894314235
 20
171.3365874565971
 10
61.18058946397566
 20
172.0714263237844
 10
60.74857449001735
 20
173.5411040581594
 10
60.31587049696178
 20
175.0107817925344
 10
60.10020751953123
 20
176.8165630425342
 10
60.10020751953123
 20
178.9578276909721
 10
60.10020751953123
 20
181.6342534722221
 10
60.35101047092013
 20
183.6589360894094
 10
60.85261637369789
 20
185.0324956597219
 10
61.35422227647566
 20
186.4054351128471
 10
62.00741238064235
 20
187.0925249565969
 10
62.81218668619789
 20
187.0925249565969
 10
63.6369425455729
 20
187.0925249565969
 10
64.28806559244789
 20
186.3992339409721
 10
64.76486680772568
 20
185.0126519097221
 10
65.24166802300347
 20
183.6260698784719
 10
65.48006863064235
 20
181.7961040581594
 10
65.48006863064235
 20
179.5239946831596
 10
65.48006863064235
 20
177.3734282769096
 10
65.27336290147568
 20
175.4715288628468
 10
64.86132948133678
 20
173.8176763237846
 10
64.4492960611979
 20
172.1632036675344
 10
63.78094753689235
 20
171.3365874565971
 10
62.85697292751734
 20
171.3365874565971
 97
        1
330
31F
 92
        1
 93
        1
 72
     4
 94
        3
 73
     0
 74
     0
 95
       29
 96
       25
 40
0.0
 40
0.0
 40
0.0
 40
0.0
 40
1.0
 40
1.0
 40
1.0
 40
2.0
 40
2.0
 40
2.0
 40
3.0
 40
3.0
 40
3.0
 40
4.0
 40
4.0
 40
4.0
 40
5.0
 40
5.0
 40
5.0
 40
6.0
 40
6.0
 40
6.0
 40
7.0
 40
7.0
 40
7.0
 40
8.0
 40
8.0
 40
8.0
 40
8.0
 10
62.76119927300346
 20
189.4340874565971
 10
61.47273356119789
 20
189.4340874565971
 10
60.50121663411457
 20
188.2397417534719
 10
59.84733751085068
 20
185.8516704644094
 10
59.3395304361979
 20
183.9900786675344
 10
59.08597140842012
 20
181.7514556206596
 10
59.08597140842012
 20
179.1351812065971
 10
59.08597140842012
 20
176.2379937065971
 10
59.3836276584201
 20
173.8412407769094
 10
59.9789401584201
 20
171.9449224175346
 10
60.6424655490451
 20
169.9779106987846
 10
61.5602389865451
 20
168.9950249565971
 10
62.7315714518229
 20
168.9950249565971
 10
63.9904093424479
 20
168.9950249565971
 10
64.95641411675345
 20
170.1186773003469
 10
65.63027479383679
 20
172.3659819878471
 10
66.20629475911457
 20
174.2796636284719
 10
66.49430474175345
 20
176.6813774956592
 10
66.49430474175345
 20
179.5698833550344
 10
66.49430474175345
 20
182.2388677300342
 10
66.24005669487845
 20
184.4291216362844
 10
65.73293863932289
 20
186.1412651909719
 10
65.08870578342011
 20
188.3364800347219
 10
64.09789632161457
 20
189.4340874565971
 10
62.76119927300346
 20
189.4340874565971
 97
        0
 75
     0
 76
     1
 98
        0
  0
HATCH
  5
336
330
319
100
AcDbEntity
  8
0
  6
Continuous
100
AcDbHatch
 10
0.0
 20
0.0
 30
0.0
210
0.0
220
0.0
230
1.0
  2
SOLID
 70
     1
 71
     1
 91
        1
 92
        1
 93
        1
 72
     4
 94
        3
 73
     0
 74
     0
 95
       59
 96
       55
 40
0.0
 40
0.0
 40
0.0
 40
0.0
 40
1.0
 40
1.0
 40
1.0
 40
2.0
 40
2.0
 40
2.0
 40
3.0
 40
3.0
 40
3.0
 40
4.0
 40
4.0
 40
4.0
 40
5.0
 40
5.0
 40
5.0
 40
6.0
 40
6.0
 40
6.0
 40
7.0
 40
7.0
 40
7.0
 40
8.0
 40
8.0
 40
8.0
 40
9.0
 40
9.0
 40
9.0
 40
10.0
 40
10.0
 40
10.0
 40
11.0
 40
11.0
 40
11.0
 40
12.0
 40
12.0
 40
12.0
 40
13.0
 40
13.0
 40
13.0
 40
14.0
 40
14.0
 40
14.0
 40
15.0
 40
15.0
 40
15.0
 40
16.0
 40
16.0
 40
16.0
 40
17.0
 40
17.0
 40
17.0
 40
18.0
 40
18.0
 40
18.0
 40
18.0
 10
49.39440104166666
 20
189.0932159288193
 10
49.39440104166666
 20
189.0932159288193
 10
51.24786241319444
 20
189.0932159288193
 10
51.24786241319444
 20
189.0932159288193
 10
51.24786241319444
 20
189.0932159288193
 10
54.04665798611111
 20
172.3887471788193
 10
54.04665798611111
 20
172.3887471788193
 10
54.04665798611111
 20
172.3887471788193
 10
56.83994140624999
 20
189.0932159288193
 10
56.83994140624999
 20
189.0932159288193
 10
56.83994140624999
 20
189.0932159288193
 10
58.69891493055553
 20
189.0932159288193
 10
58.69891493055553
 20
189.0932159288193
 10
58.69891493055553
 20
189.0932159288193
 10
58.69891493055553
 20
169.3358964843748
 10
58.69891493055553
 20
169.3358964843748
 10
58.69891493055553
 20
169.3358964843748
 10
57.46419270833333
 20
169.3358964843748
 10
57.46419270833333
 20
169.3358964843748
 10
57.46419270833333
 20
169.3358964843748
 10
57.46419270833333
 20
180.9964422743054
 10
57.46419270833333
 20
180.9964422743054
 10
57.46419270833333
 20
181.3996011284721
 10
57.47108289930555
 20
182.0677291666664
 10
57.48624131944444
 20
183.0001924913193
 10
57.50071072048609
 20
183.9326558159721
 10
57.50828993055553
 20
184.932312282986
 10
57.50828993055553
 20
185.9997957899304
 10
57.50828993055553
 20
185.9997957899304
 10
54.700537109375
 20
169.3358964843748
 10
54.700537109375
 20
169.3358964843748
 10
54.700537109375
 20
169.3358964843748
 10
53.38382161458333
 20
169.3358964843748
 10
53.38382161458333
 20
169.3358964843748
 10
53.38382161458333
 20
169.3358964843748
 10
50.58502604166665
 20
185.9997957899304
 10
50.58502604166665
 20
185.9997957899304
 10
50.58502604166665
 20
185.9997957899304
 10
50.58502604166665
 20
185.3944236111109
 10
50.58502604166665
 20
185.3944236111109
 10
50.58502604166665
 20
184.9101258680554
 10
50.59191623263888
 20
184.1729029947915
 10
50.60707465277777
 20
183.1821210937498
 10
50.62154405381942
 20
182.1913391927082
 10
50.62912326388889
 20
181.4629908854165
 10
50.62912326388889
 20
180.9964422743054
 10
50.62912326388889
 20
180.9964422743054
 10
50.62912326388889
 20
169.3358964843748
 10
50.62912326388889
 20
169.3358964843748
 10
50.62912326388889
 20
169.3358964843748
 10
49.39440104166666
 20
169.3358964843748
 10
49.39440104166666
 20
169.3358964843748
 10
49.39440104166666
 20
169.3358964843748
 10
49.39440104166666
 20
189.0932159288193
 10
49.39440104166666
 20
189.0932159288193
 97
        1
330
31E
 75
     0
 76
     1
 98
        1
 10
0.0
 20
0.0
  0
HATCH
  5
337
330
319
100
AcDbEntity
  8
0
  6
Continuous
100
AcDbHatch
 10
0.0
 20
0.0
 30
0.0
210
0.0
220
0.0
230
1.0
  2
SOLID
 70
     1
 71
     1
 91
        2
 92
       16
 93
        1
 72
     4
 94
        3
 73
     0
 74
     0
 95
       32
 96
       28
 40
0.0
 40
0.0
 40
0.0
 40
0.0
 40
1.0
 40
1.0
 40
1.0
 40
2.0
 40
2.0
 40
2.0
 40
3.0
 40
3.0
 40
3.0
 40
4.0
 40
4.0
 40
4.0
 40
5.0
 40
5.0
 40
5.0
 40
6.0
 40
6.0
 40
6.0
 40
7.0
 40
7.0
 40
7.0
 40
8.0
 40
8.0
 40
8.0
 40
9.0
 40
9.0
 40
9.0
 40
9.0
 10
91.70051812065969
 20
171.6077853732634
 10
91.70051812065969
 20
171.6077853732634
 10
91.70051812065969
 20
186.7401881510414
 10
91.70051812065969
 20
186.7401881510414
 10
91.70051812065969
 20
186.7401881510414
 10
93.98668348524305
 20
186.7401881510414
 10
93.98668348524305
 20
186.7401881510414
 10
95.02159016927082
 20
186.7401881510414
 10
95.77331000434028
 20
186.0644533420137
 10
96.24322102864582
 20
184.7142515190969
 10
96.71313205295138
 20
183.3640496961804
 10
96.94808756510417
 20
181.4680620659721
 10
96.94808756510417
 20
179.0262886284719
 10
96.94808756510417
 20
178.3911232638887
 10
96.91432562934028
 20
177.7027105034721
 10
96.84749077690971
 20
176.9604164496524
 10
96.7324245876736
 20
175.7167094184024
 10
96.55052354600693
 20
174.6974021267359
 10
96.30109863281248
 20
173.901860677083
 10
95.98414984809028
 20
172.9091770833332
 10
95.57693956163193
 20
172.2378795572914
 10
95.07877875434026
 20
171.8892358940971
 10
94.79076877170138
 20
171.7016022135415
 10
94.43178982204859
 20
171.6077853732634
 10
94.00115288628471
 20
171.6077853732634
 10
94.00115288628471
 20
171.6077853732634
 10
91.70051812065969
 20
171.6077853732634
 10
91.70051812065969
 20
171.6077853732634
 97
        1
330
323
 92
        1
 93
        1
 72
     4
 94
        3
 73
     0
 74
     0
 95
       26
 96
       22
 40
0.0
 40
0.0
 40
0.0
 40
0.0
 40
1.0
 40
1.0
 40
1.0
 40
2.0
 40
2.0
 40
2.0
 40
3.0
 40
3.0
 40
3.0
 40
4.0
 40
4.0
 40
4.0
 40
5.0
 40
5.0
 40
5.0
 40
6.0
 40
6.0
 40
6.0
 40
7.0
 40
7.0
 40
7.0
 40
7.0
 10
90.37760145399305
 20
169.3358964843748
 10
90.37760145399305
 20
169.3358964843748
 10
94.22990722656248
 20
169.3358964843748
 10
94.22990722656248
 20
169.3358964843748
 10
95.87115071614581
 20
169.3358964843748
 10
97.03008083767359
 20
170.8331625434026
 10
97.70600857204859
 20
173.8283285590274
 10
98.08221299913194
 20
175.5227367621523
 10
98.27100423177082
 20
177.4187243923609
 10
98.27100423177082
 20
179.5169253472221
 10
98.27100423177082
 20
182.233810329861
 10
97.94716525607638
 20
184.4619602864582
 10
97.30086534288195
 20
186.2013752170135
 10
96.57601725260416
 20
188.129057725694
 10
95.5576470269097
 20
189.0932159288193
 10
94.24437662760416
 20
189.0932159288193
 10
94.24437662760416
 20
189.0932159288193
 10
90.37760145399305
 20
189.0932159288193
 10
90.37760145399305
 20
189.0932159288193
 10
90.37760145399305
 20
189.0932159288193
 10
90.37760145399305
 20
169.3358964843748
 10
90.37760145399305
 20
169.3358964843748
 97
        0
 75
     0
 76
     1
 98
        0
  0
HATCH
  5
338
330
319
100
AcDbEntity
  8
0
  6
Continuous
100
AcDbHatch
 10
0.0
 20
0.0
 30
0.0
210
0.0
220
0.0
230
1.0
  2
SOLID
 70
     1
 71
     1
 91
        2
 92
       16
 93
        1
 72
     4
 94
        3
 73
     0
 74
     0
 95
       26
 96
       22
 40
0.0
 40
0.0
 40
0.0
 40
0.0
 40
1.0
 40
1.0
 40
1.0
 40
2.0
 40
2.0
 40
2.0
 40
3.0
 40
3.0
 40
3.0
 40
4.0
 40
4.0
 40
4.0
 40
5.0
 40
5.0
 40
5.0
 40
6.0
 40
6.0
 40
6.0
 40
7.0
 40
7.0
 40
7.0
 40
7.0
 10
100.5623372395832
 20
180.046229817708
 10
100.5623372395832
 20
180.046229817708
 10
100.5623372395832
 20
186.7401881510414
 10
100.5623372395832
 20
186.7401881510414
 10
100.5623372395832
 20
186.7401881510414
 10
103.6732584635416
 20
186.7401881510414
 10
103.6732584635416
 20
186.7401881510414
 10
104.1107855902777
 20
186.7401881510414
 10
104.4580512152777
 20
186.6064357638887
 10
104.7150553385415
 20
186.3401987847217
 10
105.2097710503471
 20
185.8330807291664
 10
105.4571289062496
 20
184.8822343749995
 10
105.4571289062496
 20
183.4863919270832
 10
105.4571289062496
 20
182.188169704861
 10
105.280740017361
 20
181.2905707465276
 10
104.9286512586804
 20
180.7929611545137
 10
104.5765624999999
 20
180.2947176649304
 10
104.1011393229166
 20
180.046229817708
 10
103.5023817274304
 20
180.046229817708
 10
103.5023817274304
 20
180.046229817708
 10
100.5623372395832
 20
180.046229817708
 10
100.5623372395832
 20
180.046229817708
 97
        1
330
324
 92
        1
 93
        1
 72
     4
 94
        3
 73
     0
 74
     0
 95
       68
 96
       64
 40
0.0
 40
0.0
 40
0.0
 40
0.0
 40
1.0
 40
1.0
 40
1.0
 40
2.0
 40
2.0
 40
2.0
 40
3.0
 40
3.0
 40
3.0
 40
4.0
 40
4.0
 40
4.0
 40
5.0
 40
5.0
 40
5.0
 40
6.0
 40
6.0
 40
6.0
 40
7.0
 40
7.0
 40
7.0
 40
8.0
 40
8.0
 40
8.0
 40
9.0
 40
9.0
 40
9.0
 40
10.0
 40
10.0
 40
10.0
 40
11.0
 40
11.0
 40
11.0
 40
12.0
 40
12.0
 40
12.0
 40
13.0
 40
13.0
 40
13.0
 40
14.0
 40
14.0
 40
14.0
 40
15.0
 40
15.0
 40
15.0
 40
16.0
 40
16.0
 40
16.0
 40
17.0
 40
17.0
 40
17.0
 40
18.0
 40
18.0
 40
18.0
 40
19.0
 40
19.0
 40
19.0
 40
20.0
 40
20.0
 40
20.0
 40
21.0
 40
21.0
 40
21.0
 40
21.0
 10
99.23942057291661
 20
169.3358964843748
 10
99.23942057291661
 20
169.3358964843748
 10
100.5623372395832
 20
169.3358964843748
 10
100.5623372395832
 20
169.3358964843748
 10
100.5623372395832
 20
169.3358964843748
 10
100.5623372395832
 20
177.8149103732637
 10
100.5623372395832
 20
177.8149103732637
 10
100.5623372395832
 20
177.8149103732637
 10
103.4472601996527
 20
177.8149103732637
 10
103.4472601996527
 20
177.8149103732637
 10
103.9681586371527
 20
177.8149103732637
 10
104.3519422743053
 20
177.6938359374998
 10
104.5986111111109
 20
177.4516870659718
 10
105.0244249131943
 20
177.0117621527776
 10
105.2518012152777
 20
176.1458580729164
 10
105.280740017361
 20
174.8539748263887
 10
105.280740017361
 20
174.8539748263887
 10
105.3689344618053
 20
171.5564396701385
 10
105.3689344618053
 20
171.5564396701385
 10
105.3882269965277
 20
170.7843524305554
 10
105.4109646267359
 20
170.2639225260415
 10
105.4357693142359
 20
169.9951499565971
 10
105.4605740017358
 20
169.725743489583
 10
105.4970920138888
 20
169.5057810329859
 10
105.5467013888887
 20
169.3358964843748
 10
105.5467013888887
 20
169.3358964843748
 10
107.1769205729166
 20
169.3358964843748
 10
107.1769205729166
 20
169.3358964843748
 10
107.1769205729166
 20
169.3358964843748
 10
107.1769205729166
 20
169.7821603732634
 10
107.1769205729166
 20
169.7821603732634
 10
106.9750379774303
 20
169.9609194878471
 10
106.8337890624996
 20
170.3628105468748
 10
106.7538628472221
 20
170.9878335503471
 10
106.7028754340274
 20
171.3542263454858
 10
106.6677354600692
 20
171.9120562065971
 10
106.6477539062496
 20
172.6625909288193
 10
106.6477539062496
 20
172.6625909288193
 10
106.6036566840277
 20
175.3205234374999
 10
106.6036566840277
 20
175.3205234374999
 10
106.5836751302082
 20
176.4716814236109
 10
106.4768771701387
 20
177.3033550347219
 10
106.2839518229166
 20
177.814276475694
 10
106.0903374565971
 20
178.3251979166665
 10
105.8002604166666
 20
178.7372313368054
 10
105.4130316840276
 20
179.0516445312498
 10
105.8443576388885
 20
179.5086846788193
 10
106.179909939236
 20
180.1134229600693
 10
106.4196885850692
 20
180.866493272569
 10
106.6594672309027
 20
181.6189296874999
 10
106.7800455729166
 20
182.5868912760412
 10
106.7800455729166
 20
183.7697441406248
 10
106.7800455729166
 20
186.0371957465273
 10
106.3328721788193
 20
187.5921464843749
 10
105.4392144097221
 20
188.4345963541665
 10
104.9679253472221
 20
188.8732534722221
 10
104.3719238281249
 20
189.0932159288193
 10
103.6512098524303
 20
189.0932159288193
 10
103.6512098524303
 20
189.0932159288193
 10
99.23942057291661
 20
189.0932159288193
 10
99.23942057291661
 20
189.0932159288193
 10
99.23942057291661
 20
189.0932159288193
 10
99.23942057291661
 20
169.3358964843748
 10
99.23942057291661
 20
169.3358964843748
 97
        0
 75
     0
 76
     1
 98
        0
  0
HATCH
  5
339
330
319
100
AcDbEntity
  8
0
  6
Continuous
100
AcDbHatch
 10
0.0
 20
0.0
 30
0.0
210
0.0
220
0.0
230
1.0
  2
SOLID
 70
     1
 71
     1
 91
        2
 92
        1
 93
        8
 72
     1
 10
35.47828233506943
 20
189.0932159288193
 11
31.83957248263888
 21
169.3358964843748
 72
     1
 10
31.83957248263888
 20
169.3358964843748
 11
33.22450086805555
 21
169.3358964843748
 72
     1
 10
33.22450086805555
 20
169.3358964843748
 11
34.27043185763887
 21
175.2590353732638
 72
     1
 10
34.27043185763887
 20
175.2590353732638
 11
38.04694552951389
 21
175.2590353732638
 72
     1
 10
38.04694552951389
 20
175.2590353732638
 11
39.05015733506942
 21
169.3358964843748
 72
     1
 10
39.05015733506942
 20
169.3358964843748
 11
40.43508572048611
 21
169.3358964843748
 72
     1
 10
40.43508572048611
 20
169.3358964843748
 11
36.952783203125
 21
189.0932159288193
 72
     1
 10
36.952783203125
 20
189.0932159288193
 11
35.47828233506943
 21
189.0932159288193
 97
        8
330
334
330
32D
330
32E
330
32F
330
330
330
331
330
332
330
333
 92
       16
 93
        3
 72
     1
 10
37.67556423611111
 20
177.4497853732638
 11
34.65766059027778
 21
177.4497853732638
 72
     1
 10
34.65766059027778
 20
177.4497853732638
 11
36.19830729166666
 21
186.1658769531249
 72
     1
 10
36.19830729166666
 20
186.1658769531249
 11
37.67556423611111
 21
177.4497853732638
 97
        3
330
32C
330
32A
330
32B
 75
     0
 76
     1
 98
        1
 10
0.0
 20
0.0
  0
HATCH
  5
33A
330
319
100
AcDbEntity
  8
0
  6
Continuous
100
AcDbHatch
 10
0.0
 20
0.0
 30
0.0
210
0.0
220
0.0
230
1.0
  2
SOLID
 70
     1
 71
     1
 91
        1
 92
        1
 93
        1
 72
     4
 94
        3
 73
     0
 74
     0
 95
      113
 96
      109
 40
0.0
 40
0.0
 40
0.0
 40
0.0
 40
1.0
 40
1.0
 40
1.0
 40
2.0
 40
2.0
 40
2.0
 40
3.0
 40
3.0
 40
3.0
 40
4.0
 40
4.0
 40
4.0
 40
5.0
 40
5.0
 40
5.0
 40
6.0
 40
6.0
 40
6.0
 40
7.0
 40
7.0
 40
7.0
 40
8.0
 40
8.0
 40
8.0
 40
9.0
 40
9.0
 40
9.0
 40
10.0
 40
10.0
 40
10.0
 40
11.0
 40
11.0
 40
11.0
 40
12.0
 40
12.0
 40
12.0
 40
13.0
 40
13.0
 40
13.0
 40
14.0
 40
14.0
 40
14.0
 40
15.0
 40
15.0
 40
15.0
 40
16.0
 40
16.0
 40
16.0
 40
17.0
 40
17.0
 40
17.0
 40
18.0
 40
18.0
 40
18.0
 40
19.0
 40
19.0
 40
19.0
 40
20.0
 40
20.0
 40
20.0
 40
21.0
 40
21.0
 40
21.0
 40
22.0
 40
22.0
 40
22.0
 40
23.0
 40
23.0
 40
23.0
 40
24.0
 40
24.0
 40
24.0
 40
25.0
 40
25.0
 40
25.0
 40
26.0
 40
26.0
 40
26.0
 40
27.0
 40
27.0
 40
27.0
 40
28.0
 40
28.0
 40
28.0
 40
29.0
 40
29.0
 40
29.0
 40
30.0
 40
30.0
 40
30.0
 40
31.0
 40
31.0
 40
31.0
 40
32.0
 40
32.0
 40
32.0
 40
33.0
 40
33.0
 40
33.0
 40
34.0
 40
34.0
 40
34.0
 40
35.0
 40
35.0
 40
35.0
 40
36.0
 40
36.0
 40
36.0
 40
36.0
 10
193.3039632161458
 20
186.1548733181423
 10
193.3039632161458
 20
186.1860514322916
 10
193.3039632161458
 20
219.6932223849826
 10
193.3039632161458
 20
219.6932223849826
 10
193.3039632161458
 20
219.6932223849826
 10
193.2974175347219
 20
219.7488606770833
 10
193.2974175347219
 20
219.7488606770833
 10
191.5293945312499
 20
235.455740017361
 10
175.1458984374999
 20
235.2467949761284
 10
174.9808783637151
 20
235.2428331163193
 10
174.9808783637151
 20
235.2428331163193
 10
125.8827555338541
 20
235.2430053710937
 10
125.8827555338541
 20
235.2430053710937
 10
125.8827555338541
 20
235.2430053710937
 10
125.8827555338541
 20
255.5278998480901
 10
125.8827555338541
 20
255.5278998480901
 10
125.8827555338541
 20
255.5278998480901
 10
84.5626247829861
 20
255.5278998480901
 10
84.5626247829861
 20
255.5278998480901
 10
84.5626247829861
 20
255.5278998480901
 10
84.55711263020829
 20
233.7919311523436
 10
84.55711263020829
 20
233.7919311523436
 10
84.55711263020829
 20
233.7919311523436
 10
64.42052951388888
 20
233.7919311523436
 10
64.42052951388888
 20
233.7919311523436
 10
64.42052951388888
 20
233.7919311523436
 10
64.41501736111111
 20
255.5278998480901
 10
64.41501736111111
 20
255.5278998480901
 10
64.41501736111111
 20
255.5278998480901
 10
23.91757541232637
 20
255.5278998480901
 10
23.91757541232637
 20
255.5278998480901
 10
23.91757541232637
 20
255.5278998480901
 10
23.91757541232637
 20
233.2393378363715
 10
23.91757541232637
 20
233.2393378363715
 10
23.91757541232637
 20
233.2393378363715
 10
43.65624999999999
 20
233.2393378363715
 10
43.65624999999999
 20
233.2393378363715
 10
43.65624999999999
 20
233.2393378363715
 10
43.65624999999999
 20
211.5188720703125
 10
43.65624999999999
 20
211.5188720703125
 10
43.65624999999999
 20
211.5188720703125
 10
23.91757541232637
 20
211.5188720703125
 10
23.91757541232637
 20
211.5188720703125
 10
23.91757541232637
 20
211.5188720703125
 10
23.91757541232637
 20
189.2303100585936
 10
23.91757541232637
 20
189.2303100585936
 10
23.91757541232637
 20
189.2303100585936
 10
64.41501736111111
 20
189.2303100585936
 10
64.41501736111111
 20
189.2303100585936
 10
64.41501736111111
 20
189.2303100585936
 10
64.42052951388888
 20
211.069976128472
 10
64.42052951388888
 20
211.069976128472
 10
64.42052951388888
 20
211.069976128472
 10
84.55711263020829
 20
211.069976128472
 10
84.55711263020829
 20
211.069976128472
 10
84.55711263020829
 20
211.069976128472
 10
84.5626247829861
 20
189.2303100585936
 10
84.5626247829861
 20
189.2303100585936
 10
84.5626247829861
 20
189.2303100585936
 10
125.8827555338541
 20
189.2303100585936
 10
125.8827555338541
 20
189.2303100585936
 10
125.8827555338541
 20
189.2303100585936
 10
125.8827555338541
 20
211.5188720703125
 10
125.8827555338541
 20
211.5188720703125
 10
125.8827555338541
 20
211.5188720703125
 10
105.3213921440971
 20
211.5188720703125
 10
105.3213921440971
 20
211.5188720703125
 10
105.3213921440971
 20
211.5188720703125
 10
105.3213921440971
 20
233.2393378363715
 10
105.3213921440971
 20
233.2393378363715
 10
105.3213921440971
 20
233.2393378363715
 10
175.0046495225693
 20
233.243127441406
 10
175.0046495225693
 20
233.243127441406
 10
175.6268337673611
 20
233.2560465494791
 10
189.7165852864583
 20
233.3962619357638
 10
191.3037407769094
 20
219.5690266927083
 10
191.3037407769094
 20
219.4332899305555
 10
191.3037407769094
 20
186.1142211914062
 10
191.3037407769094
 20
186.1142211914062
 10
191.3037407769094
 20
186.1142211914062
 10
191.3051188151039
 20
186.0880384657115
 10
191.3051188151039
 20
186.0880384657115
 10
191.3054633246526
 20
186.0787367078991
 10
191.3109754774304
 20
185.9566080729166
 10
191.3109754774304
 20
185.7399115668401
 10
191.3109754774304
 20
184.2090833875865
 10
191.0488037109374
 20
177.9643310546874
 10
186.9866916232638
 20
173.5652886284722
 10
184.2540418836804
 20
170.6064683702255
 10
180.3224989149304
 20
169.0308539496526
 10
175.300927734375
 20
168.8825425889756
 10
175.300927734375
 20
168.8825425889756
 10
107.0094889322916
 20
168.8828870985243
 10
107.0094889322916
 20
168.8828870985243
 10
107.0094889322916
 20
168.8828870985243
 10
107.0094889322916
 20
166.8830091688368
 10
107.0094889322916
 20
166.8830091688368
 10
107.0094889322916
 20
166.8830091688368
 10
175.3305555555555
 20
166.8830091688368
 10
175.3305555555555
 20
166.8830091688368
 10
180.9467502170138
 20
167.0485460069444
 10
185.3571614583333
 20
168.8448187934026
 10
188.4687717013888
 20
172.2223904079861
 10
192.9649658203124
 20
177.1034016927083
 10
193.3136094835069
 20
183.7202243381076
 10
193.3136094835069
 20
185.6520616319443
 10
193.3136094835069
 20
185.9247409396701
 10
193.3070638020833
 20
186.0868326822916
 10
193.3039632161458
 20
186.1548733181423
 97
        1
330
31A
 75
     0
 76
     1
 98
        1
 10
0.0
 20
0.0
  0
HATCH
  5
33B
330
319
100
AcDbEntity
  8
0
  6
Continuous
100
AcDbHatch
 10
0.0
 20
0.0
 30
0.0
210
0.0
220
0.0
230
1.0
  2
SOLID
 70
     1
 71
     1
 91
        2
 92
        1
 93
        1
 72
     4
 94
        3
 73
     0
 74
     0
 95
       23
 96
       19
 40
0.0
 40
0.0
 40
0.0
 40
0.0
 40
1.0
 40
1.0
 40
1.0
 40
2.0
 40
2.0
 40
2.0
 40
3.0
 40
3.0
 40
3.0
 40
4.0
 40
4.0
 40
4.0
 40
5.0
 40
5.0
 40
5.0
 40
6.0
 40
6.0
 40
6.0
 40
6.0
 10
148.6593153211804
 20
211.3929538302948
 10
148.6593153211804
 20
211.3929538302948
 10
148.6593153211804
 20
189.6308024088539
 10
148.6593153211804
 20
189.6308024088539
 10
148.6593153211804
 20
189.6308024088539
 10
161.3152180989583
 20
189.6308024088539
 10
161.3152180989583
 20
189.6308024088539
 10
162.8431179470483
 20
189.6308024088539
 10
170.4657362196178
 20
190.1880466037321
 10
170.4657362196178
 20
201.1911648220483
 10
170.4657362196178
 20
211.1288872612844
 10
162.3356553819444
 20
211.3914035373261
 10
162.2536621093749
 20
211.3927815755205
 10
162.2536621093749
 20
211.3927815755205
 10
149.6594265407986
 20
211.3929538302948
 10
149.6594265407986
 20
211.3929538302948
 10
149.6594265407986
 20
211.3929538302948
 10
148.6593153211804
 20
211.3929538302948
 10
148.6593153211804
 20
211.3929538302948
 97
        1
330
31B
 92
       16
 93
        1
 72
     4
 94
        3
 73
     0
 74
     0
 95
       20
 96
       16
 40
0.0
 40
0.0
 40
0.0
 40
0.0
 40
1.0
 40
1.0
 40
1.0
 40
2.0
 40
2.0
 40
2.0
 40
3.0
 40
3.0
 40
3.0
 40
4.0
 40
4.0
 40
4.0
 40
5.0
 40
5.0
 40
5.0
 40
5.0
 10
162.2354031032983
 20
209.3930759006072
 10
162.467947048611
 20
209.3861857096351
 10
168.4655137803819
 20
209.1283203124997
 10
168.4655137803819
 20
201.1911648220483
 10
168.4655137803819
 20
192.3202162000865
 10
162.9926350911458
 20
191.6306803385413
 10
161.3152180989583
 20
191.6306803385413
 10
161.3152180989583
 20
191.6306803385413
 10
152.3310980902776
 20
191.6306803385413
 10
150.6595377604166
 20
191.6306803385413
 10
150.6595377604166
 20
193.3373806423608
 10
150.6595377604166
 20
207.6863755967879
 10
150.6595377604166
 20
209.3930759006072
 10
152.3538357204859
 20
209.3930759006072
 10
162.2354031032983
 20
209.3930759006072
 10
162.2354031032983
 20
209.3930759006072
 97
        0
 75
     0
 76
     1
 98
        0
  0
ENDBLK
  5
33D
330
319
100
AcDbEntity
  8
0
100
AcDbBlockEnd
  0
BLOCK
  5
340
330
33E
100
AcDbEntity
  8
0
100
AcDbBlockBegin
  2
HD logo-new
 70
     0
 10
0.0
 20
0.0
 30
0.0
  3
HD logo-new
  1

  0
INSERT
  5
33F
330
33E
100
AcDbEntity
  8
0
 62
     3
100
AcDbBlockReference
  2
HD_LLC_logo_OT5
 10
-27.1607188578505
 20
-68.37367811463031
 30
0.0
 41
0.2999999999999971
 42
0.3000000000000007
 43
0.3
  0
ENDBLK
  5
341
330
33E
100
AcDbEntity
  8
0
100
AcDbBlockEnd
  0
BLOCK
  5
344
330
342
100
AcDbEntity
  8
0
100
AcDbBlockBegin
  2
HD Logo
 70
     0
 10
0.0
 20
0.0
 30
0.0
  3
HD Logo
  1

  0
INSERT
  5
343
330
342
100
AcDbEntity
  8
0
100
AcDbBlockReference
  2
HD logo-new
 10
0.9700256734946606
 20
7.273795608420527
 30
0.0
  0
ENDBLK
  5
345
330
342
100
AcDbEntity
  8
0
100
AcDbBlockEnd
  0
BLOCK
  5
356
330
353
100
AcDbEntity
  8
0
100
AcDbBlockBegin
  2
NTC
 70
     0
 10
0.0
 20
0.0
 30
0.0
  3
NTC
  1

  0
LWPOLYLINE
  5
354
330
353
100
AcDbEntity
  8
0
100
AcDbPolyline
 90
        8
 70
     1
 43
0.0
 10
4.581008201925953
 20
-10.78862239032818
 10
319.3921777697513
 20
-10.78862239032818
 42
-0.4142135623730951
 10
324.9046777697513
 20
-16.30112239032816
 10
324.9046777697513
 20
-117.4075202476924
 42
-0.4142135623730951
 10
319.3921777697513
 20
-122.9200202476925
 10
4.581008201925838
 20
-122.9200202476925
 42
-0.4142135623730951
 10
-0.9314917980741483
 20
-117.4075202476924
 10
-0.9314917980740915
 20
-16.30112239032816
 42
-0.4142135623730951
  0
MTEXT
  5
355
330
353
100
AcDbEntity
  8
0
  6
Continuous
370
    30
100
AcDbMText
 10
21.65307678143926
 20
-17.4535155144544
 30
0.0
 40
8.75
 41
294.5432999999998
 71
     1
 72
     5
  3
{\fTxt|b1|i0|c0|p2;Notice:\P\Ftxt.shx;\H0.5714x;All specifications and dimensions shown in the drawing are subject to change without notice. This drawing is the property of Harmonic Drive LLC.   This data is believed to be accurate, however, Harmonic
  1
 Drive LLC assumes no liability for any errors or omissions in the specifications, models, or drawings.\P\PHarmonic Drive LLC\PTel: 800-921-3332\Pwww.harmonicdrive.net}
 73
     1
 44
1.0
  0
ENDBLK
  5
357
330
353
100
AcDbEntity
  8
0
100
AcDbBlockEnd
  0
ENDSEC
  0
SECTION
  2
ENTITIES
  0
POINT
  5
5F
330
1E
100
AcDbEntity
  8
0
  6
DASHED
 62
     7
100
AcDbPoint
 10
-24.5000000602552
 20
-53.0
 30
0.0
  0
POINT
  5
60
330
1E
100
AcDbEntity
  8
0
  6
DASHED
 62
     7
100
AcDbPoint
 10
-24.5000000602552
 20
53.0
 30
0.0
  0
POINT
  5
61
330
1E
100
AcDbEntity
  8
0
  6
DASHED
 62
     7
100
AcDbPoint
 10
27.49999999986488
 20
53.0
 30
0.0
  0
POINT
  5
62
330
1E
100
AcDbEntity
  8
0
  6
DASHED
 62
     4
100
AcDbPoint
 10
27.49999999986488
 20
-53.0
 30
0.0
  0
POINT
  5
63
330
1E
100
AcDbEntity
  8
0
  6
DASHED
 62
     7
100
AcDbPoint
 10
25.4999999998478
 20
-67.09999899214309
 30
0.0
  0
POINT
  5
64
330
1E
100
AcDbEntity
  8
0
  6
DASHED
 62
     4
100
AcDbPoint
 10
27.49999999986488
 20
-53.0
 30
0.0
  0
POINT
  5
65
330
1E
100
AcDbEntity
  8
0
  6
DASHED
 62
     7
100
AcDbPoint
 10
-24.5000000602552
 20
-53.0
 30
0.0
  0
POINT
  5
66
330
1E
100
AcDbEntity
  8
0
  6
DASHED
 62
     7
100
AcDbPoint
 10
8.49999993974478
 20
-67.09999899214309
 30
0.0
  0
LINE
  5
6B
330
1E
100
AcDbEntity
  8
1
  6
DIVIDE
 62
     4
100
AcDbLine
 10
27.49999999986488
 20
53.0
 30
0.0
 11
25.499999999875
 21
53.0
 31
0.0
  0
LINE
  5
6C
330
1E
100
AcDbEntity
  8
1
  6
DIVIDE
 62
     4
100
AcDbLine
 10
27.49999999986478
 20
38.16062863440729
 30
0.0
 11
27.49999999986488
 21
53.0
 31
0.0
  0
LINE
  5
6D
330
1E
100
AcDbEntity
  8
1
  6
DIVIDE
 62
     4
100
AcDbLine
 10
-24.5000000602552
 20
53.0
 30
0.0
 11
-10.5653930451527
 21
53.0
 31
0.0
  0
LINE
  5
6E
330
1E
100
AcDbEntity
  8
1
  6
DIVIDE
 62
     4
100
AcDbLine
 10
-24.5000000602552
 20
40.2178450045272
 30
0.0
 11
-24.5000000602552
 21
53.0
 31
0.0
  0
LINE
  5
6F
330
1E
100
AcDbEntity
  8
1
 62
     7
100
AcDbLine
 10
-21.4
 20
46.58
 30
0.0
 11
-21.4
 21
-46.58
 31
0.0
  0
LINE
  5
70
330
1E
100
AcDbEntity
  8
1
 62
     7
100
AcDbLine
 10
-25.5
 20
31.5
 30
0.0
 11
-25.5
 21
-31.5
 31
0.0
  0
LINE
  5
71
330
1E
100
AcDbEntity
  8
1
 62
     7
100
AcDbLine
 10
-25.5
 20
-25.6
 30
0.0
 11
-21.4
 21
-25.6
 31
0.0
  0
LINE
  5
72
330
1E
100
AcDbEntity
  8
1
 62
     7
100
AcDbLine
 10
-25.5
 20
-30.4
 30
0.0
 11
-21.4
 21
-30.4
 31
0.0
  0
LINE
  5
73
330
1E
100
AcDbEntity
  8
1
  6
CENTER
 62
     3
100
AcDbLine
 10
-26.3
 20
-28.0
 30
0.0
 11
-20.6
 21
-28.0
 31
0.0
  0
LINE
  5
74
330
1E
100
AcDbEntity
  8
1
 62
     3
100
AcDbLine
 10
-25.5
 20
-25.0
 30
0.0
 11
-21.4
 21
-25.0
 31
0.0
  0
LINE
  5
75
330
1E
100
AcDbEntity
  8
1
 62
     3
100
AcDbLine
 10
-25.5
 20
-31.0
 30
0.0
 11
-21.4
 21
-31.0
 31
0.0
  0
LINE
  5
76
330
1E
100
AcDbEntity
  8
1
  6
DIVIDE
 62
     4
100
AcDbLine
 10
-24.5000000602552
 20
-53.0
 30
0.0
 11
-24.5000000602552
 21
-40.2178450045273
 31
0.0
  0
LINE
  5
77
330
1E
100
AcDbEntity
  8
1
  6
DIVIDE
 62
     4
100
AcDbLine
 10
-10.5653930451527
 20
-53.0
 30
0.0
 11
-24.5000000602552
 21
-53.0
 31
0.0
  0
LINE
  5
78
330
1E
100
AcDbEntity
  8
1
  6
DIVIDE
 62
     4
100
AcDbLine
 10
27.49999999986488
 20
-53.0
 30
0.0
 11
27.49999999986478
 21
-38.16062863440729
 31
0.0
  0
LINE
  5
79
330
1E
100
AcDbEntity
  8
0
 62
     7
100
AcDbLine
 10
25.49999999988189
 20
-50.8456854163923
 30
0.0
 11
25.4999999998631
 21
-56.6999999999999
 31
0.0
  0
LINE
  5
7A
330
1E
100
AcDbEntity
  8
1
  6
DIVIDE
 62
     4
100
AcDbLine
 10
25.499999999875
 20
-53.0
 30
0.0
 11
27.49999999986488
 21
-53.0
 31
0.0
  0
LINE
  5
7B
330
1E
100
AcDbEntity
  8
1
  6
CENTER
 62
     3
100
AcDbLine
 10
-28.6154769142907
 20
25.0
 30
0.0
 11
-18.8481360592957
 21
25.0
 31
0.0
  0
LINE
  5
7C
330
1E
100
AcDbEntity
  8
1
 62
     7
100
AcDbLine
 10
-25.5
 20
19.5
 30
0.0
 11
-21.4
 21
19.5
 31
0.0
  0
LINE
  5
7D
330
1E
100
AcDbEntity
  8
1
 62
     7
100
AcDbLine
 10
-25.5
 20
30.5
 30
0.0
 11
-21.4
 21
30.5
 31
0.0
  0
LINE
  5
7E
330
1E
100
AcDbEntity
  8
1
  6
CENTER
 62
     3
100
AcDbLine
 10
-31.78276809109469
 20
0.0000000000000284
 30
0.0
 11
34.03905131112037
 21
0.0000000000000284
 31
0.0
  0
LINE
  5
7F
330
1E
100
AcDbEntity
  8
1
 62
     7
100
AcDbLine
 10
20.2999999999999
 20
51.214
 30
0.0
 11
15.5
 21
51.214
 31
0.0
  0
LINE
  5
80
330
1E
100
AcDbEntity
  8
1
 62
     7
100
AcDbLine
 10
20.2999999999999
 20
51.214
 30
0.0
 11
24.1294455454838
 21
51.1705544545162
 31
0.0
  0
LINE
  5
81
330
1E
100
AcDbEntity
  8
1
 62
     7
100
AcDbLine
 10
15.5
 20
51.214
 30
0.0
 11
7.491006316504931
 21
51.11618911717293
 31
0.0
  0
LINE
  5
82
330
1E
100
AcDbEntity
  8
1
 62
     7
100
AcDbLine
 10
-19.202
 20
49.7819999999999
 30
0.0
 11
-3.124000000000138
 21
49.782
 31
0.0
  0
LINE
  5
83
330
1E
100
AcDbEntity
  8
1
 62
     7
100
AcDbLine
 10
-25.0
 20
32.0
 30
0.0
 11
-22.60199999999989
 21
32.0
 31
0.0
  0
LINE
  5
84
330
1E
100
AcDbEntity
  8
1
 62
     7
100
AcDbLine
 10
-25.0
 20
32.0
 30
0.0
 11
-25.5
 21
31.5
 31
0.0
  0
LINE
  5
85
330
1E
100
AcDbEntity
  8
1
 62
     7
100
AcDbLine
 10
-21.4
 20
16.0
 30
0.0
 11
-25.5
 21
16.0
 31
0.0
  0
LINE
  5
86
330
1E
100
AcDbEntity
  8
1
 62
     7
100
AcDbLine
 10
24.1294455454838
 20
51.1705544545162
 30
0.0
 11
25.44142135623719
 21
49.8585786437628
 31
0.0
  0
LINE
  5
87
330
1E
100
AcDbEntity
  8
1
 62
     7
100
AcDbLine
 10
25.5
 20
49.71715728752538
 30
0.0
 11
25.5
 21
36.8158519033967
 31
0.0
  0
LINE
  5
88
330
1E
100
AcDbEntity
  8
1
 62
     7
100
AcDbLine
 10
25.3104671912485
 20
49.1329563415317
 30
0.0
 11
24.2999999999999
 21
49.08
 31
0.0
  0
LINE
  5
89
330
1E
100
AcDbEntity
  8
1
 62
     7
100
AcDbLine
 10
24.2999999999999
 20
49.08
 30
0.0
 11
-19.0
 21
49.08
 31
0.0
  0
LINE
  5
8A
330
1E
100
AcDbEntity
  8
1
 62
     7
100
AcDbLine
 10
15.5
 20
-51.214
 30
0.0
 11
20.2999999999999
 21
-51.214
 31
0.0
  0
LINE
  5
8B
330
1E
100
AcDbEntity
  8
1
 62
     7
100
AcDbLine
 10
24.1294455454838
 20
-51.1705544545162
 30
0.0
 11
20.2999999999999
 21
-51.214
 31
0.0
  0
LINE
  5
8C
330
1E
100
AcDbEntity
  8
1
 62
     7
100
AcDbLine
 10
7.49100631650533
 20
-51.11618911717304
 30
0.0
 11
15.5
 21
-51.214
 31
0.0
  0
LINE
  5
8D
330
1E
100
AcDbEntity
  8
1
 62
     7
100
AcDbLine
 10
-22.60199999999989
 20
-32.0
 30
0.0
 11
-25.0
 21
-32.0
 31
0.0
  0
LINE
  5
8E
330
1E
100
AcDbEntity
  8
1
 62
     7
100
AcDbLine
 10
-25.5
 20
-31.5
 30
0.0
 11
-25.0
 21
-32.0
 31
0.0
  0
LINE
  5
8F
330
1E
100
AcDbEntity
  8
1
 62
     7
100
AcDbLine
 10
-25.5
 20
-16.0
 30
0.0
 11
-21.4
 21
-16.0
 31
0.0
  0
LINE
  5
90
330
1E
100
AcDbEntity
  8
1
 62
     7
100
AcDbLine
 10
25.44142135623719
 20
-49.8585786437628
 30
0.0
 11
24.1294455454838
 21
-51.1705544545162
 31
0.0
  0
LINE
  5
91
330
1E
100
AcDbEntity
  8
1
 62
     7
100
AcDbLine
 10
25.5
 20
-36.1996932082643
 30
0.0
 11
25.5
 21
-49.7171572875255
 31
0.0
  0
LINE
  5
92
330
1E
100
AcDbEntity
  8
1
 62
     7
100
AcDbLine
 10
24.2999999999999
 20
-49.08
 30
0.0
 11
25.3104671912485
 21
-49.1329563415317
 31
0.0
  0
LINE
  5
93
330
1E
100
AcDbEntity
  8
1
 62
     7
100
AcDbLine
 10
-19.0
 20
-49.08
 30
0.0
 11
24.2999999999999
 21
-49.08
 31
0.0
  0
LINE
  5
94
330
1E
100
AcDbEntity
  8
1
 62
     7
100
AcDbLine
 10
16.9803846977535
 20
57.6
 30
0.0
 11
17.49999994002418
 21
56.7
 31
0.0
  0
LINE
  5
95
330
1E
100
AcDbEntity
  8
1
 62
     7
100
AcDbLine
 10
17.49999994002418
 20
63.3000000000001
 30
0.0
 11
17.49999994002418
 21
56.7
 31
0.0
  0
LINE
  5
96
330
1E
100
AcDbEntity
  8
0
 62
     7
100
AcDbLine
 10
8.499999940024167
 20
67.0999989921432
 30
0.0
 11
8.499999940024167
 21
55.2999991693324
 31
0.0
  0
LINE
  5
97
330
1E
100
AcDbEntity
  8
1
 62
     7
100
AcDbLine
 10
8.499999940024167
 20
62.4
 30
0.0
 11
16.9803846977535
 21
62.4
 31
0.0
  0
LINE
  5
98
330
1E
100
AcDbEntity
  8
1
 62
     7
100
AcDbLine
 10
8.499999940024167
 20
57.6
 30
0.0
 11
16.9803846977535
 21
57.6
 31
0.0
  0
LINE
  5
99
330
1E
100
AcDbEntity
  8
1
  6
CENTER
 62
     3
100
AcDbLine
 10
30.634999864067
 20
60.0
 30
0.0
 11
3.500000015142688
 21
60.0
 31
0.0
  0
LINE
  5
9A
330
1E
100
AcDbEntity
  8
1
 62
     3
100
AcDbLine
 10
8.499999940024167
 20
63.0
 30
0.0
 11
17.3267948592673
 21
63.0
 31
0.0
  0
LINE
  5
9B
330
1E
100
AcDbEntity
  8
1
 62
     3
100
AcDbLine
 10
8.499999940024167
 20
57.0
 30
0.0
 11
17.3267948592673
 21
57.0
 31
0.0
  0
LINE
  5
9C
330
1E
100
AcDbEntity
  8
0
 62
     7
100
AcDbLine
 10
8.299999999901721
 20
16.2499997559379
 30
0.0
 11
8.299999999901721
 21
35.55999946596779
 31
0.0
  0
LINE
  5
9D
330
1E
100
AcDbEntity
  8
0
 62
     7
100
AcDbLine
 10
19.89999999990171
 20
35.55999946596779
 30
0.0
 11
19.89999999990171
 21
16.2499997559379
 31
0.0
  0
LINE
  5
9E
330
1E
100
AcDbEntity
  8
0
 62
     7
100
AcDbLine
 10
19.89999999990171
 20
16.2499997559379
 30
0.0
 11
8.299999999901721
 21
16.2499997559379
 31
0.0
  0
LINE
  5
9F
330
1E
100
AcDbEntity
  8
0
 62
     7
100
AcDbLine
 10
13.53500012779512
 20
16.2499997559379
 30
0.0
 11
13.53500012779512
 21
35.55999946596779
 31
0.0
  0
LINE
  5
A0
330
1E
100
AcDbEntity
  8
0
 62
     7
100
AcDbLine
 10
13.53500012779512
 20
20.7499996883621
 30
0.0
 11
8.299999999901721
 21
20.7499996883621
 31
0.0
  0
LINE
  5
A1
330
1E
100
AcDbEntity
  8
0
 62
     7
100
AcDbLine
 10
8.299999999901721
 20
-16.2499997559353
 30
0.0
 11
8.299999999901721
 21
-35.55999946594239
 31
0.0
  0
LINE
  5
A2
330
1E
100
AcDbEntity
  8
0
 62
     7
100
AcDbLine
 10
8.299999999901721
 20
-35.55999946594239
 30
0.0
 11
19.89999999990171
 21
-35.55999946594239
 31
0.0
  0
LINE
  5
A3
330
1E
100
AcDbEntity
  8
0
 62
     7
100
AcDbLine
 10
19.89999999990171
 20
-35.55999946594239
 30
0.0
 11
19.89999999990171
 21
-16.2499997559353
 31
0.0
  0
LINE
  5
A4
330
1E
100
AcDbEntity
  8
0
 62
     7
100
AcDbLine
 10
19.89999999990171
 20
-16.2499997559353
 30
0.0
 11
8.299999999901721
 21
-16.2499997559353
 31
0.0
  0
LINE
  5
A5
330
1E
100
AcDbEntity
  8
0
 62
     7
100
AcDbLine
 10
13.53500012779512
 20
-16.2499997559353
 30
0.0
 11
13.53500012779512
 21
-20.74999968835939
 31
0.0
  0
LINE
  5
A6
330
1E
100
AcDbEntity
  8
0
 62
     7
100
AcDbLine
 10
13.53500012779512
 20
-20.74999968835939
 30
0.0
 11
8.300000000120222
 21
-20.74999968835939
 31
0.0
  0
LINE
  5
A7
330
1E
100
AcDbEntity
  8
0
 62
     7
100
AcDbLine
 10
3.299999999901732
 20
18.99999971464889
 30
0.0
 11
3.299999999901732
 21
33.4999994968228
 31
0.0
  0
LINE
  5
A8
330
1E
100
AcDbEntity
  8
0
 62
     7
100
AcDbLine
 10
3.299999999901732
 20
33.4999994968228
 30
0.0
 11
4.735000259736721
 21
33.4999994968228
 31
0.0
  0
LINE
  5
A9
330
1E
100
AcDbEntity
  8
0
 62
     7
100
AcDbLine
 10
4.735000259736721
 20
33.4999994968228
 30
0.0
 11
4.735000259736721
 21
41.99999936918239
 31
0.0
  0
LINE
  5
AA
330
1E
100
AcDbEntity
  8
0
 62
     7
100
AcDbLine
 10
4.735000259736721
 20
41.99999936918239
 30
0.0
 11
6.735000229704214
 21
41.99999936918239
 31
0.0
  0
LINE
  5
AB
330
1E
100
AcDbEntity
  8
0
 62
     7
100
AcDbLine
 10
6.735000229704214
 20
41.99999936918239
 30
0.0
 11
6.735000229704214
 21
33.4999994968228
 31
0.0
  0
LINE
  5
AC
330
1E
100
AcDbEntity
  8
0
 62
     7
100
AcDbLine
 10
6.735000229704214
 20
33.4999994968228
 30
0.0
 11
13.33500013060912
 21
33.4999994968228
 31
0.0
  0
LINE
  5
AD
330
1E
100
AcDbEntity
  8
0
 62
     7
100
AcDbLine
 10
13.33500013060912
 20
33.4999994968228
 30
0.0
 11
13.33500013060912
 21
20.9999996845988
 31
0.0
  0
LINE
  5
AE
330
1E
100
AcDbEntity
  8
0
 62
     7
100
AcDbLine
 10
13.33500013060912
 20
20.9999996845988
 30
0.0
 11
7.835000213197224
 21
20.9999996845988
 31
0.0
  0
LINE
  5
AF
330
1E
100
AcDbEntity
  8
0
 62
     7
100
AcDbLine
 10
7.835000213197224
 20
16.9999997446507
 30
0.0
 11
3.799999992392203
 21
16.9999997446507
 31
0.0
  0
LINE
  5
B0
330
1E
100
AcDbEntity
  8
0
 62
     7
100
AcDbLine
 10
3.799999992392203
 20
15.99999975969859
 30
0.0
 11
3.799999992392203
 21
18.99999971464889
 31
0.0
  0
LINE
  5
B1
330
1E
100
AcDbEntity
  8
0
 62
     7
100
AcDbLine
 10
3.799999992392203
 20
18.99999971464889
 30
0.0
 11
3.299999999901732
 21
18.99999971464889
 31
0.0
  0
LINE
  5
B2
330
1E
100
AcDbEntity
  8
0
 62
     7
100
AcDbLine
 10
7.835000213197224
 20
16.9999997446507
 30
0.0
 11
7.835000213197224
 21
20.9999996845988
 31
0.0
  0
LINE
  5
B3
330
1E
100
AcDbEntity
  8
0
 62
     7
100
AcDbLine
 10
3.799999992392203
 20
-18.999999714598
 30
0.0
 11
-1.657999644124485
 21
-18.999999714598
 31
0.0
  0
LINE
  5
B4
330
1E
100
AcDbEntity
  8
0
 62
     7
100
AcDbLine
 10
-1.657999644124485
 20
-18.999999714598
 30
0.0
 11
-1.657999644124485
 21
-33.4999994967465
 31
0.0
  0
LINE
  5
B5
330
1E
100
AcDbEntity
  8
0
 62
     7
100
AcDbLine
 10
-1.657999644124485
 20
-33.4999994967465
 30
0.0
 11
4.735000259736721
 21
-33.4999994967465
 31
0.0
  0
LINE
  5
B6
330
1E
100
AcDbEntity
  8
0
 62
     7
100
AcDbLine
 10
4.735000259736721
 20
-33.4999994967465
 30
0.0
 11
4.735000259736721
 21
-41.9999993690553
 31
0.0
  0
LINE
  5
B7
330
1E
100
AcDbEntity
  8
0
 62
     7
100
AcDbLine
 10
4.735000259736721
 20
-41.9999993690553
 30
0.0
 11
6.735000229704214
 21
-41.9999993690553
 31
0.0
  0
LINE
  5
B8
330
1E
100
AcDbEntity
  8
0
 62
     7
100
AcDbLine
 10
6.735000229704214
 20
-41.9999993690553
 30
0.0
 11
6.735000229704214
 21
-33.4999994967465
 31
0.0
  0
LINE
  5
B9
330
1E
100
AcDbEntity
  8
0
 62
     7
100
AcDbLine
 10
6.735000229704214
 20
-33.4999994967465
 30
0.0
 11
8.299999999683222
 21
-33.4999994967465
 31
0.0
  0
LINE
  5
BA
330
1E
100
AcDbEntity
  8
0
 62
     7
100
AcDbLine
 10
7.835000213197224
 20
-16.99999974464298
 30
0.0
 11
3.799999992392203
 21
-16.99999974464298
 31
0.0
  0
LINE
  5
BB
330
1E
100
AcDbEntity
  8
0
 62
     7
100
AcDbLine
 10
3.799999992392203
 20
-15.99999975969089
 30
0.0
 11
3.799999992392203
 21
-18.999999714598
 31
0.0
  0
LINE
  5
BC
330
1E
100
AcDbEntity
  8
0
 62
     7
100
AcDbLine
 10
7.835000213197224
 20
-16.99999974464298
 30
0.0
 11
7.835000213197224
 21
-20.9999996845784
 31
0.0
  0
LINE
  5
BD
330
1E
100
AcDbEntity
  8
0
 62
     7
100
AcDbLine
 10
7.835000213197224
 20
-20.9999996845784
 30
0.0
 11
8.299999999901721
 21
-20.9999996845784
 31
0.0
  0
LINE
  5
BE
330
1E
100
AcDbEntity
  8
0
 62
     7
100
AcDbLine
 10
3.299999999901732
 20
-18.999999714598
 30
0.0
 11
3.299999999901732
 21
-33.4999994967465
 31
0.0
  0
LINE
  5
BF
330
1E
100
AcDbEntity
  8
0
 62
     7
100
AcDbLine
 10
7.835000213197224
 20
16.9999997446507
 30
0.0
 11
7.835000213174422
 21
15.99999975969859
 31
0.0
  0
LINE
  5
C0
330
1E
100
AcDbEntity
  8
0
 62
     7
100
AcDbLine
 10
7.835000213174422
 20
-15.99999975969089
 30
0.0
 11
7.835000213197224
 21
-16.99999974464298
 31
0.0
  0
LINE
  5
C1
330
1E
100
AcDbEntity
  8
0
 62
     7
100
AcDbLine
 10
-2.20000000009807
 20
-15.99999975969089
 30
0.0
 11
-2.20000000009807
 21
15.99999975969859
 31
0.0
  0
LINE
  5
C2
330
1E
100
AcDbEntity
  8
0
 62
     7
100
AcDbLine
 10
-1.800000000098208
 20
16.39999975367938
 30
0.0
 11
-1.800000000098208
 21
33.75
 31
0.0
  0
LINE
  5
C3
330
1E
100
AcDbEntity
  8
0
 62
     7
100
AcDbLine
 10
-1.800000000098208
 20
33.75
 30
0.0
 11
3.299999999901732
 21
33.75
 31
0.0
  0
LINE
  5
C4
330
1E
100
AcDbEntity
  8
0
 62
     7
100
AcDbLine
 10
3.299999999901732
 20
33.75
 30
0.0
 11
3.299999999901732
 21
16.39999975367938
 31
0.0
  0
LINE
  5
C5
330
1E
100
AcDbEntity
  8
0
 62
     7
100
AcDbLine
 10
3.699999993994433
 20
15.99999975969859
 30
0.0
 11
21.04999998242012
 21
15.99999975969859
 31
0.0
  0
LINE
  5
C6
330
1E
100
AcDbEntity
  8
0
 62
     7
100
AcDbLine
 10
21.04999998242012
 20
21.4999996771231
 30
0.0
 11
21.04999998242012
 21
15.14999977249058
 31
0.0
  0
LINE
  5
C7
330
1E
100
AcDbEntity
  8
0
 62
     7
100
AcDbLine
 10
21.04999998242012
 20
15.14999977249058
 30
0.0
 11
22.69999999990182
 21
15.14999977249058
 31
0.0
  0
LINE
  5
C8
330
1E
100
AcDbEntity
  8
0
 62
     7
100
AcDbLine
 10
22.69999999990182
 20
15.14999977249058
 30
0.0
 11
22.69999999990182
 21
18.99999971464889
 31
0.0
  0
LINE
  5
C9
330
1E
100
AcDbEntity
  8
0
 62
     7
100
AcDbLine
 10
22.69999999990182
 20
15.99999975969859
 30
0.0
 11
27.00000000741312
 21
15.99999975969859
 31
0.0
  0
LINE
  5
CA
330
1E
100
AcDbEntity
  8
0
 62
     7
100
AcDbLine
 10
27.00000000741312
 20
15.99999975969859
 30
0.0
 11
27.49999999990192
 21
15.4999997672225
 31
0.0
  0
LINE
  5
CB
330
1E
100
AcDbEntity
  8
0
 62
     7
100
AcDbLine
 10
27.49999999990192
 20
15.4999997672225
 30
0.0
 11
27.49999999990192
 21
-15.4999997672021
 31
0.0
  0
LINE
  5
CC
330
1E
100
AcDbEntity
  8
0
 62
     7
100
AcDbLine
 10
-1.800000000098208
 20
-16.3999997536565
 30
0.0
 11
-1.800000000098208
 21
-33.75
 31
0.0
  0
LINE
  5
CD
330
1E
100
AcDbEntity
  8
0
 62
     7
100
AcDbLine
 10
-1.800000000098208
 20
-33.75
 30
0.0
 11
3.299999999901732
 21
-33.75
 31
0.0
  0
LINE
  5
CE
330
1E
100
AcDbEntity
  8
0
 62
     7
100
AcDbLine
 10
3.299999999901732
 20
-33.75
 30
0.0
 11
3.299999999901732
 21
-16.3999997536565
 31
0.0
  0
LINE
  5
CF
330
1E
100
AcDbEntity
  8
0
 62
     7
100
AcDbLine
 10
3.699999993994433
 20
-15.99999975969089
 30
0.0
 11
21.04999998242012
 21
-15.99999975969089
 31
0.0
  0
LINE
  5
D0
330
1E
100
AcDbEntity
  8
0
 62
     7
100
AcDbLine
 10
21.04999998242012
 20
-21.49999967706718
 30
0.0
 11
21.04999998242012
 21
-15.1499997724854
 31
0.0
  0
LINE
  5
D1
330
1E
100
AcDbEntity
  8
0
 62
     7
100
AcDbLine
 10
21.04999998242012
 20
-15.1499997724854
 30
0.0
 11
22.69999999990182
 21
-15.1499997724854
 31
0.0
  0
LINE
  5
D2
330
1E
100
AcDbEntity
  8
0
 62
     7
100
AcDbLine
 10
22.69999999990182
 20
-15.1499997724854
 30
0.0
 11
22.69999999990182
 21
-18.999999714598
 31
0.0
  0
LINE
  5
D3
330
1E
100
AcDbEntity
  8
0
 62
     7
100
AcDbLine
 10
22.69999999990182
 20
-15.99999975969089
 30
0.0
 11
27.00000000741312
 21
-15.99999975969089
 31
0.0
  0
LINE
  5
D4
330
1E
100
AcDbEntity
  8
0
 62
     7
100
AcDbLine
 10
27.00000000741312
 20
-15.99999975969089
 30
0.0
 11
27.49999999990192
 21
-15.4999997672021
 31
0.0
  0
LINE
  5
D5
330
1E
100
AcDbEntity
  8
0
 62
     7
100
AcDbLine
 10
-2.20000000009807
 20
9.299999860311199
 30
0.0
 11
27.4999999999019
 21
9.299999860311199
 31
0.0
  0
LINE
  5
D6
330
1E
100
AcDbEntity
  8
0
 62
     7
100
AcDbLine
 10
-2.20000000009807
 20
6.99999989487313
 30
0.0
 11
27.4999999999019
 21
6.99999989487313
 31
0.0
  0
LINE
  5
D7
330
1E
100
AcDbEntity
  8
0
 62
     7
100
AcDbLine
 10
-2.20000000009807
 20
-6.9999998948679
 30
0.0
 11
27.4999999999019
 21
-6.9999998948679
 31
0.0
  0
LINE
  5
D8
330
1E
100
AcDbEntity
  8
0
 62
     7
100
AcDbLine
 10
-1.800000000098208
 20
-16.99999974464298
 30
0.0
 11
3.299999999901732
 21
-16.99999974464298
 31
0.0
  0
LINE
  5
D9
330
1E
100
AcDbEntity
  8
0
 62
     7
100
AcDbLine
 10
19.89999999969603
 20
21.4999996771231
 30
0.0
 11
21.04999998242012
 21
21.4999996771231
 31
0.0
  0
LINE
  5
DA
330
1E
100
AcDbEntity
  8
0
 62
     7
100
AcDbLine
 10
21.04999998242012
 20
16.9999997446507
 30
0.0
 11
19.89999999969603
 21
16.9999997446507
 31
0.0
  0
LINE
  5
DB
330
1E
100
AcDbEntity
  8
0
 62
     7
100
AcDbLine
 10
19.89999999969603
 20
-21.49999967706718
 30
0.0
 11
21.04999998242012
 21
-21.49999967706718
 31
0.0
  0
LINE
  5
DC
330
1E
100
AcDbEntity
  8
0
 62
     7
100
AcDbLine
 10
21.04999998242012
 20
-16.99999974464298
 30
0.0
 11
19.89999999969603
 21
-16.99999974464298
 31
0.0
  0
LINE
  5
DD
330
1E
100
AcDbEntity
  8
0
 62
     7
100
AcDbLine
 10
21.04999998242012
 20
-18.999999714598
 30
0.0
 11
22.69999999990182
 21
-18.999999714598
 31
0.0
  0
LINE
  5
DE
330
1E
100
AcDbEntity
  8
0
 62
     7
100
AcDbLine
 10
21.04999998242012
 20
18.99999971464889
 30
0.0
 11
22.69999999990182
 21
18.99999971464889
 31
0.0
  0
LINE
  5
DF
330
1E
100
AcDbEntity
  8
1
 62
     7
100
AcDbLine
 10
16.9803846977535
 20
62.4
 30
0.0
 11
16.9803846977535
 21
57.6
 31
0.0
  0
LINE
  5
E0
330
1E
100
AcDbEntity
  8
1
 62
     7
100
AcDbLine
 10
17.49999994002418
 20
63.3000000000001
 30
0.0
 11
16.9803846977535
 21
62.4
 31
0.0
  0
LINE
  5
E1
330
1E
100
AcDbEntity
  8
0
 62
     7
100
AcDbLine
 10
25.500000000038
 20
56.7
 30
0.0
 11
25.500000000038
 21
63.3000000000001
 31
0.0
  0
LINE
  5
E2
330
1E
100
AcDbEntity
  8
1
 62
     7
100
AcDbLine
 10
25.500000000038
 20
56.7
 30
0.0
 11
17.49999994002418
 21
56.7
 31
0.0
  0
LINE
  5
E3
330
1E
100
AcDbEntity
  8
0
 62
     7
100
AcDbLine
 10
25.500000000038
 20
63.3000000000001
 30
0.0
 11
25.5000000001361
 21
67.09999899196541
 31
0.0
  0
LINE
  5
E4
330
1E
100
AcDbEntity
  8
1
 62
     7
100
AcDbLine
 10
25.500000000038
 20
63.3000000000001
 30
0.0
 11
17.49999994002418
 21
63.3000000000001
 31
0.0
  0
LINE
  5
E5
330
1E
100
AcDbEntity
  8
0
 62
     7
100
AcDbLine
 10
8.49999993974478
 20
-67.09999899214309
 30
0.0
 11
8.49999993974478
 21
-54.8656846051777
 31
0.0
  0
LINE
  5
E6
330
1E
100
AcDbEntity
  8
0
 62
     7
100
AcDbLine
 10
25.4999999998631
 20
-63.3
 30
0.0
 11
25.4999999998478
 21
-67.09999899214309
 31
0.0
  0
LINE
  5
E7
330
1E
100
AcDbEntity
  8
1
 62
     7
100
AcDbLine
 10
25.4999999998631
 20
-63.3
 30
0.0
 11
8.49999993974478
 21
-63.3
 31
0.0
  0
LINE
  5
E8
330
1E
100
AcDbEntity
  8
0
 62
     7
100
AcDbLine
 10
25.4999999998631
 20
-56.6999999999999
 30
0.0
 11
25.4999999998631
 21
-63.3
 31
0.0
  0
LINE
  5
E9
330
1E
100
AcDbEntity
  8
1
 62
     7
100
AcDbLine
 10
25.4999999998631
 20
-56.6999999999999
 30
0.0
 11
8.49999993974478
 21
-56.6999999999999
 31
0.0
  0
LINE
  5
EA
330
1E
100
AcDbEntity
  8
1
  6
CENTER
 62
     3
100
AcDbLine
 10
30.6349998639128
 20
-60.0
 30
0.0
 11
3.5000000148425
 21
-60.0
 31
0.0
  0
LINE
  5
EB
330
1E
100
AcDbEntity
  8
0
 62
     7
100
AcDbLine
 10
25.4999999998478
 20
-67.09999899214309
 30
0.0
 11
25.1000000056886
 21
-67.49999898648979
 31
0.0
  0
LINE
  5
EC
330
1E
100
AcDbEntity
  8
0
 62
     7
100
AcDbLine
 10
25.1000000056886
 20
-67.49999898648979
 30
0.0
 11
8.899999933735779
 21
-67.49999898648979
 31
0.0
  0
LINE
  5
ED
330
1E
100
AcDbEntity
  8
0
 62
     7
100
AcDbLine
 10
8.899999933735779
 20
-67.49999898648979
 30
0.0
 11
8.49999993974478
 21
-67.09999899214309
 31
0.0
  0
LINE
  5
EE
330
1E
100
AcDbEntity
  8
0
 62
     7
100
AcDbLine
 10
4.89999999387658
 20
-54.56568460517771
 30
0.0
 11
8.199999939744767
 21
-54.56568460517771
 31
0.0
  0
LINE
  5
EF
330
1E
100
AcDbEntity
  8
0
 62
     7
100
AcDbLine
 10
4.89999999387658
 20
-54.56568460517771
 30
0.0
 11
4.500000000037968
 21
-54.165684611085
 31
0.0
  0
LINE
  5
F0
330
1E
100
AcDbEntity
  8
0
 62
     7
100
AcDbLine
 10
4.500000000037968
 20
-54.165684611085
 30
0.0
 11
4.500000000037968
 21
-50.8456854163923
 31
0.0
  0
LINE
  5
F1
330
1E
100
AcDbEntity
  8
0
 62
     7
100
AcDbLine
 10
25.49999999991739
 20
50.8456854163265
 30
0.0
 11
25.500000000038
 21
56.7
 31
0.0
  0
LINE
  5
F2
330
1E
100
AcDbEntity
  8
0
 62
     7
100
AcDbLine
 10
25.5000000001361
 20
67.09999899196541
 30
0.0
 11
25.1000000061127
 21
67.49999898631199
 31
0.0
  0
LINE
  5
F3
330
1E
100
AcDbEntity
  8
0
 62
     7
100
AcDbLine
 10
25.1000000061127
 20
67.49999898631199
 30
0.0
 11
8.899999934116808
 21
67.4999989861342
 31
0.0
  0
LINE
  5
F4
330
1E
100
AcDbEntity
  8
0
 62
     7
100
AcDbLine
 10
8.899999934116808
 20
67.4999989861342
 30
0.0
 11
8.499999940024167
 21
67.0999989921432
 31
0.0
  0
LINE
  5
F5
330
1E
100
AcDbEntity
  8
0
 62
     7
100
AcDbLine
 10
8.199999944556397
 20
54.9999991738392
 30
0.0
 11
4.89999999413061
 21
54.9999991736613
 31
0.0
  0
LINE
  5
F6
330
1E
100
AcDbEntity
  8
0
 62
     7
100
AcDbLine
 10
4.89999999413061
 20
54.9999991736613
 30
0.0
 11
4.500000000037968
 21
54.5999991798736
 31
0.0
  0
LINE
  5
F7
330
1E
100
AcDbEntity
  8
0
 62
     7
100
AcDbLine
 10
4.500000000037968
 20
54.5999991798736
 30
0.0
 11
4.500000000037968
 21
50.8456854161487
 31
0.0
  0
LINE
  5
F8
330
1E
100
AcDbEntity
  8
0
 62
     7
100
AcDbLine
 10
4.500000000037968
 20
-50.8456854163923
 30
0.0
 11
5.06568541617628
 21
-50.28
 31
0.0
  0
LINE
  5
F9
330
1E
100
AcDbEntity
  8
0
 62
     7
100
AcDbLine
 10
5.06568541617628
 20
-50.28
 30
0.0
 11
24.9343145835795
 21
-50.28
 31
0.0
  0
LINE
  5
FA
330
1E
100
AcDbEntity
  8
0
 62
     7
100
AcDbLine
 10
24.9343145835795
 20
-50.28
 30
0.0
 11
25.49999999988189
 21
-50.8456854163923
 31
0.0
  0
LINE
  5
FB
330
1E
100
AcDbEntity
  8
0
 62
     7
100
AcDbLine
 10
4.500000000037968
 20
50.8456854161487
 30
0.0
 11
5.065685416684289
 21
50.2800000000105
 31
0.0
  0
LINE
  5
FC
330
1E
100
AcDbEntity
  8
0
 62
     7
100
AcDbLine
 10
5.065685416684289
 20
50.2800000000105
 30
0.0
 11
24.9343145835312
 21
50.2799999998327
 31
0.0
  0
LINE
  5
FD
330
1E
100
AcDbEntity
  8
0
 62
     7
100
AcDbLine
 10
24.9343145835312
 20
50.2799999998327
 30
0.0
 11
25.49999999991739
 21
50.8456854163265
 31
0.0
  0
LINE
  5
FE
330
1E
100
AcDbEntity
  8
0
 62
     7
100
AcDbLine
 10
4.500000000037968
 20
51.214
 30
0.0
 11
25.50000000010319
 21
51.214
 31
0.0
  0
LINE
  5
FF
330
1E
100
AcDbEntity
  8
0
 62
     7
100
AcDbLine
 10
7.89705548583197
 20
50.28000000011211
 30
0.0
 11
24.5866649175735
 21
50.28000000021361
 31
0.0
  0
LINE
  5
100
330
1E
100
AcDbEntity
  8
1
 62
     7
100
AcDbLine
 10
-22.20199999999999
 20
32.4
 30
0.0
 11
-22.20199999999999
 21
46.78199999999989
 31
0.0
  0
LINE
  5
101
330
1E
100
AcDbEntity
  8
1
 62
     7
100
AcDbLine
 10
-3.124000000000138
 20
-49.782
 30
0.0
 11
-19.202
 21
-49.7819999999999
 31
0.0
  0
LINE
  5
102
330
1E
100
AcDbEntity
  8
1
 62
     7
100
AcDbLine
 10
-22.20199999999999
 20
-46.78199999999989
 30
0.0
 11
-22.20199999999999
 21
-32.39999999999989
 31
0.0
  0
LINE
  5
103
330
1E
100
AcDbEntity
  8
1
  6
CENTER
 62
     3
100
AcDbLine
 10
-219.2020039621898
 20
12.67111641723718
 30
0.0
 11
-209.492229686198
 21
10.7397222292775
 31
0.0
  0
LINE
  5
104
330
1E
100
AcDbEntity
  8
1
  6
CENTER
 62
     3
100
AcDbLine
 10
-209.5039513190504
 20
36.08428663691288
 30
0.0
 11
-201.2724021572553
 21
30.5841413300188
 31
0.0
  0
LINE
  5
105
330
1E
100
AcDbEntity
  8
1
  6
CENTER
 62
     3
100
AcDbLine
 10
-191.5842866346233
 20
54.00395132134011
 30
0.0
 11
-186.0841413277291
 21
45.77240215954478
 31
0.0
  0
LINE
  5
106
330
1E
100
AcDbEntity
  8
1
  6
CENTER
 62
     3
100
AcDbLine
 10
-168.1711164149476
 20
63.70200396447959
 30
0.0
 11
-166.239722226988
 21
53.99222968848757
 31
0.0
  0
LINE
  5
107
330
1E
100
AcDbEntity
  8
1
  6
CENTER
 62
     3
100
AcDbLine
 10
-142.8288835850525
 20
63.70200396447959
 30
0.0
 11
-144.7602777730121
 21
53.99222968848757
 31
0.0
  0
LINE
  5
108
330
1E
100
AcDbEntity
  8
1
  6
CENTER
 62
     3
100
AcDbLine
 10
-119.4157133653769
 20
54.00395132134
 30
0.0
 11
-124.9158586722709
 21
45.77240215954478
 31
0.0
  0
LINE
  5
109
330
1E
100
AcDbEntity
  8
1
  6
CENTER
 62
     3
100
AcDbLine
 10
-101.4960486809497
 20
36.08428663691281
 30
0.0
 11
-109.7275978427449
 21
30.5841413300188
 31
0.0
  0
LINE
  5
10A
330
1E
100
AcDbEntity
  8
1
  6
CENTER
 62
     3
100
AcDbLine
 10
-91.79799603781029
 20
12.67111641723718
 30
0.0
 11
-101.5077703138022
 21
10.7397222292775
 31
0.0
  0
LINE
  5
10B
330
1E
100
AcDbEntity
  8
1
  6
CENTER
 62
     3
100
AcDbLine
 10
-91.79799603781029
 20
-12.67111641265791
 30
0.0
 11
-101.5077703138022
 21
-10.7397222246982
 31
0.0
  0
LINE
  5
10C
330
1E
100
AcDbEntity
  8
1
  6
CENTER
 62
     3
100
AcDbLine
 10
-101.4960486809497
 20
-36.0842866323336
 30
0.0
 11
-109.7275978427449
 21
-30.5841413254395
 31
0.0
  0
LINE
  5
10D
330
1E
100
AcDbEntity
  8
1
  6
CENTER
 62
     3
100
AcDbLine
 10
-119.4157133653769
 20
-54.00395131676068
 30
0.0
 11
-124.9158586722709
 21
-45.77240215496551
 31
0.0
  0
LINE
  5
10E
330
1E
100
AcDbEntity
  8
1
  6
CENTER
 62
     3
100
AcDbLine
 10
-142.8288835850525
 20
-63.70200395990021
 30
0.0
 11
-144.7602777730121
 21
-53.99222968390819
 31
0.0
  0
LINE
  5
10F
330
1E
100
AcDbEntity
  8
1
  6
CENTER
 62
     3
100
AcDbLine
 10
-168.1711164149476
 20
-63.70200395990011
 30
0.0
 11
-166.2397222269879
 21
-53.99222968390819
 31
0.0
  0
LINE
  5
110
330
1E
100
AcDbEntity
  8
1
  6
CENTER
 62
     3
100
AcDbLine
 10
-191.5842866346231
 20
-54.00395131676059
 30
0.0
 11
-186.0841413277291
 21
-45.77240215496539
 31
0.0
  0
LINE
  5
111
330
1E
100
AcDbEntity
  8
1
  6
CENTER
 62
     3
100
AcDbLine
 10
-209.5039513190503
 20
-36.08428663233352
 30
0.0
 11
-201.2724021572551
 21
-30.58414132543939
 31
0.0
  0
LINE
  5
112
330
1E
100
AcDbEntity
  8
1
  6
CENTER
 62
     3
100
AcDbLine
 10
-219.2020039621898
 20
-12.67111641265779
 30
0.0
 11
-209.4922296861978
 21
-10.7397222246982
 31
0.0
  0
LINE
  5
113
330
1E
100
AcDbEntity
  8
1
  6
CENTER
 62
     3
100
AcDbLine
 10
-143.0627884481346
 20
-30.0260848043271
 30
0.0
 11
-146.5069393394204
 21
-21.71116901172561
 31
0.0
  0
LINE
  5
114
330
1E
100
AcDbEntity
  8
1
  6
CENTER
 62
     3
100
AcDbLine
 10
-167.9372115518654
 20
30.02608480890652
 30
0.0
 11
-164.4930606605794
 21
21.71116901630501
 31
0.0
  0
LINE
  5
115
330
1E
100
AcDbEntity
  8
1
  6
CENTER
 62
     3
100
AcDbLine
 10
-131.9886995255473
 20
23.51130047674239
 30
0.0
 11
-143.6559614151253
 21
11.84403858716438
 31
0.0
  0
LINE
  5
116
330
1E
100
AcDbEntity
  8
1
  6
CENTER
 62
     3
100
AcDbLine
 10
-131.9886995255473
 20
-23.51130047216301
 30
0.0
 11
-143.6559614151253
 21
-11.84403858258492
 31
0.0
  0
LINE
  5
117
330
1E
100
AcDbEntity
  8
1
  6
CENTER
 62
     3
100
AcDbLine
 10
-179.0113004744527
 20
-23.5113004721629
 30
0.0
 11
-167.3440385848746
 21
-11.84403858258492
 31
0.0
  0
LINE
  5
118
330
1E
100
AcDbEntity
  8
1
  6
CENTER
 62
     3
100
AcDbLine
 10
-179.0113004744527
 20
23.51130047674248
 30
0.0
 11
-167.3440385848746
 21
11.84403858716438
 31
0.0
  0
LINE
  5
119
330
1E
100
AcDbEntity
  8
1
  6
CENTER
 62
     3
100
AcDbLine
 10
218.4986372126985
 20
-12.6711164125779
 30
0.0
 11
208.7888629367065
 21
-10.73972222461818
 31
0.0
  0
LINE
  5
11A
330
1E
100
AcDbEntity
  8
1
  6
CENTER
 62
     3
100
AcDbLine
 10
208.8005845695593
 20
-36.08428663225359
 30
0.0
 11
200.569035407764
 21
-30.58414132535941
 31
0.0
  0
LINE
  5
11B
330
1E
100
AcDbEntity
  8
1
  6
CENTER
 62
     3
100
AcDbLine
 10
190.8809198851319
 20
-54.00395131668091
 30
0.0
 11
185.3807745782379
 21
-45.7724021548856
 31
0.0
  0
LINE
  5
11C
330
1E
100
AcDbEntity
  8
1
  6
CENTER
 62
     3
100
AcDbLine
 10
167.4677496654564
 20
-63.70200395982017
 30
0.0
 11
165.5363554774968
 21
-53.99222968382821
 31
0.0
  0
LINE
  5
11D
330
1E
100
AcDbEntity
  8
1
  6
CENTER
 62
     3
100
AcDbLine
 10
142.1255168355613
 20
-63.70200395982029
 30
0.0
 11
144.056911023521
 21
-53.99222968382829
 31
0.0
  0
LINE
  5
11E
330
1E
100
AcDbEntity
  8
1
  6
CENTER
 62
     3
100
AcDbLine
 10
142.1255168355614
 20
63.70200396455962
 30
0.0
 11
144.0569110235211
 21
53.99222968856761
 31
0.0
  0
LINE
  5
11F
330
1E
100
AcDbEntity
  8
1
  6
CENTER
 62
     3
100
AcDbLine
 10
167.4677496654565
 20
63.70200396455951
 30
0.0
 11
165.5363554774968
 21
53.99222968856751
 31
0.0
  0
LINE
  5
120
330
1E
100
AcDbEntity
  8
1
  6
CENTER
 62
     3
100
AcDbLine
 10
190.8809198851319
 20
54.00395132141992
 30
0.0
 11
185.3807745782379
 21
45.77240215962468
 31
0.0
  0
LINE
  5
121
330
1E
100
AcDbEntity
  8
1
  6
CENTER
 62
     3
100
AcDbLine
 10
208.8005845695593
 20
36.08428663699267
 30
0.0
 11
200.569035407764
 21
30.58414133009867
 31
0.0
  0
LINE
  5
122
330
1E
100
AcDbEntity
  8
1
  6
CENTER
 62
     3
100
AcDbLine
 10
218.4986372126985
 20
12.67111641731719
 30
0.0
 11
208.7888629367065
 21
10.7397222293575
 31
0.0
  0
LINE
  5
123
330
1E
100
AcDbEntity
  8
0
 62
     7
100
AcDbLine
 10
155.3299665773685
 20
-15.93710540825171
 30
0.0
 11
155.3299665773685
 21
-19.9999996972563
 31
0.0
  0
LINE
  5
124
330
1E
100
AcDbEntity
  8
0
 62
     7
100
AcDbLine
 10
155.3299665773685
 20
-19.9999996972563
 30
0.0
 11
158.8499665245143
 21
-19.9999996972563
 31
0.0
  0
LINE
  5
125
330
1E
100
AcDbEntity
  8
0
 62
     7
100
AcDbLine
 10
159.9166331751419
 20
-18.93333304658819
 30
0.0
 11
159.9166331751419
 21
-16.76306906020657
 31
0.0
  0
LINE
  5
126
330
1E
100
AcDbEntity
  8
0
 62
     7
100
AcDbLine
 10
154.2632999267256
 20
-15.93710540825171
 30
0.0
 11
154.2632999267256
 21
-19.9999996972563
 31
0.0
  0
LINE
  5
127
330
1E
100
AcDbEntity
  8
0
 62
     7
100
AcDbLine
 10
154.2632999267256
 20
-19.9999996972563
 30
0.0
 11
150.7432999795831
 21
-19.9999996972563
 31
0.0
  0
LINE
  5
128
330
1E
100
AcDbEntity
  8
0
 62
     7
100
AcDbLine
 10
149.6766333289691
 20
-18.93333304658819
 30
0.0
 11
149.6766333289691
 21
-16.76306906020657
 31
0.0
  0
LINE
  5
129
330
1E
100
AcDbEntity
  8
1
 62
     7
100
AcDbLine
 10
157.2966332127118
 20
9.299999862707608
 30
0.0
 11
157.2966332127118
 21
6.538348319394997
 31
0.0
  0
LINE
  5
12A
330
1E
100
AcDbEntity
  8
1
 62
     7
100
AcDbLine
 10
152.2966332870623
 20
9.299999862707608
 30
0.0
 11
157.2966332127118
 21
9.299999862707608
 31
0.0
  0
LINE
  5
12B
330
1E
100
AcDbEntity
  8
1
 62
     7
100
AcDbLine
 10
152.2966332870623
 20
6.538348319394997
 30
0.0
 11
152.2966332870623
 21
9.299999862707608
 31
0.0
  0
LINE
  5
12C
330
1E
100
AcDbEntity
  8
1
  6
CENTER
 62
     3
100
AcDbLine
 10
100.8044035643008
 20
10.7397222293575
 30
0.0
 11
91.09462928830891
 21
12.67111641731719
 31
0.0
  0
LINE
  5
12D
330
1E
100
AcDbEntity
  8
1
  6
CENTER
 62
     3
100
AcDbLine
 10
109.0242310932435
 20
30.58414133009867
 30
0.0
 11
100.7926819314482
 21
36.08428663699267
 31
0.0
  0
LINE
  5
12E
330
1E
100
AcDbEntity
  8
1
  6
CENTER
 62
     3
100
AcDbLine
 10
124.2124919227695
 20
45.77240215962468
 30
0.0
 11
118.7123466158754
 21
54.00395132141992
 31
0.0
  0
LINE
  5
12F
330
1E
100
AcDbEntity
  8
1
  6
CENTER
 62
     3
100
AcDbLine
 10
124.2124919227695
 20
-45.7724021548856
 30
0.0
 11
118.7123466158754
 21
-54.00395131668091
 31
0.0
  0
LINE
  5
130
330
1E
100
AcDbEntity
  8
1
  6
CENTER
 62
     3
100
AcDbLine
 10
109.0242310932435
 20
-30.58414132535941
 30
0.0
 11
100.7926819314482
 21
-36.08428663225359
 31
0.0
  0
LINE
  5
131
330
1E
100
AcDbEntity
  8
1
  6
CENTER
 62
     3
100
AcDbLine
 10
100.804403564301
 20
-10.73972222461818
 30
0.0
 11
91.09462928830902
 21
-12.6711164125779
 31
0.0
  0
LINE
  5
132
330
1E
100
AcDbEntity
  8
1
  6
CENTER
 62
     3
100
AcDbLine
 10
167.643006509908
 20
45.84930663922068
 30
0.0
 11
164.791254638608
 21
35.67127091200245
 31
0.0
  0
LINE
  5
133
330
1E
100
AcDbEntity
  8
1
  6
CENTER
 62
     3
100
AcDbLine
 10
179.5366230320859
 20
40.68317994945664
 30
0.0
 11
174.044620680068
 21
31.65196684348813
 31
0.0
  0
LINE
  5
134
330
1E
100
AcDbEntity
  8
1
  6
CENTER
 62
     3
100
AcDbLine
 10
189.595387690097
 20
32.49976791619838
 30
0.0
 11
181.870451547568
 21
25.28518119249429
 31
0.0
  0
LINE
  5
135
330
1E
100
AcDbEntity
  8
1
  6
CENTER
 62
     3
100
AcDbLine
 10
197.073287925046
 20
21.90599677332921
 30
0.0
 11
187.6883411664628
 21
17.04310932464614
 31
0.0
  0
LINE
  5
136
330
1E
100
AcDbEntity
  8
1
  6
CENTER
 62
     3
100
AcDbLine
 10
201.4157220856268
 20
9.687558063234632
 30
0.0
 11
191.066803278796
 21
7.53702800540941
 31
0.0
  0
LINE
  5
137
330
1E
100
AcDbEntity
  8
1
  6
CENTER
 62
     3
100
AcDbLine
 10
202.3006316954671
 20
-3.249362510601711
 30
0.0
 11
191.7552728051331
 21
-2.528040201201291
 31
0.0
  0
LINE
  5
138
330
1E
100
AcDbEntity
  8
1
  6
CENTER
 62
     3
100
AcDbLine
 10
199.6623870569959
 20
-15.9452927316965
 30
0.0
 11
189.7026891102431
 21
-12.40561523092809
 31
0.0
  0
LINE
  5
139
330
1E
100
AcDbEntity
  8
1
  6
CENTER
 62
     3
100
AcDbLine
 10
193.6966547058809
 20
-27.45863353557252
 30
0.0
 11
185.06128293683
 21
-21.36312253071992
 31
0.0
  0
LINE
  5
13A
330
1E
100
AcDbEntity
  8
1
  6
CENTER
 62
     3
100
AcDbLine
 10
184.8458857191939
 20
-36.93549310484059
 30
0.0
 11
178.1752861477548
 21
-28.73622476202399
 31
0.0
  0
LINE
  5
13B
330
1E
100
AcDbEntity
  8
1
  6
CENTER
 62
     3
100
AcDbLine
 10
173.7665011431
 20
-43.67301611899985
 30
0.0
 11
169.5554016235198
 21
-33.97809266204557
 31
0.0
  0
LINE
  5
13C
330
1E
100
AcDbEntity
  8
1
  6
CENTER
 62
     3
100
AcDbLine
 10
161.2802082467901
 20
-47.17151131820941
 30
0.0
 11
159.840926765938
 21
-36.69996086859231
 31
0.0
  0
LINE
  5
13D
330
1E
100
AcDbEntity
  8
1
  6
CENTER
 62
     3
100
AcDbLine
 10
144.802011862394
 20
35.67127091200245
 30
0.0
 11
141.9502599910939
 21
45.84930663922068
 31
0.0
  0
LINE
  5
13E
330
1E
100
AcDbEntity
  8
1
  6
CENTER
 62
     3
100
AcDbLine
 10
135.5486458209339
 20
31.65196684348813
 30
0.0
 11
130.0566434689158
 21
40.68317994945664
 31
0.0
  0
LINE
  5
13F
330
1E
100
AcDbEntity
  8
1
  6
CENTER
 62
     3
100
AcDbLine
 10
140.037864877482
 20
-33.97809266204557
 30
0.0
 11
135.8267653579019
 21
-43.67301611899985
 31
0.0
  0
LINE
  5
140
330
1E
100
AcDbEntity
  8
1
  6
CENTER
 62
     3
100
AcDbLine
 10
149.752339735064
 20
-36.69996086859231
 30
0.0
 11
148.3130582542119
 21
-47.17151131820941
 31
0.0
  0
LINE
  5
141
330
1E
100
AcDbEntity
  8
1
  6
CENTER
 62
     3
100
AcDbLine
 10
119.8905773907588
 20
-12.40561523092809
 30
0.0
 11
109.930879444006
 21
-15.9452927316965
 31
0.0
  0
LINE
  5
142
330
1E
100
AcDbEntity
  8
1
  6
CENTER
 62
     3
100
AcDbLine
 10
117.8379936958688
 20
-2.528040201201291
 30
0.0
 11
107.2926348055348
 21
-3.249362510601711
 31
0.0
  0
LINE
  5
143
330
1E
100
AcDbEntity
  8
1
  6
CENTER
 62
     3
100
AcDbLine
 10
118.5264632222057
 20
7.53702800540941
 30
0.0
 11
108.177544415375
 21
9.687558063234632
 31
0.0
  0
LINE
  5
144
330
1E
100
AcDbEntity
  8
1
  6
CENTER
 62
     3
100
AcDbLine
 10
121.9049253345388
 20
17.04310932464614
 30
0.0
 11
112.519978575956
 21
21.90599677332921
 31
0.0
  0
LINE
  5
145
330
1E
100
AcDbEntity
  8
1
  6
CENTER
 62
     3
100
AcDbLine
 10
127.7228149534339
 20
25.28518119249429
 30
0.0
 11
119.9978788109049
 21
32.49976791619838
 31
0.0
  0
LINE
  5
146
330
1E
100
AcDbEntity
  8
0
 62
     7
100
AcDbLine
 10
8.299999999901721
 20
35.55999946596779
 30
0.0
 11
19.89999999990171
 21
35.55999946596779
 31
0.0
  0
LINE
  5
147
330
1E
100
AcDbEntity
  8
0
 62
     7
100
AcDbLine
 10
4.499999999784
 20
-51.2799999849775
 30
0.0
 11
25.4999999998809
 21
-51.2799999849775
 31
0.0
  0
LINE
  5
148
330
1E
100
AcDbEntity
  8
1
 62
     7
100
AcDbLine
 10
8.117499999901808
 20
49.08550000236949
 30
0.0
 11
21.39249999990189
 21
49.08550000236949
 31
0.0
  0
LINE
  5
149
330
1E
100
AcDbEntity
  8
1
 62
     7
100
AcDbLine
 10
7.517499999901901
 20
48.73908984085585
 30
0.0
 11
7.517499999901901
 21
39.27032238370713
 31
0.0
  0
LINE
  5
14A
330
1E
100
AcDbEntity
  8
1
 62
     7
100
AcDbLine
 10
7.817499999901912
 20
46.49844095793071
 30
0.0
 11
12.66621895584771
 21
46.49844095793071
 31
0.0
  0
LINE
  5
14B
330
1E
100
AcDbEntity
  8
1
 62
     7
100
AcDbLine
 10
7.517499999901901
 20
46.79844095793078
 30
0.0
 11
7.817499999901912
 21
46.49844095793071
 31
0.0
  0
LINE
  5
14C
330
1E
100
AcDbEntity
  8
1
 62
     7
100
AcDbLine
 10
7.517499999901901
 20
48.73908984085585
 30
0.0
 11
8.117499999901808
 21
49.08550000236949
 31
0.0
  0
LINE
  5
14D
330
1E
100
AcDbEntity
  8
1
 62
     7
100
AcDbLine
 10
21.39249999990189
 20
49.08550000236949
 30
0.0
 11
21.9924999999018
 21
48.73908984085585
 31
0.0
  0
LINE
  5
14E
330
1E
100
AcDbEntity
  8
1
 62
     7
100
AcDbLine
 10
21.6924999999019
 20
46.49844095793071
 30
0.0
 11
21.9924999999018
 21
46.79844095793078
 31
0.0
  0
LINE
  5
14F
330
1E
100
AcDbEntity
  8
1
 62
     7
100
AcDbLine
 10
19.39999999990171
 20
35.5600000023694
 30
0.0
 11
19.89999999990171
 21
36.06000000236941
 31
0.0
  0
LINE
  5
150
330
1E
100
AcDbEntity
  8
1
 62
     7
100
AcDbLine
 10
19.89999999990171
 20
37.73860354150213
 30
0.0
 11
19.39999999990171
 21
38.23860354150211
 31
0.0
  0
LINE
  5
151
330
1E
100
AcDbEntity
  8
1
 62
     7
100
AcDbLine
 10
10.10999999990181
 20
35.5600000023694
 30
0.0
 11
19.39999999990171
 21
35.5600000023694
 31
0.0
  0
LINE
  5
152
330
1E
100
AcDbEntity
  8
1
 62
     7
100
AcDbLine
 10
19.89999999990171
 20
37.73860354150213
 30
0.0
 11
19.89999999990171
 21
36.06000000236941
 31
0.0
  0
LINE
  5
153
330
1E
100
AcDbEntity
  8
1
 62
     7
100
AcDbLine
 10
16.99092961641472
 20
38.23860354150211
 30
0.0
 11
19.39999999990171
 21
38.23860354150211
 31
0.0
  0
LINE
  5
154
330
1E
100
AcDbEntity
  8
1
 62
     7
100
AcDbLine
 10
16.84378104395572
 20
46.49844095793071
 30
0.0
 11
21.6924999999019
 21
46.49844095793071
 31
0.0
  0
LINE
  5
155
330
1E
100
AcDbEntity
  8
1
 62
     7
100
AcDbLine
 10
21.9924999999018
 20
46.02659402021095
 30
0.0
 11
21.9924999999018
 21
48.73908984085585
 31
0.0
  0
LINE
  5
156
330
1E
100
AcDbEntity
  8
1
 62
     7
100
AcDbLine
 10
9.609999999901816
 20
36.06000000236941
 30
0.0
 11
9.609999999901816
 21
37.73860354150213
 31
0.0
  0
LINE
  5
157
330
1E
100
AcDbEntity
  8
1
 62
     7
100
AcDbLine
 10
10.10999999990181
 20
38.23860354150211
 30
0.0
 11
9.609999999901816
 21
37.73860354150213
 31
0.0
  0
LINE
  5
158
330
1E
100
AcDbEntity
  8
1
 62
     7
100
AcDbLine
 10
9.609999999901816
 20
36.06000000236941
 30
0.0
 11
10.10999999990181
 21
35.5600000023694
 31
0.0
  0
LINE
  5
159
330
1E
100
AcDbEntity
  8
1
 62
     7
100
AcDbLine
 10
10.10999999990181
 20
38.23860354150211
 30
0.0
 11
12.51907038338882
 21
38.23860354150211
 31
0.0
  0
LINE
  5
15A
330
1E
100
AcDbEntity
  8
1
 62
     7
100
AcDbLine
 10
19.93499999990181
 20
45.46000000236971
 30
0.0
 11
22.63499999990202
 21
45.46000000236971
 31
0.0
  0
LINE
  5
15B
330
1E
100
AcDbEntity
  8
1
 62
     7
100
AcDbLine
 10
19.93499999990181
 20
39.20000000236949
 30
0.0
 11
19.93499999990181
 21
45.46000000236971
 31
0.0
  0
LINE
  5
15C
330
1E
100
AcDbEntity
  8
1
 62
     7
100
AcDbLine
 10
22.63499999990202
 20
45.46000000236971
 30
0.0
 11
22.63499999990202
 21
39.20000000236949
 31
0.0
  0
LINE
  5
15D
330
1E
100
AcDbEntity
  8
1
 62
     7
100
AcDbLine
 10
19.93499999990181
 20
39.20000000236949
 30
0.0
 11
22.63499999990202
 21
39.20000000236949
 31
0.0
  0
LINE
  5
15E
330
1E
100
AcDbEntity
  8
1
 62
     7
100
AcDbLine
 10
7.664999999901824
 20
39.20000000236973
 30
0.0
 11
9.974999999901713
 21
39.20000000236973
 31
0.0
  0
LINE
  5
15F
330
1E
100
AcDbEntity
  8
1
 62
     7
100
AcDbLine
 10
9.974999999901713
 20
39.20000000236973
 30
0.0
 11
9.974999999901713
 21
45.46000000236971
 31
0.0
  0
LINE
  5
160
330
1E
100
AcDbEntity
  8
1
 62
     7
100
AcDbLine
 10
7.664999999901824
 20
42.04000000236977
 30
0.0
 11
7.664999999901824
 21
39.20000000236973
 31
0.0
  0
LINE
  5
161
330
1E
100
AcDbEntity
  8
1
 62
     7
100
AcDbLine
 10
7.964211229160723
 20
45.46000000236971
 30
0.0
 11
7.664999999901824
 21
42.04000000236977
 31
0.0
  0
LINE
  5
162
330
1E
100
AcDbEntity
  8
1
 62
     7
100
AcDbLine
 10
9.974999999901713
 20
45.46000000236971
 30
0.0
 11
7.964211229160723
 21
45.46000000236971
 31
0.0
  0
LINE
  5
163
330
1E
100
AcDbEntity
  8
1
 62
     7
100
AcDbLine
 10
7.964211229160723
 20
-45.4599999977903
 30
0.0
 11
9.974999999901713
 21
-45.4599999977903
 31
0.0
  0
LINE
  5
164
330
1E
100
AcDbEntity
  8
1
 62
     7
100
AcDbLine
 10
7.664999999901824
 20
-42.03999999779035
 30
0.0
 11
7.964211229160723
 21
-45.4599999977903
 31
0.0
  0
LINE
  5
165
330
1E
100
AcDbEntity
  8
1
 62
     7
100
AcDbLine
 10
7.664999999901824
 20
-39.19999999779031
 30
0.0
 11
7.664999999901824
 21
-42.03999999779035
 31
0.0
  0
LINE
  5
166
330
1E
100
AcDbEntity
  8
1
 62
     7
100
AcDbLine
 10
9.974999999901713
 20
-45.4599999977903
 30
0.0
 11
9.974999999901713
 21
-39.19999999779031
 31
0.0
  0
LINE
  5
167
330
1E
100
AcDbEntity
  8
1
 62
     7
100
AcDbLine
 10
9.974999999901713
 20
-39.19999999779031
 30
0.0
 11
7.664999999901824
 21
-39.19999999779031
 31
0.0
  0
LINE
  5
168
330
1E
100
AcDbEntity
  8
1
 62
     7
100
AcDbLine
 10
22.63499999990202
 20
-39.19999999779009
 30
0.0
 11
19.93499999990181
 21
-39.19999999779009
 31
0.0
  0
LINE
  5
169
330
1E
100
AcDbEntity
  8
1
 62
     7
100
AcDbLine
 10
22.63499999990202
 20
-39.19999999779009
 30
0.0
 11
22.63499999990202
 21
-45.4599999977903
 31
0.0
  0
LINE
  5
16A
330
1E
100
AcDbEntity
  8
1
 62
     7
100
AcDbLine
 10
19.93499999990181
 20
-45.4599999977903
 30
0.0
 11
19.93499999990181
 21
-39.19999999779009
 31
0.0
  0
LINE
  5
16B
330
1E
100
AcDbEntity
  8
1
 62
     7
100
AcDbLine
 10
22.63499999990202
 20
-45.4599999977903
 30
0.0
 11
19.93499999990181
 21
-45.4599999977903
 31
0.0
  0
LINE
  5
16C
330
1E
100
AcDbEntity
  8
1
 62
     7
100
AcDbLine
 10
12.51907038338882
 20
-38.23860353692271
 30
0.0
 11
10.10999999990181
 21
-38.23860353692271
 31
0.0
  0
LINE
  5
16D
330
1E
100
AcDbEntity
  8
1
 62
     7
100
AcDbLine
 10
10.10999999990181
 20
-35.55999999778999
 30
0.0
 11
9.609999999901816
 21
-36.05999999778999
 31
0.0
  0
LINE
  5
16E
330
1E
100
AcDbEntity
  8
1
 62
     7
100
AcDbLine
 10
9.609999999901816
 20
-37.73860353692271
 30
0.0
 11
10.10999999990181
 21
-38.23860353692271
 31
0.0
  0
LINE
  5
16F
330
1E
100
AcDbEntity
  8
1
 62
     7
100
AcDbLine
 10
9.609999999901816
 20
-37.73860353692271
 30
0.0
 11
9.609999999901816
 21
-36.05999999778999
 31
0.0
  0
LINE
  5
170
330
1E
100
AcDbEntity
  8
1
 62
     7
100
AcDbLine
 10
21.9924999999018
 20
-48.73908983627643
 30
0.0
 11
21.9924999999018
 21
-46.02659401563153
 31
0.0
  0
LINE
  5
171
330
1E
100
AcDbEntity
  8
1
 62
     7
100
AcDbLine
 10
21.6924999999019
 20
-46.49844095335128
 30
0.0
 11
16.84378104395572
 21
-46.49844095335128
 31
0.0
  0
LINE
  5
172
330
1E
100
AcDbEntity
  8
1
 62
     7
100
AcDbLine
 10
19.39999999990171
 20
-38.23860353692271
 30
0.0
 11
16.99092961641472
 21
-38.23860353692271
 31
0.0
  0
LINE
  5
173
330
1E
100
AcDbEntity
  8
1
 62
     7
100
AcDbLine
 10
19.89999999990171
 20
-36.05999999778999
 30
0.0
 11
19.89999999990171
 21
-37.73860353692271
 31
0.0
  0
LINE
  5
174
330
1E
100
AcDbEntity
  8
1
 62
     7
100
AcDbLine
 10
19.39999999990171
 20
-35.55999999778999
 30
0.0
 11
10.10999999990181
 21
-35.55999999778999
 31
0.0
  0
LINE
  5
175
330
1E
100
AcDbEntity
  8
1
 62
     7
100
AcDbLine
 10
19.39999999990171
 20
-38.23860353692271
 30
0.0
 11
19.89999999990171
 21
-37.73860353692271
 31
0.0
  0
LINE
  5
176
330
1E
100
AcDbEntity
  8
1
 62
     7
100
AcDbLine
 10
19.89999999990171
 20
-36.05999999778999
 30
0.0
 11
19.39999999990171
 21
-35.55999999778999
 31
0.0
  0
LINE
  5
177
330
1E
100
AcDbEntity
  8
1
 62
     7
100
AcDbLine
 10
21.9924999999018
 20
-46.79844095335137
 30
0.0
 11
21.6924999999019
 21
-46.49844095335128
 31
0.0
  0
LINE
  5
178
330
1E
100
AcDbEntity
  8
1
 62
     7
100
AcDbLine
 10
21.9924999999018
 20
-48.73908983627643
 30
0.0
 11
21.39249999990189
 21
-49.08549999779006
 31
0.0
  0
LINE
  5
179
330
1E
100
AcDbEntity
  8
1
 62
     7
100
AcDbLine
 10
8.117499999901808
 20
-49.08549999779006
 30
0.0
 11
7.517499999901901
 21
-48.73908983627643
 31
0.0
  0
LINE
  5
17A
330
1E
100
AcDbEntity
  8
1
 62
     7
100
AcDbLine
 10
7.817499999901912
 20
-46.49844095335128
 30
0.0
 11
7.517499999901901
 21
-46.79844095335137
 31
0.0
  0
LINE
  5
17B
330
1E
100
AcDbEntity
  8
1
 62
     7
100
AcDbLine
 10
12.66621895584771
 20
-46.49844095335128
 30
0.0
 11
7.817499999901912
 21
-46.49844095335128
 31
0.0
  0
LINE
  5
17C
330
1E
100
AcDbEntity
  8
1
 62
     7
100
AcDbLine
 10
7.517499999901901
 20
-39.27032237912772
 30
0.0
 11
7.517499999901901
 21
-48.73908983627643
 31
0.0
  0
LINE
  5
17D
330
1E
100
AcDbEntity
  8
1
 62
     7
100
AcDbLine
 10
21.39249999990189
 20
-49.08549999779006
 30
0.0
 11
8.117499999901808
 21
-49.08549999779006
 31
0.0
  0
LINE
  5
17E
330
1E
100
AcDbEntity
  8
2
  6
CENTER
 62
     3
100
AcDbLine
 10
81.11584215922849
 20
0.0000000023341045
 30
0.0
 11
227.2966322354878
 21
0.0000000024496103
 31
0.0
  0
LINE
  5
17F
330
1E
100
AcDbEntity
  8
2
  6
CENTER
 62
     3
100
AcDbLine
 10
154.796633250522
 20
-72.4999989093416
 30
0.0
 11
154.7966332504959
 21
72.49999898852549
 31
0.0
  0
LINE
  5
180
330
1E
100
AcDbEntity
  8
2
  6
CENTER
 62
     3
100
AcDbLine
 10
-155.4999999999999
 20
-72.49999890898601
 30
0.0
 11
-155.4999999999999
 21
72.4999989138702
 31
0.0
  0
LINE
  5
181
330
1E
100
AcDbEntity
  8
2
  6
CENTER
 62
     3
100
AcDbLine
 10
-227.9999989106915
 20
0.0000000022897098
 30
0.0
 11
-83.00000108798768
 21
0.0000000022897098
 31
0.0
  0
ARC
  5
182
330
1E
100
AcDbEntity
  8
1
 62
     7
100
AcDbCircle
 10
-2.75392442004074
 20
89.73200000000002
 30
0.0
 40
39.95171405502999
100
AcDbArc
 50
269.4692575130869
 51
284.8585031190057
  0
ARC
  5
183
330
1E
100
AcDbEntity
  8
1
 62
     7
100
AcDbCircle
 10
-2.75392442004074
 20
-89.73200000000002
 30
0.0
 40
39.95171405503002
100
AcDbArc
 50
75.1414968809937
 51
90.53074248691308
  0
ARC
  5
184
330
1E
100
AcDbEntity
  8
0
 62
     7
100
AcDbCircle
 10
-2.199999994007868
 20
16.3999997536083
 30
0.0
 40
0.3999999939096988
100
AcDbArc
 50
269.9999991276425
 51
0.0000000101843907
  0
ARC
  5
185
330
1E
100
AcDbEntity
  8
0
 62
     7
100
AcDbCircle
 10
3.699999993938493
 20
16.3999997537353
 30
0.0
 40
0.3999999940367589
100
AcDbArc
 50
180.0000000080073
 51
270.0000000080129
  0
ARC
  5
186
330
1E
100
AcDbEntity
  8
0
 62
     7
100
AcDbCircle
 10
-2.199999994000308
 20
-16.399999753593
 30
0.0
 40
0.3999999939020999
100
AcDbArc
 50
359.9999999909046
 51
90.00000087344039
  0
ARC
  5
187
330
1E
100
AcDbEntity
  8
0
 62
     7
100
AcDbCircle
 10
3.699999993930932
 20
-16.39999975372
 30
0.0
 40
0.3999999940291001
100
AcDbArc
 50
89.99999999090432
 51
179.999999990904
  0
ARC
  5
188
330
1E
100
AcDbEntity
  8
0
 62
     7
100
AcDbCircle
 10
8.199999944543659
 20
55.2999991693197
 30
0.0
 40
0.2999999954804977
100
AcDbArc
 50
270.0000000024331
 51
0.0000000024263816
  0
ARC
  5
18D
330
1E
100
AcDbEntity
  8
1
 62
     7
100
AcDbCircle
 10
-19.202
 20
-46.78199999999989
 30
0.0
 40
3.0
100
AcDbArc
 50
180.0
 51
270.0
  0
ARC
  5
18E
330
1E
100
AcDbEntity
  8
1
 62
     7
100
AcDbCircle
 10
-19.202
 20
46.78199999999989
 30
0.0
 40
3.0
100
AcDbArc
 50
90.0
 51
180.0
  0
ARC
  5
18F
330
1E
100
AcDbEntity
  8
1
 62
     7
100
AcDbCircle
 10
-18.94999999999998
 20
46.6300000000001
 30
0.0
 40
2.450510150968463
100
AcDbArc
 50
91.16913932790749
 51
181.1691393279098
  0
ARC
  5
190
330
1E
100
AcDbEntity
  8
1
 62
     7
100
AcDbCircle
 10
-18.94999999999998
 20
-46.63
 30
0.0
 40
2.450510150968568
100
AcDbArc
 50
178.8308606720925
 51
268.8308606720925
  0
ARC
  5
191
330
1E
100
AcDbEntity
  8
1
 62
     7
100
AcDbCircle
 10
25.2999999999999
 20
49.71715728752538
 30
0.0
 40
0.2000000000000988
100
AcDbArc
 50
0.0
 51
45.00000000001942
  0
ARC
  5
192
330
1E
100
AcDbEntity
  8
1
 62
     7
100
AcDbCircle
 10
25.2999999999999
 20
49.33268224848259
 30
0.0
 40
0.1999999999999814
100
AcDbArc
 50
273.0000000000028
 51
0.0
  0
ARC
  5
193
330
1E
100
AcDbEntity
  8
1
 62
     7
100
AcDbCircle
 10
25.2999999999999
 20
-49.33268224848259
 30
0.0
 40
0.2000000000000988
100
AcDbArc
 50
0.0
 51
86.9999999999972
  0
ARC
  5
194
330
1E
100
AcDbEntity
  8
1
 62
     7
100
AcDbCircle
 10
25.2999999999999
 20
-49.7171572875255
 30
0.0
 40
0.199999999999982
100
AcDbArc
 50
315.0000000000007
 51
0.0
  0
ARC
  5
195
330
1E
100
AcDbEntity
  8
1
 62
     7
100
AcDbCircle
 10
8.199999939744767
 20
-54.8656846051777
 30
0.0
 40
0.3000000000000114
100
AcDbArc
 50
0.0
 51
90.0
  0
ARC
  5
196
330
1E
100
AcDbEntity
  8
1
 62
     7
100
AcDbCircle
 10
-22.60199999999989
 20
32.4
 30
0.0
 40
0.3999999999999986
100
AcDbArc
 50
270.0
 51
0.0
  0
ARC
  5
197
330
1E
100
AcDbEntity
  8
1
 62
     7
100
AcDbCircle
 10
-22.60199999999989
 20
-32.39999999999989
 30
0.0
 40
0.3999999999998991
100
AcDbArc
 50
0.0
 51
90.0
  0
ARC
  5
198
330
1E
100
AcDbEntity
  8
1
  6
CENTER
 62
     3
100
AcDbCircle
 10
-155.4999999999999
 20
0.0000000022897098
 30
0.0
 40
27.99999999999994
100
AcDbArc
 50
275.0
 51
310.0000000000001
  0
ARC
  5
199
330
1E
100
AcDbEntity
  8
1
  6
CENTER
 62
     3
100
AcDbCircle
 10
-155.4999999999999
 20
0.0000000022897098
 30
0.0
 40
28.00000000000011
100
AcDbArc
 50
94.99999999999971
 51
129.9999999999999
  0
ARC
  5
19A
330
1E
100
AcDbEntity
  8
0
 62
     7
100
AcDbCircle
 10
158.8499665244994
 20
-18.93333304658948
 30
0.0
 40
1.066666650666798
100
AcDbArc
 50
270.0000000007954
 51
0.0000000000704175
  0
ARC
  5
19B
330
1E
100
AcDbEntity
  8
0
 62
     7
100
AcDbCircle
 10
160.983299825791
 20
-16.76306906020657
 30
0.0
 40
1.066666650650015
100
AcDbArc
 50
109.2696388775032
 51
180.0
  0
ARC
  5
19C
330
1E
100
AcDbEntity
  8
0
 62
     7
100
AcDbCircle
 10
154.7966332520442
 20
0.9333333216372068
 30
0.0
 40
17.67999973441138
100
AcDbArc
 50
289.2696388779723
 51
89.99999999999408
  0
ARC
  5
19D
330
1E
100
AcDbEntity
  8
0
 62
     7
100
AcDbCircle
 10
150.7432999796101
 20
-18.93333304658819
 30
0.0
 40
1.066666650668111
100
AcDbArc
 50
180.0
 51
269.9999999985495
  0
ARC
  5
19E
330
1E
100
AcDbEntity
  8
0
 62
     7
100
AcDbCircle
 10
148.6099666783083
 20
-16.76306906021679
 30
0.0
 40
1.066666650661006
100
AcDbArc
 50
0.0000000005478824
 51
70.73036112248455
  0
ARC
  5
19F
330
1E
100
AcDbEntity
  8
0
 62
     7
100
AcDbCircle
 10
154.7966332520476
 20
0.9333333216372068
 30
0.0
 40
17.67999973441129
100
AcDbArc
 50
90.0000000000058
 51
250.7303611220285
  0
ARC
  5
1A0
330
1E
100
AcDbEntity
  8
1
 62
     7
100
AcDbCircle
 10
154.7966332506784
 20
0.0000000022897098
 30
0.0
 40
6.999999894711502
100
AcDbArc
 50
110.9248324360957
 51
69.07516757554687
  0
ARC
  5
1A1
330
1E
100
AcDbEntity
  8
1
 62
     7
100
AcDbCircle
 10
154.796633250501
 20
0.0000000023696884
 30
0.0
 40
43.63999999999993
100
AcDbArc
 50
81.17733107430037
 51
83.1704950107
  0
ARC
  5
1A2
330
1E
100
AcDbEntity
  8
1
 62
     7
100
AcDbCircle
 10
154.796633250501
 20
0.0000000023696884
 30
0.0
 40
43.6399999999996
100
AcDbArc
 50
65.52515716130024
 51
67.5183210977001
  0
ARC
  5
1A3
330
1E
100
AcDbEntity
  8
1
 62
     7
100
AcDbCircle
 10
154.796633250501
 20
0.0000000023696884
 30
0.0
 40
43.64000000000006
100
AcDbArc
 50
49.8729832483001
 51
51.86614718469996
  0
ARC
  5
1A4
330
1E
100
AcDbEntity
  8
1
 62
     7
100
AcDbCircle
 10
154.796633250501
 20
0.0000000023696884
 30
0.0
 40
43.63999999999957
100
AcDbArc
 50
34.22080933530082
 51
36.21397327170039
  0
ARC
  5
1A5
330
1E
100
AcDbEntity
  8
1
 62
     7
100
AcDbCircle
 10
154.796633250501
 20
0.0000000023696884
 30
0.0
 40
43.63999999999959
100
AcDbArc
 50
18.5686354223009
 51
20.56179935869955
  0
ARC
  5
1A6
330
1E
100
AcDbEntity
  8
1
 62
     7
100
AcDbCircle
 10
154.796633250501
 20
0.0000000023696884
 30
0.0
 40
43.63999999999964
100
AcDbArc
 50
2.916461509300513
 51
4.909625445699637
  0
ARC
  5
1A7
330
1E
100
AcDbEntity
  8
1
 62
     7
100
AcDbCircle
 10
154.796633250501
 20
0.0000000023696884
 30
0.0
 40
43.64000000000021
100
AcDbArc
 50
347.2642875963009
 51
349.2574515327
  0
ARC
  5
1A8
330
1E
100
AcDbEntity
  8
1
 62
     7
100
AcDbCircle
 10
154.796633250501
 20
0.0000000023696884
 30
0.0
 40
43.63999999999995
100
AcDbArc
 50
331.6121136833011
 51
333.6052776196996
  0
ARC
  5
1A9
330
1E
100
AcDbEntity
  8
1
 62
     7
100
AcDbCircle
 10
154.796633250501
 20
0.0000000023696884
 30
0.0
 40
43.63999999999977
100
AcDbArc
 50
315.9599397703003
 51
317.9531037066996
  0
ARC
  5
1AA
330
1E
100
AcDbEntity
  8
1
 62
     7
100
AcDbCircle
 10
154.796633250501
 20
0.0000000023696884
 30
0.0
 40
43.63999999999984
100
AcDbArc
 50
300.3077658573003
 51
302.3009297937001
  0
ARC
  5
1AB
330
1E
100
AcDbEntity
  8
1
 62
     7
100
AcDbCircle
 10
154.796633250501
 20
0.0000000023696884
 30
0.0
 40
43.63999999999995
100
AcDbArc
 50
284.6555919443016
 51
286.6487558806998
  0
ARC
  5
1AC
330
1E
100
AcDbEntity
  8
1
 62
     7
100
AcDbCircle
 10
154.796633250501
 20
0.0000000023696884
 30
0.0
 40
40.93999999999925
100
AcDbArc
 50
81.37006817971641
 51
82.97775790528218
  0
ARC
  5
1AD
330
1E
100
AcDbEntity
  8
1
 62
     7
100
AcDbCircle
 10
154.796633250501
 20
0.0000000023696884
 30
0.0
 40
40.93999999999964
100
AcDbArc
 50
65.7178942667167
 51
67.32558399228231
  0
ARC
  5
1AE
330
1E
100
AcDbEntity
  8
1
 62
     7
100
AcDbCircle
 10
154.796633250501
 20
0.0000000023696884
 30
0.0
 40
40.9399999999993
100
AcDbArc
 50
50.06572035371706
 51
51.67341007928328
  0
ARC
  5
1AF
330
1E
100
AcDbEntity
  8
1
 62
     7
100
AcDbCircle
 10
154.796633250501
 20
0.0000000023696884
 30
0.0
 40
40.93999999999982
100
AcDbArc
 50
34.4135464407171
 51
36.02123616628303
  0
ARC
  5
1B0
330
1E
100
AcDbEntity
  8
1
 62
     7
100
AcDbCircle
 10
154.796633250501
 20
0.0000000023696884
 30
0.0
 40
40.93999999999929
100
AcDbArc
 50
18.76137252771718
 51
20.36906225328303
  0
ARC
  5
1B1
330
1E
100
AcDbEntity
  8
1
 62
     7
100
AcDbCircle
 10
154.796633250501
 20
0.0000000023696884
 30
0.0
 40
40.93999999999907
100
AcDbArc
 50
3.109198614717564
 51
4.716888340283015
  0
ARC
  5
1B2
330
1E
100
AcDbEntity
  8
1
 62
     7
100
AcDbCircle
 10
154.796633250501
 20
0.0000000023696884
 30
0.0
 40
40.93999999999964
100
AcDbArc
 50
347.4570247017172
 51
349.0647144272831
  0
ARC
  5
1B3
330
1E
100
AcDbEntity
  8
1
 62
     7
100
AcDbCircle
 10
154.796633250501
 20
0.0000000023696884
 30
0.0
 40
40.93999999999918
100
AcDbArc
 50
331.8048507887175
 51
333.4125405142827
  0
ARC
  5
1B4
330
1E
100
AcDbEntity
  8
1
 62
     7
100
AcDbCircle
 10
154.796633250501
 20
0.0000000023696884
 30
0.0
 40
40.9399999999997
100
AcDbArc
 50
316.1526768757171
 51
317.7603666012826
  0
ARC
  5
1B5
330
1E
100
AcDbEntity
  8
1
 62
     7
100
AcDbCircle
 10
154.796633250501
 20
0.0000000023696884
 30
0.0
 40
40.93999999999936
100
AcDbArc
 50
300.5005029627175
 51
302.1081926882839
  0
ARC
  5
1B6
330
1E
100
AcDbEntity
  8
1
 62
     7
100
AcDbCircle
 10
154.796633250501
 20
0.0000000023696884
 30
0.0
 40
40.93999999999943
100
AcDbArc
 50
284.8483290497181
 51
286.4560187752838
  0
ARC
  5
1B7
330
1E
100
AcDbEntity
  8
1
 62
     7
100
AcDbCircle
 10
166.2171305742579
 20
40.76028877561157
 30
0.0
 40
5.285000000000152
100
AcDbArc
 50
304.5725802294971
 51
17.27600995056041
  0
ARC
  5
1B8
330
1E
100
AcDbEntity
  8
1
 62
     7
100
AcDbCircle
 10
166.2171305742579
 20
40.76028877561157
 30
0.0
 40
5.284999999999977
100
AcDbArc
 50
131.419642221442
 51
204.1230719425073
  0
ARC
  5
1B9
330
1E
100
AcDbEntity
  8
1
 62
     7
100
AcDbCircle
 10
176.7906218560769
 20
36.16757339647256
 30
0.0
 40
5.285000000000402
100
AcDbArc
 50
288.9204063164961
 51
1.623836037556994
  0
ARC
  5
1BA
330
1E
100
AcDbEntity
  8
1
 62
     7
100
AcDbCircle
 10
176.7906218560769
 20
36.16757339647256
 30
0.0
 40
5.285000000000244
100
AcDbArc
 50
115.76746830844
 51
188.4708980295095
  0
ARC
  5
1BB
330
1E
100
AcDbEntity
  8
1
 62
     7
100
AcDbCircle
 10
185.7329196188319
 20
28.89247455434634
 30
0.0
 40
5.284999999999961
100
AcDbArc
 50
273.2682324034951
 51
345.9716621245603
  0
ARC
  5
1BC
330
1E
100
AcDbEntity
  8
1
 62
     7
100
AcDbCircle
 10
185.7329196188319
 20
28.89247455434634
 30
0.0
 40
5.284999999999485
100
AcDbArc
 50
100.115294395432
 51
172.8187241165086
  0
ARC
  5
1BD
330
1E
100
AcDbEntity
  8
1
 62
     7
100
AcDbCircle
 10
192.380814545755
 20
19.47455304898767
 30
0.0
 40
5.285000000000223
100
AcDbArc
 50
257.6160584904881
 51
330.3194882115598
  0
ARC
  5
1BE
330
1E
100
AcDbEntity
  8
1
 62
     7
100
AcDbCircle
 10
192.380814545755
 20
19.47455304898767
 30
0.0
 40
5.284999999999846
100
AcDbArc
 50
84.46312048245003
 51
157.1665502035109
  0
ARC
  5
1BF
330
1E
100
AcDbEntity
  8
1
 62
     7
100
AcDbCircle
 10
196.2412626822119
 20
8.612293034322192
 30
0.0
 40
5.285000000000266
100
AcDbArc
 50
241.9638845774859
 51
314.6673142985584
  0
ARC
  5
1C0
330
1E
100
AcDbEntity
  8
1
 62
     7
100
AcDbCircle
 10
196.2412626822119
 20
8.612293034322192
 30
0.0
 40
5.284999999999786
100
AcDbArc
 50
68.81094656943836
 51
141.514376290515
  0
ARC
  5
1C1
330
1E
100
AcDbEntity
  8
1
 62
     7
100
AcDbCircle
 10
197.0279522502998
 20
-2.888701355901503
 30
0.0
 40
5.284999999999977
100
AcDbArc
 50
226.3117106644945
 51
299.0151403855546
  0
ARC
  5
1C2
330
1E
100
AcDbEntity
  8
1
 62
     7
100
AcDbCircle
 10
197.0279522502998
 20
-2.888701355901503
 30
0.0
 40
5.285000000000295
100
AcDbArc
 50
53.15877265644142
 51
125.8622023775118
  0
ARC
  5
1C3
330
1E
100
AcDbEntity
  8
1
 62
     7
100
AcDbCircle
 10
194.6825380836189
 20
-14.17545398131233
 30
0.0
 40
5.284999999999961
100
AcDbArc
 50
210.6595367514941
 51
283.3629664725621
  0
ARC
  5
1C4
330
1E
100
AcDbEntity
  8
1
 62
     7
100
AcDbCircle
 10
194.6825380836189
 20
-14.17545398131233
 30
0.0
 40
5.28500000000033
100
AcDbArc
 50
37.50659874343554
 51
110.2100284645096
  0
ARC
  5
1C5
330
1E
100
AcDbEntity
  8
1
 62
     7
100
AcDbCircle
 10
189.378968821356
 20
-24.41087803314621
 30
0.0
 40
5.285000000000551
100
AcDbArc
 50
195.0073628384911
 51
267.71079255956
  0
ARC
  5
1C6
330
1E
100
AcDbEntity
  8
1
 62
     7
100
AcDbCircle
 10
189.378968821356
 20
-24.41087803314621
 30
0.0
 40
5.284999999999757
100
AcDbArc
 50
21.8544248304418
 51
94.55785455150831
  0
ARC
  5
1C7
330
1E
100
AcDbEntity
  8
1
 62
     7
100
AcDbCircle
 10
181.5105859334749
 20
-32.83585893343252
 30
0.0
 40
5.285000000000356
100
AcDbArc
 50
179.355188925488
 51
252.0586186465549
  0
ARC
  5
1C8
330
1E
100
AcDbEntity
  8
1
 62
     7
100
AcDbCircle
 10
181.5105859334749
 20
-32.83585893343252
 30
0.0
 40
5.284999999999822
100
AcDbArc
 50
6.202250917444918
 51
78.90568063850562
  0
ARC
  5
1C9
330
1E
100
AcDbEntity
  8
1
 62
     7
100
AcDbCircle
 10
171.6609513833097
 20
-38.82555439052294
 30
0.0
 40
5.285000000000085
100
AcDbArc
 50
163.703015012489
 51
236.4064447335624
  0
ARC
  5
1CA
330
1E
100
AcDbEntity
  8
1
 62
     7
100
AcDbCircle
 10
171.6609513833097
 20
-38.82555439052294
 30
0.0
 40
5.285000000000737
100
AcDbArc
 50
350.5500770044422
 51
63.25350672550777
  0
ARC
  5
1CB
330
1E
100
AcDbEntity
  8
1
 62
     7
100
AcDbCircle
 10
160.560567506364
 20
-41.93573609340091
 30
0.0
 40
5.285000000000087
100
AcDbArc
 50
334.8979030914363
 51
47.60133281251207
  0
ARC
  5
1CC
330
1E
100
AcDbEntity
  8
1
 62
     7
100
AcDbCircle
 10
154.796633250501
 20
42.33000000236962
 30
0.0
 40
5.284999999999847
100
AcDbArc
 50
320.2247541434878
 51
32.92818386455901
  0
ARC
  5
1CD
330
1E
100
AcDbEntity
  8
1
 62
     7
100
AcDbCircle
 10
154.796633250501
 20
0.0000000023696884
 30
0.0
 40
43.63999999999964
100
AcDbArc
 50
96.82950498929985
 51
98.82266892569949
  0
ARC
  5
1CE
330
1E
100
AcDbEntity
  8
1
 62
     7
100
AcDbCircle
 10
154.796633250501
 20
0.0000000023696884
 30
0.0
 40
43.63999999999946
100
AcDbArc
 50
112.4816789022998
 51
114.4748428386997
  0
ARC
  5
1CF
330
1E
100
AcDbEntity
  8
1
 62
     7
100
AcDbCircle
 10
154.796633250501
 20
0.0000000023696884
 30
0.0
 40
43.64000000000017
100
AcDbArc
 50
237.6990702062998
 51
239.6922341426996
  0
ARC
  5
1D0
330
1E
100
AcDbEntity
  8
1
 62
     7
100
AcDbCircle
 10
154.796633250501
 20
0.0000000023696884
 30
0.0
 40
43.63999999999992
100
AcDbArc
 50
253.3512441192998
 51
255.3444080556986
  0
ARC
  5
1D1
330
1E
100
AcDbEntity
  8
1
 62
     7
100
AcDbCircle
 10
154.796633250501
 20
0.0000000023696884
 30
0.0
 40
40.93999999999954
100
AcDbArc
 50
97.0222420947177
 51
98.62993182028343
  0
ARC
  5
1D2
330
1E
100
AcDbEntity
  8
1
 62
     7
100
AcDbCircle
 10
154.796633250501
 20
0.0000000023696884
 30
0.0
 40
40.93999999999954
100
AcDbArc
 50
112.6744160077175
 51
114.2821057332831
  0
ARC
  5
1D3
330
1E
100
AcDbEntity
  8
1
 62
     7
100
AcDbCircle
 10
154.796633250501
 20
0.0000000023696884
 30
0.0
 40
40.93999999999982
100
AcDbArc
 50
237.8918073117159
 51
239.4994970372823
  0
ARC
  5
1D4
330
1E
100
AcDbEntity
  8
1
 62
     7
100
AcDbCircle
 10
154.796633250501
 20
0.0000000023696884
 30
0.0
 40
40.93999999999978
100
AcDbArc
 50
253.5439812247164
 51
255.1516709502818
  0
ARC
  5
1D5
330
1E
100
AcDbEntity
  8
1
 62
     7
100
AcDbCircle
 10
149.0326989946381
 20
-41.93573609340091
 30
0.0
 40
5.285000000000228
100
AcDbArc
 50
319.2457291794391
 51
31.94915890050768
  0
ARC
  5
1D6
330
1E
100
AcDbEntity
  8
1
 62
     7
100
AcDbCircle
 10
160.5605675070949
 20
-41.93573609330042
 30
0.0
 40
5.284999999999652
100
AcDbArc
 50
148.0508411004918
 51
220.7542708215553
  0
ARC
  5
1D7
330
1E
100
AcDbEntity
  8
1
 62
     7
100
AcDbCircle
 10
154.796633250501
 20
0.0000000023696884
 30
0.0
 40
43.63999999999983
100
AcDbArc
 50
269.0034180322991
 51
270.9965819686984
  0
ARC
  5
1D8
330
1E
100
AcDbEntity
  8
1
 62
     7
100
AcDbCircle
 10
154.796633250501
 20
0.0000000023696884
 30
0.0
 40
40.93999999999993
100
AcDbArc
 50
269.1961551377161
 51
270.8038448632815
  0
ARC
  5
1D9
330
1E
100
AcDbEntity
  8
1
 62
     7
100
AcDbCircle
 10
143.3761359267441
 20
40.76028877561157
 30
0.0
 40
5.285000000000176
100
AcDbArc
 50
162.7239900494394
 51
235.4274197705029
  0
ARC
  5
1DA
330
1E
100
AcDbEntity
  8
1
 62
     7
100
AcDbCircle
 10
143.3761359267441
 20
40.76028877561157
 30
0.0
 40
5.285000000000168
100
AcDbArc
 50
335.8769280574925
 51
48.58035777855724
  0
ARC
  5
1DB
330
1E
100
AcDbEntity
  8
1
 62
     7
100
AcDbCircle
 10
132.802644644925
 20
36.16757339647256
 30
0.0
 40
5.284999999999065
100
AcDbArc
 50
351.5291019704896
 51
64.23253169156025
  0
ARC
  5
1DC
330
1E
100
AcDbEntity
  8
1
 62
     7
100
AcDbCircle
 10
128.0826805675272
 20
-32.83585893343252
 30
0.0
 40
5.284999999999877
100
AcDbArc
 50
287.941381353445
 51
0.6448110745119852
  0
ARC
  5
1DD
330
1E
100
AcDbEntity
  8
1
 62
     7
100
AcDbCircle
 10
137.9323151176918
 20
-38.82555439052294
 30
0.0
 40
5.28499999999982
100
AcDbArc
 50
303.5935552664411
 51
16.29698498751119
  0
ARC
  5
1DE
330
1E
100
AcDbEntity
  8
1
 62
     7
100
AcDbCircle
 10
137.9323151176918
 20
-38.82555439052294
 30
0.0
 40
5.285000000000119
100
AcDbArc
 50
116.7464932744894
 51
189.4499229955578
  0
ARC
  5
1DF
330
1E
100
AcDbEntity
  8
1
 62
     7
100
AcDbCircle
 10
149.0326989946381
 20
-41.93573609340091
 30
0.0
 40
5.284999999999735
100
AcDbArc
 50
132.3986671874879
 51
205.1020969085628
  0
ARC
  5
1E0
330
1E
100
AcDbEntity
  8
1
 62
     7
100
AcDbCircle
 10
154.796633250501
 20
42.33000000236962
 30
0.0
 40
5.284999999999715
100
AcDbArc
 50
147.0718161354398
 51
219.7752458565093
  0
ARC
  5
1E1
330
1E
100
AcDbEntity
  8
1
 62
     7
100
AcDbCircle
 10
120.2142976796458
 20
-24.41087803314621
 30
0.0
 40
5.285000000000087
100
AcDbArc
 50
85.44214544849152
 51
158.1455751695579
  0
ARC
  5
1E2
330
1E
100
AcDbEntity
  8
1
 62
     7
100
AcDbCircle
 10
114.9107284173828
 20
-14.17545398131233
 30
0.0
 40
5.284999999999937
100
AcDbArc
 50
69.7899715354903
 51
142.4934012565645
  0
ARC
  5
1E3
330
1E
100
AcDbEntity
  8
1
 62
     7
100
AcDbCircle
 10
114.9107284173828
 20
-14.17545398131233
 30
0.0
 40
5.285000000000182
100
AcDbArc
 50
256.6370335274377
 51
329.3404632485065
  0
ARC
  5
1E4
330
1E
100
AcDbEntity
  8
1
 62
     7
100
AcDbCircle
 10
112.5653142507019
 20
-2.888701355901503
 30
0.0
 40
5.285000000000342
100
AcDbArc
 50
54.13779762248822
 51
126.8412273435582
  0
ARC
  5
1E5
330
1E
100
AcDbEntity
  8
1
 62
     7
100
AcDbCircle
 10
112.5653142507019
 20
-2.888701355901503
 30
0.0
 40
5.284999999999847
100
AcDbArc
 50
240.9848596144454
 51
313.6882893355053
  0
ARC
  5
1E6
330
1E
100
AcDbEntity
  8
1
 62
     7
100
AcDbCircle
 10
113.3520038187898
 20
8.612293034322192
 30
0.0
 40
5.285000000000366
100
AcDbArc
 50
38.48562370948473
 51
111.1890534305615
  0
ARC
  5
1E7
330
1E
100
AcDbEntity
  8
1
 62
     7
100
AcDbCircle
 10
113.3520038187898
 20
8.612293034322192
 30
0.0
 40
5.284999999999987
100
AcDbArc
 50
225.3326857014416
 51
298.0361154225139
  0
ARC
  5
1E8
330
1E
100
AcDbEntity
  8
1
 62
     7
100
AcDbCircle
 10
117.2124519552467
 20
19.47455304898767
 30
0.0
 40
5.285000000000792
100
AcDbArc
 50
22.83344979648885
 51
95.53687951755
  0
ARC
  5
1E9
330
1E
100
AcDbEntity
  8
1
 62
     7
100
AcDbCircle
 10
117.2124519552467
 20
19.47455304898767
 30
0.0
 40
5.28499999999966
100
AcDbArc
 50
209.6805117884401
 51
282.3839415095121
  0
ARC
  5
1EA
330
1E
100
AcDbEntity
  8
1
 62
     7
100
AcDbCircle
 10
123.86034688217
 20
28.89247455434634
 30
0.0
 40
5.285000000000487
100
AcDbArc
 50
194.0283378754396
 51
266.7317675965048
  0
ARC
  5
1EB
330
1E
100
AcDbEntity
  8
1
 62
     7
100
AcDbCircle
 10
154.796633250501
 20
0.0000000023696884
 30
0.0
 40
40.93999999999954
100
AcDbArc
 50
206.5874594857171
 51
208.1951492112824
  0
ARC
  5
1EC
330
1E
100
AcDbEntity
  8
1
 62
     7
100
AcDbCircle
 10
154.796633250501
 20
0.0000000023696884
 30
0.0
 40
40.93999999999961
100
AcDbArc
 50
190.9352855727166
 51
192.5429752982825
  0
ARC
  5
1ED
330
1E
100
AcDbEntity
  8
1
 62
     7
100
AcDbCircle
 10
154.796633250501
 20
0.0000000023696884
 30
0.0
 40
40.93999999999968
100
AcDbArc
 50
175.2831116597169
 51
176.8908013852825
  0
ARC
  5
1EE
330
1E
100
AcDbEntity
  8
1
 62
     7
100
AcDbCircle
 10
154.796633250501
 20
0.0000000023696884
 30
0.0
 40
40.9399999999997
100
AcDbArc
 50
159.6309377467169
 51
161.2386274722829
  0
ARC
  5
1EF
330
1E
100
AcDbEntity
  8
1
 62
     7
100
AcDbCircle
 10
154.796633250501
 20
0.0000000023696884
 30
0.0
 40
40.93999999999934
100
AcDbArc
 50
143.978763833717
 51
145.586453559283
  0
ARC
  5
1F0
330
1E
100
AcDbEntity
  8
1
 62
     7
100
AcDbCircle
 10
154.796633250501
 20
0.0000000023696884
 30
0.0
 40
43.63999999999989
100
AcDbArc
 50
222.0468962933001
 51
224.0400602296994
  0
ARC
  5
1F1
330
1E
100
AcDbEntity
  8
1
 62
     7
100
AcDbCircle
 10
154.796633250501
 20
0.0000000023696884
 30
0.0
 40
43.63999999999975
100
AcDbArc
 50
206.3947223803
 51
208.3878863166986
  0
ARC
  5
1F2
330
1E
100
AcDbEntity
  8
1
 62
     7
100
AcDbCircle
 10
154.796633250501
 20
0.0000000023696884
 30
0.0
 40
43.64000000000022
100
AcDbArc
 50
190.7425484673
 51
192.735712403699
  0
ARC
  5
1F3
330
1E
100
AcDbEntity
  8
1
 62
     7
100
AcDbCircle
 10
154.796633250501
 20
0.0000000023696884
 30
0.0
 40
43.63999999999984
100
AcDbArc
 50
175.0903745543004
 51
177.0835384906995
  0
ARC
  5
1F4
330
1E
100
AcDbEntity
  8
1
 62
     7
100
AcDbCircle
 10
154.796633250501
 20
0.0000000023696884
 30
0.0
 40
43.63999999999967
100
AcDbArc
 50
159.4382006413005
 51
161.4313645776991
  0
ARC
  5
1F5
330
1E
100
AcDbEntity
  8
1
 62
     7
100
AcDbCircle
 10
154.796633250501
 20
0.0000000023696884
 30
0.0
 40
43.63999999999945
100
AcDbArc
 50
143.7860267282997
 51
145.7791906646993
  0
ARC
  5
1F6
330
1E
100
AcDbEntity
  8
1
 62
     7
100
AcDbCircle
 10
128.0826805675272
 20
-32.83585893343252
 30
0.0
 40
5.285000000000351
100
AcDbArc
 50
101.0943193614977
 51
173.7977490825552
  0
ARC
  5
1F7
330
1E
100
AcDbEntity
  8
1
 62
     7
100
AcDbCircle
 10
120.2142976796458
 20
-24.41087803314621
 30
0.0
 40
5.285000000000241
100
AcDbArc
 50
272.2892074404401
 51
344.9926371615088
  0
ARC
  5
1F8
330
1E
100
AcDbEntity
  8
1
 62
     7
100
AcDbCircle
 10
154.796633250501
 20
0.0000000023696884
 30
0.0
 40
40.93999999999989
100
AcDbArc
 50
222.239633398717
 51
223.8473231242826
  0
ARC
  5
1F9
330
1E
100
AcDbEntity
  8
1
 62
     7
100
AcDbCircle
 10
154.796633250501
 20
0.0000000023696884
 30
0.0
 40
43.63999999999989
100
AcDbArc
 50
222.0468962933001
 51
224.0400602296994
  0
ARC
  5
1FA
330
1E
100
AcDbEntity
  8
1
 62
     7
100
AcDbCircle
 10
123.86034688217
 20
28.89247455434634
 30
0.0
 40
5.284999999999556
100
AcDbArc
 50
7.181275883491296
 51
79.8847056045677
  0
ARC
  5
1FB
330
1E
100
AcDbEntity
  8
1
 62
     7
100
AcDbCircle
 10
132.802644644925
 20
36.16757339647256
 30
0.0
 40
5.285000000000478
100
AcDbArc
 50
178.376163962443
 51
251.0795936835015
  0
ARC
  5
1FC
330
1E
100
AcDbEntity
  8
1
 62
     7
100
AcDbCircle
 10
154.796633250501
 20
0.0000000023696884
 30
0.0
 40
40.93999999999954
100
AcDbArc
 50
128.3265899207167
 51
129.9342796462829
  0
ARC
  5
1FD
330
1E
100
AcDbEntity
  8
1
 62
     7
100
AcDbCircle
 10
154.796633250501
 20
0.0000000023696884
 30
0.0
 40
43.63999999999978
100
AcDbArc
 50
128.1338528153001
 51
130.1270167517
  0
ARC
  5
1FE
330
1E
100
AcDbEntity
  8
1
 62
     7
100
AcDbCircle
 10
154.796633250501
 20
0.0000000023696884
 30
0.0
 40
46.60999999999982
100
AcDbArc
 50
237.1437064062813
 51
122.8562935937187
  0
ARC
  5
1FF
330
1E
100
AcDbEntity
  8
1
 62
     7
100
AcDbCircle
 10
160.56056680665
 20
-41.93573618957612
 30
0.0
 40
4.762500000000023
100
AcDbArc
 50
225.8685746167876
 51
250.4324549222382
  0
ARC
  5
200
330
1E
100
AcDbEntity
  8
1
 62
     7
100
AcDbCircle
 10
160.56056680665
 20
-41.93573618957612
 30
0.0
 40
4.762500000000561
100
AcDbArc
 50
52.00873305978999
 51
71.37810528554428
  0
ARC
  5
201
330
1E
100
AcDbEntity
  8
1
 62
     7
100
AcDbCircle
 10
160.56056680665
 20
-41.93573618957612
 30
0.0
 40
4.762500000000041
100
AcDbArc
 50
124.2740667144502
 51
143.6434389401996
  0
ARC
  5
202
330
1E
100
AcDbEntity
  8
1
 62
     7
100
AcDbCircle
 10
160.56056680665
 20
-41.93573618957612
 30
0.0
 40
4.762500000000601
100
AcDbArc
 50
305.2197170777748
 51
329.7835973832081
  0
ARC
  5
203
330
1E
100
AcDbEntity
  8
1
 62
     7
100
AcDbCircle
 10
171.660950794445
 20
-38.82555464630423
 30
0.0
 40
4.76250000000009
100
AcDbArc
 50
241.5207486167905
 51
266.0846289222499
  0
ARC
  5
204
330
1E
100
AcDbEntity
  8
1
 62
     7
100
AcDbCircle
 10
171.660950794445
 20
-38.82555464630423
 30
0.0
 40
4.762500000000366
100
AcDbArc
 50
67.66090705979127
 51
87.03027928553494
  0
ARC
  5
205
330
1E
100
AcDbEntity
  8
1
 62
     7
100
AcDbCircle
 10
171.660950794445
 20
-38.82555464630423
 30
0.0
 40
4.76250000000029
100
AcDbArc
 50
139.9262407144516
 51
159.2956129402013
  0
ARC
  5
206
330
1E
100
AcDbEntity
  8
1
 62
     7
100
AcDbCircle
 10
171.660950794445
 20
-38.82555464630423
 30
0.0
 40
4.76250000000093
100
AcDbArc
 50
320.871891077774
 51
345.4357713832111
  0
ARC
  5
207
330
1E
100
AcDbEntity
  8
1
 62
     7
100
AcDbCircle
 10
181.510585485315
 20
-32.83585929803894
 30
0.0
 40
4.762500000000221
100
AcDbArc
 50
257.1729226167881
 51
281.7368029222306
  0
ARC
  5
208
330
1E
100
AcDbEntity
  8
1
 62
     7
100
AcDbCircle
 10
181.510585485315
 20
-32.83585929803894
 30
0.0
 40
4.762500000000295
100
AcDbArc
 50
83.3130810597993
 51
102.6824532855451
  0
ARC
  5
209
330
1E
100
AcDbEntity
  8
1
 62
     7
100
AcDbCircle
 10
181.510585485315
 20
-32.83585929803894
 30
0.0
 40
4.76250000000087
100
AcDbArc
 50
155.5784147144561
 51
174.9477869402043
  0
ARC
  5
20A
330
1E
100
AcDbEntity
  8
1
 62
     7
100
AcDbCircle
 10
181.510585485315
 20
-32.83585929803894
 30
0.0
 40
4.762499999999641
100
AcDbArc
 50
336.5240650777625
 51
1.087945383209345
  0
ARC
  5
20B
330
1E
100
AcDbEntity
  8
1
 62
     7
100
AcDbCircle
 10
189.3789685252508
 20
-24.41087845263314
 30
0.0
 40
4.762500000000214
100
AcDbArc
 50
272.8250966167883
 51
297.3889769222411
  0
ARC
  5
20C
330
1E
100
AcDbEntity
  8
1
 62
     7
100
AcDbCircle
 10
189.3789685252508
 20
-24.41087845263314
 30
0.0
 40
4.762500000000511
100
AcDbArc
 50
98.96525505979134
 51
118.334627285551
  0
ARC
  5
20D
330
1E
100
AcDbEntity
  8
1
 62
     7
100
AcDbCircle
 10
189.3789685252508
 20
-24.41087845263314
 30
0.0
 40
4.762500000000652
100
AcDbArc
 50
171.2305887144539
 51
190.5999609402035
  0
ARC
  5
20E
330
1E
100
AcDbEntity
  8
1
 62
     7
100
AcDbCircle
 10
189.3789685252508
 20
-24.41087845263314
 30
0.0
 40
4.762499999999758
100
AcDbArc
 50
352.1762390777633
 51
16.74011938320938
  0
ARC
  5
20F
330
1E
100
AcDbEntity
  8
1
 62
     7
100
AcDbCircle
 10
194.6825379331949
 20
-14.17545440456729
 30
0.0
 40
4.762500000000256
100
AcDbArc
 50
288.4772706167943
 51
313.0411509222422
  0
ARC
  5
210
330
1E
100
AcDbEntity
  8
1
 62
     7
100
AcDbCircle
 10
194.6825379331949
 20
-14.17545440456729
 30
0.0
 40
4.76250000000043
100
AcDbArc
 50
114.617429059792
 51
133.9868012855459
  0
ARC
  5
211
330
1E
100
AcDbEntity
  8
1
 62
     7
100
AcDbCircle
 10
194.6825379331949
 20
-14.17545440456729
 30
0.0
 40
4.762500000000104
100
AcDbArc
 50
186.8827627144538
 51
206.252134940203
  0
ARC
  5
212
330
1E
100
AcDbEntity
  8
1
 62
     7
100
AcDbCircle
 10
194.6825379331949
 20
-14.17545440456729
 30
0.0
 40
4.762499999999851
100
AcDbArc
 50
7.828413077764628
 51
32.39229338320814
  0
ARC
  5
213
330
1E
100
AcDbEntity
  8
1
 62
     7
100
AcDbCircle
 10
197.0279522240319
 20
-2.888701739919213
 30
0.0
 40
4.762500000000252
100
AcDbArc
 50
304.1294446167913
 51
328.6933249222438
  0
ARC
  5
214
330
1E
100
AcDbEntity
  8
1
 62
     7
100
AcDbCircle
 10
197.0279522240319
 20
-2.888701739919213
 30
0.0
 40
4.762500000000087
100
AcDbArc
 50
130.2696030597864
 51
149.6389752855414
  0
ARC
  5
215
330
1E
100
AcDbEntity
  8
1
 62
     7
100
AcDbCircle
 10
197.0279522240319
 20
-2.888701739919213
 30
0.0
 40
4.762500000000181
100
AcDbArc
 50
202.534936714453
 51
221.904308940204
  0
ARC
  5
216
330
1E
100
AcDbEntity
  8
1
 62
     7
100
AcDbCircle
 10
197.0279522240319
 20
-2.888701739919213
 30
0.0
 40
4.762500000000203
100
AcDbArc
 50
23.48058707776346
 51
48.04446738320383
  0
ARC
  5
217
330
1E
100
AcDbEntity
  8
1
 62
     7
100
AcDbCircle
 10
196.241262747448
 20
8.612292720388838
 30
0.0
 40
4.762499999999947
100
AcDbArc
 50
319.7816186167868
 51
344.3454989222415
  0
ARC
  5
218
330
1E
100
AcDbEntity
  8
1
 62
     7
100
AcDbCircle
 10
196.241262747448
 20
8.612292720388838
 30
0.0
 40
4.762500000000612
100
AcDbArc
 50
145.9217770597924
 51
165.2911492855469
  0
ARC
  5
219
330
1E
100
AcDbEntity
  8
1
 62
     7
100
AcDbCircle
 10
196.241262747448
 20
8.612292720388838
 30
0.0
 40
4.76250000000059
100
AcDbArc
 50
218.187110714448
 51
237.5564829401971
  0
ARC
  5
21A
330
1E
100
AcDbEntity
  8
1
 62
     7
100
AcDbCircle
 10
196.241262747448
 20
8.612292720388838
 30
0.0
 40
4.762500000000023
100
AcDbArc
 50
39.13276107776322
 51
63.6966413832054
  0
ARC
  5
21B
330
1E
100
AcDbEntity
  8
1
 62
     7
100
AcDbCircle
 10
192.3808146636989
 20
19.47455282136592
 30
0.0
 40
4.762499999999945
100
AcDbArc
 50
335.43379261679
 51
359.9976729222412
  0
ARC
  5
21C
330
1E
100
AcDbEntity
  8
1
 62
     7
100
AcDbCircle
 10
192.3808146636989
 20
19.47455282136592
 30
0.0
 40
4.762500000000323
100
AcDbArc
 50
161.5739510597887
 51
180.9433232855431
  0
ARC
  5
21D
330
1E
100
AcDbEntity
  8
1
 62
     7
100
AcDbCircle
 10
192.3808146636989
 20
19.47455282136592
 30
0.0
 40
4.762500000000278
100
AcDbArc
 50
233.8392847144504
 51
253.2086569402003
  0
ARC
  5
21E
330
1E
100
AcDbEntity
  8
1
 62
     7
100
AcDbCircle
 10
192.3808146636989
 20
19.47455282136592
 30
0.0
 40
4.762499999999755
100
AcDbArc
 50
54.78493507776821
 51
79.34881538321255
  0
ARC
  5
21F
330
1E
100
AcDbEntity
  8
1
 62
     7
100
AcDbCircle
 10
185.732919749943
 20
28.89247441396083
 30
0.0
 40
4.762500000000169
100
AcDbArc
 50
351.0859666167929
 51
15.64984692224293
  0
ARC
  5
220
330
1E
100
AcDbEntity
  8
1
 62
     7
100
AcDbCircle
 10
185.732919749943
 20
28.89247441396083
 30
0.0
 40
4.762500000000297
100
AcDbArc
 50
177.2261250597888
 51
196.5954972855419
  0
ARC
  5
221
330
1E
100
AcDbEntity
  8
1
 62
     7
100
AcDbCircle
 10
185.732919749943
 20
28.89247441396083
 30
0.0
 40
4.76250000000033
100
AcDbArc
 50
249.4914587144454
 51
268.8608309401983
  0
ARC
  5
222
330
1E
100
AcDbEntity
  8
1
 62
     7
100
AcDbCircle
 10
185.732919749943
 20
28.89247441396083
 30
0.0
 40
4.762500000000106
100
AcDbArc
 50
70.43710907776269
 51
95.00098938320567
  0
ARC
  5
223
330
1E
100
AcDbEntity
  8
1
 62
     7
100
AcDbCircle
 10
176.7906219652831
 20
36.16757333006274
 30
0.0
 40
4.762499999999808
100
AcDbArc
 50
6.738140616791469
 51
31.30202092224204
  0
ARC
  5
224
330
1E
100
AcDbEntity
  8
1
 62
     7
100
AcDbCircle
 10
176.7906219652831
 20
36.16757333006274
 30
0.0
 40
4.762500000000886
100
AcDbArc
 50
192.8782990597864
 51
212.2476712855443
  0
ARC
  5
225
330
1E
100
AcDbEntity
  8
1
 62
     7
100
AcDbCircle
 10
176.7906219652831
 20
36.16757333006274
 30
0.0
 40
4.762500000000236
100
AcDbArc
 50
265.1436327144542
 51
284.5130049402066
  0
ARC
  5
226
330
1E
100
AcDbEntity
  8
1
 62
     7
100
AcDbCircle
 10
176.7906219652831
 20
36.16757333006274
 30
0.0
 40
4.762499999999994
100
AcDbArc
 50
86.08928307776777
 51
110.65316338321
  0
ARC
  5
227
330
1E
100
AcDbEntity
  8
1
 62
     7
100
AcDbCircle
 10
166.2171306354393
 20
40.76028875846918
 30
0.0
 40
4.762499999999834
100
AcDbArc
 50
22.39031461679357
 51
46.95419492224199
  0
ARC
  5
228
330
1E
100
AcDbEntity
  8
1
 62
     7
100
AcDbCircle
 10
166.2171306354393
 20
40.76028875846918
 30
0.0
 40
4.762500000000433
100
AcDbArc
 50
208.5304730597859
 51
227.8998452855431
  0
ARC
  5
229
330
1E
100
AcDbEntity
  8
1
 62
     7
100
AcDbCircle
 10
166.2171306354393
 20
40.76028875846918
 30
0.0
 40
4.762499999999903
100
AcDbArc
 50
280.7958067144456
 51
300.1651789402066
  0
ARC
  5
22A
330
1E
100
AcDbEntity
  8
1
 62
     7
100
AcDbCircle
 10
166.2171306354393
 20
40.76028875846918
 30
0.0
 40
4.762500000000295
100
AcDbArc
 50
101.7414570777652
 51
126.3053373832087
  0
ARC
  5
22B
330
1E
100
AcDbEntity
  8
1
 62
     7
100
AcDbCircle
 10
154.796633250501
 20
42.33000000236962
 30
0.0
 40
4.762499999999623
100
AcDbArc
 50
38.04248861679539
 51
62.60636892223994
  0
ARC
  5
22C
330
1E
100
AcDbEntity
  8
1
 62
     7
100
AcDbCircle
 10
154.796633250501
 20
42.33000000236962
 30
0.0
 40
4.762499999999874
100
AcDbArc
 50
296.4479807144516
 51
315.8173529402073
  0
ARC
  5
22D
330
1E
100
AcDbEntity
  8
1
 62
     7
100
AcDbCircle
 10
149.032699694351
 20
-41.93573618957612
 30
0.0
 40
4.762499999999372
100
AcDbArc
 50
289.5675450777618
 51
314.1314253832104
  0
ARC
  5
22E
330
1E
100
AcDbEntity
  8
1
 62
     7
100
AcDbCircle
 10
149.032699694351
 20
-41.93573618957612
 30
0.0
 40
4.762500000001023
100
AcDbArc
 50
108.6218947144567
 51
127.9912669402069
  0
ARC
  5
22F
330
1E
100
AcDbEntity
  8
1
 62
     7
100
AcDbCircle
 10
149.032699694351
 20
-41.93573618957612
 30
0.0
 40
4.762500000000573
100
AcDbArc
 50
36.35656105979378
 51
55.72593328554868
  0
ARC
  5
230
330
1E
100
AcDbEntity
  8
1
 62
     7
100
AcDbCircle
 10
149.032699694351
 20
-41.93573618957612
 30
0.0
 40
4.762499999999949
100
AcDbArc
 50
210.2164026167914
 51
234.780282922233
  0
ARC
  5
231
330
1E
100
AcDbEntity
  8
1
 62
     7
100
AcDbCircle
 10
137.9323157065561
 20
-38.82555464630423
 30
0.0
 40
4.762499999999447
100
AcDbArc
 50
273.9153710777594
 51
298.4792513832071
  0
ARC
  5
232
330
1E
100
AcDbEntity
  8
1
 62
     7
100
AcDbCircle
 10
137.9323157065561
 20
-38.82555464630423
 30
0.0
 40
4.762500000000943
100
AcDbArc
 50
92.9697207144555
 51
112.339092940213
  0
ARC
  5
233
330
1E
100
AcDbEntity
  8
1
 62
     7
100
AcDbCircle
 10
137.9323157065561
 20
-38.82555464630423
 30
0.0
 40
4.762500000000481
100
AcDbArc
 50
20.70438705979481
 51
40.07375928555049
  0
ARC
  5
234
330
1E
100
AcDbEntity
  8
1
 62
     7
100
AcDbCircle
 10
137.9323157065561
 20
-38.82555464630423
 30
0.0
 40
4.762500000000038
100
AcDbArc
 50
194.564228616791
 51
219.1281089222328
  0
ARC
  5
235
330
1E
100
AcDbEntity
  8
1
 62
     7
100
AcDbCircle
 10
128.0826810156871
 20
-32.83585929803894
 30
0.0
 40
4.762499999999693
100
AcDbArc
 50
5.05221305979698
 51
24.42158528555012
  0
ARC
  5
236
330
1E
100
AcDbEntity
  8
1
 62
     7
100
AcDbCircle
 10
132.8026445357189
 20
36.16757333006274
 30
0.0
 40
4.762500000000517
100
AcDbArc
 50
327.7523287144556
 51
347.1217009402113
  0
ARC
  5
237
330
1E
100
AcDbEntity
  8
1
 62
     7
100
AcDbCircle
 10
132.8026445357189
 20
36.16757333006274
 30
0.0
 40
4.76250000000004
100
AcDbArc
 50
255.4869950597942
 51
274.8563672855448
  0
ARC
  5
238
330
1E
100
AcDbEntity
  8
1
 62
     7
100
AcDbCircle
 10
132.8026445357189
 20
36.16757333006274
 30
0.0
 40
4.762500000000044
100
AcDbArc
 50
69.34683661678874
 51
93.91071692224285
  0
ARC
  5
239
330
1E
100
AcDbEntity
  8
1
 62
     7
100
AcDbCircle
 10
143.3761358655629
 20
40.76028875846918
 30
0.0
 40
4.762500000000171
100
AcDbArc
 50
133.0458050777588
 51
157.6096853832066
  0
ARC
  5
23A
330
1E
100
AcDbEntity
  8
1
 62
     7
100
AcDbCircle
 10
143.3761358655629
 20
40.76028875846918
 30
0.0
 40
4.762500000000079
100
AcDbArc
 50
312.1001547144551
 51
331.4695269402136
  0
ARC
  5
23B
330
1E
100
AcDbEntity
  8
1
 62
     7
100
AcDbCircle
 10
143.3761358655629
 20
40.76028875846918
 30
0.0
 40
4.762500000000071
100
AcDbArc
 50
239.8348210597913
 51
259.2041932855426
  0
ARC
  5
23C
330
1E
100
AcDbEntity
  8
1
 62
     7
100
AcDbCircle
 10
143.3761358655629
 20
40.76028875846918
 30
0.0
 40
4.762500000000157
100
AcDbArc
 50
53.69466261679197
 51
78.25854292224541
  0
ARC
  5
23D
330
1E
100
AcDbEntity
  8
1
 62
     7
100
AcDbCircle
 10
154.796633250501
 20
42.33000000236962
 30
0.0
 40
4.762499999999993
100
AcDbArc
 50
117.3936310777591
 51
141.9575113832135
  0
ARC
  5
23E
330
1E
100
AcDbEntity
  8
1
 62
     7
100
AcDbCircle
 10
154.796633250501
 20
42.33000000236962
 30
0.0
 40
4.762499999999874
100
AcDbArc
 50
296.4479807144516
 51
315.8173529402073
  0
ARC
  5
23F
330
1E
100
AcDbEntity
  8
1
 62
     7
100
AcDbCircle
 10
154.796633250501
 20
42.33000000236962
 30
0.0
 40
4.762500000000535
100
AcDbArc
 50
224.182647059785
 51
243.5520192855483
  0
ARC
  5
240
330
1E
100
AcDbEntity
  8
1
 62
     7
100
AcDbCircle
 10
154.796633250501
 20
42.33000000236962
 30
0.0
 40
4.762499999999623
100
AcDbArc
 50
38.04248861679539
 51
62.60636892223994
  0
ARC
  5
241
330
1E
100
AcDbEntity
  8
1
 62
     7
100
AcDbCircle
 10
154.796633250501
 20
0.0000000023696884
 30
0.0
 40
46.60999999999964
100
AcDbArc
 50
122.8562935937187
 51
237.1437064062813
  0
ARC
  5
242
330
1E
100
AcDbEntity
  8
1
 62
     7
100
AcDbCircle
 10
132.8026445357189
 20
36.16757333006274
 30
0.0
 40
4.762499999999853
100
AcDbArc
 50
148.6979790777585
 51
173.2618593832087
  0
ARC
  5
243
330
1E
100
AcDbEntity
  8
1
 62
     7
100
AcDbCircle
 10
123.8603467510587
 20
28.89247441396083
 30
0.0
 40
4.762500000000138
100
AcDbArc
 50
84.99901061679569
 51
109.5628909222385
  0
ARC
  5
244
330
1E
100
AcDbEntity
  8
1
 62
     7
100
AcDbCircle
 10
123.8603467510587
 20
28.89247441396083
 30
0.0
 40
4.762499999999517
100
AcDbArc
 50
164.3501530777574
 51
188.9140333832069
  0
ARC
  5
245
330
1E
100
AcDbEntity
  8
1
 62
     7
100
AcDbCircle
 10
117.2124518373029
 20
19.47455282136592
 30
0.0
 40
4.762499999999938
100
AcDbArc
 50
100.6511846167874
 51
125.2150649222308
  0
ARC
  5
246
330
1E
100
AcDbEntity
  8
1
 62
     7
100
AcDbCircle
 10
117.2124518373029
 20
19.47455282136592
 30
0.0
 40
4.762499999999089
100
AcDbArc
 50
180.0023270777588
 51
204.56620738321
  0
ARC
  5
247
330
1E
100
AcDbEntity
  8
1
 62
     7
100
AcDbCircle
 10
113.3520037535536
 20
8.612292720388838
 30
0.0
 40
4.762500000000021
100
AcDbArc
 50
116.3033586167948
 51
140.8672389222376
  0
ARC
  5
248
330
1E
100
AcDbEntity
  8
1
 62
     7
100
AcDbCircle
 10
113.3520037535536
 20
8.612292720388838
 30
0.0
 40
4.762500000000353
100
AcDbArc
 50
302.4435170598016
 51
321.8128892855511
  0
ARC
  5
249
330
1E
100
AcDbEntity
  8
1
 62
     7
100
AcDbCircle
 10
113.3520037535536
 20
8.612292720388838
 30
0.0
 40
4.762500000001247
100
AcDbArc
 50
14.70885071445334
 51
34.07822294020805
  0
ARC
  5
24A
330
1E
100
AcDbEntity
  8
1
 62
     7
100
AcDbCircle
 10
113.3520037535536
 20
8.612292720388838
 30
0.0
 40
4.76249999999958
100
AcDbArc
 50
195.6545010777583
 51
220.2183813832121
  0
ARC
  5
24B
330
1E
100
AcDbEntity
  8
1
 62
     7
100
AcDbCircle
 10
112.5653142769699
 20
-2.888701739919213
 30
0.0
 40
4.762500000000191
100
AcDbArc
 50
131.9555326167969
 51
156.5194129222369
  0
ARC
  5
24C
330
1E
100
AcDbEntity
  8
1
 62
     7
100
AcDbCircle
 10
112.5653142769699
 20
-2.888701739919213
 30
0.0
 40
4.76249999999982
100
AcDbArc
 50
318.095691059795
 51
337.465063285547
  0
ARC
  5
24D
330
1E
100
AcDbEntity
  8
1
 62
     7
100
AcDbCircle
 10
112.5653142769699
 20
-2.888701739919213
 30
0.0
 40
4.762500000000021
100
AcDbArc
 50
30.36102471445913
 51
49.73039694021364
  0
ARC
  5
24E
330
1E
100
AcDbEntity
  8
1
 62
     7
100
AcDbCircle
 10
112.5653142769699
 20
-2.888701739919213
 30
0.0
 40
4.762500000000183
100
AcDbArc
 50
211.3066750777556
 51
235.8705553832077
  0
ARC
  5
24F
330
1E
100
AcDbEntity
  8
1
 62
     7
100
AcDbCircle
 10
114.9107285678067
 20
-14.17545440456729
 30
0.0
 40
4.762500000000043
100
AcDbArc
 50
147.6077066167919
 51
172.1715869222354
  0
ARC
  5
250
330
1E
100
AcDbEntity
  8
1
 62
     7
100
AcDbCircle
 10
114.9107285678067
 20
-14.17545440456729
 30
0.0
 40
4.762500000000995
100
AcDbArc
 50
46.01319871445384
 51
65.38257094020784
  0
ARC
  5
251
330
1E
100
AcDbEntity
  8
1
 62
     7
100
AcDbCircle
 10
114.9107285678067
 20
-14.17545440456729
 30
0.0
 40
4.762499999999738
100
AcDbArc
 50
226.9588490777578
 51
251.5227293832058
  0
ARC
  5
252
330
1E
100
AcDbEntity
  8
1
 62
     7
100
AcDbCircle
 10
120.2142979757508
 20
-24.41087845263314
 30
0.0
 40
4.762499999999855
100
AcDbArc
 50
163.2598806167906
 51
187.8237609222366
  0
ARC
  5
253
330
1E
100
AcDbEntity
  8
1
 62
     7
100
AcDbCircle
 10
117.2124518373029
 20
19.47455282136592
 30
0.0
 40
4.762500000000079
100
AcDbArc
 50
286.7913430597997
 51
306.1607152855494
  0
ARC
  5
254
330
1E
100
AcDbEntity
  8
1
 62
     7
100
AcDbCircle
 10
117.2124518373029
 20
19.47455282136592
 30
0.0
 40
4.762500000000997
100
AcDbArc
 50
359.0566767144567
 51
18.42604894021089
  0
ARC
  5
255
330
1E
100
AcDbEntity
  8
1
 62
     7
100
AcDbCircle
 10
123.8603467510587
 20
28.89247441396083
 30
0.0
 40
4.762499999999909
100
AcDbArc
 50
271.1391690598018
 51
290.5085412855531
  0
ARC
  5
256
330
1E
100
AcDbEntity
  8
1
 62
     7
100
AcDbCircle
 10
123.8603467510587
 20
28.89247441396083
 30
0.0
 40
4.76250000000057
100
AcDbArc
 50
343.4045027144581
 51
2.773874940211188
  0
ARC
  5
257
330
1E
100
AcDbEntity
  8
1
 62
     7
100
AcDbCircle
 10
128.0826810156871
 20
-32.83585929803894
 30
0.0
 40
4.762500000000223
100
AcDbArc
 50
178.9120546167908
 51
203.4759349222356
  0
ARC
  5
258
330
1E
100
AcDbEntity
  8
1
 62
     7
100
AcDbCircle
 10
128.0826810156871
 20
-32.83585929803894
 30
0.0
 40
4.762499999999306
100
AcDbArc
 50
258.263197077765
 51
282.8270773832088
  0
ARC
  5
259
330
1E
100
AcDbEntity
  8
1
 62
     7
100
AcDbCircle
 10
120.2142979757508
 20
-24.41087845263314
 30
0.0
 40
4.762499999999487
100
AcDbArc
 50
242.6110230777589
 51
267.1749033832115
  0
ARC
  5
25A
330
1E
100
AcDbEntity
  8
1
 62
     7
100
AcDbCircle
 10
120.2142979757508
 20
-24.41087845263314
 30
0.0
 40
4.762500000000255
100
AcDbArc
 50
349.4000390597965
 51
8.769411285545785
  0
ARC
  5
25B
330
1E
100
AcDbEntity
  8
1
 62
     7
100
AcDbCircle
 10
120.2142979757508
 20
-24.41087845263314
 30
0.0
 40
4.762500000001308
100
AcDbArc
 50
61.6653727144489
 51
81.03474494020851
  0
ARC
  5
25C
330
1E
100
AcDbEntity
  8
1
 62
     7
100
AcDbCircle
 10
114.9107285678067
 20
-14.17545440456729
 30
0.0
 40
4.76250000000016
100
AcDbArc
 50
333.747865059797
 51
353.1172372855463
  0
CIRCLE
  5
25D
330
1E
100
AcDbEntity
  8
1
 62
     7
100
AcDbCircle
 10
-214.3471168241938
 20
11.7054193232573
 30
0.0
 40
3.299999999999958
  0
CIRCLE
  5
25E
330
1E
100
AcDbEntity
  8
1
 62
     7
100
AcDbCircle
 10
-205.3881767381528
 20
33.33421398346579
 30
0.0
 40
3.299999999999898
  0
CIRCLE
  5
25F
330
1E
100
AcDbEntity
  8
1
 62
     7
100
AcDbCircle
 10
-188.8342139811761
 20
49.88817674044239
 30
0.0
 40
3.29999999999995
  0
CIRCLE
  5
260
330
1E
100
AcDbEntity
  8
1
 62
     7
100
AcDbCircle
 10
-167.2054193209678
 20
58.84711682648359
 30
0.0
 40
3.300000000000026
  0
CIRCLE
  5
261
330
1E
100
AcDbEntity
  8
1
 62
     7
100
AcDbCircle
 10
-143.7945806790324
 20
58.84711682648359
 30
0.0
 40
3.299999999999952
  0
CIRCLE
  5
262
330
1E
100
AcDbEntity
  8
1
 62
     7
100
AcDbCircle
 10
-122.1657860188239
 20
49.88817674044239
 30
0.0
 40
3.299999999999908
  0
CIRCLE
  5
263
330
1E
100
AcDbEntity
  8
1
 62
     7
100
AcDbCircle
 10
-105.6118232618473
 20
33.33421398346579
 30
0.0
 40
3.300000000000046
  0
CIRCLE
  5
264
330
1E
100
AcDbEntity
  8
1
 62
     7
100
AcDbCircle
 10
-96.65288317580628
 20
11.70541932325739
 30
0.0
 40
3.299999999999982
  0
CIRCLE
  5
265
330
1E
100
AcDbEntity
  8
1
 62
     7
100
AcDbCircle
 10
-96.65288317580628
 20
-11.705419318678
 30
0.0
 40
3.29999999999995
  0
CIRCLE
  5
266
330
1E
100
AcDbEntity
  8
1
 62
     7
100
AcDbCircle
 10
-105.6118232618474
 20
-33.33421397888651
 30
0.0
 40
3.299999999999998
  0
CIRCLE
  5
267
330
1E
100
AcDbEntity
  8
1
 62
     7
100
AcDbCircle
 10
-122.1657860188239
 20
-49.88817673586311
 30
0.0
 40
3.299999999999982
  0
CIRCLE
  5
268
330
1E
100
AcDbEntity
  8
1
 62
     7
100
AcDbCircle
 10
-143.7945806790324
 20
-58.84711682190419
 30
0.0
 40
3.299999999999976
  0
CIRCLE
  5
269
330
1E
100
AcDbEntity
  8
1
 62
     7
100
AcDbCircle
 10
-167.2054193209677
 20
-58.84711682190419
 30
0.0
 40
3.299999999999993
  0
CIRCLE
  5
26A
330
1E
100
AcDbEntity
  8
1
 62
     7
100
AcDbCircle
 10
-188.8342139811761
 20
-49.88817673586311
 30
0.0
 40
3.300000000000057
  0
CIRCLE
  5
26B
330
1E
100
AcDbEntity
  8
1
 62
     7
100
AcDbCircle
 10
-205.3881767381527
 20
-33.33421397888651
 30
0.0
 40
3.299999999999958
  0
CIRCLE
  5
26C
330
1E
100
AcDbEntity
  8
1
 62
     7
100
AcDbCircle
 10
-214.3471168241938
 20
-11.705419318678
 30
0.0
 40
3.300000000000095
  0
CIRCLE
  5
26D
330
1E
100
AcDbEntity
  8
1
 62
     7
100
AcDbCircle
 10
-155.4999999999999
 20
0.0000000022897098
 30
0.0
 40
51.21399999999997
  0
CIRCLE
  5
26E
330
1E
100
AcDbEntity
  8
1
 62
     3
100
AcDbCircle
 10
-144.7848638937774
 20
-25.8686269080263
 30
0.0
 40
3.000000000000006
  0
CIRCLE
  5
26F
330
1E
100
AcDbEntity
  8
1
 62
     7
100
AcDbCircle
 10
-144.7848638937774
 20
-25.8686269080263
 30
0.0
 40
2.399999999999915
  0
CIRCLE
  5
270
330
1E
100
AcDbEntity
  8
1
 62
     7
100
AcDbCircle
 10
-166.2151361062225
 20
25.86862691260581
 30
0.0
 40
2.400000000000058
  0
CIRCLE
  5
271
330
1E
100
AcDbEntity
  8
1
 62
     3
100
AcDbCircle
 10
-166.2151361062225
 20
25.86862691260581
 30
0.0
 40
3.000000000000026
  0
CIRCLE
  5
272
330
1E
100
AcDbEntity
  8
1
 62
     7
100
AcDbCircle
 10
-137.8223304703363
 20
17.67766953195339
 30
0.0
 40
5.500000000000007
  0
CIRCLE
  5
273
330
1E
100
AcDbEntity
  8
1
 62
     7
100
AcDbCircle
 10
-130.4999999999999
 20
0.0000000022897098
 30
0.0
 40
5.5
  0
CIRCLE
  5
274
330
1E
100
AcDbEntity
  8
1
 62
     7
100
AcDbCircle
 10
-137.8223304703363
 20
-17.67766952737389
 30
0.0
 40
5.499999999999988
  0
CIRCLE
  5
275
330
1E
100
AcDbEntity
  8
1
 62
     7
100
AcDbCircle
 10
-155.4999999999999
 20
-24.9999999977102
 30
0.0
 40
5.5
  0
CIRCLE
  5
276
330
1E
100
AcDbEntity
  8
1
 62
     7
100
AcDbCircle
 10
-173.1776695296635
 20
-17.67766952737389
 30
0.0
 40
5.499999999999981
  0
CIRCLE
  5
277
330
1E
100
AcDbEntity
  8
1
 62
     7
100
AcDbCircle
 10
-180.4999999999999
 20
0.000000002289795
 30
0.0
 40
5.5
  0
CIRCLE
  5
278
330
1E
100
AcDbEntity
  8
1
 62
     7
100
AcDbCircle
 10
-173.1776695296635
 20
17.67766953195339
 30
0.0
 40
5.50000000000004
  0
CIRCLE
  5
279
330
1E
100
AcDbEntity
  8
1
 62
     7
100
AcDbCircle
 10
-155.4999999999999
 20
25.00000000228971
 30
0.0
 40
5.5
  0
CIRCLE
  5
27A
330
1E
100
AcDbEntity
  8
1
  6
CENTER
 62
     3
100
AcDbCircle
 10
-155.4999999999999
 20
0.0000000022897098
 30
0.0
 40
25.0
  0
CIRCLE
  5
27B
330
1E
100
AcDbEntity
  8
1
  6
CENTER
 62
     3
100
AcDbCircle
 10
-155.4999999999999
 20
0.0000000022897098
 30
0.0
 40
60.00000000000003
  0
CIRCLE
  5
27C
330
1E
100
AcDbEntity
  8
1
 62
     7
100
AcDbCircle
 10
-155.4999999999999
 20
0.0000000022897098
 30
0.0
 40
15.9999997597163
  0
CIRCLE
  5
27D
330
1E
100
AcDbEntity
  8
1
 62
     7
100
AcDbCircle
 10
-155.4999999999999
 20
0.0000000022897098
 30
0.0
 40
31.9999995194073
  0
CIRCLE
  5
27E
330
1E
100
AcDbEntity
  8
1
 62
     7
100
AcDbCircle
 10
-155.4999999999999
 20
0.0000000022897098
 30
0.0
 40
49.6819992539147
  0
CIRCLE
  5
27F
330
1E
100
AcDbEntity
  8
1
 62
     7
100
AcDbCircle
 10
-155.4999999999999
 20
0.0000000022897098
 30
0.0
 40
54.99999917386459
  0
CIRCLE
  5
280
330
1E
100
AcDbEntity
  8
1
 62
     7
100
AcDbCircle
 10
-155.4999999999999
 20
0.0000000022897098
 30
0.0
 40
67.49999898633743
  0
CIRCLE
  5
281
330
1E
100
AcDbEntity
  8
1
 62
     3
100
AcDbCircle
 10
-155.4999999999999
 20
60.00000000228961
 30
0.0
 40
3.0
  0
CIRCLE
  5
282
330
1E
100
AcDbEntity
  8
1
 62
     7
100
AcDbCircle
 10
-155.4999999999999
 20
60.00000000228961
 30
0.0
 40
3.300000000000011
  0
CIRCLE
  5
283
330
1E
100
AcDbEntity
  8
1
 62
     7
100
AcDbCircle
 10
-155.4999999999999
 20
60.00000000228961
 30
0.0
 40
2.400000000000006
  0
CIRCLE
  5
284
330
1E
100
AcDbEntity
  8
1
 62
     7
100
AcDbCircle
 10
-155.4999999999999
 20
-59.99999999771021
 30
0.0
 40
2.400000000000006
  0
CIRCLE
  5
285
330
1E
100
AcDbEntity
  8
1
 62
     7
100
AcDbCircle
 10
-155.4999999999999
 20
-59.99999999771021
 30
0.0
 40
3.300000000000011
  0
CIRCLE
  5
286
330
1E
100
AcDbEntity
  8
1
 62
     3
100
AcDbCircle
 10
-155.4999999999999
 20
-59.99999999771021
 30
0.0
 40
3.0
  0
CIRCLE
  5
287
330
1E
100
AcDbEntity
  8
1
 62
     7
100
AcDbCircle
 10
213.6437500747025
 20
-11.70541931859808
 30
0.0
 40
3.300000000000037
  0
CIRCLE
  5
288
330
1E
100
AcDbEntity
  8
1
 62
     7
100
AcDbCircle
 10
204.6848099886616
 20
-33.33421397880661
 30
0.0
 40
3.299999999999886
  0
CIRCLE
  5
289
330
1E
100
AcDbEntity
  8
1
 62
     7
100
AcDbCircle
 10
188.1308472316849
 20
-49.88817673578317
 30
0.0
 40
3.299999999999966
  0
CIRCLE
  5
28A
330
1E
100
AcDbEntity
  8
1
 62
     7
100
AcDbCircle
 10
166.5020525714765
 20
-58.84711682182421
 30
0.0
 40
3.299999999999891
  0
CIRCLE
  5
28B
330
1E
100
AcDbEntity
  8
1
 62
     7
100
AcDbCircle
 10
143.091213929541
 20
-58.84711682182429
 30
0.0
 40
3.299999999999879
  0
CIRCLE
  5
28C
330
1E
100
AcDbEntity
  8
1
 62
     7
100
AcDbCircle
 10
143.0912139295412
 20
58.84711682656361
 30
0.0
 40
3.299999999999898
  0
CIRCLE
  5
28D
330
1E
100
AcDbEntity
  8
1
 62
     7
100
AcDbCircle
 10
166.5020525714765
 20
58.84711682656352
 30
0.0
 40
3.299999999999808
  0
CIRCLE
  5
28E
330
1E
100
AcDbEntity
  8
1
 62
     7
100
AcDbCircle
 10
188.1308472316849
 20
49.88817674052231
 30
0.0
 40
3.299999999999898
  0
CIRCLE
  5
28F
330
1E
100
AcDbEntity
  8
1
 62
     7
100
AcDbCircle
 10
204.6848099886616
 20
33.33421398354571
 30
0.0
 40
3.299999999999852
  0
CIRCLE
  5
290
330
1E
100
AcDbEntity
  8
1
 62
     7
100
AcDbCircle
 10
213.6437500747025
 20
11.7054193233373
 30
0.0
 40
3.300000000000011
  0
CIRCLE
  5
291
330
1E
100
AcDbEntity
  8
0
 62
     7
100
AcDbCircle
 10
157.6232998762528
 20
-17.43999973574489
 30
0.0
 40
1.06666665064381
  0
CIRCLE
  5
292
330
1E
100
AcDbEntity
  8
0
 62
     7
100
AcDbCircle
 10
151.9699666278474
 20
-17.43999973574489
 30
0.0
 40
1.066666650638297
  0
CIRCLE
  5
293
330
1E
100
AcDbEntity
  8
1
 62
     7
100
AcDbCircle
 10
154.7966332444861
 20
-59.99999999942708
 30
0.0
 40
3.299999999999982
  0
CIRCLE
  5
294
330
1E
100
AcDbEntity
  8
1
 62
     7
100
AcDbCircle
 10
154.7966332444844
 20
60.00000000057277
 30
0.0
 40
3.300000000000178
  0
CIRCLE
  5
295
330
1E
100
AcDbEntity
  8
1
 62
     3
100
AcDbCircle
 10
154.7966332476994
 20
60.00000000244838
 30
0.0
 40
3.000000000000103
  0
CIRCLE
  5
296
330
1E
100
AcDbEntity
  8
1
 62
     7
100
AcDbCircle
 10
154.7966332476994
 20
60.00000000244838
 30
0.0
 40
2.400000000000233
  0
CIRCLE
  5
297
330
1E
100
AcDbEntity
  8
1
 62
     7
100
AcDbCircle
 10
154.796633247701
 20
-59.9999999975517
 30
0.0
 40
2.399999999999675
  0
CIRCLE
  5
298
330
1E
100
AcDbEntity
  8
1
 62
     3
100
AcDbCircle
 10
154.796633247701
 20
-59.9999999975517
 30
0.0
 40
2.999999999999808
  0
CIRCLE
  5
299
330
1E
100
AcDbEntity
  8
1
 62
     7
100
AcDbCircle
 10
154.796633250522
 20
0.0000000000800071
 30
0.0
 40
21.49999967727048
  0
CIRCLE
  5
29A
330
1E
100
AcDbEntity
  8
1
 62
     7
100
AcDbCircle
 10
154.796633250522
 20
0.0000000000800071
 30
0.0
 40
15.99999975989419
  0
CIRCLE
  5
29B
330
1E
100
AcDbEntity
  8
1
 62
     7
100
AcDbCircle
 10
154.7966332505088
 20
0.0000000023696884
 30
0.0
 40
50.27999999975471
  0
CIRCLE
  5
29C
330
1E
100
AcDbEntity
  8
1
 62
     7
100
AcDbCircle
 10
154.7966332505088
 20
0.0000000023696884
 30
0.0
 40
51.21400000030099
  0
CIRCLE
  5
29D
330
1E
100
AcDbEntity
  8
1
  6
CENTER
 62
     3
100
AcDbCircle
 10
154.7966332471934
 20
0.0000000022897098
 30
0.0
 40
60.0
  0
CIRCLE
  5
29E
330
1E
100
AcDbEntity
  8
1
 62
     7
100
AcDbCircle
 10
154.7966332492521
 20
0.0000000022897098
 30
0.0
 40
67.4999989862357
  0
CIRCLE
  5
29F
330
1E
100
AcDbEntity
  8
1
 62
     7
100
AcDbCircle
 10
95.94951642630491
 20
11.7054193233373
 30
0.0
 40
3.299999999999955
  0
CIRCLE
  5
2A0
330
1E
100
AcDbEntity
  8
1
 62
     7
100
AcDbCircle
 10
104.9084565123461
 20
33.33421398354571
 30
0.0
 40
3.299999999999971
  0
CIRCLE
  5
2A1
330
1E
100
AcDbEntity
  8
1
 62
     7
100
AcDbCircle
 10
121.4624192693225
 20
49.88817674052231
 30
0.0
 40
3.299999999999828
  0
CIRCLE
  5
2A2
330
1E
100
AcDbEntity
  8
1
 62
     7
100
AcDbCircle
 10
121.4624192693227
 20
-49.88817673578317
 30
0.0
 40
3.300000000000009
  0
CIRCLE
  5
2A3
330
1E
100
AcDbEntity
  8
1
 62
     7
100
AcDbCircle
 10
104.9084565123461
 20
-33.33421397880661
 30
0.0
 40
3.299999999999898
  0
CIRCLE
  5
2A4
330
1E
100
AcDbEntity
  8
1
 62
     7
100
AcDbCircle
 10
95.94951642630501
 20
-11.70541931859808
 30
0.0
 40
3.300000000000011
  0
CIRCLE
  5
2A5
330
1E
100
AcDbEntity
  8
1
 62
     7
100
AcDbCircle
 10
154.796633250501
 20
0.0000000023696884
 30
0.0
 40
39.1599999999995
  0
CIRCLE
  5
2A6
330
1E
100
AcDbEntity
  8
1
  6
CENTER
 62
     3
100
AcDbCircle
 10
154.796633250501
 20
0.0000000023696884
 30
0.0
 40
42.32999999999979
  0
CIRCLE
  5
2A7
330
1E
100
AcDbEntity
  8
1
 62
     7
100
AcDbCircle
 10
154.796633250501
 20
0.0000000023696884
 30
0.0
 40
45.41999999999953
  0
CIRCLE
  5
2A8
330
1E
100
AcDbEntity
  8
1
 62
     7
100
AcDbCircle
 10
154.796633250501
 20
0.0000000023696884
 30
0.0
 40
49.08549999999988
  0
CIRCLE
  5
2A9
330
1E
100
AcDbEntity
  8
1
 62
     7
100
AcDbCircle
 10
154.796633250501
 20
0.0000000023696884
 30
0.0
 40
35.55999999999984
  0
CIRCLE
  5
2AA
330
1E
100
AcDbEntity
  8
1
 62
     7
100
AcDbCircle
 10
154.796633250501
 20
0.0000000023696884
 30
0.0
 40
38.12499999999989
  0
CIRCLE
  5
2AB
330
1E
100
AcDbEntity
  8
1
 62
     7
100
AcDbCircle
 10
14.75499999990191
 20
42.3300000023695
 30
0.0
 40
4.662499999999818
  0
CIRCLE
  5
2AC
330
1E
100
AcDbEntity
  8
1
 62
     7
100
AcDbCircle
 10
14.75499999990191
 20
-42.32999999779008
 30
0.0
 40
4.662499999999818
  0
TEXT
  5
2B6
330
1E
100
AcDbEntity
  8
1
 62
     0
100
AcDbText
 10
-95.41522072321692
 20
-136.1176762626949
 30
0.0
 40
4.599999999999998
  1
REMARKS:  M.H.C = MINIMUM HOUSING CLEARANCE
 41
0.8100000000000001
100
AcDbText
  0
TEXT
  5
2B7
330
1E
100
AcDbEntity
  8
1
 62
     0
100
AcDbText
 10
122.2307001208965
 20
-136.6127454296619
 30
0.0
 40
6.0
  1
CSG-40-XXX-2A-GR.dxf
 41
0.8100000000000001
100
AcDbText
  0
DIMENSION
  5
2B8
330
1E
100
AcDbEntity
  8
1
  6
Continuous
 62
     2
100
AcDbDimension
  2
*D0
 10
-24.5000000602552
 20
97.49999898593813
 30
0.0
 11
-8.972128542173788
 21
101.0624989859379
 31
0.0
  1
M.H.C <>
 71
     5
 42
-1.0
  3
DMST_1
100
AcDbAlignedDimension
 13
8.499999940024167
 23
67.0999989921432
 33
0.0
 14
-24.5000000602552
 24
53.0
 34
0.0
100
AcDbRotatedDimension
  0
DIMENSION
  5
2B9
330
1E
100
AcDbEntity
  8
1
  6
Continuous
 62
     2
100
AcDbDimension
  2
*D1
 10
27.49999999986488
 20
-97.49999898648979
 30
0.0
 11
50.9923786286557
 21
-92.3044504811517
 31
0.0
  1
M.H.C <>
 71
     5
 42
-1.0
  3
DMST_1
100
AcDbAlignedDimension
 13
25.4999999998478
 23
-67.09999899214309
 33
0.0
 14
27.49999999986488
 24
-53.0
 34
0.0
100
AcDbRotatedDimension
  0
DIMENSION
  5
2BA
330
1E
100
AcDbEntity
  8
1
  6
Continuous
 62
     2
100
AcDbDimension
  2
*D2
 10
-55.5
 20
53.0
 30
0.0
 11
-59.0625
 21
1.272208901789899
 31
0.0
  1
M.H.C <>
 71
     5
 42
-1.0
  3
DMST_1
100
AcDbAlignedDimension
 13
-24.5000000602552
 23
-53.0
 33
0.0
 14
-24.5000000602552
 24
53.0
 34
0.0
 50
90.0
100
AcDbRotatedDimension
  0
DIMENSION
  5
2BB
330
1E
100
AcDbEntity
  8
1
  6
Continuous
 62
     2
100
AcDbDimension
  2
*D3
 10
57.49999999990192
 20
-53.0
 30
0.0
 11
53.93749999990192
 21
-0.0316574322197312
 31
0.0
  1
M.H.C <>
 71
     5
 42
-1.0
  3
DMST_1
100
AcDbAlignedDimension
 13
27.49999999986488
 23
53.0
 33
0.0
 14
27.49999999986488
 24
-53.0
 34
0.0
 50
90.0
100
AcDbRotatedDimension
  0
INSERT
  5
2C6
330
1E
100
AcDbEntity
  8
0
100
AcDbBlockReference
  2
Harmonic Drive LLC
 10
-151.2073004933951
 20
73.41632124549284
 30
0.0
 41
1.763336605137055
 42
1.763336605137055
 43
1.763336605137055
  0
INSERT
  5
352
330
1E
100
AcDbEntity
  8
0
100
AcDbBlockReference
  2
HD Logo
 10
65.66727258419291
 20
-222.5162002481915
 30
0.0
  0
INSERT
  5
35E
330
1E
100
AcDbEntity
  8
0
100
AcDbBlockReference
  2
NTC
 10
-251.7353415794785
 20
-165.0314530567901
 30
0.0
 41
0.85
 42
0.85
 43
0.85
  0
VIEWPORT
  5
2CD
330
1A
100
AcDbEntity
 67
     1
  8
0
100
AcDbViewport
 10
5.333333052988125
 20
3.999999883606676
 30
0.0
 40
11.63799974576694
 41
9.839066031121584
 68
     1
 69
     1
 12
5.333333052988125
 22
3.999999883606676
 13
0.0
 23
0.0
 14
0.5
 24
0.5
 15
0.5
 25
0.5
 16
0.0
 26
0.0
 36
1.0
 17
0.0
 27
0.0
 37
0.0
 42
50.0
 43
0.0
 44
0.0
 45
9.839066031121584
 50
0.0
 51
0.0
 72
   100
 90
    32800
  1

281
     0
 71
     1
 74
     0
110
0.0
120
0.0
130
0.0
111
1.0
121
0.0
131
0.0
112
0.0
122
1.0
132
0.0
 79
     0
146
0.0
  0
VIEWPORT
  5
2CF
330
1A
100
AcDbEntity
 67
     1
  8
0
100
AcDbViewport
 10
5.3333329685091
 20
4.000000061951284
 30
0.0
 40
8.533332749614565
 41
6.400000099122053
 68
     2
 69
     2
 12
-0.3516833376018269
 22
-69.28236997332979
 13
0.0
 23
0.0
 14
1.0
 24
1.0
 15
0.0
 25
0.0
 16
0.0
 26
0.0
 36
1.0
 17
0.0
 27
0.0
 37
0.0
 42
50.0
 43
0.0
 44
0.0
 45
349.7972492957167
 50
0.0
 51
0.0
 72
   100
 90
    32800
  1

281
     0
 71
     1
 74
     0
110
0.0
120
0.0
130
0.0
111
1.0
121
0.0
131
0.0
112
0.0
122
1.0
132
0.0
 79
     0
146
0.0
  0
ENDSEC
  0
SECTION
  2
OBJECTS
  0
DICTIONARY
  5
C
330
0
100
AcDbDictionary
281
     1
  3
ACAD_GROUP
350
D
  3
ACAD_LAYOUT
350
19
  3
ACAD_MLINESTYLE
350
16
  3
ACAD_PLOTSETTINGS
350
18
  3
ACAD_PLOTSTYLENAME
350
E
  3
AcDbVariableDictionary
350
2C7
  0
DICTIONARY
  5
D
102
{ACAD_REACTORS
330
C
102
}
330
C
100
AcDbDictionary
281
     1
  0
DICTIONARY
  5
19
102
{ACAD_REACTORS
330
C
102
}
330
C
100
AcDbDictionary
281
     1
  3
Layout1
350
1D
  3
Model
350
21
  0
DICTIONARY
  5
16
102
{ACAD_REACTORS
330
C
102
}
330
C
100
AcDbDictionary
281
     1
  3
Standard
350
17
  0
DICTIONARY
  5
18
102
{ACAD_REACTORS
330
C
102
}
330
C
100
AcDbDictionary
281
     1
  0
ACDBDICTIONARYWDFLT
  5
E
102
{ACAD_REACTORS
330
C
102
}
330
C
100
AcDbDictionary
281
     1
  3
Normal
350
F
100
AcDbDictionaryWithDefault
340
F
  0
DICTIONARY
  5
2C7
102
{ACAD_REACTORS
330
C
102
}
330
C
100
AcDbDictionary
281
     1
  3
DIMASSOC
350
2C8
  0
LAYOUT
  5
1D
102
{ACAD_REACTORS
330
19
102
}
330
19
100
AcDbPlotSettings
  1

  2
\\SERVER9\HP LaserJet 5100 PCL 5e
  4
Letter
  6

 40
6.349999904632567
 41
4.233341693878172
 42
6.349990844726562
 43
4.23333740234375
 44
215.8999938964842
 45
279.3999938964843
 46
0.0
 47
0.0
 48
0.0
 49
0.0
140
0.0
141
0.0
142
1.0
143
1.0
 70
   688
 72
     0
 73
     1
 74
     5
  7

 75
    16
147
1.0
148
0.0
149
0.0
100
AcDbLayout
  1
Layout1
 70
     1
 71
     1
 10
-0.1666668268639272
 20
-0.2499999962453767
 11
10.83333293284018
 21
8.249999763458731
 12
0.0
 22
0.0
 32
0.0
 14
1.066223173712173
 24
0.7996673802841308
 34
-0.0015258207003583
 15
9.600769068115353
 25
7.200576801086516
 35
0.0000000349246037
146
0.0
 13
0.0
 23
0.0
 33
0.0
 16
1.0
 26
0.0
 36
0.0
 17
0.0
 27
1.0
 37
0.0
 76
     0
330
1A
331
2CD
  0
LAYOUT
  5
21
102
{ACAD_REACTORS
330
19
102
}
330
19
100
AcDbPlotSettings
  1

  2
\\SERVER9\HP LaserJet 5100 PCL 5e
  4

  6

 40
0.0
 41
0.0
 42
0.0
 43
0.0
 44
0.0
 45
0.0
 46
0.0
 47
0.0
 48
0.0
 49
0.0
140
0.0
141
0.0
142
1.0
143
1.0
 70
  1712
 72
     0
 73
     0
 74
     0
  7

 75
     0
147
1.0
148
0.0
149
0.0
100
AcDbLayout
  1
Model
 70
     1
 71
     0
 10
0.0
 20
0.0
 11
12.0
 21
9.0
 12
0.0
 22
0.0
 32
0.0
 14
0.0
 24
0.0
 34
0.0
 15
0.0
 25
0.0
 35
0.0
146
0.0
 13
0.0
 23
0.0
 33
0.0
 16
1.0
 26
0.0
 36
0.0
 17
0.0
 27
1.0
 37
0.0
 76
     0
330
1E
  0
MLINESTYLE
  5
17
102
{ACAD_REACTORS
330
16
102
}
330
16
100
AcDbMlineStyle
  2
STANDARD
 70
     0
  3

 62
   256
 51
90.0
 52
90.0
 71
     2
 49
0.5
 62
   256
  6
BYLAYER
 49
-0.5
 62
   256
  6
BYLAYER
  0
ACDBPLACEHOLDER
  5
F
102
{ACAD_REACTORS
330
E
102
}
330
E
  0
DICTIONARYVAR
  5
2C8
102
{ACAD_REACTORS
330
2C7
102
}
330
2C7
100
DictionaryVariables
280
     0
  1
1
  0
ENDSEC
  0
EOF
