  0
SECTION
  2
HEADER
  9
$ACADVER
  1
AC1015
  9
$ACADMAINTVER
 70
    13
  9
$DWGCODEPAGE
  3
ANSI_1252
  9
$INSBASE
 10
0.0
 20
0.0
 30
0.0
  9
$EXTMIN
 10
-167.4019768863192
 20
-218.7667321438621
 30
0.0
  9
$EXTMAX
 10
239.6616913279157
 20
55.40922260404901
 30
0.0
  9
$LIMMIN
 10
-100.2030195176505
 20
-94.35
  9
$LIMMAX
 10
158.5512519408163
 20
55.40922260404901
  9
$ORTHOMODE
 70
     0
  9
$REGENMODE
 70
     1
  9
$FILLMODE
 70
     1
  9
$QTEXTMODE
 70
     0
  9
$MIRRTEXT
 70
     1
  9
$LTSCALE
 40
1.0
  9
$ATTMODE
 70
     1
  9
$TEXTSIZE
 40
3.5
  9
$TRACEWID
 40
0.5
  9
$TEXTSTYLE
  7
STANDARD
  9
$CLAYER
  8
0
  9
$CELTYPE
  6
ByLayer
  9
$CECOLOR
 62
   256
  9
$CELTSCALE
 40
1.0
  9
$DISPSILH
 70
     0
  9
$DIMSCALE
 40
1.0
  9
$DIMASZ
 40
0.18
  9
$DIMEXO
 40
0.0625
  9
$DIMDLI
 40
0.38
  9
$DIMRND
 40
0.0
  9
$DIMDLE
 40
0.0
  9
$DIMEXE
 40
0.18
  9
$DIMTP
 40
0.0
  9
$DIMTM
 40
0.0
  9
$DIMTXT
 40
0.18
  9
$DIMCEN
 40
0.09
  9
$DIMTSZ
 40
0.0
  9
$DIMTOL
 70
     0
  9
$DIMLIM
 70
     0
  9
$DIMTIH
 70
     1
  9
$DIMTOH
 70
     1
  9
$DIMSE1
 70
     0
  9
$DIMSE2
 70
     0
  9
$DIMTAD
 70
     0
  9
$DIMZIN
 70
     0
  9
$DIMBLK
  1

  9
$DIMASO
 70
     1
  9
$DIMSHO
 70
     1
  9
$DIMPOST
  1

  9
$DIMAPOST
  1

  9
$DIMALT
 70
     0
  9
$DIMALTD
 70
     2
  9
$DIMALTF
 40
25.4
  9
$DIMLFAC
 40
1.0
  9
$DIMTOFL
 70
     0
  9
$DIMTVP
 40
0.0
  9
$DIMTIX
 70
     0
  9
$DIMSOXD
 70
     0
  9
$DIMSAH
 70
     0
  9
$DIMBLK1
  1

  9
$DIMBLK2
  1

  9
$DIMSTYLE
  2
DMST_1
  9
$DIMCLRD
 70
     0
  9
$DIMCLRE
 70
     0
  9
$DIMCLRT
 70
     0
  9
$DIMTFAC
 40
1.0
  9
$DIMGAP
 40
0.09
  9
$DIMJUST
 70
     0
  9
$DIMSD1
 70
     0
  9
$DIMSD2
 70
     0
  9
$DIMTOLJ
 70
     1
  9
$DIMTZIN
 70
     0
  9
$DIMALTZ
 70
     0
  9
$DIMALTTZ
 70
     0
  9
$DIMUPT
 70
     0
  9
$DIMDEC
 70
     4
  9
$DIMTDEC
 70
     4
  9
$DIMALTU
 70
     2
  9
$DIMALTTD
 70
     2
  9
$DIMTXSTY
  7
STANDARD
  9
$DIMAUNIT
 70
     0
  9
$DIMADEC
 70
     0
  9
$DIMALTRND
 40
0.0
  9
$DIMAZIN
 70
     0
  9
$DIMDSEP
 70
    46
  9
$DIMATFIT
 70
     3
  9
$DIMFRAC
 70
     0
  9
$DIMLDRBLK
  1

  9
$DIMLUNIT
 70
     2
  9
$DIMLWD
 70
    -2
  9
$DIMLWE
 70
    -2
  9
$DIMTMOVE
 70
     0
  9
$LUNITS
 70
     2
  9
$LUPREC
 70
     4
  9
$SKETCHINC
 40
0.1
  9
$FILLETRAD
 40
2.0
  9
$AUNITS
 70
     0
  9
$AUPREC
 70
     0
  9
$MENU
  1
ACAD
  9
$ELEVATION
 40
0.0
  9
$PELEVATION
 40
0.0
  9
$THICKNESS
 40
0.0
  9
$LIMCHECK
 70
     0
  9
$CHAMFERA
 40
0.0
  9
$CHAMFERB
 40
0.0
  9
$CHAMFERC
 40
0.0
  9
$CHAMFERD
 40
0.0
  9
$SKPOLY
 70
     0
  9
$TDCREATE
 40
2453837.629775382
  9
$TDUCREATE
 40
2453837.796442048
  9
$TDUPDATE
 40
2453861.490158958
  9
$TDUUPDATE
 40
2453861.656825625
  9
$TDINDWG
 40
0.0113561574
  9
$TDUSRTIMER
 40
0.0113559722
  9
$USRTIMER
 70
     1
  9
$ANGBASE
 50
0.0
  9
$ANGDIR
 70
     0
  9
$PDMODE
 70
     0
  9
$PDSIZE
 40
0.0
  9
$PLINEWID
 40
0.0
  9
$SPLFRAME
 70
     0
  9
$SPLINETYPE
 70
     6
  9
$SPLINESEGS
 70
     8
  9
$HANDSEED
  5
52B
  9
$SURFTAB1
 70
     6
  9
$SURFTAB2
 70
     6
  9
$SURFTYPE
 70
     6
  9
$SURFU
 70
     6
  9
$SURFV
 70
     6
  9
$UCSBASE
  2

  9
$UCSNAME
  2

  9
$UCSORG
 10
0.0
 20
0.0
 30
0.0
  9
$UCSXDIR
 10
1.0
 20
0.0
 30
0.0
  9
$UCSYDIR
 10
0.0
 20
1.0
 30
0.0
  9
$UCSORTHOREF
  2

  9
$UCSORTHOVIEW
 70
     0
  9
$UCSORGTOP
 10
0.0
 20
0.0
 30
0.0
  9
$UCSORGBOTTOM
 10
0.0
 20
0.0
 30
0.0
  9
$UCSORGLEFT
 10
0.0
 20
0.0
 30
0.0
  9
$UCSORGRIGHT
 10
0.0
 20
0.0
 30
0.0
  9
$UCSORGFRONT
 10
0.0
 20
0.0
 30
0.0
  9
$UCSORGBACK
 10
0.0
 20
0.0
 30
0.0
  9
$PUCSBASE
  2

  9
$PUCSNAME
  2

  9
$PUCSORG
 10
0.0
 20
0.0
 30
0.0
  9
$PUCSXDIR
 10
1.0
 20
0.0
 30
0.0
  9
$PUCSYDIR
 10
0.0
 20
1.0
 30
0.0
  9
$PUCSORTHOREF
  2

  9
$PUCSORTHOVIEW
 70
     0
  9
$PUCSORGTOP
 10
0.0
 20
0.0
 30
0.0
  9
$PUCSORGBOTTOM
 10
0.0
 20
0.0
 30
0.0
  9
$PUCSORGLEFT
 10
0.0
 20
0.0
 30
0.0
  9
$PUCSORGRIGHT
 10
0.0
 20
0.0
 30
0.0
  9
$PUCSORGFRONT
 10
0.0
 20
0.0
 30
0.0
  9
$PUCSORGBACK
 10
0.0
 20
0.0
 30
0.0
  9
$USERI1
 70
     0
  9
$USERI2
 70
     0
  9
$USERI3
 70
     0
  9
$USERI4
 70
     0
  9
$USERI5
 70
     0
  9
$USERR1
 40
0.0
  9
$USERR2
 40
0.0
  9
$USERR3
 40
0.0
  9
$USERR4
 40
0.0
  9
$USERR5
 40
0.0
  9
$WORLDVIEW
 70
     1
  9
$SHADEDGE
 70
     3
  9
$SHADEDIF
 70
    70
  9
$TILEMODE
 70
     1
  9
$MAXACTVP
 70
    64
  9
$PINSBASE
 10
0.0
 20
0.0
 30
0.0
  9
$PLIMCHECK
 70
     0
  9
$PEXTMIN
 10
1.000000000000000E+20
 20
1.000000000000000E+20
 30
1.000000000000000E+20
  9
$PEXTMAX
 10
-1.000000000000000E+20
 20
-1.000000000000000E+20
 30
-1.000000000000000E+20
  9
$PLIMMIN
 10
0.0
 20
0.0
  9
$PLIMMAX
 10
12.0
 20
9.0
  9
$UNITMODE
 70
     0
  9
$VISRETAIN
 70
     1
  9
$PLINEGEN
 70
     0
  9
$PSLTSCALE
 70
     1
  9
$TREEDEPTH
 70
  3020
  9
$CMLSTYLE
  2
Standard
  9
$CMLJUST
 70
     0
  9
$CMLSCALE
 40
1.0
  9
$PROXYGRAPHICS
 70
     1
  9
$MEASUREMENT
 70
     0
  9
$CELWEIGHT
370
    -1
  9
$ENDCAPS
280
     0
  9
$JOINSTYLE
280
     0
  9
$LWDISPLAY
290
     0
  9
$INSUNITS
 70
     0
  9
$HYPERLINKBASE
  1

  9
$STYLESHEET
  1

  9
$XEDIT
290
     1
  9
$CEPSNTYPE
380
     0
  9
$PSTYLEMODE
290
     1
  9
$FINGERPRINTGUID
  2
{B71E0809-3585-427A-9465-0ED1B9E7D7B8}
  9
$VERSIONGUID
  2
{B77C7D28-4072-4455-9C65-80F588BDFF68}
  9
$EXTNAMES
290
     1
  9
$PSVPSCALE
 40
0.0
  9
$OLESTARTUP
290
     0
  0
ENDSEC
  0
SECTION
  2
CLASSES
  0
CLASS
  1
ACDBDICTIONARYWDFLT
  2
AcDbDictionaryWithDefault
  3
AutoCAD 2000
 90
        0
280
     0
281
     0
  0
CLASS
  1
ACDBPLACEHOLDER
  2
AcDbPlaceHolder
  3
AutoCAD 2000
 90
        0
280
     0
281
     0
  0
CLASS
  1
LAYOUT
  2
AcDbLayout
  3
AutoCAD 2000
 90
        0
280
     0
281
     0
  0
CLASS
  1
DICTIONARYVAR
  2
AcDbDictionaryVar
  3
AutoCAD 2000
 90
        0
280
     0
281
     0
  0
ENDSEC
  0
SECTION
  2
TABLES
  0
TABLE
  2
VPORT
  5
8
330
0
100
AcDbSymbolTable
 70
     2
  0
VPORT
  5
52A
330
8
100
AcDbSymbolTableRecord
100
AcDbViewportTableRecord
  2
*Active
 70
     0
 10
0.0
 20
0.0
 11
1.0
 21
1.0
 12
34.58182534677018
 22
-36.99286849379285
 13
0.0
 23
0.0
 14
1.0
 24
1.0
 15
0.0
 25
0.0
 16
0.0
 26
0.0
 36
1.0
 17
0.0
 27
0.0
 37
0.0
 40
282.6190827158193
 41
1.182835820895522
 42
50.0
 43
0.0
 44
0.0
 50
0.0
 51
0.0
 71
     0
 72
   100
 73
     1
 74
     1
 75
     0
 76
     0
 77
     0
 78
     0
281
     0
 65
     1
110
0.0
120
0.0
130
0.0
111
1.0
121
0.0
131
0.0
112
0.0
122
1.0
132
0.0
 79
     0
146
0.0
  0
ENDTAB
  0
TABLE
  2
LTYPE
  5
5
330
0
100
AcDbSymbolTable
 70
     9
  0
LTYPE
  5
13
330
5
100
AcDbSymbolTableRecord
100
AcDbLinetypeTableRecord
  2
ByBlock
 70
     0
  3

 72
    65
 73
     0
 40
0.0
  0
LTYPE
  5
14
330
5
100
AcDbSymbolTableRecord
100
AcDbLinetypeTableRecord
  2
ByLayer
 70
     0
  3

 72
    65
 73
     0
 40
0.0
  0
LTYPE
  5
15
330
5
100
AcDbSymbolTableRecord
100
AcDbLinetypeTableRecord
  2
CONTINUOUS
 70
     0
  3
Solid line
 72
    65
 73
     0
 40
0.0
  0
LTYPE
  5
23
330
5
100
AcDbSymbolTableRecord
100
AcDbLinetypeTableRecord
  2
BORDER
 70
     0
  3
__ __ . __ __ .
 72
    65
 73
     6
 40
11.91631513295571
 49
3.404661466558774
 74
     0
 49
-1.702330733279387
 74
     0
 49
3.404661466558774
 74
     0
 49
-1.702330733279387
 74
     0
 49
0.0
 74
     0
 49
-1.702330733279387
 74
     0
  0
LTYPE
  5
24
330
5
100
AcDbSymbolTableRecord
100
AcDbLinetypeTableRecord
  2
CENTER
 70
     0
  3
____ _ ____ _
 72
    65
 73
     4
 40
13.61864586623509
 49
8.511653666396933
 74
     0
 49
-1.702330733279387
 74
     0
 49
1.702330733279387
 74
     0
 49
-1.702330733279387
 74
     0
  0
LTYPE
  5
25
330
5
100
AcDbSymbolTableRecord
100
AcDbLinetypeTableRecord
  2
DASHDOT
 70
     0
  3
__ . __ . __ .
 72
    65
 73
     4
 40
6.809322933117548
 49
3.404661466558774
 74
     0
 49
-1.702330733279387
 74
     0
 49
0.0
 74
     0
 49
-1.702330733279387
 74
     0
  0
LTYPE
  5
26
330
5
100
AcDbSymbolTableRecord
100
AcDbLinetypeTableRecord
  2
DASHED
 70
     0
  3
__ __ __ __ __
 72
    65
 73
     2
 40
5.10699219983816
 49
3.404661466558774
 74
     0
 49
-1.702330733279387
 74
     0
  0
LTYPE
  5
27
330
5
100
AcDbSymbolTableRecord
100
AcDbLinetypeTableRecord
  2
DIVIDE
 70
     0
  3
__ . . __ . . 
 72
    65
 73
     6
 40
8.511653666396933
 49
3.404661466558774
 74
     0
 49
-1.702330733279387
 74
     0
 49
0.0
 74
     0
 49
-1.702330733279387
 74
     0
 49
0.0
 74
     0
 49
-1.702330733279387
 74
     0
  0
LTYPE
  5
28
330
5
100
AcDbSymbolTableRecord
100
AcDbLinetypeTableRecord
  2
DOT
 70
     0
  3
..............
 72
    65
 73
     4
 40
3.404661466558774
 49
0.0
 74
     0
 49
-1.702330733279387
 74
     0
 49
0.0
 74
     0
 49
-1.702330733279387
 74
     0
  0
LTYPE
  5
29
330
5
100
AcDbSymbolTableRecord
100
AcDbLinetypeTableRecord
  2
HIDDEN
 70
     0
  3
_ _ _ _ _ _ _
 72
    65
 73
     2
 40
2.55349609991908
 49
1.702330733279387
 74
     0
 49
-0.8511653666396934
 74
     0
  0
LTYPE
  5
2A
330
5
100
AcDbSymbolTableRecord
100
AcDbLinetypeTableRecord
  2
PHANTOM
 70
     0
  3
_____ _ _ _____ _ _ 
 72
    65
 73
     6
 40
17.02330733279387
 49
8.511653666396933
 74
     0
 49
-1.702330733279387
 74
     0
 49
1.702330733279387
 74
     0
 49
-1.702330733279387
 74
     0
 49
1.702330733279387
 74
     0
 49
-1.702330733279387
 74
     0
  0
ENDTAB
  0
TABLE
  2
LAYER
  5
2
330
0
100
AcDbSymbolTable
 70
     3
  0
LAYER
  5
10
330
2
100
AcDbSymbolTableRecord
100
AcDbLayerTableRecord
  2
0
 70
     0
 62
     7
  6
CONTINUOUS
370
    -3
390
F
  0
LAYER
  5
2B
330
2
100
AcDbSymbolTableRecord
100
AcDbLayerTableRecord
  2
1
 70
     0
 62
     7
  6
CONTINUOUS
370
    -3
390
F
  0
LAYER
  5
4FA
330
2
100
AcDbSymbolTableRecord
100
AcDbLayerTableRecord
  2
LAYER_1
 70
     0
 62
     5
  6
CONTINUOUS
370
    -3
390
F
  0
ENDTAB
  0
TABLE
  2
STYLE
  5
3
330
0
100
AcDbSymbolTable
 70
     4
  0
STYLE
  5
11
330
3
100
AcDbSymbolTableRecord
100
AcDbTextStyleTableRecord
  2
STANDARD
 70
     0
 40
0.0
 41
1.0
 50
0.0
 71
     0
 42
3.5
  3
txt
  4

  0
STYLE
  5
2C
330
3
100
AcDbSymbolTableRecord
100
AcDbTextStyleTableRecord
  2
SIMPLEX
 70
     0
 40
0.0
 41
1.0
 50
0.0
 71
     0
 42
3.5
  3
simplex
  4

  0
STYLE
  5
2D
330
3
100
AcDbSymbolTableRecord
100
AcDbTextStyleTableRecord
  2
COMPLEX
 70
     0
 40
0.0
 41
1.0
 50
0.0
 71
     0
 42
3.5
  3
complex
  4

  0
STYLE
  5
2E
330
3
100
AcDbSymbolTableRecord
100
AcDbTextStyleTableRecord
  2
ITALIC
 70
     0
 40
0.0
 41
1.0
 50
0.0
 71
     0
 42
3.5
  3
italic
  4

  0
ENDTAB
  0
TABLE
  2
VIEW
  5
6
330
0
100
AcDbSymbolTable
 70
     0
  0
ENDTAB
  0
TABLE
  2
UCS
  5
7
330
0
100
AcDbSymbolTable
 70
     0
  0
ENDTAB
  0
TABLE
  2
APPID
  5
9
330
0
100
AcDbSymbolTable
 70
     1
  0
APPID
  5
12
330
9
100
AcDbSymbolTableRecord
100
AcDbRegAppTableRecord
  2
ACAD
 70
     0
  0
ENDTAB
  0
TABLE
  2
DIMSTYLE
  5
A
330
0
100
AcDbSymbolTable
 70
     2
100
AcDbDimStyleTable
 71
     0
  0
DIMSTYLE
105
22
102
{ACAD_REACTORS
330
476
330
477
330
478
330
479
102
}
330
A
100
AcDbSymbolTableRecord
100
AcDbDimStyleTableRecord
  2
DMST_1
 70
     0
 41
2.5
 42
1.0
 43
7.0
 44
1.0
 73
     0
 74
     0
 77
     1
 78
     9
140
2.5
141
0.0
176
     2
177
     2
178
     2
279
     2
340
11
  0
DIMSTYLE
105
47E
330
A
100
AcDbSymbolTableRecord
100
AcDbDimStyleTableRecord
  2
Standard
 70
     0
340
11
  0
ENDTAB
  0
TABLE
  2
BLOCK_RECORD
  5
1
330
0
100
AcDbSymbolTable
 70
    24
  0
BLOCK_RECORD
  5
1E
330
1
100
AcDbSymbolTableRecord
100
AcDbBlockTableRecord
  2
*Model_Space
340
21
  0
BLOCK_RECORD
  5
1A
330
1
100
AcDbSymbolTableRecord
100
AcDbBlockTableRecord
  2
*Paper_Space
340
1D
  0
BLOCK_RECORD
  5
34
330
1
100
AcDbSymbolTableRecord
100
AcDbBlockTableRecord
  2
*D0
340
0
  0
BLOCK_RECORD
  5
40
330
1
100
AcDbSymbolTableRecord
100
AcDbBlockTableRecord
  2
*D1
340
0
  0
BLOCK_RECORD
  5
4C
330
1
100
AcDbSymbolTableRecord
100
AcDbBlockTableRecord
  2
*D2
340
0
  0
BLOCK_RECORD
  5
56
330
1
100
AcDbSymbolTableRecord
100
AcDbBlockTableRecord
  2
*D3
340
0
  0
BLOCK_RECORD
  5
47A
330
1
100
AcDbSymbolTableRecord
100
AcDbBlockTableRecord
  2
Harmonic Drive LLC
340
0
310
2800000020000000200000000100080000000000000400000000000000000000000000000000000000000000000080000080000000808000800000008000800080800000C0C0C000C0DCC000F0CAA6000020400000206000002080000020A0000020C0000020E00000400000004020000040400000406000004080000040A0
310
000040C0000040E00000600000006020000060400000606000006080000060A0000060C0000060E00000800000008020000080400000806000008080000080A0000080C0000080E00000A0000000A0200000A0400000A0600000A0800000A0A00000A0C00000A0E00000C0000000C0200000C0400000C0600000C0800000C0
310
A00000C0C00000C0E00000E0000000E0200000E0400000E0600000E0800000E0A00000E0C00000E0E00040000000400020004000400040006000400080004000A0004000C0004000E00040200000402020004020400040206000402080004020A0004020C0004020E000404000004040200040404000404060004040800040
310
40A0004040C0004040E00040600000406020004060400040606000406080004060A0004060C0004060E00040800000408020004080400040806000408080004080A0004080C0004080E00040A0000040A0200040A0400040A0600040A0800040A0A00040A0C00040A0E00040C0000040C0200040C0400040C0600040C08000
310
40C0A00040C0C00040C0E00040E0000040E0200040E0400040E0600040E0800040E0A00040E0C00040E0E00080000000800020008000400080006000800080008000A0008000C0008000E00080200000802020008020400080206000802080008020A0008020C0008020E00080400000804020008040400080406000804080
310
008040A0008040C0008040E00080600000806020008060400080606000806080008060A0008060C0008060E00080800000808020008080400080806000808080008080A0008080C0008080E00080A0000080A0200080A0400080A0600080A0800080A0A00080A0C00080A0E00080C0000080C0200080C0400080C0600080C0
310
800080C0A00080C0C00080C0E00080E0000080E0200080E0400080E0600080E0800080E0A00080E0C00080E0E000C0000000C0002000C0004000C0006000C0008000C000A000C000C000C000E000C0200000C0202000C0204000C0206000C0208000C020A000C020C000C020E000C0400000C0402000C0404000C0406000C0
310
408000C040A000C040C000C040E000C0600000C0602000C0604000C0606000C0608000C060A000C060C000C060E000C0800000C0802000C0804000C0806000C0808000C080A000C080C000C080E000C0A00000C0A02000C0A04000C0A06000C0A08000C0A0A000C0A0C000C0A0E000C0C00000C0C02000C0C04000C0C06000
310
C0C08000C0C0A000F0FBFF00A4A0A000808080000000FF0000FF000000FFFF00FF000000FF00FF00FFFF0000FFFFFF00FFFFFFFFFFFFFFFFFFFFFFFFFFFFFFFFFFFFFFFFFFFFFFFFFFFFFFFFFFFFFFFFFFFFFFFFFFFFFFFFFFFFFFFFFFFFFFFFFFFFFFFFFFFFFFFFFFFFFFFFFFFFFFFFFFFFFFFFFFFFFFFFFFFFFFFFFFFFFF
310
FFFFFFFFFFFFFFFFFFFFFFFFFFFFFFFFFFFFFFFFFFFFFFFFFFFFFFFFFFFFFFFFFFFFFFFFFFFFFFFFFFFFFFFFFFFFFFFFFFFFFFFFFFFFFFFFFFFFFFFFFFFFFFFFFFFFFFFFFFFFFFFFFFFFFFFFFFFFFFFFFFFFFFFFFFFFFFFFFFFFFFFFFFFFFFFFFFFFFFFFFFFFFFFFFFFFFFFFFFFFFFFFFFFFFFFFFFFFFFFFFFFFFFFFFFFFFF
310
FFFFFFFFFFFFFFFFFFFFFFFFFFFFFFFFFFFFFFFFFFFFFFFFFFFFFFFFFFFFFFFFFFFFFFFFFFFFFFFFFFFFFFFFFFFFFFFFFFFFFFFFFFFFFFFFFFFFFFFFFFFFFFFFFFFFFFFFFFFFFFFFFFFFFFFFFFFFFFFFFFFFFFFFFFFFFFFFFFFFFFFFFFFFFFFFFFFFFFFFFFFFFFFFFFFFFFFFFFFFFFFFFFFFFFFFFFFFFFFFFFFFFFFFFFFFFF
310
FFFFFFFFFFFFFFFFFFFFFFFFFFFFFFFFFFFFFFFFFFFFFFFFFFFFFFFFFFFFFFFFFFFFFFFFFFFFFFFFFFFFFFFFFFFFFFFFFFFFFFFFFFFFFFFFFFFFFFFFFFFFFFFFFFFFFFFFFFFFFFFFFFFFFFFFFFFFFFFFFFFFFFFFFFFFFF000000000000000000000000000000000000000000000000FFFFFFFFFFFFFFFF0000000000000000
310
00000000000000000000000000000000FFFFFFFFFFFFFFFFFFFFFFFFFF0000000000000000FF0000000000FFFFFFFFFFFFFFFFFFFFFFFFFFFFFFFFFFFF0000000000000000000000000000FFFFFFFFFFFFFFFFFFFFFFFFFFFF00000000000000000000FF0000000000FF0000000000FFFFFFFFFFFFFFFFFFFF000000000000
310
00000000FF00000000000000FF000000FFFFFFFFFFFFFFFFFFFFFFFFFFFFFFFFFFFFFFFFFFFFFFFFFFFFFFFFFFFFFFFFFFFFFFFFFFFFFFFFFFFFFFFFFFFFFFFFFFFFFFFFFFFFFFFFFFFFFFFFFFFFFFFFFFFFFFFFFFFFFFFFFFFFFFFFFFFFFFFFFFFFFFFFFFFFFFFFFFFFFFFFFFFFFFFFFFFFFFFFFFFFFFFFFFFFFFFFFFFFFF
310
FFFFFFFFFFFFFFFFFFFFFFFFFFFFFFFFFFFFFFFFFFFFFFFFFFFFFFFFFFFFFFFFFFFFFFFFFFFFFFFFFFFFFFFFFFFFFFFFFFFFFFFFFFFFFFFFFFFFFFFFFFFFFFFFFFFFFFFFFFFFFFFFFFFFFFFFFFFFFFFFFFFFFFFFFFFFFFFFFFFFFFFFFFFFFFFFFFFFFFFFFFFFFFFFFFFFFFFFFFFFFFFFFFFFFFFFFFFFFFFFFFFFFFFFFFFFFF
310
FFFFFFFFFFFFFFFFFFFFFFFFFFFFFFFFFFFFFFFFFFFFFFFFFFFFFFFFFFFFFFFFFFFFFFFFFFFFFFFFFFFFFFFFFFFFFFFFFFFFFFFFFFFFFFFFFFFFFFFFFFFFFFFFFFFFFFFFFFFFFFFFFFFFFFFFFFFFFFFFFFFFFFFFFFFFFFFFFFFFFFFFFFFFFFFFFFFFFFFFFFFFFFFFFFFFFFFFFFFFFFFFFFFFFFFFFFFFFFFFFFFFFFFFFFFFFF
310
FFFFFFFFFFFFFFFFFFFFFFFFFFFFFFFFFFFFFFFFFFFFFFFFFFFFFFFFFFFFFFFFFFFFFFFFFFFFFFFFFFFFFFFFFFFFFFFFFFFFFFFFFFFFFFFF
102
{BLKREFS
331
480
331
484
102
}
  0
BLOCK_RECORD
  5
48E
330
1
100
AcDbSymbolTableRecord
100
AcDbBlockTableRecord
  2
AI9-BLK14
340
0
310
2800000020000000200000000100080000000000000400000000000000000000000000000000000000000000000080000080000000808000800000008000800080800000C0C0C000C0DCC000F0CAA6000020400000206000002080000020A0000020C0000020E00000400000004020000040400000406000004080000040A0
310
000040C0000040E00000600000006020000060400000606000006080000060A0000060C0000060E00000800000008020000080400000806000008080000080A0000080C0000080E00000A0000000A0200000A0400000A0600000A0800000A0A00000A0C00000A0E00000C0000000C0200000C0400000C0600000C0800000C0
310
A00000C0C00000C0E00000E0000000E0200000E0400000E0600000E0800000E0A00000E0C00000E0E00040000000400020004000400040006000400080004000A0004000C0004000E00040200000402020004020400040206000402080004020A0004020C0004020E000404000004040200040404000404060004040800040
310
40A0004040C0004040E00040600000406020004060400040606000406080004060A0004060C0004060E00040800000408020004080400040806000408080004080A0004080C0004080E00040A0000040A0200040A0400040A0600040A0800040A0A00040A0C00040A0E00040C0000040C0200040C0400040C0600040C08000
310
40C0A00040C0C00040C0E00040E0000040E0200040E0400040E0600040E0800040E0A00040E0C00040E0E00080000000800020008000400080006000800080008000A0008000C0008000E00080200000802020008020400080206000802080008020A0008020C0008020E00080400000804020008040400080406000804080
310
008040A0008040C0008040E00080600000806020008060400080606000806080008060A0008060C0008060E00080800000808020008080400080806000808080008080A0008080C0008080E00080A0000080A0200080A0400080A0600080A0800080A0A00080A0C00080A0E00080C0000080C0200080C0400080C0600080C0
310
800080C0A00080C0C00080C0E00080E0000080E0200080E0400080E0600080E0800080E0A00080E0C00080E0E000C0000000C0002000C0004000C0006000C0008000C000A000C000C000C000E000C0200000C0202000C0204000C0206000C0208000C020A000C020C000C020E000C0400000C0402000C0404000C0406000C0
310
408000C040A000C040C000C040E000C0600000C0602000C0604000C0606000C0608000C060A000C060C000C060E000C0800000C0802000C0804000C0806000C0808000C080A000C080C000C080E000C0A00000C0A02000C0A04000C0A06000C0A08000C0A0A000C0A0C000C0A0E000C0C00000C0C02000C0C04000C0C06000
310
C0C08000C0C0A000F0FBFF00A4A0A000808080000000FF0000FF000000FFFF00FF000000FF00FF00FFFF0000FFFFFF00FF00FFFFFFFF00FFFFFFFFFFFFFFFFFFFFFFFFFFFFFFFFFFFFFFFFFFFFFFFFFFFF00FFFFFFFF00FFFFFFFFFFFFFFFFFFFFFFFFFFFFFFFFFFFFFFFFFFFFFFFFFFFF00FFFFFFFF00FFFFFFFFFFFFFFFF
310
FFFFFFFFFFFFFFFFFFFFFFFFFFFFFFFFFFFF00FFFFFFFF00FFFFFFFFFFFFFFFFFFFFFFFFFFFFFFFFFFFFFFFFFFFFFFFFFFFF00FFFFFFFF00FFFFFFFFFFFFFFFFFFFFFFFFFFFFFFFFFFFFFFFFFFFFFFFFFFFF00FFFFFFFF00FFFFFFFFFFFFFFFFFFFFFFFFFFFFFFFFFFFFFFFFFFFFFFFFFFFF00FFFFFFFF00FFFFFFFFFFFFFF
310
FFFFFFFFFFFFFFFFFFFFFFFFFFFFFFFFFFFFFF00FFFFFFFF00FFFFFFFFFFFFFFFFFFFFFFFFFFFFFFFFFFFFFFFFFFFFFFFFFFFF00FFFFFFFF00FFFFFFFFFFFFFFFFFFFFFFFFFFFFFFFFFFFFFFFFFFFFFFFFFFFF00FFFFFFFF00FFFFFFFFFFFFFFFFFFFFFFFFFFFFFFFFFFFFFFFFFFFFFFFFFFFF00FFFFFFFF00FFFFFFFFFFFF
310
FFFFFFFFFFFFFFFFFFFFFFFFFFFFFFFFFFFFFFFF00FFFFFFFF00FFFFFFFFFFFFFFFFFFFFFFFFFFFFFFFFFFFFFFFFFFFFFFFFFFFF00FFFFFFFF00FFFFFFFFFFFFFFFFFFFFFFFFFFFFFFFFFFFFFFFFFFFFFFFFFFFF00FFFFFFFF0000000000000000000000000000000000000000000000000000FF00FFFFFFFFFFFFFFFFFFFF
310
FFFFFFFFFFFFFFFFFFFFFFFFFFFFFFFFFFFFFFFFFF00FFFFFFFFFFFFFFFFFFFFFFFFFFFFFFFFFFFFFFFFFFFFFFFFFFFFFFFFFFFFFF00FFFFFFFFFFFFFFFFFFFFFFFFFFFFFFFFFFFFFFFFFFFFFFFFFFFFFFFFFFFFFF00FFFFFFFFFFFFFFFFFFFFFFFFFFFFFFFFFFFFFFFFFFFFFFFFFFFFFFFFFF00FF00000000000000000000
310
0000000000000000000000000000000000000000FFFFFFFFFFFFFFFFFFFFFFFFFFFFFFFFFFFFFFFFFFFFFFFFFFFFFFFFFFFFFFFFFFFFFFFFFFFFFFFFFFFFFFFFFFFFFFFFFFFFFFFFFFFFFFFFFFFFFFFFFFFFFFFFFFFFFFFFFFFFFFFFFFFFFFFFFFFFFFFFFFFFFFFFFFFFFFFFFFFFFFFFFFFFFFFFFFFFFFFFFFFFFFFFFFFFFF
310
FFFFFFFFFFFFFFFFFFFFFFFFFFFFFFFFFFFFFFFFFFFFFFFFFFFFFFFFFFFFFFFFFFFFFFFFFFFFFFFFFFFFFFFFFFFFFFFFFFFFFFFFFFFFFFFFFFFFFFFFFFFFFFFFFFFFFFFFFFFFFFFFFFFFFFFFFFFFFFFFFFFFFFFFFFFFFFFFFFFFFFFFFFFFFFFFFFFFFFFFFFFFFFFFFFFFFFFFFFFFFFFFFFFFFFFFFFFFFFFFFFFFFFFFFFFFFF
310
FFFFFFFFFFFFFFFFFFFFFFFFFFFFFFFFFFFFFFFFFFFFFFFFFFFFFFFFFFFFFFFFFFFFFFFFFFFFFFFFFFFFFFFFFFFFFFFFFFFFFFFFFFFFFFFFFFFFFFFFFFFFFFFFFFFFFFFFFFFFFFFFFFFFFFFFFFFFFFFFFFFFFFFFFFFFFFFFFFFFFFFFFFFFFFFFFFFFFFFFFFFFFFFFFFFFFFFFFFFFFFFFFFFFFFFFFFFFFFFFFFFFFFFFFFFFFF
310
FFFFFFFFFFFFFFFFFFFFFFFFFFFFFFFFFFFFFFFFFFFFFFFFFFFFFFFFFFFFFFFFFFFFFFFFFFFFFFFFFFFFFFFFFFFFFFFFFFFFFFFFFFFFFFFF
102
{BLKREFS
331
4CF
102
}
  0
BLOCK_RECORD
  5
493
330
1
100
AcDbSymbolTableRecord
100
AcDbBlockTableRecord
  2
AI9-BLK13
340
0
310
2800000020000000200000000100080000000000000400000000000000000000000000000000000000000000000080000080000000808000800000008000800080800000C0C0C000C0DCC000F0CAA6000020400000206000002080000020A0000020C0000020E00000400000004020000040400000406000004080000040A0
310
000040C0000040E00000600000006020000060400000606000006080000060A0000060C0000060E00000800000008020000080400000806000008080000080A0000080C0000080E00000A0000000A0200000A0400000A0600000A0800000A0A00000A0C00000A0E00000C0000000C0200000C0400000C0600000C0800000C0
310
A00000C0C00000C0E00000E0000000E0200000E0400000E0600000E0800000E0A00000E0C00000E0E00040000000400020004000400040006000400080004000A0004000C0004000E00040200000402020004020400040206000402080004020A0004020C0004020E000404000004040200040404000404060004040800040
310
40A0004040C0004040E00040600000406020004060400040606000406080004060A0004060C0004060E00040800000408020004080400040806000408080004080A0004080C0004080E00040A0000040A0200040A0400040A0600040A0800040A0A00040A0C00040A0E00040C0000040C0200040C0400040C0600040C08000
310
40C0A00040C0C00040C0E00040E0000040E0200040E0400040E0600040E0800040E0A00040E0C00040E0E00080000000800020008000400080006000800080008000A0008000C0008000E00080200000802020008020400080206000802080008020A0008020C0008020E00080400000804020008040400080406000804080
310
008040A0008040C0008040E00080600000806020008060400080606000806080008060A0008060C0008060E00080800000808020008080400080806000808080008080A0008080C0008080E00080A0000080A0200080A0400080A0600080A0800080A0A00080A0C00080A0E00080C0000080C0200080C0400080C0600080C0
310
800080C0A00080C0C00080C0E00080E0000080E0200080E0400080E0600080E0800080E0A00080E0C00080E0E000C0000000C0002000C0004000C0006000C0008000C000A000C000C000C000E000C0200000C0202000C0204000C0206000C0208000C020A000C020C000C020E000C0400000C0402000C0404000C0406000C0
310
408000C040A000C040C000C040E000C0600000C0602000C0604000C0606000C0608000C060A000C060C000C060E000C0800000C0802000C0804000C0806000C0808000C080A000C080C000C080E000C0A00000C0A02000C0A04000C0A06000C0A08000C0A0A000C0A0C000C0A0E000C0C00000C0C02000C0C04000C0C06000
310
C0C08000C0C0A000F0FBFF00A4A0A000808080000000FF0000FF000000FFFF00FF000000FF00FF00FFFF0000FFFFFF00FFFFFFFFFFFFFFFFFFFFFFFFFFFFFFFFFFFFFFFFFFFFFFFFFFFFFFFFFFFFFFFFFFFFFFFFFFFFFFFFFFFFFF0000FFFFFFFFFFFF0000FFFFFFFFFFFFFFFFFFFFFFFFFFFFFFFFFFFFFFFFFFFF0000FFFF
310
FFFFFFFF0000FFFFFFFFFFFFFFFFFFFFFFFFFFFFFFFFFFFFFFFFFFFF0000FFFFFFFFFFFF0000FFFFFFFFFFFFFFFFFFFFFFFFFFFFFFFFFFFFFFFFFFFF0000FFFFFFFFFFFF0000FFFFFFFFFFFFFFFFFFFFFFFFFFFFFFFFFFFFFFFFFFFF0000FFFFFFFFFFFF0000FFFFFFFFFFFFFFFFFFFFFFFFFFFFFFFFFFFFFFFFFFFF0000FF
310
FFFFFFFFFF0000FFFFFFFFFFFFFFFFFFFFFFFFFFFFFFFFFFFFFFFFFFFF0000FFFFFFFFFFFF0000FFFFFFFFFFFFFFFFFFFFFFFFFFFFFFFFFFFFFFFFFFFF0000FFFFFFFFFFFF0000FFFFFFFFFFFFFFFFFFFFFFFFFFFFFFFFFFFFFFFFFFFF0000FFFFFFFFFFFF0000FFFFFFFFFFFFFFFFFFFFFFFFFFFFFFFFFFFFFFFFFFFF0000
310
FFFFFFFFFFFF0000FFFFFFFFFFFFFFFFFFFFFFFFFFFFFFFFFFFFFFFFFFFF0000FFFFFFFFFFFF0000FFFFFFFFFFFFFFFFFFFFFFFFFFFFFFFFFFFFFFFFFFFF0000FFFFFFFFFFFF0000FFFFFFFFFFFFFFFFFFFFFFFFFFFFFFFFFFFFFFFFFFFF0000FFFFFFFFFFFF0000FFFFFFFFFFFFFFFFFFFFFFFFFFFFFFFFFFFFFFFFFFFF00
310
00FFFFFFFFFFFF0000FFFFFFFFFFFFFFFFFFFFFFFFFFFFFFFFFFFFFFFFFFFF00000000000000000000FFFFFFFFFFFFFFFFFFFFFFFFFFFFFFFFFFFFFFFFFFFF00FFFFFFFFFFFFFFFF00FFFFFFFFFFFFFFFFFFFFFFFFFFFFFFFFFFFFFFFFFFFF00FFFFFFFFFFFFFFFF00FFFFFFFFFFFFFFFFFFFFFFFFFFFFFFFFFFFFFFFFFFFF
310
00000000000000000000FFFFFFFFFFFFFFFFFFFFFFFFFFFFFFFFFFFFFFFFFFFF0000FFFFFFFFFFFF0000FFFFFFFFFFFFFFFFFFFFFFFFFFFFFFFFFFFFFFFFFFFF0000FFFFFFFFFFFF0000FFFFFFFFFFFFFFFFFFFFFFFFFFFFFFFFFFFFFFFFFFFF0000FFFFFFFFFFFF0000FFFFFFFFFFFFFFFFFFFFFFFFFFFFFFFFFFFFFFFFFF
310
FF0000FFFFFFFFFFFF0000FFFFFFFFFFFFFFFFFFFFFFFFFFFFFFFFFFFFFFFFFFFF0000FFFFFFFFFFFF0000FFFFFFFFFFFFFFFFFFFFFFFFFFFFFFFFFFFFFFFFFFFF0000FFFFFFFFFFFF0000FFFFFFFFFFFFFFFFFFFFFFFFFFFFFFFFFFFFFFFFFFFF0000FFFFFFFFFFFF0000FFFFFFFFFFFFFFFFFFFFFFFFFFFFFFFFFFFFFFFF
310
FFFF0000FFFFFFFFFFFF0000FFFFFFFFFFFFFFFFFFFFFFFFFFFFFFFFFFFFFFFFFFFF0000FFFFFFFFFFFF0000FFFFFFFFFFFFFFFFFFFFFFFFFFFFFFFFFFFFFFFFFFFF0000FFFFFFFFFFFF0000FFFFFFFFFFFFFFFFFFFFFFFFFFFFFFFFFFFFFFFFFFFF0000FFFFFFFFFFFF0000FFFFFFFFFFFFFFFFFFFFFFFFFFFFFFFFFFFFFF
310
FFFFFF0000FFFFFFFFFFFF0000FFFFFFFFFFFFFFFFFFFFFFFFFFFFFFFFFFFFFFFFFFFFFFFFFFFFFFFFFFFFFFFFFFFFFFFFFFFFFFFFFFFFFF
102
{BLKREFS
331
4D0
102
}
  0
BLOCK_RECORD
  5
498
330
1
100
AcDbSymbolTableRecord
100
AcDbBlockTableRecord
  2
AI9-BLK11
340
0
310
2800000020000000200000000100080000000000000400000000000000000000000000000000000000000000000080000080000000808000800000008000800080800000C0C0C000C0DCC000F0CAA6000020400000206000002080000020A0000020C0000020E00000400000004020000040400000406000004080000040A0
310
000040C0000040E00000600000006020000060400000606000006080000060A0000060C0000060E00000800000008020000080400000806000008080000080A0000080C0000080E00000A0000000A0200000A0400000A0600000A0800000A0A00000A0C00000A0E00000C0000000C0200000C0400000C0600000C0800000C0
310
A00000C0C00000C0E00000E0000000E0200000E0400000E0600000E0800000E0A00000E0C00000E0E00040000000400020004000400040006000400080004000A0004000C0004000E00040200000402020004020400040206000402080004020A0004020C0004020E000404000004040200040404000404060004040800040
310
40A0004040C0004040E00040600000406020004060400040606000406080004060A0004060C0004060E00040800000408020004080400040806000408080004080A0004080C0004080E00040A0000040A0200040A0400040A0600040A0800040A0A00040A0C00040A0E00040C0000040C0200040C0400040C0600040C08000
310
40C0A00040C0C00040C0E00040E0000040E0200040E0400040E0600040E0800040E0A00040E0C00040E0E00080000000800020008000400080006000800080008000A0008000C0008000E00080200000802020008020400080206000802080008020A0008020C0008020E00080400000804020008040400080406000804080
310
008040A0008040C0008040E00080600000806020008060400080606000806080008060A0008060C0008060E00080800000808020008080400080806000808080008080A0008080C0008080E00080A0000080A0200080A0400080A0600080A0800080A0A00080A0C00080A0E00080C0000080C0200080C0400080C0600080C0
310
800080C0A00080C0C00080C0E00080E0000080E0200080E0400080E0600080E0800080E0A00080E0C00080E0E000C0000000C0002000C0004000C0006000C0008000C000A000C000C000C000E000C0200000C0202000C0204000C0206000C0208000C020A000C020C000C020E000C0400000C0402000C0404000C0406000C0
310
408000C040A000C040C000C040E000C0600000C0602000C0604000C0606000C0608000C060A000C060C000C060E000C0800000C0802000C0804000C0806000C0808000C080A000C080C000C080E000C0A00000C0A02000C0A04000C0A06000C0A08000C0A0A000C0A0C000C0A0E000C0C00000C0C02000C0C04000C0C06000
310
C0C08000C0C0A000F0FBFF00A4A0A000808080000000FF0000FF000000FFFF00FF000000FF00FF00FFFF0000FFFFFF00FFFFFFFFFFFFFFFFFFFFFFFFFFFFFFFFFFFFFFFFFFFFFFFFFFFFFFFFFFFFFFFFFFFFFFFFFFFFFFFFFFFFFFFFFFFF00000000FFFFFFFFFFFFFFFFFFFFFF000000FFFFFFFFFFFFFFFFFFFFFFFFFFFF00
310
FFFF00FFFFFFFFFFFFFFFFFFFFFF00FFFFFFFFFFFFFFFFFFFFFFFFFFFFFFFF00FFFF00FFFFFFFFFFFFFFFFFFFFFF00FFFFFFFFFFFFFFFFFFFFFFFFFFFFFFFF00FFFF00FFFFFFFFFFFFFFFFFFFFFF00FFFFFFFFFFFFFFFFFFFFFFFFFFFFFFFF00FFFF00FFFFFFFFFFFFFFFFFFFFFF00FFFFFFFFFFFFFFFFFFFFFFFFFFFFFFFF
310
00FFFF00FFFFFFFFFFFFFFFFFFFFFF00FFFFFFFFFFFFFFFFFFFFFFFFFFFFFFFF00FFFF00FFFFFFFFFFFFFFFFFFFFFF00FFFFFFFFFFFFFFFFFFFFFFFFFFFFFFFF00FFFF00FFFFFFFFFFFFFFFFFFFFFF00FFFFFFFFFFFFFFFFFFFFFFFFFFFFFFFF00FFFF00FFFFFFFFFFFFFFFFFFFFFF00FFFFFFFFFFFFFFFFFFFFFFFFFFFFFF
310
FF00FFFF00FFFFFFFFFFFFFFFFFFFFFF00FFFFFFFFFFFFFFFFFFFFFFFFFFFFFFFF00FFFF00FFFFFFFFFFFFFFFFFFFFFF00FFFFFFFFFFFFFFFFFFFFFFFFFFFFFFFF00FFFF00FFFFFFFFFFFFFFFFFFFFFF00FFFFFFFFFFFFFFFFFFFFFFFFFFFFFFFF00FFFF00FFFFFFFFFFFFFFFFFFFFFF00FFFFFFFFFFFFFFFFFFFFFFFFFFFF
310
FFFF00FFFF00FFFFFFFFFFFFFFFFFFFFFF00FFFFFFFFFFFFFFFFFFFFFFFFFFFFFFFF00FFFF00FFFFFFFFFFFFFFFFFFFFFF00FFFFFFFFFFFFFFFFFFFFFFFFFFFFFFFF00FFFF00FFFFFFFFFFFFFFFFFFFFFF00FFFFFFFFFFFFFFFFFFFFFFFFFFFFFFFF00FFFF00FFFFFFFFFFFFFFFFFFFF00FFFFFFFFFFFFFFFFFFFFFFFFFFFF
310
FFFFFF00FFFF00FFFFFFFFFFFFFFFFFFFF00FFFFFFFFFFFFFFFFFFFFFFFFFFFFFFFFFF00FFFF00FFFFFFFFFFFFFFFFFFFF00FFFFFFFFFFFFFFFFFFFFFFFFFFFFFFFFFF00FFFF00FFFFFFFFFFFFFFFFFFFF00FFFFFFFFFFFFFFFFFFFFFFFFFFFFFFFFFF00FFFF00FFFFFFFFFFFFFFFFFFFF00FFFFFFFFFFFFFFFFFFFFFFFFFF
310
FFFFFFFF00FFFF00FFFFFFFFFFFFFFFFFF0000FFFF00FFFFFFFFFFFFFFFFFFFFFFFFFFFF00FFFF00FFFFFFFFFFFFFFFF0000FFFFFF00FFFFFFFFFFFFFFFFFFFFFFFFFFFF00FFFF00000000000000000000FFFFFFFF00FFFFFFFFFFFFFFFFFFFFFFFFFFFF00FFFFFFFFFFFFFFFFFFFFFFFFFFFFFF00FFFFFFFFFFFFFFFFFFFF
310
FFFFFFFFFF00FFFFFFFFFFFFFFFFFFFFFFFFFFFF00FFFFFFFFFFFFFFFFFFFFFFFFFFFFFFFF00FFFFFFFFFFFFFFFFFFFFFFFFFFFF00FFFFFFFFFFFFFFFFFFFFFFFFFFFFFFFF00FFFFFFFFFFFFFFFFFFFFFFFFFFFFFF00FFFFFFFFFFFFFFFFFFFFFFFFFFFFFF00FFFFFFFFFFFFFFFFFFFFFFFFFFFFFF00FFFFFFFFFFFFFFFFFF
310
FFFFFFFFFFFF00FFFF00000000000000000000FFFFFFFF00FFFFFFFFFFFFFFFFFFFFFFFFFFFF00FFFF00FFFFFFFFFFFFFFFFFF0000FFFF00
102
{BLKREFS
331
4D1
102
}
  0
BLOCK_RECORD
  5
49D
330
1
100
AcDbSymbolTableRecord
100
AcDbBlockTableRecord
  2
AI9-BLK10
340
0
310
2800000020000000200000000100080000000000000400000000000000000000000000000000000000000000000080000080000000808000800000008000800080800000C0C0C000C0DCC000F0CAA6000020400000206000002080000020A0000020C0000020E00000400000004020000040400000406000004080000040A0
310
000040C0000040E00000600000006020000060400000606000006080000060A0000060C0000060E00000800000008020000080400000806000008080000080A0000080C0000080E00000A0000000A0200000A0400000A0600000A0800000A0A00000A0C00000A0E00000C0000000C0200000C0400000C0600000C0800000C0
310
A00000C0C00000C0E00000E0000000E0200000E0400000E0600000E0800000E0A00000E0C00000E0E00040000000400020004000400040006000400080004000A0004000C0004000E00040200000402020004020400040206000402080004020A0004020C0004020E000404000004040200040404000404060004040800040
310
40A0004040C0004040E00040600000406020004060400040606000406080004060A0004060C0004060E00040800000408020004080400040806000408080004080A0004080C0004080E00040A0000040A0200040A0400040A0600040A0800040A0A00040A0C00040A0E00040C0000040C0200040C0400040C0600040C08000
310
40C0A00040C0C00040C0E00040E0000040E0200040E0400040E0600040E0800040E0A00040E0C00040E0E00080000000800020008000400080006000800080008000A0008000C0008000E00080200000802020008020400080206000802080008020A0008020C0008020E00080400000804020008040400080406000804080
310
008040A0008040C0008040E00080600000806020008060400080606000806080008060A0008060C0008060E00080800000808020008080400080806000808080008080A0008080C0008080E00080A0000080A0200080A0400080A0600080A0800080A0A00080A0C00080A0E00080C0000080C0200080C0400080C0600080C0
310
800080C0A00080C0C00080C0E00080E0000080E0200080E0400080E0600080E0800080E0A00080E0C00080E0E000C0000000C0002000C0004000C0006000C0008000C000A000C000C000C000E000C0200000C0202000C0204000C0206000C0208000C020A000C020C000C020E000C0400000C0402000C0404000C0406000C0
310
408000C040A000C040C000C040E000C0600000C0602000C0604000C0606000C0608000C060A000C060C000C060E000C0800000C0802000C0804000C0806000C0808000C080A000C080C000C080E000C0A00000C0A02000C0A04000C0A06000C0A08000C0A0A000C0A0C000C0A0E000C0C00000C0C02000C0C04000C0C06000
310
C0C08000C0C0A000F0FBFF00A4A0A000808080000000FF0000FF000000FFFF00FF000000FF00FF00FFFF0000FFFFFF00FFFFFFFFFFFFFFFFFFFFFFFFFFFFFFFF00FFFFFFFFFFFFFFFFFFFFFFFF00FFFFFFFFFFFFFFFFFFFFFFFFFFFFFFFFFFFF00FFFFFFFFFFFFFFFFFFFFFF00FFFFFFFFFFFFFFFFFFFFFFFFFFFFFFFFFFFF
310
FF00FFFFFFFFFFFFFFFFFFFFFF00FFFFFFFFFFFFFFFFFFFFFFFFFFFFFFFFFFFFFF00FFFFFFFFFFFFFFFFFFFFFF00FFFFFFFFFFFFFFFFFFFFFFFFFFFFFFFFFFFFFF00FFFFFFFFFFFFFFFFFFFFFF00FFFFFFFFFFFFFFFFFFFFFFFFFFFFFFFFFFFFFF00FFFFFFFFFFFFFFFFFFFFFF00FFFFFFFFFFFFFFFFFFFFFFFFFFFFFFFFFF
310
FFFF00FFFFFFFFFFFFFFFFFFFFFF00FFFFFFFFFFFFFFFFFFFFFFFFFFFFFFFFFFFFFF00FFFFFFFFFFFFFFFFFFFF00FFFFFFFFFFFFFFFFFFFFFFFFFFFFFFFFFFFFFFFF00FFFFFFFFFFFFFFFFFFFF00FFFFFFFFFFFFFFFFFFFFFFFFFFFFFFFFFFFFFFFF00FFFFFFFFFFFFFFFFFFFF00FFFFFFFFFFFFFFFFFFFFFFFFFFFFFFFFFF
310
FFFFFF00FFFFFFFFFFFFFFFFFFFF00FFFFFFFFFFFFFFFFFFFFFFFFFFFFFFFFFFFFFFFF00FFFFFFFFFFFFFFFFFFFF00FFFFFFFFFFFFFFFFFFFFFFFFFFFFFFFFFFFFFFFF00FFFFFFFFFFFFFFFFFFFF00FFFFFFFFFFFFFFFFFFFFFFFFFFFFFFFFFFFFFFFF00FFFFFFFFFFFFFFFFFF00FFFFFFFFFFFFFFFFFFFFFFFFFFFFFFFFFF
310
FFFFFFFF00FFFFFFFFFFFFFFFFFF00FFFFFFFFFFFFFFFFFFFFFFFFFFFFFFFFFFFFFFFFFF00FFFFFFFFFFFFFFFFFF00FFFFFFFFFFFFFFFFFFFFFFFFFFFFFFFFFFFFFFFFFF0000000000000000000000FFFFFFFFFFFFFFFFFFFFFFFFFFFFFFFFFFFFFFFFFFFFFFFFFFFFFFFFFFFFFFFFFFFFFFFFFFFFFFFFFFFFFFFFFFFFFFFF
310
FFFFFFFFFFFFFFFFFFFFFFFFFFFFFFFFFFFFFFFFFFFFFFFFFFFFFFFFFFFFFFFFFFFFFFFFFFFFFFFFFFFFFFFFFFFFFFFFFFFFFFFFFFFFFFFFFFFFFFFFFFFFFFFFFFFFFFFFFFFFFFFFFFFFFFFFFFFFFFFFFFFFFFFFFFFFFFFFFFFFFFFFFFFFFFFFFFFFFFFFFFFFFFFFFFFFFFFFFFFFFFFFFFFFFFFFFFFFFFFFFFFFFFFFFFFFFF
310
FFFFFFFFFFFFFFFFFFFFFFFFFFFFFFFFFFFFFFFFFFFFFFFFFFFFFFFFFFFFFFFFFFFFFFFFFFFFFFFFFFFFFFFFFFFFFFFFFFFFFFFFFFFFFFFFFFFFFFFFFFFFFFFFFFFFFFFFFFFFFFFFFFFFFFFFFFFFFFFFFFFFFFFFFFFFFFFFFFFFFFFFFFFFFFFFFFFFFFFFFFFFFFFFFFFFFFFFFFFFFFFFFFFFFFFFFFFFFFFFFFFFFFFFFFFFFF
310
FFFFFFFFFFFFFFFFFFFFFFFFFFFFFFFFFFFFFFFFFFFFFFFFFFFFFFFFFFFFFFFFFFFFFFFFFFFFFFFFFFFFFFFFFFFFFFFFFFFFFFFFFFFFFFFFFFFFFFFFFFFFFFFFFFFFFFFFFFFFFFFFFFFFFFFFFFFFFFFFFFFFFFFFFFFFFFFFFFFFFFFFFFFFFFFFFFFFFFFFFFFFFFFFFFFFFFFFFFFFFFFFFFFFFFFFFFFFFFFFFFFFFFFFFFFFFF
310
FFFFFFFFFFFFFFFFFFFFFFFFFFFFFFFFFFFFFFFFFFFFFFFFFFFFFFFFFFFFFFFFFFFFFFFFFFFFFFFFFFFFFFFFFFFFFFFFFFFFFFFFFFFFFFFF
102
{BLKREFS
331
4D2
102
}
  0
BLOCK_RECORD
  5
4A1
330
1
100
AcDbSymbolTableRecord
100
AcDbBlockTableRecord
  2
AI9-BLK9
340
0
310
2800000020000000200000000100080000000000000400000000000000000000000000000000000000000000000080000080000000808000800000008000800080800000C0C0C000C0DCC000F0CAA6000020400000206000002080000020A0000020C0000020E00000400000004020000040400000406000004080000040A0
310
000040C0000040E00000600000006020000060400000606000006080000060A0000060C0000060E00000800000008020000080400000806000008080000080A0000080C0000080E00000A0000000A0200000A0400000A0600000A0800000A0A00000A0C00000A0E00000C0000000C0200000C0400000C0600000C0800000C0
310
A00000C0C00000C0E00000E0000000E0200000E0400000E0600000E0800000E0A00000E0C00000E0E00040000000400020004000400040006000400080004000A0004000C0004000E00040200000402020004020400040206000402080004020A0004020C0004020E000404000004040200040404000404060004040800040
310
40A0004040C0004040E00040600000406020004060400040606000406080004060A0004060C0004060E00040800000408020004080400040806000408080004080A0004080C0004080E00040A0000040A0200040A0400040A0600040A0800040A0A00040A0C00040A0E00040C0000040C0200040C0400040C0600040C08000
310
40C0A00040C0C00040C0E00040E0000040E0200040E0400040E0600040E0800040E0A00040E0C00040E0E00080000000800020008000400080006000800080008000A0008000C0008000E00080200000802020008020400080206000802080008020A0008020C0008020E00080400000804020008040400080406000804080
310
008040A0008040C0008040E00080600000806020008060400080606000806080008060A0008060C0008060E00080800000808020008080400080806000808080008080A0008080C0008080E00080A0000080A0200080A0400080A0600080A0800080A0A00080A0C00080A0E00080C0000080C0200080C0400080C0600080C0
310
800080C0A00080C0C00080C0E00080E0000080E0200080E0400080E0600080E0800080E0A00080E0C00080E0E000C0000000C0002000C0004000C0006000C0008000C000A000C000C000C000E000C0200000C0202000C0204000C0206000C0208000C020A000C020C000C020E000C0400000C0402000C0404000C0406000C0
310
408000C040A000C040C000C040E000C0600000C0602000C0604000C0606000C0608000C060A000C060C000C060E000C0800000C0802000C0804000C0806000C0808000C080A000C080C000C080E000C0A00000C0A02000C0A04000C0A06000C0A08000C0A0A000C0A0C000C0A0E000C0C00000C0C02000C0C04000C0C06000
310
C0C08000C0C0A000F0FBFF00A4A0A000808080000000FF0000FF000000FFFF00FF000000FF00FF00FFFF0000FFFFFF00FFFFFFFFFFFFFFFFFFFFFFFFFFFFFFFFFFFFFFFFFFFFFFFFFFFFFFFFFFFFFFFFFFFFFFFFFFFFFFFFFFFFFFFFFFFFFF0000FFFFFFFFFFFFFFFFFFFFFFFFFFFFFFFFFFFFFFFFFFFFFFFFFFFFFFFF0000
310
FF0000FFFFFFFFFFFFFFFFFFFFFFFFFFFFFFFFFFFFFFFFFFFFFFFFFFFFFF00FFFFFF0000FFFFFFFFFFFFFFFFFFFFFFFFFFFFFFFFFFFFFFFFFFFFFFFFFFFF00FFFFFFFF0000FFFFFFFFFFFFFFFFFFFFFFFFFFFFFFFFFFFFFFFFFFFFFFFF00FF00000000FF00FFFFFFFFFFFFFFFFFFFFFFFFFFFFFFFFFFFFFFFFFFFFFFFF0000
310
00FFFF00FF00FFFFFFFFFFFFFFFFFFFFFFFFFFFFFFFFFFFFFFFFFFFFFFFF0000FFFFFFFF0000FFFFFFFFFFFFFFFFFFFFFFFFFFFFFFFFFFFFFFFFFFFFFFFF0000FFFFFFFF0000FFFFFFFFFFFFFFFFFFFFFFFFFFFFFFFFFFFFFFFFFFFFFF00FF00FFFFFFFF00FF00FFFFFFFFFFFFFFFFFFFFFFFFFFFFFFFFFFFFFFFFFFFF0000
310
FFFFFFFFFF00FF00FFFFFFFFFFFFFFFFFFFFFFFFFFFFFFFFFFFFFFFFFFFF0000FFFFFFFFFFFF0000FFFFFFFFFFFFFFFFFFFFFFFFFFFFFFFFFFFFFFFFFFFF0000FFFFFFFFFFFF0000FFFFFFFFFFFFFFFFFFFFFFFFFFFFFFFFFFFFFFFFFFFF0000FFFFFFFFFFFF0000FFFFFFFFFFFFFFFFFFFFFFFFFFFFFFFFFFFFFFFFFFFF00
310
00FFFFFFFFFFFF0000FFFFFFFFFFFFFFFFFFFFFFFFFFFFFFFFFFFFFFFFFFFF0000FFFFFFFFFFFF0000FFFFFFFFFFFFFFFFFFFFFFFFFFFFFFFFFFFFFFFFFFFF0000FFFFFFFFFFFF0000FFFFFFFFFFFFFFFFFFFFFFFFFFFFFFFFFFFFFFFFFFFF0000FFFFFFFFFFFF0000FFFFFFFFFFFFFFFFFFFFFFFFFFFFFFFFFFFFFFFFFFFF
310
0000FFFFFFFFFFFF0000FFFFFFFFFFFFFFFFFFFFFFFFFFFFFFFFFFFFFFFFFFFF0000FFFFFFFFFFFF0000FFFFFFFFFFFFFFFFFFFFFFFFFFFFFFFFFFFFFFFFFFFF0000FFFFFFFFFFFF0000FFFFFFFFFFFFFFFFFFFFFFFFFFFFFFFFFFFFFFFFFFFF00FF00FFFFFFFF00FF00FFFFFFFFFFFFFFFFFFFFFFFFFFFFFFFFFFFFFFFFFF
310
FF00FF00FFFFFFFF00FF00FFFFFFFFFFFFFFFFFFFFFFFFFFFFFFFFFFFFFFFFFFFF00FF00FFFFFFFF00FF00FFFFFFFFFFFFFFFFFFFFFFFFFFFFFFFFFFFFFFFFFFFFFF0000FFFFFFFF0000FFFFFFFFFFFFFFFFFFFFFFFFFFFFFFFFFFFFFFFFFFFFFFFF00FF00FFFF00FF00FFFFFFFFFFFFFFFFFFFFFFFFFFFFFFFFFFFFFFFFFF
310
FFFFFF00FF00000000FF00FFFFFFFFFFFFFFFFFFFFFFFFFFFFFFFFFFFFFFFFFFFFFFFFFF00FFFFFFFF0000FFFFFFFFFFFFFFFFFFFFFFFFFFFFFFFFFFFFFFFFFFFFFFFFFF00FFFFFFFF00FFFFFFFFFFFFFFFFFFFFFFFFFFFFFFFFFFFFFFFFFFFFFFFFFFFFFF00000000FFFFFFFFFFFFFFFFFFFFFFFFFFFFFFFFFFFFFFFFFFFF
310
FFFFFFFFFFFFFF0000FFFFFFFFFFFFFFFFFFFFFFFFFFFFFFFFFFFFFFFFFFFFFFFFFFFFFFFFFFFFFFFFFFFFFFFFFFFFFFFFFFFFFFFFFFFFFF
102
{BLKREFS
331
4D3
102
}
  0
BLOCK_RECORD
  5
4A6
330
1
100
AcDbSymbolTableRecord
100
AcDbBlockTableRecord
  2
AI9-BLK8
340
0
310
2800000020000000200000000100080000000000000400000000000000000000000000000000000000000000000080000080000000808000800000008000800080800000C0C0C000C0DCC000F0CAA6000020400000206000002080000020A0000020C0000020E00000400000004020000040400000406000004080000040A0
310
000040C0000040E00000600000006020000060400000606000006080000060A0000060C0000060E00000800000008020000080400000806000008080000080A0000080C0000080E00000A0000000A0200000A0400000A0600000A0800000A0A00000A0C00000A0E00000C0000000C0200000C0400000C0600000C0800000C0
310
A00000C0C00000C0E00000E0000000E0200000E0400000E0600000E0800000E0A00000E0C00000E0E00040000000400020004000400040006000400080004000A0004000C0004000E00040200000402020004020400040206000402080004020A0004020C0004020E000404000004040200040404000404060004040800040
310
40A0004040C0004040E00040600000406020004060400040606000406080004060A0004060C0004060E00040800000408020004080400040806000408080004080A0004080C0004080E00040A0000040A0200040A0400040A0600040A0800040A0A00040A0C00040A0E00040C0000040C0200040C0400040C0600040C08000
310
40C0A00040C0C00040C0E00040E0000040E0200040E0400040E0600040E0800040E0A00040E0C00040E0E00080000000800020008000400080006000800080008000A0008000C0008000E00080200000802020008020400080206000802080008020A0008020C0008020E00080400000804020008040400080406000804080
310
008040A0008040C0008040E00080600000806020008060400080606000806080008060A0008060C0008060E00080800000808020008080400080806000808080008080A0008080C0008080E00080A0000080A0200080A0400080A0600080A0800080A0A00080A0C00080A0E00080C0000080C0200080C0400080C0600080C0
310
800080C0A00080C0C00080C0E00080E0000080E0200080E0400080E0600080E0800080E0A00080E0C00080E0E000C0000000C0002000C0004000C0006000C0008000C000A000C000C000C000E000C0200000C0202000C0204000C0206000C0208000C020A000C020C000C020E000C0400000C0402000C0404000C0406000C0
310
408000C040A000C040C000C040E000C0600000C0602000C0604000C0606000C0608000C060A000C060C000C060E000C0800000C0802000C0804000C0806000C0808000C080A000C080C000C080E000C0A00000C0A02000C0A04000C0A06000C0A08000C0A0A000C0A0C000C0A0E000C0C00000C0C02000C0C04000C0C06000
310
C0C08000C0C0A000F0FBFF00A4A0A000808080000000FF0000FF000000FFFF00FF000000FF00FF00FFFF0000FFFFFF00FFFFFFFFFFFFFFFFFFFFFFFFFFFFFFFFFFFFFFFFFFFFFFFFFFFFFFFFFFFFFFFFFFFFFFFFFFFFFFFFFFFFFF0000FFFFFFFFFFFF0000FFFFFFFFFFFFFFFFFFFFFFFFFFFFFFFFFFFFFFFFFFFF0000FFFF
310
FFFFFFFF0000FFFFFFFFFFFFFFFFFFFFFFFFFFFFFFFFFFFFFFFFFFFF0000FFFFFFFFFF00FF00FFFFFFFFFFFFFFFFFFFFFFFFFFFFFFFFFFFFFFFFFFFF0000FFFFFFFFFF00FF00FFFFFFFFFFFFFFFFFFFFFFFFFFFFFFFFFFFFFFFFFFFF0000FFFFFFFFFF00FF00FFFFFFFFFFFFFFFFFFFFFFFFFFFFFFFFFFFFFFFFFFFF0000FF
310
FFFFFF00FFFF00FFFFFFFFFFFFFFFFFFFFFFFFFFFFFFFFFFFFFFFFFFFF0000FFFFFFFF00FF0000FFFFFFFFFFFFFFFFFFFFFFFFFFFFFFFFFFFFFFFFFFFF0000FFFFFFFF00FF0000FFFFFFFFFFFFFFFFFFFFFFFFFFFFFFFFFFFFFFFFFFFF0000FFFFFFFF00000000FFFFFFFFFFFFFFFFFFFFFFFFFFFFFFFFFFFFFFFFFFFF0000
310
FFFFFF00FF000000FFFFFFFFFFFFFFFFFFFFFFFFFFFFFFFFFFFFFFFFFFFF0000FFFFFF00FF000000FFFFFFFFFFFFFFFFFFFFFFFFFFFFFFFFFFFFFFFFFFFF0000FFFFFF00FF000000FFFFFFFFFFFFFFFFFFFFFFFFFFFFFFFFFFFFFFFFFFFF0000FFFF00FF00FF0000FFFFFFFFFFFFFFFFFFFFFFFFFFFFFFFFFFFFFFFFFFFF00
310
00FFFF00FF00FF0000FFFFFFFFFFFFFFFFFFFFFFFFFFFFFFFFFFFFFFFFFFFF0000FFFF00FF00FF0000FFFFFFFFFFFFFFFFFFFFFFFFFFFFFFFFFFFFFFFFFFFF0000FF00FFFF00FF0000FFFFFFFFFFFFFFFFFFFFFFFFFFFFFFFFFFFFFFFFFFFF0000FF00FF00FFFF0000FFFFFFFFFFFFFFFFFFFFFFFFFFFFFFFFFFFFFFFFFFFF
310
0000FF00FF00FFFF0000FFFFFFFFFFFFFFFFFFFFFFFFFFFFFFFFFFFFFFFFFFFF0000FF00FF00FFFF0000FFFFFFFFFFFFFFFFFFFFFFFFFFFFFFFFFFFFFFFFFFFF000000FFFF00FFFF0000FFFFFFFFFFFFFFFFFFFFFFFFFFFFFFFFFFFFFFFFFFFF000000FF00FFFFFF0000FFFFFFFFFFFFFFFFFFFFFFFFFFFFFFFFFFFFFFFFFF
310
FF000000FF00FFFFFF0000FFFFFFFFFFFFFFFFFFFFFFFFFFFFFFFFFFFFFFFFFFFF0000FFFF00FFFFFF0000FFFFFFFFFFFFFFFFFFFFFFFFFFFFFFFFFFFFFFFFFFFF0000FFFF00FFFFFF0000FFFFFFFFFFFFFFFFFFFFFFFFFFFFFFFFFFFFFFFFFFFF00FFFF00FFFFFFFF0000FFFFFFFFFFFFFFFFFFFFFFFFFFFFFFFFFFFFFFFF
310
FFFF00FFFF00FFFFFFFF0000FFFFFFFFFFFFFFFFFFFFFFFFFFFFFFFFFFFFFFFFFFFF00FFFF00FFFFFFFF0000FFFFFFFFFFFFFFFFFFFFFFFFFFFFFFFFFFFFFFFFFFFF00FFFF00FFFFFFFF0000FFFFFFFFFFFFFFFFFFFFFFFFFFFFFFFFFFFFFFFFFFFF00FF00FFFFFFFFFF0000FFFFFFFFFFFFFFFFFFFFFFFFFFFFFFFFFFFFFF
310
FFFFFF000000FFFFFFFFFF0000FFFFFFFFFFFFFFFFFFFFFFFFFFFFFFFFFFFFFFFFFFFFFFFFFFFFFFFFFFFFFFFFFFFFFFFFFFFFFFFFFFFFFF
102
{BLKREFS
331
4D4
102
}
  0
BLOCK_RECORD
  5
4AB
330
1
100
AcDbSymbolTableRecord
100
AcDbBlockTableRecord
  2
AI9-BLK7
340
0
310
2800000020000000200000000100080000000000000400000000000000000000000000000000000000000000000080000080000000808000800000008000800080800000C0C0C000C0DCC000F0CAA6000020400000206000002080000020A0000020C0000020E00000400000004020000040400000406000004080000040A0
310
000040C0000040E00000600000006020000060400000606000006080000060A0000060C0000060E00000800000008020000080400000806000008080000080A0000080C0000080E00000A0000000A0200000A0400000A0600000A0800000A0A00000A0C00000A0E00000C0000000C0200000C0400000C0600000C0800000C0
310
A00000C0C00000C0E00000E0000000E0200000E0400000E0600000E0800000E0A00000E0C00000E0E00040000000400020004000400040006000400080004000A0004000C0004000E00040200000402020004020400040206000402080004020A0004020C0004020E000404000004040200040404000404060004040800040
310
40A0004040C0004040E00040600000406020004060400040606000406080004060A0004060C0004060E00040800000408020004080400040806000408080004080A0004080C0004080E00040A0000040A0200040A0400040A0600040A0800040A0A00040A0C00040A0E00040C0000040C0200040C0400040C0600040C08000
310
40C0A00040C0C00040C0E00040E0000040E0200040E0400040E0600040E0800040E0A00040E0C00040E0E00080000000800020008000400080006000800080008000A0008000C0008000E00080200000802020008020400080206000802080008020A0008020C0008020E00080400000804020008040400080406000804080
310
008040A0008040C0008040E00080600000806020008060400080606000806080008060A0008060C0008060E00080800000808020008080400080806000808080008080A0008080C0008080E00080A0000080A0200080A0400080A0600080A0800080A0A00080A0C00080A0E00080C0000080C0200080C0400080C0600080C0
310
800080C0A00080C0C00080C0E00080E0000080E0200080E0400080E0600080E0800080E0A00080E0C00080E0E000C0000000C0002000C0004000C0006000C0008000C000A000C000C000C000E000C0200000C0202000C0204000C0206000C0208000C020A000C020C000C020E000C0400000C0402000C0404000C0406000C0
310
408000C040A000C040C000C040E000C0600000C0602000C0604000C0606000C0608000C060A000C060C000C060E000C0800000C0802000C0804000C0806000C0808000C080A000C080C000C080E000C0A00000C0A02000C0A04000C0A06000C0A08000C0A0A000C0A0C000C0A0E000C0C00000C0C02000C0C04000C0C06000
310
C0C08000C0C0A000F0FBFF00A4A0A000808080000000FF0000FF000000FFFF00FF000000FF00FF00FFFF0000FFFFFF00FFFFFFFFFFFFFFFFFFFFFFFFFFFFFFFFFFFFFFFFFFFFFFFFFFFFFFFFFFFFFFFFFFFFFFFFFFFFFFFFFFFFFFFFFFFFFF0000FFFFFFFFFFFFFFFFFFFFFFFFFFFFFFFFFFFFFFFFFFFFFFFFFFFFFFFFFFFF
310
0000FFFFFFFFFFFFFFFFFFFFFFFFFFFFFFFFFFFFFFFFFFFFFFFFFFFFFFFFFFFF0000FFFFFFFFFFFFFFFFFFFFFFFFFFFFFFFFFFFFFFFFFFFFFFFFFFFFFFFFFFFF0000FFFFFFFFFFFFFFFFFFFFFFFFFFFFFFFFFFFFFFFFFFFFFFFFFFFFFFFFFFFF0000FFFFFFFFFFFFFFFFFFFFFFFFFFFFFFFFFFFFFFFFFFFFFFFFFFFFFFFFFF
310
FF0000FFFFFFFFFFFFFFFFFFFFFFFFFFFFFFFFFFFFFFFFFFFFFFFFFFFFFFFFFFFF0000FFFFFFFFFFFFFFFFFFFFFFFFFFFFFFFFFFFFFFFFFFFFFFFFFFFFFFFFFFFF0000FFFFFFFFFFFFFFFFFFFFFFFFFFFFFFFFFFFFFFFFFFFFFFFFFFFFFFFFFFFF0000FFFFFFFFFFFFFFFFFFFFFFFFFFFFFFFFFFFFFFFFFFFFFFFFFFFFFFFF
310
FFFF0000FFFFFFFFFFFFFFFFFFFFFFFFFFFFFFFFFFFFFFFFFFFFFFFFFFFFFFFFFFFF0000FFFFFFFFFFFFFFFFFFFFFFFFFFFFFFFFFFFFFFFFFFFFFFFFFFFFFFFFFFFF0000FFFFFFFFFFFFFFFFFFFFFFFFFFFFFFFFFFFFFFFFFFFFFFFFFFFFFFFFFFFF0000FFFFFFFFFFFFFFFFFFFFFFFFFFFFFFFFFFFFFFFFFFFFFFFFFFFFFF
310
FFFFFF0000FFFFFFFFFFFFFFFFFFFFFFFFFFFFFFFFFFFFFFFFFFFFFFFFFFFFFFFFFFFF0000FFFFFFFFFFFFFFFFFFFFFFFFFFFFFFFFFFFFFFFFFFFFFFFFFFFFFFFFFFFF0000FFFFFFFFFFFFFFFFFFFFFFFFFFFFFFFFFFFFFFFFFFFFFFFFFFFFFFFFFFFF0000FFFFFFFFFFFFFFFFFFFFFFFFFFFFFFFFFFFFFFFFFFFFFFFFFFFF
310
FFFFFFFF0000FFFFFFFFFFFFFFFFFFFFFFFFFFFFFFFFFFFFFFFFFFFFFFFFFFFFFFFFFFFF0000FFFFFFFFFFFFFFFFFFFFFFFFFFFFFFFFFFFFFFFFFFFFFFFFFFFFFFFFFFFF0000FFFFFFFFFFFFFFFFFFFFFFFFFFFFFFFFFFFFFFFFFFFFFFFFFFFFFFFFFFFF0000FFFFFFFFFFFFFFFFFFFFFFFFFFFFFFFFFFFFFFFFFFFFFFFFFF
310
FFFFFFFFFF0000FFFFFFFFFFFFFFFFFFFFFFFFFFFFFFFFFFFFFFFFFFFFFFFFFFFFFFFFFFFF0000FFFFFFFFFFFFFFFFFFFFFFFFFFFFFFFFFFFFFFFFFFFFFFFFFFFFFFFFFFFF0000FFFFFFFFFFFFFFFFFFFFFFFFFFFFFFFFFFFFFFFFFFFFFFFFFFFFFFFFFFFF0000FFFFFFFFFFFFFFFFFFFFFFFFFFFFFFFFFFFFFFFFFFFFFFFF
310
FFFFFFFFFFFF0000FFFFFFFFFFFFFFFFFFFFFFFFFFFFFFFFFFFFFFFFFFFFFFFFFFFFFFFFFFFF0000FFFFFFFFFFFFFFFFFFFFFFFFFFFFFFFFFFFFFFFFFFFFFFFFFFFFFFFFFFFF0000FFFFFFFFFFFFFFFFFFFFFFFFFFFFFFFFFFFFFFFFFFFFFFFFFFFFFFFFFFFF0000FFFFFFFFFFFFFFFFFFFFFFFFFFFFFFFFFFFFFFFFFFFFFF
310
FFFFFFFFFFFFFF0000FFFFFFFFFFFFFFFFFFFFFFFFFFFFFFFFFFFFFFFFFFFFFFFFFFFFFFFFFFFFFFFFFFFFFFFFFFFFFFFFFFFFFFFFFFFFFF
102
{BLKREFS
331
4D5
102
}
  0
BLOCK_RECORD
  5
4B0
330
1
100
AcDbSymbolTableRecord
100
AcDbBlockTableRecord
  2
AI9-BLK6
340
0
310
2800000020000000200000000100080000000000000400000000000000000000000000000000000000000000000080000080000000808000800000008000800080800000C0C0C000C0DCC000F0CAA6000020400000206000002080000020A0000020C0000020E00000400000004020000040400000406000004080000040A0
310
000040C0000040E00000600000006020000060400000606000006080000060A0000060C0000060E00000800000008020000080400000806000008080000080A0000080C0000080E00000A0000000A0200000A0400000A0600000A0800000A0A00000A0C00000A0E00000C0000000C0200000C0400000C0600000C0800000C0
310
A00000C0C00000C0E00000E0000000E0200000E0400000E0600000E0800000E0A00000E0C00000E0E00040000000400020004000400040006000400080004000A0004000C0004000E00040200000402020004020400040206000402080004020A0004020C0004020E000404000004040200040404000404060004040800040
310
40A0004040C0004040E00040600000406020004060400040606000406080004060A0004060C0004060E00040800000408020004080400040806000408080004080A0004080C0004080E00040A0000040A0200040A0400040A0600040A0800040A0A00040A0C00040A0E00040C0000040C0200040C0400040C0600040C08000
310
40C0A00040C0C00040C0E00040E0000040E0200040E0400040E0600040E0800040E0A00040E0C00040E0E00080000000800020008000400080006000800080008000A0008000C0008000E00080200000802020008020400080206000802080008020A0008020C0008020E00080400000804020008040400080406000804080
310
008040A0008040C0008040E00080600000806020008060400080606000806080008060A0008060C0008060E00080800000808020008080400080806000808080008080A0008080C0008080E00080A0000080A0200080A0400080A0600080A0800080A0A00080A0C00080A0E00080C0000080C0200080C0400080C0600080C0
310
800080C0A00080C0C00080C0E00080E0000080E0200080E0400080E0600080E0800080E0A00080E0C00080E0E000C0000000C0002000C0004000C0006000C0008000C000A000C000C000C000E000C0200000C0202000C0204000C0206000C0208000C020A000C020C000C020E000C0400000C0402000C0404000C0406000C0
310
408000C040A000C040C000C040E000C0600000C0602000C0604000C0606000C0608000C060A000C060C000C060E000C0800000C0802000C0804000C0806000C0808000C080A000C080C000C080E000C0A00000C0A02000C0A04000C0A06000C0A08000C0A0A000C0A0C000C0A0E000C0C00000C0C02000C0C04000C0C06000
310
C0C08000C0C0A000F0FBFF00A4A0A000808080000000FF0000FF000000FFFF00FF000000FF00FF00FFFF0000FFFFFF00FFFFFFFFFFFFFFFFFFFFFFFF00FFFFFFFFFFFFFF00FFFFFFFFFFFFFFFFFFFFFFFFFFFFFFFFFFFFFFFFFFFFFF00FFFFFFFFFFFFFF00FFFFFFFFFFFFFFFFFFFFFFFFFFFFFFFFFFFFFFFFFFFFFF00FFFF
310
FFFFFFFFFF00FFFFFFFFFFFFFFFFFFFFFFFFFFFFFFFFFFFFFFFFFFFF00FFFFFFFFFFFFFFFF00FFFFFFFFFFFFFFFFFFFFFFFFFFFFFFFFFFFFFFFFFFFF00FFFFFFFFFFFFFF00FFFFFFFFFFFFFFFFFFFFFFFFFFFFFFFFFFFFFFFFFFFFFF00FFFFFFFFFFFFFF00FFFFFFFFFFFFFFFFFFFFFFFFFFFFFFFFFFFFFFFFFFFF00FFFFFF
310
FFFFFFFFFF00FFFFFFFFFFFFFFFFFFFFFFFFFFFFFFFFFFFFFFFFFFFF00FFFFFFFFFFFFFF00FFFFFFFFFFFFFFFFFFFFFFFFFFFFFFFFFFFFFFFFFFFF00FFFFFFFFFFFFFFFF00FFFFFFFFFFFFFFFFFFFFFFFFFFFFFFFFFFFFFFFFFF00FFFFFFFFFFFFFFFFFF00FFFFFFFFFFFFFFFFFFFFFFFFFFFFFFFFFFFFFFFF00FFFFFFFFFF
310
FFFFFFFFFF00FFFFFFFFFFFFFFFFFFFFFFFFFFFFFFFFFFFFFF00FFFFFFFFFFFFFFFFFFFF00FFFFFFFFFFFFFFFFFFFFFFFFFFFFFFFFFFFF0000FFFFFFFFFFFFFFFFFFFFFF00FFFFFFFFFFFFFFFFFFFFFFFFFFFF00000000FFFFFFFFFFFFFFFFFFFFFFFFFF00FFFFFFFFFFFFFFFFFFFFFFFFFFFFFFFFFFFFFFFFFFFFFFFFFFFF
310
FFFFFFFF00FFFFFFFFFFFFFFFFFFFFFFFFFFFFFFFFFFFFFFFFFFFFFFFFFFFFFFFFFFFFFF00FFFFFFFFFFFFFFFFFFFFFFFFFFFFFFFFFFFFFFFFFFFFFFFFFFFFFFFFFFFFFF00FFFFFFFFFFFFFFFFFFFFFFFFFFFFFFFFFFFFFFFFFFFFFFFFFFFFFFFFFFFF00FFFFFFFFFFFFFFFFFFFFFFFFFFFFFFFFFFFFFFFFFFFFFFFFFFFFFF
310
FFFFFFFF00FFFFFFFFFFFFFFFFFFFFFFFFFFFFFFFFFFFFFFFFFFFFFFFFFFFFFFFFFFFF00FFFFFFFFFFFFFFFFFFFFFFFFFFFFFFFFFFFFFFFFFFFFFFFFFFFFFFFFFFFF00FFFFFFFFFFFFFFFFFFFFFFFFFFFFFFFFFFFFFFFFFFFFFFFFFFFFFFFFFFFF00FFFFFFFFFFFFFFFFFFFFFFFFFFFFFFFFFFFFFFFFFFFFFFFFFFFFFFFFFF
310
FF00FFFFFFFFFFFFFFFFFFFFFFFFFFFFFFFFFFFFFFFFFFFFFFFFFFFFFFFFFFFFFF00FFFFFFFFFFFFFFFFFFFFFFFFFFFFFFFFFFFFFFFFFFFFFFFFFFFFFFFFFFFF00FFFFFFFFFFFFFFFFFFFFFFFFFFFFFFFFFFFFFFFFFFFFFFFFFFFFFFFFFF0000FFFFFFFFFFFFFFFFFFFFFFFFFFFFFFFFFFFFFFFFFFFFFFFFFFFFFFFF0000FF
310
FFFFFFFFFFFFFFFFFFFFFFFFFFFFFFFFFFFFFFFFFFFFFFFFFF00000000FFFFFFFFFFFFFFFFFFFFFFFFFFFFFFFFFFFFFFFFFFFFFFFFFFFF0000FFFFFFFFFFFFFFFFFFFFFFFFFFFFFFFFFFFFFFFFFFFFFFFFFFFFFFFFFFFFFFFFFFFFFFFFFFFFFFFFFFFFFFFFFFFFFFFFFFFFFFFFFFFFFFFFFFFFFFFFFFFFFFFFFFFFFFFFFFFF
310
FFFFFFFFFFFFFFFFFFFFFFFFFFFFFFFFFFFFFFFFFFFFFFFFFFFFFFFFFFFFFFFFFFFFFFFFFFFFFFFFFFFFFFFFFFFFFFFFFFFFFFFFFFFFFFFF
102
{BLKREFS
331
4D6
102
}
  0
BLOCK_RECORD
  5
4B4
330
1
100
AcDbSymbolTableRecord
100
AcDbBlockTableRecord
  2
AI9-BLK5
340
0
310
2800000020000000200000000100080000000000000400000000000000000000000000000000000000000000000080000080000000808000800000008000800080800000C0C0C000C0DCC000F0CAA6000020400000206000002080000020A0000020C0000020E00000400000004020000040400000406000004080000040A0
310
000040C0000040E00000600000006020000060400000606000006080000060A0000060C0000060E00000800000008020000080400000806000008080000080A0000080C0000080E00000A0000000A0200000A0400000A0600000A0800000A0A00000A0C00000A0E00000C0000000C0200000C0400000C0600000C0800000C0
310
A00000C0C00000C0E00000E0000000E0200000E0400000E0600000E0800000E0A00000E0C00000E0E00040000000400020004000400040006000400080004000A0004000C0004000E00040200000402020004020400040206000402080004020A0004020C0004020E000404000004040200040404000404060004040800040
310
40A0004040C0004040E00040600000406020004060400040606000406080004060A0004060C0004060E00040800000408020004080400040806000408080004080A0004080C0004080E00040A0000040A0200040A0400040A0600040A0800040A0A00040A0C00040A0E00040C0000040C0200040C0400040C0600040C08000
310
40C0A00040C0C00040C0E00040E0000040E0200040E0400040E0600040E0800040E0A00040E0C00040E0E00080000000800020008000400080006000800080008000A0008000C0008000E00080200000802020008020400080206000802080008020A0008020C0008020E00080400000804020008040400080406000804080
310
008040A0008040C0008040E00080600000806020008060400080606000806080008060A0008060C0008060E00080800000808020008080400080806000808080008080A0008080C0008080E00080A0000080A0200080A0400080A0600080A0800080A0A00080A0C00080A0E00080C0000080C0200080C0400080C0600080C0
310
800080C0A00080C0C00080C0E00080E0000080E0200080E0400080E0600080E0800080E0A00080E0C00080E0E000C0000000C0002000C0004000C0006000C0008000C000A000C000C000C000E000C0200000C0202000C0204000C0206000C0208000C020A000C020C000C020E000C0400000C0402000C0404000C0406000C0
310
408000C040A000C040C000C040E000C0600000C0602000C0604000C0606000C0608000C060A000C060C000C060E000C0800000C0802000C0804000C0806000C0808000C080A000C080C000C080E000C0A00000C0A02000C0A04000C0A06000C0A08000C0A0A000C0A0C000C0A0E000C0C00000C0C02000C0C04000C0C06000
310
C0C08000C0C0A000F0FBFF00A4A0A000808080000000FF0000FF000000FFFF00FF000000FF00FF00FFFF0000FFFFFF00FFFFFFFFFFFFFFFFFFFFFFFFFFFFFFFFFFFFFFFFFFFFFFFFFFFFFFFFFFFFFFFFFFFFFFFFFFFFFFFF000000000000000000000000000000000000000000000000FFFFFFFFFFFFFFFF00FFFFFFFFFFFF
310
FFFFFFFFFFFFFFFFFFFFFFFFFFFFFFFFFFFFFFFFFFFFFFFFFF00FFFFFFFFFFFFFFFFFFFFFFFFFFFFFFFFFFFFFFFFFFFFFFFFFFFFFFFFFFFFFF00FFFFFFFFFFFFFFFFFFFFFFFFFFFFFFFFFFFFFFFFFFFFFFFFFFFFFFFFFFFFFF00FFFFFFFFFFFFFFFFFFFFFFFFFFFFFFFFFFFFFFFFFFFFFFFFFFFFFFFFFFFFFF00FFFFFFFFFF
310
FFFFFFFFFFFFFFFFFFFFFFFFFFFFFFFFFFFFFFFFFFFFFFFFFFFF00FFFFFFFFFFFFFFFFFFFFFFFFFFFFFFFFFFFFFFFFFFFFFFFFFFFFFFFFFFFFFF00FFFFFFFFFFFFFFFFFFFFFFFFFFFFFFFFFFFFFFFFFFFFFFFFFFFFFFFFFFFFFF00FFFFFFFFFFFFFFFFFFFFFFFFFFFFFFFFFFFFFFFFFFFFFFFFFFFFFFFFFFFFFF00FFFFFFFF
310
FFFFFFFFFFFFFFFFFFFFFFFFFFFFFFFFFFFFFFFFFFFFFFFFFFFFFF00FFFFFFFFFFFFFFFFFFFFFFFFFFFFFFFFFFFFFFFFFFFFFFFFFFFFFFFFFFFFFF00FFFFFFFFFFFFFFFFFFFFFFFFFFFFFFFFFFFFFFFFFFFFFFFFFFFFFFFFFFFFFF00FFFFFFFFFFFFFFFFFFFFFFFFFFFFFFFFFFFFFFFFFFFFFFFFFFFFFFFFFFFFFF00FFFFFF
310
FFFFFFFFFFFFFFFFFFFFFFFFFFFFFFFFFFFFFFFFFFFFFFFFFFFFFFFF00FFFFFFFFFFFFFFFFFFFFFFFFFFFFFFFFFFFFFFFFFFFFFFFFFFFFFFFFFFFFFF00FFFFFFFFFFFFFFFFFFFFFFFFFFFFFFFFFFFFFFFFFFFFFFFFFFFFFFFFFFFFFF00FFFFFFFFFFFFFFFFFFFFFFFFFFFFFFFFFFFFFFFFFFFFFFFFFFFFFFFFFFFFFF00FFFF
310
FFFFFFFFFFFFFFFFFFFFFFFFFFFFFFFFFFFFFFFFFFFFFFFFFFFFFFFFFF00FFFFFFFFFFFFFFFFFFFFFFFFFFFFFFFFFFFFFFFFFFFFFFFFFFFFFFFFFFFFFF00FFFFFFFFFFFFFFFFFFFFFFFFFFFFFFFFFFFFFFFFFFFFFFFFFFFFFFFFFFFFFF00FFFFFFFFFFFFFFFFFFFFFFFFFFFFFFFFFFFFFFFFFFFFFFFFFFFFFFFFFFFFFF00FF
310
FFFFFFFFFFFFFFFFFFFFFFFFFFFFFFFFFFFFFFFFFFFFFFFFFFFFFFFFFFFF00FFFFFFFFFFFFFFFFFFFFFFFFFFFFFFFFFFFFFFFFFFFFFFFFFFFFFFFFFFFFFF00FFFFFFFFFFFFFFFFFFFFFFFFFFFFFFFFFFFFFFFFFFFFFFFFFFFFFFFFFFFFFF00FFFFFFFFFFFFFFFFFFFFFFFFFFFFFFFFFFFFFFFFFFFFFFFFFFFFFFFFFFFFFF00
310
FFFFFFFFFFFFFFFFFFFFFFFFFFFFFFFFFFFFFFFFFFFFFFFFFFFFFFFFFFFFFF00FFFFFFFFFFFFFFFFFFFFFFFFFFFFFFFFFFFFFFFFFFFFFFFFFFFFFFFFFFFFFF00FFFFFFFFFFFFFFFFFFFFFFFFFFFFFFFFFFFFFFFFFFFFFFFFFFFFFFFFFFFFFF00FFFFFFFFFFFFFFFFFFFFFFFFFFFFFFFFFFFFFFFFFFFFFFFFFFFFFFFFFFFFFF
310
00FFFFFFFFFFFFFFFFFFFFFFFFFFFF000000000000000000FFFFFFFFFFFFFFFF00FFFFFFFFFFFFFFFFFFFFFFFFFFFF00FFFFFFFFFFFFFFFF
102
{BLKREFS
331
4D7
102
}
  0
BLOCK_RECORD
  5
4B9
330
1
100
AcDbSymbolTableRecord
100
AcDbBlockTableRecord
  2
AI9-BLK4
340
0
310
2800000020000000200000000100080000000000000400000000000000000000000000000000000000000000000080000080000000808000800000008000800080800000C0C0C000C0DCC000F0CAA6000020400000206000002080000020A0000020C0000020E00000400000004020000040400000406000004080000040A0
310
000040C0000040E00000600000006020000060400000606000006080000060A0000060C0000060E00000800000008020000080400000806000008080000080A0000080C0000080E00000A0000000A0200000A0400000A0600000A0800000A0A00000A0C00000A0E00000C0000000C0200000C0400000C0600000C0800000C0
310
A00000C0C00000C0E00000E0000000E0200000E0400000E0600000E0800000E0A00000E0C00000E0E00040000000400020004000400040006000400080004000A0004000C0004000E00040200000402020004020400040206000402080004020A0004020C0004020E000404000004040200040404000404060004040800040
310
40A0004040C0004040E00040600000406020004060400040606000406080004060A0004060C0004060E00040800000408020004080400040806000408080004080A0004080C0004080E00040A0000040A0200040A0400040A0600040A0800040A0A00040A0C00040A0E00040C0000040C0200040C0400040C0600040C08000
310
40C0A00040C0C00040C0E00040E0000040E0200040E0400040E0600040E0800040E0A00040E0C00040E0E00080000000800020008000400080006000800080008000A0008000C0008000E00080200000802020008020400080206000802080008020A0008020C0008020E00080400000804020008040400080406000804080
310
008040A0008040C0008040E00080600000806020008060400080606000806080008060A0008060C0008060E00080800000808020008080400080806000808080008080A0008080C0008080E00080A0000080A0200080A0400080A0600080A0800080A0A00080A0C00080A0E00080C0000080C0200080C0400080C0600080C0
310
800080C0A00080C0C00080C0E00080E0000080E0200080E0400080E0600080E0800080E0A00080E0C00080E0E000C0000000C0002000C0004000C0006000C0008000C000A000C000C000C000E000C0200000C0202000C0204000C0206000C0208000C020A000C020C000C020E000C0400000C0402000C0404000C0406000C0
310
408000C040A000C040C000C040E000C0600000C0602000C0604000C0606000C0608000C060A000C060C000C060E000C0800000C0802000C0804000C0806000C0808000C080A000C080C000C080E000C0A00000C0A02000C0A04000C0A06000C0A08000C0A0A000C0A0C000C0A0E000C0C00000C0C02000C0C04000C0C06000
310
C0C08000C0C0A000F0FBFF00A4A0A000808080000000FF0000FF000000FFFF00FF000000FF00FF00FFFF0000FFFFFF00FFFFFFFFFFFFFFFFFFFFFFFFFFFFFFFFFFFFFFFFFFFFFFFFFFFFFFFFFFFFFFFFFFFFFFFFFFFFFFFFFFFFFFFFFFFF00000000FFFFFFFFFFFFFFFFFFFFFF000000FFFFFFFFFFFFFFFFFFFFFFFFFFFF00
310
FFFF00FFFFFFFFFFFFFFFFFFFFFF00FFFFFFFFFFFFFFFFFFFFFFFFFFFFFFFF00FFFF00FFFFFFFFFFFFFFFFFFFFFF00FFFFFFFFFFFFFFFFFFFFFFFFFFFFFFFF00FFFF00FFFFFFFFFFFFFFFFFFFFFF00FFFFFFFFFFFFFFFFFFFFFFFFFFFFFFFF00FFFF00FFFFFFFFFFFFFFFFFFFFFF00FFFFFFFFFFFFFFFFFFFFFFFFFFFFFFFF
310
00FFFF00FFFFFFFFFFFFFFFFFFFFFF00FFFFFFFFFFFFFFFFFFFFFFFFFFFFFFFF00FFFF00FFFFFFFFFFFFFFFFFFFFFF00FFFFFFFFFFFFFFFFFFFFFFFFFFFFFFFF00FFFF00FFFFFFFFFFFFFFFFFFFFFF00FFFFFFFFFFFFFFFFFFFFFFFFFFFFFFFF00FFFF00FFFFFFFFFFFFFFFFFFFFFF00FFFFFFFFFFFFFFFFFFFFFFFFFFFFFF
310
FF00FFFF00FFFFFFFFFFFFFFFFFFFFFF00FFFFFFFFFFFFFFFFFFFFFFFFFFFFFFFF00FFFF00FFFFFFFFFFFFFFFFFFFFFF00FFFFFFFFFFFFFFFFFFFFFFFFFFFFFFFF00FFFF00FFFFFFFFFFFFFFFFFFFFFF00FFFFFFFFFFFFFFFFFFFFFFFFFFFFFFFF00FFFF00FFFFFFFFFFFFFFFFFFFFFF00FFFFFFFFFFFFFFFFFFFFFFFFFFFF
310
FFFF00FFFF00FFFFFFFFFFFFFFFFFFFFFF00FFFFFFFFFFFFFFFFFFFFFFFFFFFFFFFF00FFFF00FFFFFFFFFFFFFFFFFFFFFF00FFFFFFFFFFFFFFFFFFFFFFFFFFFFFFFF00FFFF00FFFFFFFFFFFFFFFFFFFFFF00FFFFFFFFFFFFFFFFFFFFFFFFFFFFFFFF00FFFF00FFFFFFFFFFFFFFFFFFFF00FFFFFFFFFFFFFFFFFFFFFFFFFFFF
310
FFFFFF00FFFF00FFFFFFFFFFFFFFFFFFFF00FFFFFFFFFFFFFFFFFFFFFFFFFFFFFFFFFF00FFFF00FFFFFFFFFFFFFFFFFFFF00FFFFFFFFFFFFFFFFFFFFFFFFFFFFFFFFFF00FFFF00FFFFFFFFFFFFFFFFFFFF00FFFFFFFFFFFFFFFFFFFFFFFFFFFFFFFFFF00FFFF00FFFFFFFFFFFFFFFFFFFF00FFFFFFFFFFFFFFFFFFFFFFFFFF
310
FFFFFFFF00FFFF00FFFFFFFFFFFFFFFFFF0000FFFF00FFFFFFFFFFFFFFFFFFFFFFFFFFFF00FFFF00FFFFFFFFFFFFFFFF0000FFFFFF00FFFFFFFFFFFFFFFFFFFFFFFFFFFF00FFFF00000000000000000000FFFFFFFF00FFFFFFFFFFFFFFFFFFFFFFFFFFFF00FFFFFFFFFFFFFFFFFFFFFFFFFFFFFF00FFFFFFFFFFFFFFFFFFFF
310
FFFFFFFFFF00FFFFFFFFFFFFFFFFFFFFFFFFFFFF00FFFFFFFFFFFFFFFFFFFFFFFFFFFFFFFF00FFFFFFFFFFFFFFFFFFFFFFFFFFFF00FFFFFFFFFFFFFFFFFFFFFFFFFFFFFFFF00FFFFFFFFFFFFFFFFFFFFFFFFFFFFFF00FFFFFFFFFFFFFFFFFFFFFFFFFFFFFF00FFFFFFFFFFFFFFFFFFFFFFFFFFFFFF00FFFFFFFFFFFFFFFFFF
310
FFFFFFFFFFFF00FFFF00000000000000000000FFFFFFFF00FFFFFFFFFFFFFFFFFFFFFFFFFFFF00FFFF00FFFFFFFFFFFFFFFFFF0000FFFF00
102
{BLKREFS
331
4D8
102
}
  0
BLOCK_RECORD
  5
4BE
330
1
100
AcDbSymbolTableRecord
100
AcDbBlockTableRecord
  2
AI9-BLK3
340
0
310
2800000020000000200000000100080000000000000400000000000000000000000000000000000000000000000080000080000000808000800000008000800080800000C0C0C000C0DCC000F0CAA6000020400000206000002080000020A0000020C0000020E00000400000004020000040400000406000004080000040A0
310
000040C0000040E00000600000006020000060400000606000006080000060A0000060C0000060E00000800000008020000080400000806000008080000080A0000080C0000080E00000A0000000A0200000A0400000A0600000A0800000A0A00000A0C00000A0E00000C0000000C0200000C0400000C0600000C0800000C0
310
A00000C0C00000C0E00000E0000000E0200000E0400000E0600000E0800000E0A00000E0C00000E0E00040000000400020004000400040006000400080004000A0004000C0004000E00040200000402020004020400040206000402080004020A0004020C0004020E000404000004040200040404000404060004040800040
310
40A0004040C0004040E00040600000406020004060400040606000406080004060A0004060C0004060E00040800000408020004080400040806000408080004080A0004080C0004080E00040A0000040A0200040A0400040A0600040A0800040A0A00040A0C00040A0E00040C0000040C0200040C0400040C0600040C08000
310
40C0A00040C0C00040C0E00040E0000040E0200040E0400040E0600040E0800040E0A00040E0C00040E0E00080000000800020008000400080006000800080008000A0008000C0008000E00080200000802020008020400080206000802080008020A0008020C0008020E00080400000804020008040400080406000804080
310
008040A0008040C0008040E00080600000806020008060400080606000806080008060A0008060C0008060E00080800000808020008080400080806000808080008080A0008080C0008080E00080A0000080A0200080A0400080A0600080A0800080A0A00080A0C00080A0E00080C0000080C0200080C0400080C0600080C0
310
800080C0A00080C0C00080C0E00080E0000080E0200080E0400080E0600080E0800080E0A00080E0C00080E0E000C0000000C0002000C0004000C0006000C0008000C000A000C000C000C000E000C0200000C0202000C0204000C0206000C0208000C020A000C020C000C020E000C0400000C0402000C0404000C0406000C0
310
408000C040A000C040C000C040E000C0600000C0602000C0604000C0606000C0608000C060A000C060C000C060E000C0800000C0802000C0804000C0806000C0808000C080A000C080C000C080E000C0A00000C0A02000C0A04000C0A06000C0A08000C0A0A000C0A0C000C0A0E000C0C00000C0C02000C0C04000C0C06000
310
C0C08000C0C0A000F0FBFF00A4A0A000808080000000FF0000FF000000FFFF00FF000000FF00FF00FFFF0000FFFFFF00FFFFFFFFFFFFFFFFFFFFFFFFFFFFFFFFFFFFFFFFFFFFFFFFFFFFFFFFFFFFFFFFFFFFFFFFFFFFFFFFFFFFFFFFFFFFFF0000FFFFFFFFFFFFFFFFFFFFFFFFFFFFFFFFFFFFFFFFFFFFFFFFFFFFFFFFFFFF
310
0000FFFFFFFFFFFFFFFFFFFFFFFFFFFFFFFFFFFFFFFFFFFFFFFFFFFFFFFFFFFF0000FFFFFFFFFFFFFFFFFFFFFFFFFFFFFFFFFFFFFFFFFFFFFFFFFFFFFFFFFFFF0000FFFFFFFFFFFFFFFFFFFFFFFFFFFFFFFFFFFFFFFFFFFFFFFFFFFFFFFFFFFF0000FFFFFFFFFFFFFFFFFFFFFFFFFFFFFFFFFFFFFFFFFFFFFFFFFFFFFFFFFF
310
FF0000FFFFFFFFFFFFFFFFFFFFFFFFFFFFFFFFFFFFFFFFFFFFFFFFFFFFFFFFFFFF0000FFFFFFFFFFFFFFFFFFFFFFFFFFFFFFFFFFFFFFFFFFFFFFFFFFFFFFFFFFFF0000FFFFFFFFFFFFFFFFFFFFFFFFFFFFFFFFFFFFFFFFFFFFFFFFFFFFFFFFFFFF0000FFFFFFFFFFFFFFFFFFFFFFFFFFFFFFFFFFFFFFFFFFFFFFFFFFFFFFFF
310
FFFF0000FFFFFFFFFFFFFFFFFFFFFFFFFFFFFFFFFFFFFFFFFFFFFFFFFFFFFFFFFFFF0000FFFFFFFFFFFFFFFFFFFFFFFFFFFFFFFFFFFFFFFFFFFFFFFFFFFFFFFFFFFF0000FFFFFFFFFFFFFFFFFFFFFFFFFFFFFFFFFFFFFFFFFFFFFFFFFFFFFFFFFFFF0000FFFFFFFFFFFFFFFFFFFFFFFFFFFFFFFFFFFFFFFFFFFFFFFFFFFFFF
310
FFFFFF0000FFFFFFFFFFFFFFFFFFFFFFFFFFFFFFFFFFFFFFFFFFFFFFFFFFFFFFFFFFFF0000FFFFFFFFFFFFFFFFFFFFFFFFFFFFFFFFFFFFFFFFFFFFFFFFFFFFFFFFFFFF0000FFFFFFFFFFFFFFFFFFFFFFFFFFFFFFFFFFFFFFFFFFFFFFFFFFFFFFFFFFFF0000FFFFFFFFFFFFFFFFFFFFFFFFFFFFFFFFFFFFFFFFFFFFFFFFFFFF
310
FFFFFFFF0000FFFFFFFFFFFFFFFFFFFFFFFFFFFFFFFFFFFFFFFFFFFFFFFFFFFFFFFFFFFF0000FFFFFFFFFFFFFFFFFFFFFFFFFFFFFFFFFFFFFFFFFFFFFFFFFFFFFFFFFFFF0000FFFFFFFFFFFFFFFFFFFFFFFFFFFFFFFFFFFFFFFFFFFFFFFFFFFFFFFFFFFF0000FFFFFFFFFFFFFFFFFFFFFFFFFFFFFFFFFFFFFFFFFFFFFFFFFF
310
FFFFFFFFFF0000FFFFFFFFFFFFFFFFFFFFFFFFFFFFFFFFFFFFFFFFFFFFFFFFFFFFFFFFFFFF0000FFFFFFFFFFFFFFFFFFFFFFFFFFFFFFFFFFFFFFFFFFFFFFFFFFFFFFFFFFFF0000FFFFFFFFFFFFFFFFFFFFFFFFFFFFFFFFFFFFFFFFFFFFFFFFFFFFFFFFFFFF0000FFFFFFFFFFFFFFFFFFFFFFFFFFFFFFFFFFFFFFFFFFFFFFFF
310
FFFFFFFFFFFF0000FFFFFFFFFFFFFFFFFFFFFFFFFFFFFFFFFFFFFFFFFFFFFFFFFFFFFFFFFFFF0000FFFFFFFFFFFFFFFFFFFFFFFFFFFFFFFFFFFFFFFFFFFFFFFFFFFFFFFFFFFF0000FFFFFFFFFFFFFFFFFFFFFFFFFFFFFFFFFFFFFFFFFFFFFFFFFFFFFFFFFFFF0000FFFFFFFFFFFFFFFFFFFFFFFFFFFFFFFFFFFFFFFFFFFFFF
310
FFFFFFFFFFFFFF0000FFFFFFFFFFFFFFFFFFFFFFFFFFFFFFFFFFFFFFFFFFFFFFFFFFFFFFFFFFFFFFFFFFFFFFFFFFFFFFFFFFFFFFFFFFFFFF
102
{BLKREFS
331
4D9
102
}
  0
BLOCK_RECORD
  5
4C3
330
1
100
AcDbSymbolTableRecord
100
AcDbBlockTableRecord
  2
AI9-BLK2
340
0
310
2800000020000000200000000100080000000000000400000000000000000000000000000000000000000000000080000080000000808000800000008000800080800000C0C0C000C0DCC000F0CAA6000020400000206000002080000020A0000020C0000020E00000400000004020000040400000406000004080000040A0
310
000040C0000040E00000600000006020000060400000606000006080000060A0000060C0000060E00000800000008020000080400000806000008080000080A0000080C0000080E00000A0000000A0200000A0400000A0600000A0800000A0A00000A0C00000A0E00000C0000000C0200000C0400000C0600000C0800000C0
310
A00000C0C00000C0E00000E0000000E0200000E0400000E0600000E0800000E0A00000E0C00000E0E00040000000400020004000400040006000400080004000A0004000C0004000E00040200000402020004020400040206000402080004020A0004020C0004020E000404000004040200040404000404060004040800040
310
40A0004040C0004040E00040600000406020004060400040606000406080004060A0004060C0004060E00040800000408020004080400040806000408080004080A0004080C0004080E00040A0000040A0200040A0400040A0600040A0800040A0A00040A0C00040A0E00040C0000040C0200040C0400040C0600040C08000
310
40C0A00040C0C00040C0E00040E0000040E0200040E0400040E0600040E0800040E0A00040E0C00040E0E00080000000800020008000400080006000800080008000A0008000C0008000E00080200000802020008020400080206000802080008020A0008020C0008020E00080400000804020008040400080406000804080
310
008040A0008040C0008040E00080600000806020008060400080606000806080008060A0008060C0008060E00080800000808020008080400080806000808080008080A0008080C0008080E00080A0000080A0200080A0400080A0600080A0800080A0A00080A0C00080A0E00080C0000080C0200080C0400080C0600080C0
310
800080C0A00080C0C00080C0E00080E0000080E0200080E0400080E0600080E0800080E0A00080E0C00080E0E000C0000000C0002000C0004000C0006000C0008000C000A000C000C000C000E000C0200000C0202000C0204000C0206000C0208000C020A000C020C000C020E000C0400000C0402000C0404000C0406000C0
310
408000C040A000C040C000C040E000C0600000C0602000C0604000C0606000C0608000C060A000C060C000C060E000C0800000C0802000C0804000C0806000C0808000C080A000C080C000C080E000C0A00000C0A02000C0A04000C0A06000C0A08000C0A0A000C0A0C000C0A0E000C0C00000C0C02000C0C04000C0C06000
310
C0C08000C0C0A000F0FBFF00A4A0A000808080000000FF0000FF000000FFFF00FF000000FF00FF00FFFF0000FFFFFF00FFFFFFFFFFFFFFFFFFFFFFFFFFFFFFFFFFFFFFFFFFFFFFFFFFFFFFFFFFFFFFFFFFFFFFFFFFFFFFFFFFFFFFFFFFFFFF0000FFFFFFFFFFFFFFFFFFFFFFFFFFFFFFFFFFFFFFFFFFFFFFFFFFFFFFFFFFFF
310
0000FFFFFFFFFFFFFFFFFFFFFFFFFFFFFFFFFFFFFFFFFFFFFFFFFFFFFFFFFFFF0000FFFFFFFFFFFFFFFFFFFFFFFFFFFFFFFFFFFFFFFFFFFFFFFFFFFFFFFFFF00FFFF00FFFFFFFFFFFFFFFFFFFFFFFFFFFFFFFFFFFFFFFFFFFFFFFFFFFFFFFF00FFFF00FFFFFFFFFFFFFFFFFFFFFFFFFFFFFFFFFFFFFFFFFFFFFFFFFFFFFFFF
310
00FF0000FFFFFFFFFFFFFFFFFFFFFFFFFFFFFFFFFFFFFFFFFFFFFFFFFFFFFFFF00FF0000FFFFFFFFFFFFFFFFFFFFFFFFFFFFFFFFFFFFFFFFFFFFFFFFFFFFFFFF00FF0000FFFFFFFFFFFFFFFFFFFFFFFFFFFFFFFFFFFFFFFFFFFFFFFFFFFFFFFF00000000FFFFFFFFFFFFFFFFFFFFFFFFFFFFFFFFFFFFFFFFFFFFFFFFFFFFFF
310
00FF00FF0000FFFFFFFFFFFFFFFFFFFFFFFFFFFFFFFFFFFFFFFFFFFFFFFFFFFF00FF00FF0000FFFFFFFFFFFFFFFFFFFFFFFFFFFFFFFFFFFFFFFFFFFFFFFFFFFF00FF00FF0000FFFFFFFFFFFFFFFFFFFFFFFFFFFFFFFFFFFFFFFFFFFFFFFFFFFF00FF00FF0000FFFFFFFFFFFFFFFFFFFFFFFFFFFFFFFFFFFFFFFFFFFFFFFFFF
310
FF00FF00FF0000FFFFFFFFFFFFFFFFFFFFFFFFFFFFFFFFFFFFFFFFFFFFFFFFFFFF0000FFFF0000FFFFFFFFFFFFFFFFFFFFFFFFFFFFFFFFFFFFFFFFFFFFFFFFFF00FF00FFFF00FF00FFFFFFFFFFFFFFFFFFFFFFFFFFFFFFFFFFFFFFFFFFFFFFFF00FF00FFFF00FF00FFFFFFFFFFFFFFFFFFFFFFFFFFFFFFFFFFFFFFFFFFFFFF
310
FF00FF00FFFFFF0000FFFFFFFFFFFFFFFFFFFFFFFFFFFFFFFFFFFFFFFFFFFFFFFF00FF00FFFFFF0000FFFFFFFFFFFFFFFFFFFFFFFFFFFFFFFFFFFFFFFFFFFFFFFF00FF00FFFFFF0000FFFFFFFFFFFFFFFFFFFFFFFFFFFFFFFFFFFFFFFFFFFFFFFF0000FFFFFFFF0000FFFFFFFFFFFFFFFFFFFFFFFFFFFFFFFFFFFFFFFFFFFF
310
FF00FF00FFFFFFFF00FF00FFFFFFFFFFFFFFFFFFFFFFFFFFFFFFFFFFFFFFFFFFFF00FF00FFFFFFFF00FF00FFFFFFFFFFFFFFFFFFFFFFFFFFFFFFFFFFFFFFFFFFFF00FF00FFFFFFFF00FF00FFFFFFFFFFFFFFFFFFFFFFFFFFFFFFFFFFFFFFFFFFFF00FF00FFFFFFFF00FF00FFFFFFFFFFFFFFFFFFFFFFFFFFFFFFFFFFFFFFFF
310
FFFF00FF00FFFFFFFFFF0000FFFFFFFFFFFFFFFFFFFFFFFFFFFFFFFFFFFFFFFFFFFF0000FFFFFFFFFFFF0000FFFFFFFFFFFFFFFFFFFFFFFFFFFFFFFFFFFFFFFFFF00FF00FFFFFFFFFFFF00FF00FFFFFFFFFFFFFFFFFFFFFFFFFFFFFFFFFFFFFFFF00FF00FFFFFFFFFFFF00FF00FFFFFFFFFFFFFFFFFFFFFFFFFFFFFFFFFFFF
310
FFFF000000FFFFFFFFFFFF000000FFFFFFFFFFFFFFFFFFFFFFFFFFFFFFFFFFFFFFFFFFFFFFFFFFFFFFFFFFFFFFFFFFFFFFFFFFFFFFFFFFFF
102
{BLKREFS
331
4DA
102
}
  0
BLOCK_RECORD
  5
4C8
330
1
100
AcDbSymbolTableRecord
100
AcDbBlockTableRecord
  2
AI9-BLK1
340
0
310
2800000020000000200000000100080000000000000400000000000000000000000000000000000000000000000080000080000000808000800000008000800080800000C0C0C000C0DCC000F0CAA6000020400000206000002080000020A0000020C0000020E00000400000004020000040400000406000004080000040A0
310
000040C0000040E00000600000006020000060400000606000006080000060A0000060C0000060E00000800000008020000080400000806000008080000080A0000080C0000080E00000A0000000A0200000A0400000A0600000A0800000A0A00000A0C00000A0E00000C0000000C0200000C0400000C0600000C0800000C0
310
A00000C0C00000C0E00000E0000000E0200000E0400000E0600000E0800000E0A00000E0C00000E0E00040000000400020004000400040006000400080004000A0004000C0004000E00040200000402020004020400040206000402080004020A0004020C0004020E000404000004040200040404000404060004040800040
310
40A0004040C0004040E00040600000406020004060400040606000406080004060A0004060C0004060E00040800000408020004080400040806000408080004080A0004080C0004080E00040A0000040A0200040A0400040A0600040A0800040A0A00040A0C00040A0E00040C0000040C0200040C0400040C0600040C08000
310
40C0A00040C0C00040C0E00040E0000040E0200040E0400040E0600040E0800040E0A00040E0C00040E0E00080000000800020008000400080006000800080008000A0008000C0008000E00080200000802020008020400080206000802080008020A0008020C0008020E00080400000804020008040400080406000804080
310
008040A0008040C0008040E00080600000806020008060400080606000806080008060A0008060C0008060E00080800000808020008080400080806000808080008080A0008080C0008080E00080A0000080A0200080A0400080A0600080A0800080A0A00080A0C00080A0E00080C0000080C0200080C0400080C0600080C0
310
800080C0A00080C0C00080C0E00080E0000080E0200080E0400080E0600080E0800080E0A00080E0C00080E0E000C0000000C0002000C0004000C0006000C0008000C000A000C000C000C000E000C0200000C0202000C0204000C0206000C0208000C020A000C020C000C020E000C0400000C0402000C0404000C0406000C0
310
408000C040A000C040C000C040E000C0600000C0602000C0604000C0606000C0608000C060A000C060C000C060E000C0800000C0802000C0804000C0806000C0808000C080A000C080C000C080E000C0A00000C0A02000C0A04000C0A06000C0A08000C0A0A000C0A0C000C0A0E000C0C00000C0C02000C0C04000C0C06000
310
C0C08000C0C0A000F0FBFF00A4A0A000808080000000FF0000FF000000FFFF00FF000000FF00FF00FFFF0000FFFFFF00FFFFFFFFFFFFFFFFFFFFFFFFFFFFFFFFFFFFFFFFFFFFFFFFFFFFFFFFFFFFFFFFFFFFFFFFFFFFFFFFFFFFFF00000000000000000000FFFFFFFFFFFFFFFFFFFFFFFFFFFFFFFFFFFFFFFFFFFF00FFFFFF
310
FFFFFFFFFF00FFFFFFFFFFFFFFFFFFFFFFFFFFFFFFFFFFFFFFFFFFFF00FFFFFFFFFFFFFFFF00FFFFFFFFFFFFFFFFFFFFFFFFFFFFFFFFFFFFFFFFFFFF00FFFFFFFFFFFFFFFF00FFFFFFFFFFFFFFFFFFFFFFFFFFFFFFFFFFFFFFFFFFFF00FF0000000000000000FFFFFFFFFFFFFFFFFFFFFFFFFFFFFFFFFFFFFFFFFFFF00FF00
310
FFFFFFFFFFFFFFFFFFFFFFFFFFFFFFFFFFFFFFFFFFFFFFFFFFFFFFFFFF00FF00FFFFFFFFFFFFFFFFFFFFFFFFFFFFFFFFFFFFFFFFFFFFFFFFFFFFFFFFFF00FF00FFFFFFFFFFFFFFFFFFFFFFFFFFFFFFFFFFFFFFFFFFFFFFFFFFFFFFFFFF00FF00FFFFFFFFFFFFFFFFFFFFFFFFFFFFFFFFFFFFFFFFFFFFFFFFFFFFFFFFFF00FF
310
00FFFFFFFFFFFFFFFFFFFFFFFFFFFFFFFFFFFFFFFFFFFFFFFFFFFFFFFFFF00FF00FFFFFFFFFFFFFFFFFFFFFFFFFFFFFFFFFFFFFFFFFFFFFFFFFFFFFFFFFF00FF00FFFFFFFFFFFFFFFFFFFFFFFFFFFFFFFFFFFFFFFFFFFFFFFFFFFFFFFFFF00FF00FFFFFFFFFFFFFFFFFFFFFFFFFFFFFFFFFFFFFFFFFFFFFFFFFFFFFFFFFF00
310
FF00000000000000FFFFFFFFFFFFFFFFFFFFFFFFFFFFFFFFFFFFFFFFFFFFFF00FFFFFFFFFFFFFF00FFFFFFFFFFFFFFFFFFFFFFFFFFFFFFFFFFFFFFFFFFFFFF00FFFFFFFFFFFFFF00FFFFFFFFFFFFFFFFFFFFFFFFFFFFFFFFFFFFFFFFFFFFFF00FFFFFFFFFFFFFF00FFFFFFFFFFFFFFFFFFFFFFFFFFFFFFFFFFFFFFFFFFFFFF
310
00FF00000000000000FFFFFFFFFFFFFFFFFFFFFFFFFFFFFFFFFFFFFFFFFFFFFF00FF00FFFFFFFFFFFFFFFFFFFFFFFFFFFFFFFFFFFFFFFFFFFFFFFFFFFFFFFFFF00FF00FFFFFFFFFFFFFFFFFFFFFFFFFFFFFFFFFFFFFFFFFFFFFFFFFFFFFFFFFF00FF00FFFFFFFFFFFFFFFFFFFFFFFFFFFFFFFFFFFFFFFFFFFFFFFFFFFFFFFF
310
FF00FF00FFFFFFFFFFFFFFFFFFFFFFFFFFFFFFFFFFFFFFFFFFFFFFFFFFFFFFFFFF00FF00FFFFFFFFFFFFFFFFFFFFFFFFFFFFFFFFFFFFFFFFFFFFFFFFFFFFFFFFFF00FF00FFFFFFFFFFFFFFFFFFFFFFFFFFFFFFFFFFFFFFFFFFFFFFFFFFFFFFFFFF00FF00FFFFFFFFFFFFFFFFFFFFFFFFFFFFFFFFFFFFFFFFFFFFFFFFFFFFFF
310
FFFF00FF0000000000000000FFFFFFFFFFFFFFFFFFFFFFFFFFFFFFFFFFFFFFFFFFFF00FFFFFFFFFFFFFFFF00FFFFFFFFFFFFFFFFFFFFFFFFFFFFFFFFFFFFFFFFFFFF00FFFFFFFFFFFFFFFF00FFFFFFFFFFFFFFFFFFFFFFFFFFFFFFFFFFFFFFFFFFFF00FFFFFFFFFFFFFFFF00FFFFFFFFFFFFFFFFFFFFFFFFFFFFFFFFFFFFFF
310
FFFFFF00000000000000000000FFFFFFFFFFFFFFFFFFFFFFFFFFFFFFFFFFFFFFFFFFFFFFFFFFFFFFFFFFFFFFFFFFFFFFFFFFFFFFFFFFFFFF
102
{BLKREFS
331
4DB
102
}
  0
BLOCK_RECORD
  5
4CD
330
1
100
AcDbSymbolTableRecord
100
AcDbBlockTableRecord
  2
HD_LLC_logo_OT5
340
0
310
2800000020000000200000000100080000000000000400000000000000000000000000000000000000000000000080000080000000808000800000008000800080800000C0C0C000C0DCC000F0CAA6000020400000206000002080000020A0000020C0000020E00000400000004020000040400000406000004080000040A0
310
000040C0000040E00000600000006020000060400000606000006080000060A0000060C0000060E00000800000008020000080400000806000008080000080A0000080C0000080E00000A0000000A0200000A0400000A0600000A0800000A0A00000A0C00000A0E00000C0000000C0200000C0400000C0600000C0800000C0
310
A00000C0C00000C0E00000E0000000E0200000E0400000E0600000E0800000E0A00000E0C00000E0E00040000000400020004000400040006000400080004000A0004000C0004000E00040200000402020004020400040206000402080004020A0004020C0004020E000404000004040200040404000404060004040800040
310
40A0004040C0004040E00040600000406020004060400040606000406080004060A0004060C0004060E00040800000408020004080400040806000408080004080A0004080C0004080E00040A0000040A0200040A0400040A0600040A0800040A0A00040A0C00040A0E00040C0000040C0200040C0400040C0600040C08000
310
40C0A00040C0C00040C0E00040E0000040E0200040E0400040E0600040E0800040E0A00040E0C00040E0E00080000000800020008000400080006000800080008000A0008000C0008000E00080200000802020008020400080206000802080008020A0008020C0008020E00080400000804020008040400080406000804080
310
008040A0008040C0008040E00080600000806020008060400080606000806080008060A0008060C0008060E00080800000808020008080400080806000808080008080A0008080C0008080E00080A0000080A0200080A0400080A0600080A0800080A0A00080A0C00080A0E00080C0000080C0200080C0400080C0600080C0
310
800080C0A00080C0C00080C0E00080E0000080E0200080E0400080E0600080E0800080E0A00080E0C00080E0E000C0000000C0002000C0004000C0006000C0008000C000A000C000C000C000E000C0200000C0202000C0204000C0206000C0208000C020A000C020C000C020E000C0400000C0402000C0404000C0406000C0
310
408000C040A000C040C000C040E000C0600000C0602000C0604000C0606000C0608000C060A000C060C000C060E000C0800000C0802000C0804000C0806000C0808000C080A000C080C000C080E000C0A00000C0A02000C0A04000C0A06000C0A08000C0A0A000C0A0C000C0A0E000C0C00000C0C02000C0C04000C0C06000
310
C0C08000C0C0A000F0FBFF00A4A0A000808080000000FF0000FF000000FFFF00FF000000FF00FF00FFFF0000FFFFFF00FFFFFFFFFFFFFFFFFFFFFFFFFFFFFFFFFFFFFFFFFFFFFFFFFFFFFFFFFFFFFFFFFFFFFFFFFFFFFFFFFFFFFFFFFFFFFFFFFFFFFFFFFFFFFFFFFFFFFFFFFFFFFFFFFFFFFFFFFFFFFFFFFFFFFFFFFFFFFF
310
FFFFFFFFFFFFFFFFFFFFFFFFFFFFFFFFFFFFFFFFFFFFFFFFFFFFFFFFFFFFFFFFFFFFFFFFFFFFFFFFFFFFFFFFFFFFFFFFFFFFFFFFFFFFFFFFFFFFFFFFFFFFFFFFFFFFFFFFFFFFFFFFFFFFFFFFFFFFFFFFFFFFFFFFFFFFFFFFFFFFFFFFFFFFFFFFFFFFFFFFFFFFFFFFFFFFFFFFFFFFFFFFFFFFFFFFFFFFFFFFFFFFFFFFFFFFFF
310
FFFFFFFFFFFFFFFFFFFFFFFFFFFFFFFFFFFFFFFFFFFFFFFFFFFFFFFFFFFFFFFFFFFFFFFFFFFFFFFFFFFFFFFFFFFFFFFFFFFFFFFFFFFFFFFFFFFFFFFFFFFFFFFFFFFFFFFFFFFFFFFFFFFFFFFFFFFFFFFFFFFFFFFFFFFFFFFFFFFFFFFFFFFFFFFFFFFFFFFFFFFFFFFFFFFFFFFFFFFFFFFFFFFFFFFFFFFFFFFFFFFFFFFFFFFFFF
310
FFFFFFFFFFFFFFFFFFFFFFFFFFFFFFFFFFFFFFFFFFFFFFFFFFFFFFFFFFFFFFFFFFFFFFFFFFFFFFFFFFFFFFFFFFFFFFFFFFFFFFFF0000000000000000000000000000000000000000000000000000000000FFFFFF0000000000000000000000000000000000FFFFFFFFFFFFFFFFFFFF0000FFFFFF0000000000000000000000
310
00000000000000FFFFFFFFFFFFFFFFFFFF0000FFFF000000000000000000000000000000000000FFFFFF00000000FFFFFF0000FFFF00FFFFFFFFFFFF00FFFFFF00FFFFFFFFFF00FFFFFF0000000000FFFF0000FFFF00FFFFFFFFFFFF00FFFFFF00FFFFFFFFFF00FFFFFF00FFFF0000FFFF0000FFFF00FFFFFFFFFFFF00FFFF
310
00FFFFFFFFFFFF00FFFFFF00FFFF0000FFFF0000FFFF0000000000FFFF00000000FFFFFF00000000FFFFFF00000000FFFFFF0000FFFFFFFFFFFF00FFFFFFFFFFFFFFFFFF00FFFFFFFFFFFFFFFFFFFFFFFFFF0000FFFFFFFFFFFF00FFFFFFFFFFFFFFFFFF00FFFFFFFFFFFFFFFFFFFFFFFFFF0000FFFFFFFFFFFF00FFFFFFFF
310
FFFFFFFFFF00FFFFFFFFFFFFFFFFFFFFFFFF0000FFFFFF0000000000FFFF00000000FFFFFF0000000000000000000000000000FFFFFFFF00FFFFFFFFFFFF00FFFF00FFFFFFFFFFFF00FFFFFFFFFFFFFFFFFFFFFFFFFFFF00FFFFFFFFFFFF00FFFFFF00FFFFFFFFFF00FFFFFFFFFFFFFFFFFFFFFFFFFFFF0000000000000000
310
FFFFFF00000000000000FFFFFFFFFFFFFFFFFFFFFFFFFFFFFFFFFFFFFFFFFFFFFFFFFFFFFFFFFFFFFFFFFFFFFFFFFFFFFFFFFFFFFFFFFFFFFFFFFFFFFFFFFFFFFFFFFFFFFFFFFFFFFFFFFFFFFFFFFFFFFFFFFFFFFFFFFFFFFFFFFFFFFFFFFFFFFFFFFFFFFFFFFFFFFFFFFFFFFFFFFFFFFFFFFFFFFFFFFFFFFFFFFFFFFFFFFF
310
FFFFFFFFFFFFFFFFFFFFFFFFFFFFFFFFFFFFFFFFFFFFFFFFFFFFFFFFFFFFFFFFFFFFFFFFFFFFFFFFFFFFFFFFFFFFFFFFFFFFFFFFFFFFFFFF
102
{BLKREFS
331
4F3
102
}
  0
BLOCK_RECORD
  5
4F2
330
1
100
AcDbSymbolTableRecord
100
AcDbBlockTableRecord
  2
HD logo-new
340
0
310
2800000020000000200000000100080000000000000400000000000000000000000000000000000000000000000080000080000000808000800000008000800080800000C0C0C000C0DCC000F0CAA6000020400000206000002080000020A0000020C0000020E00000400000004020000040400000406000004080000040A0
310
000040C0000040E00000600000006020000060400000606000006080000060A0000060C0000060E00000800000008020000080400000806000008080000080A0000080C0000080E00000A0000000A0200000A0400000A0600000A0800000A0A00000A0C00000A0E00000C0000000C0200000C0400000C0600000C0800000C0
310
A00000C0C00000C0E00000E0000000E0200000E0400000E0600000E0800000E0A00000E0C00000E0E00040000000400020004000400040006000400080004000A0004000C0004000E00040200000402020004020400040206000402080004020A0004020C0004020E000404000004040200040404000404060004040800040
310
40A0004040C0004040E00040600000406020004060400040606000406080004060A0004060C0004060E00040800000408020004080400040806000408080004080A0004080C0004080E00040A0000040A0200040A0400040A0600040A0800040A0A00040A0C00040A0E00040C0000040C0200040C0400040C0600040C08000
310
40C0A00040C0C00040C0E00040E0000040E0200040E0400040E0600040E0800040E0A00040E0C00040E0E00080000000800020008000400080006000800080008000A0008000C0008000E00080200000802020008020400080206000802080008020A0008020C0008020E00080400000804020008040400080406000804080
310
008040A0008040C0008040E00080600000806020008060400080606000806080008060A0008060C0008060E00080800000808020008080400080806000808080008080A0008080C0008080E00080A0000080A0200080A0400080A0600080A0800080A0A00080A0C00080A0E00080C0000080C0200080C0400080C0600080C0
310
800080C0A00080C0C00080C0E00080E0000080E0200080E0400080E0600080E0800080E0A00080E0C00080E0E000C0000000C0002000C0004000C0006000C0008000C000A000C000C000C000E000C0200000C0202000C0204000C0206000C0208000C020A000C020C000C020E000C0400000C0402000C0404000C0406000C0
310
408000C040A000C040C000C040E000C0600000C0602000C0604000C0606000C0608000C060A000C060C000C060E000C0800000C0802000C0804000C0806000C0808000C080A000C080C000C080E000C0A00000C0A02000C0A04000C0A06000C0A08000C0A0A000C0A0C000C0A0E000C0C00000C0C02000C0C04000C0C06000
310
C0C08000C0C0A000F0FBFF00A4A0A000808080000000FF0000FF000000FFFF00FF000000FF00FF00FFFF0000FFFFFF00FFFFFFFFFFFFFFFFFFFFFFFFFFFFFFFFFFFFFFFFFFFFFFFFFFFFFFFFFFFFFFFFFFFFFFFFFFFFFFFFFFFFFFFFFFFFFFFFFFFFFFFFFFFFFFFFFFFFFFFFFFFFFFFFFFFFFFFFFFFFFFFFFFFFFFFFFFFFFF
310
FFFFFFFFFFFFFFFFFFFFFFFFFFFFFFFFFFFFFFFFFFFFFFFFFFFFFFFFFFFFFFFFFFFFFFFFFFFFFFFFFFFFFFFFFFFFFFFFFFFFFFFFFFFFFFFFFFFFFFFFFFFFFFFFFFFFFFFFFFFFFFFFFFFFFFFFFFFFFFFFFFFFFFFFFFFFFFFFFFFFFFFFFFFFFFFFFFFFFFFFFFFFFFFFFFFFFFFFFFFFFFFFFFFFFFFFFFFFFFFFFFFFFFFFFFFFFF
310
FFFFFFFFFFFFFFFFFFFFFFFFFFFFFFFFFFFFFFFFFFFFFFFFFFFFFFFFFFFFFFFFFFFFFFFFFFFFFFFFFFFFFFFFFFFFFFFFFFFFFFFFFFFFFFFFFFFFFFFFFFFFFFFFFFFFFFFFFFFFFFFFFFFFFFFFFFFFFFFFFFFFFFFFFFFFFFFFFFFFFFFFFFFFFFFFFFFFFFFFFFFFFFFFFFFFFFFFFFFFFFFFFFFFFFFFFFFFFFFFFFFFFFFFFFFFFF
310
FFFFFFFFFFFFFFFFFFFFFFFFFFFFFFFFFFFFFFFFFFFFFFFFFFFFFFFFFFFFFFFFFFFFFFFFFFFFFFFFFFFFFFFFFFFFFFFFFFFFFFFF0000000000000000000000000000000000000000000000000000000000FFFFFF0000000000000000000000000000000000FFFFFFFFFFFFFFFFFFFF0000FFFFFF0000000000000000000000
310
00000000000000FFFFFFFFFFFFFFFFFFFF0000FFFF000000000000000000000000000000000000FFFFFF00000000FFFFFF0000FFFF00FFFFFFFFFFFF00FFFFFF00FFFFFFFFFF00FFFFFF0000000000FFFF0000FFFF00FFFFFFFFFFFF00FFFFFF00FFFFFFFFFF00FFFFFF00FFFF0000FFFF0000FFFF00FFFFFFFFFFFF00FFFF
310
00FFFFFFFFFFFF00FFFFFF00FFFF0000FFFF0000FFFF0000000000FFFF00000000FFFFFF00000000FFFFFF00000000FFFFFF0000FFFFFFFFFFFF00FFFFFFFFFFFFFFFFFF00FFFFFFFFFFFFFFFFFFFFFFFFFF0000FFFFFFFFFFFF00FFFFFFFFFFFFFFFFFF00FFFFFFFFFFFFFFFFFFFFFFFFFF0000FFFFFFFFFFFF00FFFFFFFF
310
FFFFFFFFFF00FFFFFFFFFFFFFFFFFFFFFFFF0000FFFFFF0000000000FFFF00000000FFFFFF0000000000000000000000000000FFFFFFFF00FFFFFFFFFFFF00FFFF00FFFFFFFFFFFF00FFFFFFFFFFFFFFFFFFFFFFFFFFFF00FFFFFFFFFFFF00FFFFFF00FFFFFFFFFF00FFFFFFFFFFFFFFFFFFFFFFFFFFFF0000000000000000
310
FFFFFF00000000000000FFFFFFFFFFFFFFFFFFFFFFFFFFFFFFFFFFFFFFFFFFFFFFFFFFFFFFFFFFFFFFFFFFFFFFFFFFFFFFFFFFFFFFFFFFFFFFFFFFFFFFFFFFFFFFFFFFFFFFFFFFFFFFFFFFFFFFFFFFFFFFFFFFFFFFFFFFFFFFFFFFFFFFFFFFFFFFFFFFFFFFFFFFFFFFFFFFFFFFFFFFFFFFFFFFFFFFFFFFFFFFFFFFFFFFFFFF
310
FFFFFFFFFFFFFFFFFFFFFFFFFFFFFFFFFFFFFFFFFFFFFFFFFFFFFFFFFFFFFFFFFFFFFFFFFFFFFFFFFFFFFFFFFFFFFFFFFFFFFFFFFFFFFFFF
102
{BLKREFS
331
4F7
102
}
  0
BLOCK_RECORD
  5
4F6
330
1
100
AcDbSymbolTableRecord
100
AcDbBlockTableRecord
  2
HD Logo
340
0
310
2800000020000000200000000100080000000000000400000000000000000000000000000000000000000000000080000080000000808000800000008000800080800000C0C0C000C0DCC000F0CAA6000020400000206000002080000020A0000020C0000020E00000400000004020000040400000406000004080000040A0
310
000040C0000040E00000600000006020000060400000606000006080000060A0000060C0000060E00000800000008020000080400000806000008080000080A0000080C0000080E00000A0000000A0200000A0400000A0600000A0800000A0A00000A0C00000A0E00000C0000000C0200000C0400000C0600000C0800000C0
310
A00000C0C00000C0E00000E0000000E0200000E0400000E0600000E0800000E0A00000E0C00000E0E00040000000400020004000400040006000400080004000A0004000C0004000E00040200000402020004020400040206000402080004020A0004020C0004020E000404000004040200040404000404060004040800040
310
40A0004040C0004040E00040600000406020004060400040606000406080004060A0004060C0004060E00040800000408020004080400040806000408080004080A0004080C0004080E00040A0000040A0200040A0400040A0600040A0800040A0A00040A0C00040A0E00040C0000040C0200040C0400040C0600040C08000
310
40C0A00040C0C00040C0E00040E0000040E0200040E0400040E0600040E0800040E0A00040E0C00040E0E00080000000800020008000400080006000800080008000A0008000C0008000E00080200000802020008020400080206000802080008020A0008020C0008020E00080400000804020008040400080406000804080
310
008040A0008040C0008040E00080600000806020008060400080606000806080008060A0008060C0008060E00080800000808020008080400080806000808080008080A0008080C0008080E00080A0000080A0200080A0400080A0600080A0800080A0A00080A0C00080A0E00080C0000080C0200080C0400080C0600080C0
310
800080C0A00080C0C00080C0E00080E0000080E0200080E0400080E0600080E0800080E0A00080E0C00080E0E000C0000000C0002000C0004000C0006000C0008000C000A000C000C000C000E000C0200000C0202000C0204000C0206000C0208000C020A000C020C000C020E000C0400000C0402000C0404000C0406000C0
310
408000C040A000C040C000C040E000C0600000C0602000C0604000C0606000C0608000C060A000C060C000C060E000C0800000C0802000C0804000C0806000C0808000C080A000C080C000C080E000C0A00000C0A02000C0A04000C0A06000C0A08000C0A0A000C0A0C000C0A0E000C0C00000C0C02000C0C04000C0C06000
310
C0C08000C0C0A000F0FBFF00A4A0A000808080000000FF0000FF000000FFFF00FF000000FF00FF00FFFF0000FFFFFF00FFFFFFFFFFFFFFFFFFFFFFFFFFFFFFFFFFFFFFFFFFFFFFFFFFFFFFFFFFFFFFFFFFFFFFFFFFFFFFFFFFFFFFFFFFFFFFFFFFFFFFFFFFFFFFFFFFFFFFFFFFFFFFFFFFFFFFFFFFFFFFFFFFFFFFFFFFFFFF
310
FFFFFFFFFFFFFFFFFFFFFFFFFFFFFFFFFFFFFFFFFFFFFFFFFFFFFFFFFFFFFFFFFFFFFFFFFFFFFFFFFFFFFFFFFFFFFFFFFFFFFFFFFFFFFFFFFFFFFFFFFFFFFFFFFFFFFFFFFFFFFFFFFFFFFFFFFFFFFFFFFFFFFFFFFFFFFFFFFFFFFFFFFFFFFFFFFFFFFFFFFFFFFFFFFFFFFFFFFFFFFFFFFFFFFFFFFFFFFFFFFFFFFFFFFFFFFF
310
FFFFFFFFFFFFFFFFFFFFFFFFFFFFFFFFFFFFFFFFFFFFFFFFFFFFFFFFFFFFFFFFFFFFFFFFFFFFFFFFFFFFFFFFFFFFFFFFFFFFFFFFFFFFFFFFFFFFFFFFFFFFFFFFFFFFFFFFFFFFFFFFFFFFFFFFFFFFFFFFFFFFFFFFFFFFFFFFFFFFFFFFFFFFFFFFFFFFFFFFFFFFFFFFFFFFFFFFFFFFFFFFFFFFFFFFFFFFFFFFFFFFFFFFFFFFFF
310
FFFFFFFFFFFFFFFFFFFFFFFFFFFFFFFFFFFFFFFFFFFFFFFFFFFFFFFFFFFFFFFFFFFFFFFFFFFFFFFFFFFFFFFFFFFFFFFFFFFFFFFF0000000000000000000000000000000000000000000000000000000000FFFFFF0000000000000000000000000000000000FFFFFFFFFFFFFFFFFFFF0000FFFFFF0000000000000000000000
310
00000000000000FFFFFFFFFFFFFFFFFFFF0000FFFF000000000000000000000000000000000000FFFFFF00000000FFFFFF0000FFFF00FFFFFFFFFFFF00FFFFFF00FFFFFFFFFF00FFFFFF0000000000FFFF0000FFFF00FFFFFFFFFFFF00FFFFFF00FFFFFFFFFF00FFFFFF00FFFF0000FFFF0000FFFF00FFFFFFFFFFFF00FFFF
310
00FFFFFFFFFFFF00FFFFFF00FFFF0000FFFF0000FFFF0000000000FFFF00000000FFFFFF00000000FFFFFF00000000FFFFFF0000FFFFFFFFFFFF00FFFFFFFFFFFFFFFFFF00FFFFFFFFFFFFFFFFFFFFFFFFFF0000FFFFFFFFFFFF00FFFFFFFFFFFFFFFFFF00FFFFFFFFFFFFFFFFFFFFFFFFFF0000FFFFFFFFFFFF00FFFFFFFF
310
FFFFFFFFFF00FFFFFFFFFFFFFFFFFFFFFFFF0000FFFFFF0000000000FFFF00000000FFFFFF0000000000000000000000000000FFFFFFFF00FFFFFFFFFFFF00FFFF00FFFFFFFFFFFF00FFFFFFFFFFFFFFFFFFFFFFFFFFFF00FFFFFFFFFFFF00FFFFFF00FFFFFFFFFF00FFFFFFFFFFFFFFFFFFFFFFFFFFFF0000000000000000
310
FFFFFF00000000000000FFFFFFFFFFFFFFFFFFFFFFFFFFFFFFFFFFFFFFFFFFFFFFFFFFFFFFFFFFFFFFFFFFFFFFFFFFFFFFFFFFFFFFFFFFFFFFFFFFFFFFFFFFFFFFFFFFFFFFFFFFFFFFFFFFFFFFFFFFFFFFFFFFFFFFFFFFFFFFFFFFFFFFFFFFFFFFFFFFFFFFFFFFFFFFFFFFFFFFFFFFFFFFFFFFFFFFFFFFFFFFFFFFFFFFFFFF
310
FFFFFFFFFFFFFFFFFFFFFFFFFFFFFFFFFFFFFFFFFFFFFFFFFFFFFFFFFFFFFFFFFFFFFFFFFFFFFFFFFFFFFFFFFFFFFFFFFFFFFFFFFFFFFFFF
102
{BLKREFS
331
4FC
331
500
102
}
  0
BLOCK_RECORD
  5
508
330
1
100
AcDbSymbolTableRecord
100
AcDbBlockTableRecord
  2
Notice
340
0
310
2800000020000000200000000100080000000000000400000000000000000000000000000000000000000000000080000080000000808000800000008000800080800000C0C0C000C0DCC000F0CAA6000020400000206000002080000020A0000020C0000020E00000400000004020000040400000406000004080000040A0
310
000040C0000040E00000600000006020000060400000606000006080000060A0000060C0000060E00000800000008020000080400000806000008080000080A0000080C0000080E00000A0000000A0200000A0400000A0600000A0800000A0A00000A0C00000A0E00000C0000000C0200000C0400000C0600000C0800000C0
310
A00000C0C00000C0E00000E0000000E0200000E0400000E0600000E0800000E0A00000E0C00000E0E00040000000400020004000400040006000400080004000A0004000C0004000E00040200000402020004020400040206000402080004020A0004020C0004020E000404000004040200040404000404060004040800040
310
40A0004040C0004040E00040600000406020004060400040606000406080004060A0004060C0004060E00040800000408020004080400040806000408080004080A0004080C0004080E00040A0000040A0200040A0400040A0600040A0800040A0A00040A0C00040A0E00040C0000040C0200040C0400040C0600040C08000
310
40C0A00040C0C00040C0E00040E0000040E0200040E0400040E0600040E0800040E0A00040E0C00040E0E00080000000800020008000400080006000800080008000A0008000C0008000E00080200000802020008020400080206000802080008020A0008020C0008020E00080400000804020008040400080406000804080
310
008040A0008040C0008040E00080600000806020008060400080606000806080008060A0008060C0008060E00080800000808020008080400080806000808080008080A0008080C0008080E00080A0000080A0200080A0400080A0600080A0800080A0A00080A0C00080A0E00080C0000080C0200080C0400080C0600080C0
310
800080C0A00080C0C00080C0E00080E0000080E0200080E0400080E0600080E0800080E0A00080E0C00080E0E000C0000000C0002000C0004000C0006000C0008000C000A000C000C000C000E000C0200000C0202000C0204000C0206000C0208000C020A000C020C000C020E000C0400000C0402000C0404000C0406000C0
310
408000C040A000C040C000C040E000C0600000C0602000C0604000C0606000C0608000C060A000C060C000C060E000C0800000C0802000C0804000C0806000C0808000C080A000C080C000C080E000C0A00000C0A02000C0A04000C0A06000C0A08000C0A0A000C0A0C000C0A0E000C0C00000C0C02000C0C04000C0C06000
310
C0C08000C0C0A000F0FBFF00A4A0A000808080000000FF0000FF000000FFFF00FF000000FF00FF00FFFF0000FFFFFF00FFFFFFFFFFFFFFFFFFFFFFFFFFFFFFFFFFFFFFFFFFFFFFFFFFFFFFFFFFFFFFFFFFFFFFFFFFFFFFFFFFFFFFFFFFFFFFFFFFFFFFFFFFFFFFFFFFFFFFFFFFFFFFFFFFFFFFFFFFFFFFFFFFFFFFFFFFFFFF
310
FFFFFFFFFFFFFFFFFFFFFFFFFFFFFFFFFFFFFFFFFFFFFFFFFFFFFFFFFFFFFFFFFFFFFFFFFFFFFFFFFFFFFFFFFFFFFFFFFFFFFFFFFFFFFFFFFFFFFFFFFFFFFFFFFFFFFFFFFFFFFFFFFFFFFFFFFFFFFFFFFFFFFFFFFFFFFFFFFFFFFFFFFFFFFFFFFFFFFFFFFFFFFFFFFFFFFFFFFFFFFFFFFFFFFFFFFFFFFFFFFFFFFFFFFFFFFF
310
FFFFFFFFFFFFFFFFFFFFFFFFFFFFFFFFFFFFFFFFFFFFFFFFFFFFFFFFFFFFFFFFFFFFFFFFFFFFFFFFFFFFFFFFFFFFFFFFFFFFFFFFFFFFFFFFFFFFFFFFFFFFFFFFFFFFFFFFFFFFFFFFFFFFFFFFFFFFFFFFFFFFFFFFFFFFFFFFFFFFFFFFFFFFFFFFFFFFFFFFFFFFFFFFFFFFFFFFFFFFFFFFFFFFFFFFFFFFFFFFFFFFFFFFFFFFFF
310
FFFFFFFFFFFFFFFFFFFFFFFFFFFFFFFFFFFFFFFF0000000000000000000000000000000000000000000000000000000000FFFFFF000000000000000000FFFFFFFFFFFFFFFFFFFFFFFFFFFFFFFFFFFFFF00FFFFFF0000000000000000FFFFFFFFFFFFFFFFFFFFFFFFFFFFFFFFFFFFFFFF00FFFFFF0000000000000000FFFFFF
310
FFFFFFFFFFFFFFFFFFFFFFFFFFFFFFFFFF00FFFFFF000000000000000000000000FFFFFFFFFFFFFFFFFFFFFFFFFFFFFFFF00FFFFFF0000000000000000000000000000000000000000000000000000FFFF00FFFFFF0000000000000000000000000000000000000000000000000000000000FFFFFF00000000000000000000
310
00000000000000000000000000000000000000FFFFFF000000000000FFFFFFFFFFFFFFFFFFFFFFFFFFFFFFFFFFFFFFFFFFFF00FFFFFF0000000000000000000000000000000000000000000000000000000000FFFFFFFFFFFFFFFFFFFFFFFFFFFFFFFFFFFFFFFFFFFFFFFFFFFFFFFFFFFFFFFFFFFFFFFFFFFFFFFFFFFFFFFF
310
FFFFFFFFFFFFFFFFFFFFFFFFFFFFFFFFFFFFFFFFFFFFFFFFFFFFFFFFFFFFFFFFFFFFFFFFFFFFFFFFFFFFFFFFFFFFFFFFFFFFFFFFFFFFFFFFFFFFFFFFFFFFFFFFFFFFFFFFFFFFFFFFFFFFFFFFFFFFFFFFFFFFFFFFFFFFFFFFFFFFFFFFFFFFFFFFFFFFFFFFFFFFFFFFFFFFFFFFFFFFFFFFFFFFFFFFFFFFFFFFFFFFFFFFFFFFFF
310
FFFFFFFFFFFFFFFFFFFFFFFFFFFFFFFFFFFFFFFFFFFFFFFFFFFFFFFFFFFFFFFFFFFFFFFFFFFFFFFFFFFFFFFFFFFFFFFFFFFFFFFFFFFFFFFFFFFFFFFFFFFFFFFFFFFFFFFFFFFFFFFFFFFFFFFFFFFFFFFFFFFFFFFFFFFFFFFFFFFFFFFFFFFFFFFFFFFFFFFFFFFFFFFFFFFFFFFFFFFFFFFFFFFFFFFFFFFFFFFFFFFFFFFFFFFFFF
310
FFFFFFFFFFFFFFFFFFFFFFFFFFFFFFFFFFFFFFFFFFFFFFFFFFFFFFFFFFFFFFFFFFFFFFFFFFFFFFFFFFFFFFFFFFFFFFFFFFFFFFFFFFFFFFFF
102
{BLKREFS
331
50E
331
514
102
}
  0
BLOCK_RECORD
  5
51E
330
1
100
AcDbSymbolTableRecord
100
AcDbBlockTableRecord
  2
NTC
340
0
310
2800000020000000200000000100080000000000000400000000000000000000000000000000000000000000000080000080000000808000800000008000800080800000C0C0C000C0DCC000F0CAA6000020400000206000002080000020A0000020C0000020E00000400000004020000040400000406000004080000040A0
310
000040C0000040E00000600000006020000060400000606000006080000060A0000060C0000060E00000800000008020000080400000806000008080000080A0000080C0000080E00000A0000000A0200000A0400000A0600000A0800000A0A00000A0C00000A0E00000C0000000C0200000C0400000C0600000C0800000C0
310
A00000C0C00000C0E00000E0000000E0200000E0400000E0600000E0800000E0A00000E0C00000E0E00040000000400020004000400040006000400080004000A0004000C0004000E00040200000402020004020400040206000402080004020A0004020C0004020E000404000004040200040404000404060004040800040
310
40A0004040C0004040E00040600000406020004060400040606000406080004060A0004060C0004060E00040800000408020004080400040806000408080004080A0004080C0004080E00040A0000040A0200040A0400040A0600040A0800040A0A00040A0C00040A0E00040C0000040C0200040C0400040C0600040C08000
310
40C0A00040C0C00040C0E00040E0000040E0200040E0400040E0600040E0800040E0A00040E0C00040E0E00080000000800020008000400080006000800080008000A0008000C0008000E00080200000802020008020400080206000802080008020A0008020C0008020E00080400000804020008040400080406000804080
310
008040A0008040C0008040E00080600000806020008060400080606000806080008060A0008060C0008060E00080800000808020008080400080806000808080008080A0008080C0008080E00080A0000080A0200080A0400080A0600080A0800080A0A00080A0C00080A0E00080C0000080C0200080C0400080C0600080C0
310
800080C0A00080C0C00080C0E00080E0000080E0200080E0400080E0600080E0800080E0A00080E0C00080E0E000C0000000C0002000C0004000C0006000C0008000C000A000C000C000C000E000C0200000C0202000C0204000C0206000C0208000C020A000C020C000C020E000C0400000C0402000C0404000C0406000C0
310
408000C040A000C040C000C040E000C0600000C0602000C0604000C0606000C0608000C060A000C060C000C060E000C0800000C0802000C0804000C0806000C0808000C080A000C080C000C080E000C0A00000C0A02000C0A04000C0A06000C0A08000C0A0A000C0A0C000C0A0E000C0C00000C0C02000C0C04000C0C06000
310
C0C08000C0C0A000F0FBFF00A4A0A000808080000000FF0000FF000000FFFF00FF000000FF00FF00FFFF0000FFFFFF00FFFFFFFFFFFFFFFFFFFFFFFFFFFFFFFFFFFFFFFFFFFFFFFFFFFFFFFFFFFFFFFFFFFFFFFFFFFFFFFFFFFFFFFFFFFFFFFFFFFFFFFFFFFFFFFFFFFFFFFFFFFFFFFFFFFFFFFFFFFFFFFFFFFFFFFFFFFFFF
310
FFFFFFFFFFFFFFFFFFFFFFFFFFFFFFFFFFFFFFFFFFFFFFFFFFFFFFFFFFFFFFFFFFFFFFFFFFFFFFFFFFFFFFFFFFFFFFFFFFFFFFFFFFFFFFFFFFFFFFFFFFFFFFFFFFFFFFFFFFFFFFFFFFFFFFFFFFFFFFFFFFFFFFFFFFFFFFFFFFFFFFFFFFFFFFFFFFFFFFFFFFFFFFFFFFFFFFFFFFFFFFFFFFFFFFFFFFFFFFFFFFFFFFFFFFFFFF
310
FFFFFFFFFFFFFFFFFFFFFFFFFFFFFFFFFFFFFFFFFFFFFFFFFFFFFFFFFFFFFFFFFFFFFFFFFFFFFFFFFFFFFFFFFFFFFFFFFFFFFFFFFFFFFFFFFFFFFFFFFFFFFFFFFFFFFFFFFFFFFFFFFFFFFFFFFFFFFFFFFFFFFFFFFFFFFFFFFFFFFFFFFFFFFFFFFFFFFFFFFFFFFFFFFFFFFFFFFFFFFFFFFFFFFFFFFFFFFFFFFFFFFFFFFFFFFF
310
FFFFFFFFFFFFFFFFFFFFFFFFFFFFFFFFFFFFFFFF000000000000000000000000000000000000000000000000000000000000FFFF00FF0000000000000000FFFFFFFFFFFFFFFFFFFFFFFFFFFFFFFFFFFFFF00FFFF00FF0000000000000000FFFFFFFFFFFFFFFFFFFFFFFFFFFFFFFFFFFFFF00FFFF00FF000000000000000000
310
00000000000000000000000000FFFFFFFFFF00FFFF00FF0000000000000000000000000000000000000000000000000000FF00FFFF00FF0000000000000000000000000000000000000000000000000000FF00FFFF00FF0000000000000000000000000000000000000000000000000000FF00FFFF00FF0000000000000000
310
00000000000000000000000000000000FFFFFF00FFFF00FF0000000000FFFFFFFFFFFFFFFFFFFFFFFFFFFFFFFFFFFFFFFFFFFF00FFFF000000000000000000000000000000000000000000000000000000000000FFFFFFFFFFFFFFFFFFFFFFFFFFFFFFFFFFFFFFFFFFFFFFFFFFFFFFFFFFFFFFFFFFFFFFFFFFFFFFFFFFFFFF
310
FFFFFFFFFFFFFFFFFFFFFFFFFFFFFFFFFFFFFFFFFFFFFFFFFFFFFFFFFFFFFFFFFFFFFFFFFFFFFFFFFFFFFFFFFFFFFFFFFFFFFFFFFFFFFFFFFFFFFFFFFFFFFFFFFFFFFFFFFFFFFFFFFFFFFFFFFFFFFFFFFFFFFFFFFFFFFFFFFFFFFFFFFFFFFFFFFFFFFFFFFFFFFFFFFFFFFFFFFFFFFFFFFFFFFFFFFFFFFFFFFFFFFFFFFFFFFF
310
FFFFFFFFFFFFFFFFFFFFFFFFFFFFFFFFFFFFFFFFFFFFFFFFFFFFFFFFFFFFFFFFFFFFFFFFFFFFFFFFFFFFFFFFFFFFFFFFFFFFFFFFFFFFFFFFFFFFFFFFFFFFFFFFFFFFFFFFFFFFFFFFFFFFFFFFFFFFFFFFFFFFFFFFFFFFFFFFFFFFFFFFFFFFFFFFFFFFFFFFFFFFFFFFFFFFFFFFFFFFFFFFFFFFFFFFFFFFFFFFFFFFFFFFFFFFFF
310
FFFFFFFFFFFFFFFFFFFFFFFFFFFFFFFFFFFFFFFFFFFFFFFFFFFFFFFFFFFFFFFFFFFFFFFFFFFFFFFFFFFFFFFFFFFFFFFFFFFFFFFFFFFFFFFF
102
{BLKREFS
331
524
331
529
102
}
  0
ENDTAB
  0
ENDSEC
  0
SECTION
  2
BLOCKS
  0
BLOCK
  5
1F
330
1E
100
AcDbEntity
  8
0
100
AcDbBlockBegin
  2
*Model_Space
 70
     0
 10
0.0
 20
0.0
 30
0.0
  3
*Model_Space
  1

  0
ENDBLK
  5
20
330
1E
100
AcDbEntity
  8
0
100
AcDbBlockEnd
  0
BLOCK
  5
1B
330
1A
100
AcDbEntity
 67
     1
  8
0
100
AcDbBlockBegin
  2
*Paper_Space
 70
     0
 10
0.0
 20
0.0
 30
0.0
  3
*Paper_Space
  1

  0
ENDBLK
  5
1C
330
1A
100
AcDbEntity
 67
     1
  8
0
100
AcDbBlockEnd
  0
BLOCK
  5
35
330
34
100
AcDbEntity
  8
1
100
AcDbBlockBegin
  2
*D0
 70
     1
 10
0.0
 20
0.0
 30
0.0
  3
*D0
  1

  0
LINE
  5
36
330
34
100
AcDbEntity
  8
1
 62
     2
100
AcDbLine
 10
20.49021433737542
 20
-44.78744228477075
 30
0.0
 11
0.8475879057683178
 21
-44.78744228477075
 31
0.0
  0
LINE
  5
37
330
34
100
AcDbEntity
  8
1
 62
     2
100
AcDbLine
 10
20.49021433737542
 20
-44.78744228477075
 30
0.0
 11
22.29021433737562
 21
-44.78744228477075
 31
0.0
  0
LINE
  5
38
330
34
100
AcDbEntity
  8
1
 62
     2
100
AcDbLine
 10
27.29021433737562
 20
-44.78744228477075
 30
0.0
 11
22.29021433737562
 21
-44.78744228477075
 31
0.0
  0
LINE
  5
39
330
34
100
AcDbEntity
  8
1
 62
     2
100
AcDbLine
 10
22.29021433737562
 20
-12.85376179466499
 30
0.0
 11
22.29021433737562
 21
-45.78744228477074
 31
0.0
  0
LINE
  5
3A
330
34
100
AcDbEntity
  8
1
 62
     2
100
AcDbLine
 10
20.49021433737542
 20
-30.38744228477062
 30
0.0
 11
20.49021433737542
 21
-45.78744228477074
 31
0.0
  0
SOLID
  5
3B
330
34
100
AcDbEntity
  8
1
 62
     2
100
AcDbTrace
 10
20.49021433737542
 20
-44.78744228477075
 30
0.0
 11
17.99021433737542
 21
-45.11244228477074
 31
0.0
 12
17.99021433737542
 22
-44.46244228477076
 32
0.0
 13
17.99021433737542
 23
-44.46244228477076
 33
0.0
  0
SOLID
  5
3C
330
34
100
AcDbEntity
  8
1
 62
     2
100
AcDbTrace
 10
22.29021433737562
 20
-44.78744228477075
 30
0.0
 11
24.79021433737562
 21
-44.46244228477076
 31
0.0
 12
24.79021433737562
 22
-45.11244228477074
 32
0.0
 13
24.79021433737562
 23
-45.11244228477074
 33
0.0
  0
TEXT
  5
3D
330
34
100
AcDbEntity
  8
1
 62
     2
100
AcDbText
 10
13.09758790576831
 20
-43.72494228477076
 30
0.0
 40
2.5
  1
1.8
 41
0.9
100
AcDbText
  0
TEXT
  5
3E
330
34
100
AcDbEntity
  8
1
 62
     2
100
AcDbText
 10
0.8475879057683162
 20
-43.72494228477076
 30
0.0
 40
2.5
  1
M.H.C 
 41
0.9
100
AcDbText
  0
ENDBLK
  5
3F
330
34
100
AcDbEntity
  8
0
100
AcDbBlockEnd
  0
BLOCK
  5
41
330
40
100
AcDbEntity
  8
1
100
AcDbBlockBegin
  2
*D1
 70
     1
 10
0.0
 20
0.0
 30
0.0
  3
*D1
  1

  0
LINE
  5
42
330
40
100
AcDbEntity
  8
1
 62
     2
100
AcDbLine
 10
33.99021433737543
 20
-44.78744228477003
 30
0.0
 11
38.99021433737543
 21
-44.78744228477003
 31
0.0
  0
LINE
  5
43
330
40
100
AcDbEntity
  8
1
 62
     2
100
AcDbLine
 10
38.99021433737543
 20
-44.78744228477003
 30
0.0
 11
39.99021433737543
 21
-44.78744228477003
 31
0.0
  0
LINE
  5
44
330
40
100
AcDbEntity
  8
1
 62
     2
100
AcDbLine
 10
39.99021433737543
 20
-44.78744228477003
 30
0.0
 11
56.25913969875939
 21
-44.78744228477003
 31
0.0
  0
LINE
  5
45
330
40
100
AcDbEntity
  8
1
 62
     2
100
AcDbLine
 10
38.99021433737543
 20
-19.98744228477028
 30
0.0
 11
38.99021433737543
 21
-45.78744228477003
 31
0.0
  0
LINE
  5
46
330
40
100
AcDbEntity
  8
1
 62
     2
100
AcDbLine
 10
39.99021433737543
 20
-13.28744228477049
 30
0.0
 11
39.99021433737543
 21
-45.78744228477003
 31
0.0
  0
SOLID
  5
47
330
40
100
AcDbEntity
  8
1
 62
     2
100
AcDbTrace
 10
38.99021433737543
 20
-44.78744228477003
 30
0.0
 11
36.49021433737543
 21
-45.11244228477003
 31
0.0
 12
36.49021433737543
 22
-44.46244228477003
 32
0.0
 13
36.49021433737543
 23
-44.46244228477003
 33
0.0
  0
SOLID
  5
48
330
40
100
AcDbEntity
  8
1
 62
     2
100
AcDbTrace
 10
39.99021433737543
 20
-44.78744228477003
 30
0.0
 11
42.49021433737543
 21
-44.46244228477003
 31
0.0
 12
42.49021433737543
 22
-45.11244228477003
 32
0.0
 13
42.49021433737543
 23
-45.11244228477003
 33
0.0
  0
TEXT
  5
49
330
40
100
AcDbEntity
  8
1
 62
     2
100
AcDbText
 10
55.50913969875939
 20
-43.72494228477003
 30
0.0
 40
2.5
  1
1
 41
0.9
100
AcDbText
  0
TEXT
  5
4A
330
40
100
AcDbEntity
  8
1
 62
     2
100
AcDbText
 10
43.25913969875939
 20
-43.72494228477003
 30
0.0
 40
2.5
  1
M.H.C 
 41
0.9
100
AcDbText
  0
ENDBLK
  5
4B
330
40
100
AcDbEntity
  8
0
100
AcDbBlockEnd
  0
BLOCK
  5
4D
330
4C
100
AcDbEntity
  8
1
100
AcDbBlockBegin
  2
*D2
 70
     1
 10
0.0
 20
0.0
 30
0.0
  3
*D2
  1

  0
LINE
  5
4E
330
4C
100
AcDbEntity
  8
1
 62
     2
100
AcDbLine
 10
5.490214337375433
 20
-8.78744228477049
 30
0.0
 11
5.490214337375433
 21
29.21255771522951
 31
0.0
  0
LINE
  5
4F
330
4C
100
AcDbEntity
  8
1
 62
     2
100
AcDbLine
 10
21.2902143373756
 20
-8.78744228477049
 30
0.0
 11
4.490214337375433
 21
-8.78744228477049
 31
0.0
  0
LINE
  5
50
330
4C
100
AcDbEntity
  8
1
 62
     2
100
AcDbLine
 10
21.2902143373756
 20
29.21255771522951
 30
0.0
 11
4.490214337375433
 21
29.21255771522951
 31
0.0
  0
SOLID
  5
51
330
4C
100
AcDbEntity
  8
1
 62
     2
100
AcDbTrace
 10
5.490214337375433
 20
-8.78744228477049
 30
0.0
 11
5.165214337375433
 21
-6.28744228477049
 31
0.0
 12
5.815214337375432
 22
-6.28744228477049
 32
0.0
 13
5.815214337375432
 23
-6.28744228477049
 33
0.0
  0
SOLID
  5
52
330
4C
100
AcDbEntity
  8
1
 62
     2
100
AcDbTrace
 10
5.490214337375433
 20
29.21255771522951
 30
0.0
 11
5.815214337375432
 21
26.71255771522951
 31
0.0
 12
5.165214337375433
 22
26.71255771522951
 32
0.0
 13
5.165214337375433
 23
26.71255771522951
 33
0.0
  0
TEXT
  5
53
330
4C
100
AcDbEntity
  8
1
 62
     2
100
AcDbText
 10
4.427714337375433
 20
15.598054683732
 30
0.0
 40
2.5
  1
38
 50
90.0
 41
0.9
100
AcDbText
  0
TEXT
  5
54
330
4C
100
AcDbEntity
  8
1
 62
     2
100
AcDbText
 10
4.427714337375433
 20
3.348054683732
 30
0.0
 40
2.5
  1
M.H.C 
 50
90.0
 41
0.9
100
AcDbText
  0
ENDBLK
  5
55
330
4C
100
AcDbEntity
  8
0
100
AcDbBlockEnd
  0
BLOCK
  5
57
330
56
100
AcDbEntity
  8
1
100
AcDbBlockBegin
  2
*D3
 70
     1
 10
0.0
 20
0.0
 30
0.0
  3
*D3
  1

  0
LINE
  5
58
330
56
100
AcDbEntity
  8
1
 62
     2
100
AcDbLine
 10
53.99021433737543
 20
-12.2874422847705
 30
0.0
 11
53.99021433737543
 21
32.7125577152295
 31
0.0
  0
LINE
  5
59
330
56
100
AcDbEntity
  8
1
 62
     2
100
AcDbLine
 10
40.99021433737543
 20
-12.2874422847705
 30
0.0
 11
54.99021433737543
 21
-12.2874422847705
 31
0.0
  0
LINE
  5
5A
330
56
100
AcDbEntity
  8
1
 62
     2
100
AcDbLine
 10
40.99021433737543
 20
32.7125577152295
 30
0.0
 11
54.99021433737543
 21
32.7125577152295
 31
0.0
  0
SOLID
  5
5B
330
56
100
AcDbEntity
  8
1
 62
     2
100
AcDbTrace
 10
53.99021433737543
 20
-12.2874422847705
 30
0.0
 11
53.66521433737542
 21
-9.787442284770499
 31
0.0
 12
54.31521433737542
 22
-9.787442284770499
 32
0.0
 13
54.31521433737542
 23
-9.787442284770499
 33
0.0
  0
SOLID
  5
5C
330
56
100
AcDbEntity
  8
1
 62
     2
100
AcDbTrace
 10
53.99021433737543
 20
32.7125577152295
 30
0.0
 11
54.31521433737543
 21
30.2125577152295
 31
0.0
 12
53.66521433737542
 22
30.2125577152295
 32
0.0
 13
53.66521433737542
 23
30.2125577152295
 33
0.0
  0
TEXT
  5
5D
330
56
100
AcDbEntity
  8
1
 62
     2
100
AcDbText
 10
52.92771433737543
 20
14.517391937886
 30
0.0
 40
2.5
  1
45
 50
90.0
 41
0.9
100
AcDbText
  0
TEXT
  5
5E
330
56
100
AcDbEntity
  8
1
 62
     2
100
AcDbText
 10
52.92771433737543
 20
2.267391937885999
 30
0.0
 40
2.5
  1
M.H.C 
 50
90.0
 41
0.9
100
AcDbText
  0
ENDBLK
  5
5F
330
56
100
AcDbEntity
  8
0
100
AcDbBlockEnd
  0
BLOCK
  5
47C
330
47A
100
AcDbEntity
  8
0
100
AcDbBlockBegin
  2
Harmonic Drive LLC
 70
     0
 10
0.0
 20
0.0
 30
0.0
  3
Harmonic Drive LLC
  1

  0
MTEXT
  5
47B
330
47A
100
AcDbEntity
  8
0
100
AcDbMText
 10
169.3246904371995
 20
-160.2033851733818
 30
0.0
 40
3.5
 41
79.1772
 71
     5
 72
     5
  1
Harmonic Drive LLC\P800-921-3332\Pwww.harmonicdrive.net
 73
     1
 44
1.0
  0
ENDBLK
  5
47D
330
47A
100
AcDbEntity
  8
0
100
AcDbBlockEnd
  0
BLOCK
  5
491
330
48E
100
AcDbEntity
  8
0
 62
     7
100
AcDbBlockBegin
  2
AI9-BLK14
 70
     0
 10
0.0
 20
0.0
 30
0.0
  3
AI9-BLK14
  1

  0
SPLINE
  5
48F
330
48E
100
AcDbEntity
  8
LAYER_1
 62
     7
100
AcDbSpline
210
0.0
220
0.0
230
1.0
 70
    11
 71
     3
 72
    23
 73
    19
 74
     0
 42
0.0000000001
 43
0.0000000001
 40
0.0
 40
0.0
 40
0.0
 40
0.0
 40
1.0
 40
1.0
 40
1.0
 40
2.0
 40
2.0
 40
2.0
 40
3.0
 40
3.0
 40
3.0
 40
4.0
 40
4.0
 40
4.0
 40
5.0
 40
5.0
 40
5.0
 40
6.0
 40
6.0
 40
6.0
 40
6.0
 10
-10.90321044921874
 20
10.88107571072048
 30
0.0
 10
-10.90321044921874
 20
10.88107571072048
 30
0.0
 10
-10.90321044921874
 20
-10.88107571072048
 30
0.0
 10
-10.90321044921874
 20
-10.88107571072048
 30
0.0
 10
-10.90321044921874
 20
-10.88107571072048
 30
0.0
 10
1.752692328559025
 20
-10.88107571072048
 30
0.0
 10
1.752692328559025
 20
-10.88107571072048
 30
0.0
 10
3.280592176649305
 20
-10.88107571072048
 30
0.0
 10
10.90321044921874
 20
-10.32383151584201
 30
0.0
 10
10.90321044921874
 20
0.6792867024739583
 30
0.0
 10
10.90321044921874
 20
10.61700914171006
 30
0.0
 10
2.773129611545138
 20
10.87952541775172
 30
0.0
 10
2.691136338975693
 20
10.88090345594618
 30
0.0
 10
2.691136338975693
 20
10.88090345594618
 30
0.0
 10
-9.903099229600693
 20
10.88107571072048
 30
0.0
 10
-9.903099229600693
 20
10.88107571072048
 30
0.0
 10
-9.903099229600693
 20
10.88107571072048
 30
0.0
 10
-10.90321044921874
 20
10.88107571072048
 30
0.0
 10
-10.90321044921874
 20
10.88107571072048
 30
0.0
  0
SPLINE
  5
490
330
48E
100
AcDbEntity
  8
LAYER_1
 62
     7
100
AcDbSpline
210
0.0
220
0.0
230
1.0
 70
    11
 71
     3
 72
    20
 73
    16
 74
     0
 42
0.0000000001
 43
0.0000000001
 40
0.0
 40
0.0
 40
0.0
 40
0.0
 40
1.0
 40
1.0
 40
1.0
 40
2.0
 40
2.0
 40
2.0
 40
3.0
 40
3.0
 40
3.0
 40
4.0
 40
4.0
 40
4.0
 40
5.0
 40
5.0
 40
5.0
 40
5.0
 10
2.672877332899305
 20
8.881197781032986
 30
0.0
 10
2.905421278211805
 20
8.874307590060762
 30
0.0
 10
8.902988009982637
 20
8.616442192925347
 30
0.0
 10
8.902988009982637
 20
0.6792867024739583
 30
0.0
 10
8.902988009982637
 20
-8.191661919487842
 30
0.0
 10
3.430109320746526
 20
-8.881197781032986
 30
0.0
 10
1.752692328559025
 20
-8.881197781032986
 30
0.0
 10
1.752692328559025
 20
-8.881197781032986
 30
0.0
 10
-7.231427680121528
 20
-8.881197781032986
 30
0.0
 10
-8.902988009982637
 20
-8.881197781032986
 30
0.0
 10
-8.902988009982637
 20
-7.174497477213541
 30
0.0
 10
-8.902988009982637
 20
7.174497477213541
 30
0.0
 10
-8.902988009982637
 20
8.881197781032986
 30
0.0
 10
-7.208690049913191
 20
8.881197781032986
 30
0.0
 10
2.672877332899305
 20
8.881197781032986
 30
0.0
 10
2.672877332899305
 20
8.881197781032986
 30
0.0
  0
ENDBLK
  5
492
330
48E
100
AcDbEntity
  8
0
100
AcDbBlockEnd
  0
BLOCK
  5
496
330
493
100
AcDbEntity
  8
0
 62
     7
100
AcDbBlockBegin
  2
AI9-BLK13
 70
     0
 10
0.0
 20
0.0
 30
0.0
  3
AI9-BLK13
  1

  0
LWPOLYLINE
  5
494
330
493
100
AcDbEntity
  8
LAYER_1
 62
     7
100
AcDbPolyline
 90
       12
 70
     1
 43
0.0
 10
-3.792361111111107
 20
10.7376736111111
 10
-2.469444444444443
 20
10.7376736111111
 10
-2.469444444444443
 20
1.874131944444444
 10
2.469444444444443
 20
1.874131944444444
 10
2.469444444444443
 20
10.7376736111111
 10
3.792361111111107
 20
10.7376736111111
 10
3.792361111111107
 20
-10.7376736111111
 10
2.469444444444443
 20
-10.7376736111111
 10
2.469444444444443
 20
-0.6835069444444444
 10
-2.469444444444443
 20
-0.6835069444444444
 10
-2.469444444444443
 20
-10.7376736111111
 10
-3.792361111111107
 20
-10.7376736111111
  0
HATCH
  5
495
330
493
100
AcDbEntity
  8
LAYER_1
 62
     7
100
AcDbHatch
 10
0.0
 20
0.0
 30
0.0
210
0.0
220
0.0
230
1.0
  2
SOLID
 70
     1
 71
     0
 91
        1
 92
        3
 72
     0
 73
     1
 93
       12
 10
-3.792361111111107
 20
10.7376736111111
 10
-2.469444444444443
 20
10.7376736111111
 10
-2.469444444444443
 20
1.874131944444444
 10
2.469444444444443
 20
1.874131944444444
 10
2.469444444444443
 20
10.7376736111111
 10
3.792361111111107
 20
10.7376736111111
 10
3.792361111111107
 20
-10.7376736111111
 10
2.469444444444443
 20
-10.7376736111111
 10
2.469444444444443
 20
-0.6835069444444444
 10
-2.469444444444443
 20
-0.6835069444444444
 10
-2.469444444444443
 20
-10.7376736111111
 10
-3.792361111111107
 20
-10.7376736111111
 97
        0
 75
     2
 76
     1
 98
        1
 10
0.0
 20
0.0
  0
ENDBLK
  5
497
330
493
100
AcDbEntity
  8
0
100
AcDbBlockEnd
  0
BLOCK
  5
49B
330
498
100
AcDbEntity
  8
0
 62
     7
100
AcDbBlockBegin
  2
AI9-BLK11
 70
     0
 10
0.0
 20
0.0
 30
0.0
  3
AI9-BLK11
  1

  0
SPLINE
  5
499
330
498
100
AcDbEntity
  8
LAYER_1
 62
     7
100
AcDbSpline
210
0.0
220
0.0
230
1.0
 70
    11
 71
     3
 72
    26
 73
    22
 74
     0
 42
0.0000000001
 43
0.0000000001
 40
0.0
 40
0.0
 40
0.0
 40
0.0
 40
1.0
 40
1.0
 40
1.0
 40
2.0
 40
2.0
 40
2.0
 40
3.0
 40
3.0
 40
3.0
 40
4.0
 40
4.0
 40
4.0
 40
5.0
 40
5.0
 40
5.0
 40
6.0
 40
6.0
 40
6.0
 40
7.0
 40
7.0
 40
7.0
 40
7.0
 10
-2.645833333333333
 20
0.9039930555555551
 30
0.0
 10
-2.645833333333333
 20
0.9039930555555551
 30
0.0
 10
-2.645833333333333
 20
8.180034722222217
 30
0.0
 10
-2.645833333333333
 20
8.180034722222217
 30
0.0
 10
-2.645833333333333
 20
8.180034722222217
 30
0.0
 10
0.465087890625
 20
8.180034722222217
 30
0.0
 10
0.465087890625
 20
8.180034722222217
 30
0.0
 10
0.9026150173611108
 20
8.180034722222217
 30
0.0
 10
1.24988064236111
 20
8.034651692708331
 30
0.0
 10
1.506884765625
 20
7.745263671874997
 30
0.0
 10
2.001600477430554
 20
7.194048394097221
 30
0.0
 10
2.248958333333332
 20
6.160519748263887
 30
0.0
 10
2.248958333333332
 20
4.643299696180553
 30
0.0
 10
2.248958333333332
 20
3.232188585069443
 30
0.0
 10
2.072569444444444
 20
2.256537543402775
 30
0.0
 10
1.720480685763888
 20
1.715657552083333
 30
0.0
 10
1.368391927083333
 20
1.174088541666665
 30
0.0
 10
0.8929687499999998
 20
0.9039930555555551
 30
0.0
 10
0.2942111545138888
 20
0.9039930555555551
 30
0.0
 10
0.2942111545138888
 20
0.9039930555555551
 30
0.0
 10
-2.645833333333333
 20
0.9039930555555551
 30
0.0
 10
-2.645833333333333
 20
0.9039930555555551
 30
0.0
  0
SPLINE
  5
49A
330
498
100
AcDbEntity
  8
LAYER_1
 62
     7
100
AcDbSpline
210
0.0
220
0.0
230
1.0
 70
    11
 71
     3
 72
    68
 73
    64
 74
     0
 42
0.0000000001
 43
0.0000000001
 40
0.0
 40
0.0
 40
0.0
 40
0.0
 40
1.0
 40
1.0
 40
1.0
 40
2.0
 40
2.0
 40
2.0
 40
3.0
 40
3.0
 40
3.0
 40
4.0
 40
4.0
 40
4.0
 40
5.0
 40
5.0
 40
5.0
 40
6.0
 40
6.0
 40
6.0
 40
7.0
 40
7.0
 40
7.0
 40
8.0
 40
8.0
 40
8.0
 40
9.0
 40
9.0
 40
9.0
 40
10.0
 40
10.0
 40
10.0
 40
11.0
 40
11.0
 40
11.0
 40
12.0
 40
12.0
 40
12.0
 40
13.0
 40
13.0
 40
13.0
 40
14.0
 40
14.0
 40
14.0
 40
15.0
 40
15.0
 40
15.0
 40
16.0
 40
16.0
 40
16.0
 40
17.0
 40
17.0
 40
17.0
 40
18.0
 40
18.0
 40
18.0
 40
19.0
 40
19.0
 40
19.0
 40
20.0
 40
20.0
 40
20.0
 40
21.0
 40
21.0
 40
21.0
 40
21.0
 10
-3.968749999999998
 20
-10.7376736111111
 30
0.0
 10
-3.968749999999998
 20
-10.7376736111111
 30
0.0
 10
-2.645833333333333
 20
-10.7376736111111
 30
0.0
 10
-2.645833333333333
 20
-10.7376736111111
 30
0.0
 10
-2.645833333333333
 20
-10.7376736111111
 30
0.0
 10
-2.645833333333333
 20
-1.521354166666665
 30
0.0
 10
-2.645833333333333
 20
-1.521354166666665
 30
0.0
 10
-2.645833333333333
 20
-1.521354166666665
 30
0.0
 10
0.2390896267361111
 20
-1.521354166666665
 30
0.0
 10
0.2390896267361111
 20
-1.521354166666665
 30
0.0
 10
0.7599880642361111
 20
-1.521354166666665
 30
0.0
 10
1.143771701388887
 20
-1.65295681423611
 30
0.0
 10
1.390440538194444
 20
-1.916162109374999
 30
0.0
 10
1.816254340277773
 20
-2.39434136284722
 30
0.0
 10
2.04363064236111
 20
-3.335541449652775
 30
0.0
 10
2.072569444444444
 20
-4.739762369791666
 30
0.0
 10
2.072569444444444
 20
-4.739762369791666
 30
0.0
 10
2.160763888888888
 20
-8.324039713541665
 30
0.0
 10
2.160763888888888
 20
-8.324039713541665
 30
0.0
 10
2.18005642361111
 20
-9.163264973958332
 30
0.0
 10
2.202794053819443
 20
-9.728949652777775
 30
0.0
 10
2.227598741319444
 20
-10.02109374999998
 30
0.0
 10
2.252403428819443
 20
-10.31392686631944
 30
0.0
 10
2.28892144097222
 20
-10.55301649305555
 30
0.0
 10
2.33853081597222
 20
-10.7376736111111
 30
0.0
 10
2.33853081597222
 20
-10.7376736111111
 30
0.0
 10
3.968749999999998
 20
-10.7376736111111
 30
0.0
 10
3.968749999999998
 20
-10.7376736111111
 30
0.0
 10
3.968749999999998
 20
-10.7376736111111
 30
0.0
 10
3.968749999999998
 20
-10.25260416666666
 30
0.0
 10
3.968749999999998
 20
-10.25260416666666
 30
0.0
 10
3.766867404513888
 20
-10.05830078125
 30
0.0
 10
3.625618489583333
 20
-9.621462673611112
 30
0.0
 10
3.545692274305555
 20
-8.942089843749997
 30
0.0
 10
3.49470486111111
 20
-8.543836805555555
 30
0.0
 10
3.459564887152775
 20
-7.937499999999999
 30
0.0
 10
3.439583333333333
 20
-7.121701388888887
 30
0.0
 10
3.439583333333333
 20
-7.121701388888887
 30
0.0
 10
3.395486111111106
 20
-4.232644314236106
 30
0.0
 10
3.395486111111106
 20
-4.232644314236106
 30
0.0
 10
3.375504557291666
 20
-2.981385633680555
 30
0.0
 10
3.26870659722222
 20
-2.077392578125
 30
0.0
 10
3.075781249999999
 20
-1.522043185763888
 30
0.0
 10
2.882166883680555
 20
-0.9666937934027776
 30
0.0
 10
2.592089843749999
 20
-0.5188313802083333
 30
0.0
 10
2.204861111111104
 20
-0.1770779079861111
 30
0.0
 10
2.63618706597222
 20
0.3197048611111111
 30
0.0
 10
2.971739366319443
 20
0.9770290798611107
 30
0.0
 10
3.211518012152775
 20
1.79558376736111
 30
0.0
 10
3.451296657986107
 20
2.613449435763888
 30
0.0
 10
3.571874999999999
 20
3.66558159722222
 30
0.0
 10
3.571874999999999
 20
4.951291232638888
 30
0.0
 10
3.571874999999999
 20
7.415912543402777
 30
0.0
 10
3.124701605902775
 20
9.106076388888887
 30
0.0
 10
2.231043836805555
 20
10.02178276909722
 30
0.0
 10
1.759754774305553
 20
10.498583984375
 30
0.0
 10
1.163753255208332
 20
10.7376736111111
 30
0.0
 10
0.443039279513889
 20
10.7376736111111
 30
0.0
 10
0.443039279513889
 20
10.7376736111111
 30
0.0
 10
-3.968749999999998
 20
10.7376736111111
 30
0.0
 10
-3.968749999999998
 20
10.7376736111111
 30
0.0
 10
-3.968749999999998
 20
10.7376736111111
 30
0.0
 10
-3.968749999999998
 20
-10.7376736111111
 30
0.0
 10
-3.968749999999998
 20
-10.7376736111111
 30
0.0
  0
ENDBLK
  5
49C
330
498
100
AcDbEntity
  8
0
100
AcDbBlockEnd
  0
BLOCK
  5
49F
330
49D
100
AcDbEntity
  8
0
 62
     7
100
AcDbBlockBegin
  2
AI9-BLK10
 70
     0
 10
0.0
 20
0.0
 30
0.0
  3
AI9-BLK10
  1

  0
SPLINE
  5
49E
330
49D
100
AcDbEntity
  8
LAYER_1
 62
     7
100
AcDbSpline
210
0.0
220
0.0
230
1.0
 70
    11
 71
     3
 72
    59
 73
    55
 74
     0
 42
0.0000000001
 43
0.0000000001
 40
0.0
 40
0.0
 40
0.0
 40
0.0
 40
1.0
 40
1.0
 40
1.0
 40
2.0
 40
2.0
 40
2.0
 40
3.0
 40
3.0
 40
3.0
 40
4.0
 40
4.0
 40
4.0
 40
5.0
 40
5.0
 40
5.0
 40
6.0
 40
6.0
 40
6.0
 40
7.0
 40
7.0
 40
7.0
 40
8.0
 40
8.0
 40
8.0
 40
9.0
 40
9.0
 40
9.0
 40
10.0
 40
10.0
 40
10.0
 40
11.0
 40
11.0
 40
11.0
 40
12.0
 40
12.0
 40
12.0
 40
13.0
 40
13.0
 40
13.0
 40
14.0
 40
14.0
 40
14.0
 40
15.0
 40
15.0
 40
15.0
 40
16.0
 40
16.0
 40
16.0
 40
17.0
 40
17.0
 40
17.0
 40
18.0
 40
18.0
 40
18.0
 40
18.0
 10
-4.652256944444443
 20
10.7376736111111
 30
0.0
 10
-4.652256944444443
 20
10.7376736111111
 30
0.0
 10
-2.798795572916666
 20
10.7376736111111
 30
0.0
 10
-2.798795572916666
 20
10.7376736111111
 30
0.0
 10
-2.798795572916666
 20
10.7376736111111
 30
0.0
 10
0.0
 20
-7.419357638888887
 30
0.0
 10
0.0
 20
-7.419357638888887
 30
0.0
 10
0.0
 20
-7.419357638888887
 30
0.0
 10
2.793283420138888
 20
10.7376736111111
 30
0.0
 10
2.793283420138888
 20
10.7376736111111
 30
0.0
 10
2.793283420138888
 20
10.7376736111111
 30
0.0
 10
4.652256944444443
 20
10.7376736111111
 30
0.0
 10
4.652256944444443
 20
10.7376736111111
 30
0.0
 10
4.652256944444443
 20
10.7376736111111
 30
0.0
 10
4.652256944444443
 20
-10.7376736111111
 30
0.0
 10
4.652256944444443
 20
-10.7376736111111
 30
0.0
 10
4.652256944444443
 20
-10.7376736111111
 30
0.0
 10
3.41753472222222
 20
-10.7376736111111
 30
0.0
 10
3.41753472222222
 20
-10.7376736111111
 30
0.0
 10
3.41753472222222
 20
-10.7376736111111
 30
0.0
 10
3.41753472222222
 20
1.936832682291665
 30
0.0
 10
3.41753472222222
 20
1.936832682291665
 30
0.0
 10
3.41753472222222
 20
2.375048828124999
 30
0.0
 10
3.424424913194443
 20
3.101274956597221
 30
0.0
 10
3.439583333333333
 20
4.11482204861111
 30
0.0
 10
3.454052734374998
 20
5.128369140624998
 30
0.0
 10
3.461631944444443
 20
6.214952256944441
 30
0.0
 10
3.461631944444443
 20
7.375260416666666
 30
0.0
 10
3.461631944444443
 20
7.375260416666666
 30
0.0
 10
0.6538791232638889
 20
-10.7376736111111
 30
0.0
 10
0.6538791232638889
 20
-10.7376736111111
 30
0.0
 10
0.6538791232638889
 20
-10.7376736111111
 30
0.0
 10
-0.6628363715277778
 20
-10.7376736111111
 30
0.0
 10
-0.6628363715277778
 20
-10.7376736111111
 30
0.0
 10
-0.6628363715277778
 20
-10.7376736111111
 30
0.0
 10
-3.461631944444443
 20
7.375260416666666
 30
0.0
 10
-3.461631944444443
 20
7.375260416666666
 30
0.0
 10
-3.461631944444443
 20
7.375260416666666
 30
0.0
 10
-3.461631944444443
 20
6.717247178819441
 30
0.0
 10
-3.461631944444443
 20
6.717247178819441
 30
0.0
 10
-3.461631944444443
 20
6.190836588541666
 30
0.0
 10
-3.45474175347222
 20
5.389507378472222
 30
0.0
 10
-3.439583333333333
 20
4.312570529513888
 30
0.0
 10
-3.425113932291666
 20
3.235633680555555
 30
0.0
 10
-3.41753472222222
 20
2.44395073784722
 30
0.0
 10
-3.41753472222222
 20
1.936832682291665
 30
0.0
 10
-3.41753472222222
 20
1.936832682291665
 30
0.0
 10
-3.41753472222222
 20
-10.7376736111111
 30
0.0
 10
-3.41753472222222
 20
-10.7376736111111
 30
0.0
 10
-3.41753472222222
 20
-10.7376736111111
 30
0.0
 10
-4.652256944444443
 20
-10.7376736111111
 30
0.0
 10
-4.652256944444443
 20
-10.7376736111111
 30
0.0
 10
-4.652256944444443
 20
-10.7376736111111
 30
0.0
 10
-4.652256944444443
 20
10.7376736111111
 30
0.0
 10
-4.652256944444443
 20
10.7376736111111
 30
0.0
  0
ENDBLK
  5
4A0
330
49D
100
AcDbEntity
  8
0
100
AcDbBlockEnd
  0
BLOCK
  5
4A4
330
4A1
100
AcDbEntity
  8
0
 62
     7
100
AcDbBlockBegin
  2
AI9-BLK9
 70
     0
 10
0.0
 20
0.0
 30
0.0
  3
AI9-BLK9
  1

  0
SPLINE
  5
4A2
330
4A1
100
AcDbEntity
  8
LAYER_1
 62
     7
100
AcDbSpline
210
0.0
220
0.0
230
1.0
 70
    11
 71
     3
 72
    29
 73
    25
 74
     0
 42
0.0000000001
 43
0.0000000001
 40
0.0
 40
0.0
 40
0.0
 40
0.0
 40
1.0
 40
1.0
 40
1.0
 40
2.0
 40
2.0
 40
2.0
 40
3.0
 40
3.0
 40
3.0
 40
4.0
 40
4.0
 40
4.0
 40
5.0
 40
5.0
 40
5.0
 40
6.0
 40
6.0
 40
6.0
 40
7.0
 40
7.0
 40
7.0
 40
8.0
 40
8.0
 40
8.0
 40
8.0
 10
0.0668348524305556
 20
-8.753298611111111
 30
0.0
 10
-0.9067491319444444
 20
-8.753298611111111
 30
0.0
 10
-1.60954861111111
 20
-7.936810980902778
 30
0.0
 10
-2.041563585069444
 20
-6.30383572048611
 30
0.0
 10
-2.474267578124999
 20
-4.670860460069443
 30
0.0
 10
-2.689930555555555
 20
-2.664436848958333
 30
0.0
 10
-2.689930555555555
 20
-0.28525390625
 30
0.0
 10
-2.689930555555555
 20
2.68855251736111
 30
0.0
 10
-2.439127604166666
 20
4.938199869791666
 30
0.0
 10
-1.937521701388888
 20
6.464377170138886
 30
0.0
 10
-1.43591579861111
 20
7.989865451388887
 30
0.0
 10
-0.7827256944444444
 20
8.753298611111111
 30
0.0
 10
0.0220486111111111
 20
8.753298611111111
 30
0.0
 10
0.8468044704861108
 20
8.753298611111111
 30
0.0
 10
1.49792751736111
 20
7.982975260416663
 30
0.0
 10
1.974728732638888
 20
6.442328559027776
 30
0.0
 10
2.451529947916665
 20
4.901681857638886
 30
0.0
 10
2.689930555555555
 20
2.868386501736111
 30
0.0
 10
2.689930555555555
 20
0.3438205295138888
 30
0.0
 10
2.689930555555555
 20
-2.045697699652774
 30
0.0
 10
2.483224826388884
 20
-4.15891927083333
 30
0.0
 10
2.071191406249999
 20
-5.996533203124998
 30
0.0
 10
1.65915798611111
 20
-7.834836154513887
 30
0.0
 10
0.9908094618055557
 20
-8.753298611111111
 30
0.0
 10
0.0668348524305556
 20
-8.753298611111111
 30
0.0
  0
SPLINE
  5
4A3
330
4A1
100
AcDbEntity
  8
LAYER_1
 62
     7
100
AcDbSpline
210
0.0
220
0.0
230
1.0
 70
    11
 71
     3
 72
    29
 73
    25
 74
     0
 42
0.0000000001
 43
0.0000000001
 40
0.0
 40
0.0
 40
0.0
 40
0.0
 40
1.0
 40
1.0
 40
1.0
 40
2.0
 40
2.0
 40
2.0
 40
3.0
 40
3.0
 40
3.0
 40
4.0
 40
4.0
 40
4.0
 40
5.0
 40
5.0
 40
5.0
 40
6.0
 40
6.0
 40
6.0
 40
7.0
 40
7.0
 40
7.0
 40
8.0
 40
8.0
 40
8.0
 40
8.0
 10
-0.0289388020833333
 20
11.35503472222222
 30
0.0
 10
-1.317404513888887
 20
11.35503472222222
 30
0.0
 10
-2.28892144097222
 20
10.02798394097222
 30
0.0
 10
-2.94280056423611
 20
7.374571397569441
 30
0.0
 10
-3.450607638888888
 20
5.30613606770833
 30
0.0
 10
-3.704166666666666
 20
2.81877712673611
 30
0.0
 10
-3.704166666666666
 20
-0.0881944444444445
 30
0.0
 10
-3.704166666666666
 20
-3.307291666666666
 30
0.0
 10
-3.406510416666666
 20
-5.97035047743055
 30
0.0
 10
-2.811197916666666
 20
-8.077370876736106
 30
0.0
 10
-2.147672526041664
 20
-10.26293945312499
 30
0.0
 10
-1.229899088541666
 20
-11.35503472222222
 30
0.0
 10
-0.0585666232638889
 20
-11.35503472222222
 30
0.0
 10
1.20027126736111
 20
-11.35503472222222
 30
0.0
 10
2.166276041666665
 20
-10.10653211805555
 30
0.0
 10
2.840136718749998
 20
-7.609526909722221
 30
0.0
 10
3.416156684027776
 20
-5.483213975694441
 30
0.0
 10
3.704166666666666
 20
-2.814643012152775
 30
0.0
 10
3.704166666666666
 20
0.3948079427083333
 30
0.0
 10
3.704166666666666
 20
3.360346137152776
 30
0.0
 10
3.449918619791666
 20
5.793961588541666
 30
0.0
 10
2.94280056423611
 20
7.696343315972222
 30
0.0
 10
2.298567708333333
 20
10.13547092013888
 30
0.0
 10
1.307758246527777
 20
11.35503472222222
 30
0.0
 10
-0.0289388020833333
 20
11.35503472222222
 30
0.0
  0
ENDBLK
  5
4A5
330
4A1
100
AcDbEntity
  8
0
100
AcDbBlockEnd
  0
BLOCK
  5
4A9
330
4A6
100
AcDbEntity
  8
0
 62
     7
100
AcDbBlockBegin
  2
AI9-BLK8
 70
     0
 10
0.0
 20
0.0
 30
0.0
  3
AI9-BLK8
  1

  0
LWPOLYLINE
  5
4A7
330
4A6
100
AcDbEntity
  8
LAYER_1
 62
     7
100
AcDbPolyline
 90
       10
 70
     1
 43
0.0
 10
-3.792361111111107
 20
10.7376736111111
 10
-2.268939887152773
 20
10.7376736111111
 10
2.557638888888888
 20
-6.505718315972222
 10
2.557638888888888
 20
10.7376736111111
 10
3.792361111111107
 20
10.7376736111111
 10
3.792361111111107
 20
-10.7376736111111
 10
2.32612847222222
 20
-10.7376736111111
 10
-2.557638888888888
 20
6.549815538194441
 10
-2.557638888888888
 20
-10.7376736111111
 10
-3.792361111111107
 20
-10.7376736111111
  0
HATCH
  5
4A8
330
4A6
100
AcDbEntity
  8
LAYER_1
 62
     7
100
AcDbHatch
 10
0.0
 20
0.0
 30
0.0
210
0.0
220
0.0
230
1.0
  2
SOLID
 70
     1
 71
     0
 91
        1
 92
        3
 72
     0
 73
     1
 93
       10
 10
-3.792361111111107
 20
10.7376736111111
 10
-2.268939887152773
 20
10.7376736111111
 10
2.557638888888888
 20
-6.505718315972222
 10
2.557638888888888
 20
10.7376736111111
 10
3.792361111111107
 20
10.7376736111111
 10
3.792361111111107
 20
-10.7376736111111
 10
2.32612847222222
 20
-10.7376736111111
 10
-2.557638888888888
 20
6.549815538194441
 10
-2.557638888888888
 20
-10.7376736111111
 10
-3.792361111111107
 20
-10.7376736111111
 97
        0
 75
     2
 76
     1
 98
        1
 10
0.0
 20
0.0
  0
ENDBLK
  5
4AA
330
4A6
100
AcDbEntity
  8
0
100
AcDbBlockEnd
  0
BLOCK
  5
4AE
330
4AB
100
AcDbEntity
  8
0
 62
     7
100
AcDbBlockBegin
  2
AI9-BLK7
 70
     0
 10
0.0
 20
0.0
 30
0.0
  3
AI9-BLK7
  1

  0
LWPOLYLINE
  5
4AC
330
4AB
100
AcDbEntity
  8
LAYER_1
 62
     7
100
AcDbPolyline
 90
        4
 70
     1
 43
0.0
 10
-0.6614583333333333
 20
10.7376736111111
 10
0.6614583333333333
 20
10.7376736111111
 10
0.6614583333333333
 20
-10.7376736111111
 10
-0.6614583333333333
 20
-10.7376736111111
  0
HATCH
  5
4AD
330
4AB
100
AcDbEntity
  8
LAYER_1
 62
     7
100
AcDbHatch
 10
0.0
 20
0.0
 30
0.0
210
0.0
220
0.0
230
1.0
  2
SOLID
 70
     1
 71
     0
 91
        1
 92
        3
 72
     0
 73
     1
 93
        4
 10
-0.6614583333333333
 20
10.7376736111111
 10
0.6614583333333333
 20
10.7376736111111
 10
0.6614583333333333
 20
-10.7376736111111
 10
-0.6614583333333333
 20
-10.7376736111111
 97
        0
 75
     2
 76
     1
 98
        1
 10
0.0
 20
0.0
  0
ENDBLK
  5
4AF
330
4AB
100
AcDbEntity
  8
0
100
AcDbBlockEnd
  0
BLOCK
  5
4B2
330
4B0
100
AcDbEntity
  8
0
 62
     7
100
AcDbBlockBegin
  2
AI9-BLK6
 70
     0
 10
0.0
 20
0.0
 30
0.0
  3
AI9-BLK6
  1

  0
SPLINE
  5
4B1
330
4B0
100
AcDbEntity
  8
LAYER_1
 62
     7
100
AcDbSpline
210
0.0
220
0.0
230
1.0
 70
    11
 71
     3
 72
    59
 73
    55
 74
     0
 42
0.0000000001
 43
0.0000000001
 40
0.0
 40
0.0
 40
0.0
 40
0.0
 40
1.0
 40
1.0
 40
1.0
 40
2.0
 40
2.0
 40
2.0
 40
3.0
 40
3.0
 40
3.0
 40
4.0
 40
4.0
 40
4.0
 40
5.0
 40
5.0
 40
5.0
 40
6.0
 40
6.0
 40
6.0
 40
7.0
 40
7.0
 40
7.0
 40
8.0
 40
8.0
 40
8.0
 40
9.0
 40
9.0
 40
9.0
 40
10.0
 40
10.0
 40
10.0
 40
11.0
 40
11.0
 40
11.0
 40
12.0
 40
12.0
 40
12.0
 40
13.0
 40
13.0
 40
13.0
 40
14.0
 40
14.0
 40
14.0
 40
15.0
 40
15.0
 40
15.0
 40
16.0
 40
16.0
 40
16.0
 40
17.0
 40
17.0
 40
17.0
 40
18.0
 40
18.0
 40
18.0
 40
18.0
 10
3.062689887152775
 20
9.168088107638887
 30
0.0
 10
3.735172526041666
 20
7.739062499999997
 30
0.0
 10
4.110687934027776
 20
6.116422526041666
 30
0.0
 10
4.189236111111108
 20
4.299479166666666
 30
0.0
 10
4.189236111111108
 20
4.299479166666666
 30
0.0
 10
2.866319444444443
 20
4.299479166666666
 30
0.0
 10
2.866319444444443
 20
4.299479166666666
 30
0.0
 10
2.720936414930555
 20
5.667871093749997
 30
0.0
 10
2.435682508680555
 20
6.752387152777776
 30
0.0
 10
2.009868706597218
 20
7.553027343749997
 30
0.0
 10
1.584054904513888
 20
8.352978515624997
 30
0.0
 10
0.9839192708333332
 20
8.753298611111111
 30
0.0
 10
0.2101508246527778
 20
8.753298611111111
 30
0.0
 10
-0.7386284722222222
 20
8.753298611111111
 30
0.0
 10
-1.503439670138888
 20
8.010536024305555
 30
0.0
 10
-2.083593749999999
 20
6.526388888888886
 30
0.0
 10
-2.664436848958333
 20
5.042241753472221
 30
0.0
 10
-2.954513888888888
 20
2.767100694444443
 30
0.0
 10
-2.954513888888888
 20
-0.2990342881944444
 30
0.0
 10
-2.954513888888888
 20
-2.811197916666666
 30
0.0
 10
-2.693375651041666
 20
-4.847938368055555
 30
0.0
 10
-2.17041015625
 20
-6.409944661458332
 30
0.0
 10
-1.648133680555553
 20
-7.972639973958332
 30
0.0
 10
-0.8640299479166666
 20
-8.753298611111111
 30
0.0
 10
0.1812120225694444
 20
-8.753298611111111
 30
0.0
 10
1.138948567708333
 20
-8.753298611111111
 30
0.0
 10
1.865174696180553
 20
-7.927853732638887
 30
0.0
 10
2.359201388888884
 20
-6.275585937499998
 30
0.0
 10
2.62998589409722
 20
-5.406043836805555
 30
0.0
 10
2.828423394097221
 20
-4.262272135416666
 30
0.0
 10
2.954513888888888
 20
-2.844270833333331
 30
0.0
 10
2.954513888888888
 20
-2.844270833333331
 30
0.0
 10
4.277430555555555
 20
-2.844270833333331
 30
0.0
 10
4.277430555555555
 20
-2.844270833333331
 30
0.0
 10
4.169943576388888
 20
-5.109765624999996
 30
0.0
 10
3.795117187499998
 20
-7.009391276041665
 30
0.0
 10
3.151573350694443
 20
-8.542458767361106
 30
0.0
 10
2.381249999999999
 20
-10.38834092881943
 30
0.0
 10
1.347721354166665
 20
-11.3109375
 30
0.0
 10
0.0509874131944445
 20
-11.3109375
 30
0.0
 10
-1.07004665798611
 20
-11.3109375
 30
0.0
 10
-2.010557725694444
 20
-10.55577256944443
 30
0.0
 10
-2.771234809027776
 20
-9.04475368923611
 30
0.0
 10
-3.775824652777775
 20
-7.046598307291666
 30
0.0
 10
-4.277430555555555
 20
-3.961170789930555
 30
0.0
 10
-4.277430555555555
 20
0.2115288628472222
 30
0.0
 10
-4.277430555555555
 20
3.379638671874998
 30
0.0
 10
-3.902604166666666
 20
5.977929687499997
 30
0.0
 10
-3.151573350694443
 20
8.005712890624996
 30
0.0
 10
-2.333018663194443
 20
10.20919596354165
 30
0.0
 10
-1.20647243923611
 20
11.3109375
 30
0.0
 10
0.2266872829861111
 20
11.3109375
 30
0.0
 10
1.444873046875
 20
11.3109375
 30
0.0
 10
2.390207248263884
 20
10.59642469618055
 30
0.0
 10
3.062689887152775
 20
9.168088107638887
 30
0.0
  0
ENDBLK
  5
4B3
330
4B0
100
AcDbEntity
  8
0
100
AcDbBlockEnd
  0
BLOCK
  5
4B7
330
4B4
100
AcDbEntity
  8
0
 62
     7
100
AcDbBlockBegin
  2
AI9-BLK5
 70
     0
 10
0.0
 20
0.0
 30
0.0
  3
AI9-BLK5
  1

  0
SPLINE
  5
4B5
330
4B4
100
AcDbEntity
  8
LAYER_1
 62
     7
100
AcDbSpline
210
0.0
220
0.0
230
1.0
 70
    11
 71
     3
 72
    32
 73
    28
 74
     0
 42
0.0000000001
 43
0.0000000001
 40
0.0
 40
0.0
 40
0.0
 40
0.0
 40
1.0
 40
1.0
 40
1.0
 40
2.0
 40
2.0
 40
2.0
 40
3.0
 40
3.0
 40
3.0
 40
4.0
 40
4.0
 40
4.0
 40
5.0
 40
5.0
 40
5.0
 40
6.0
 40
6.0
 40
6.0
 40
7.0
 40
7.0
 40
7.0
 40
8.0
 40
8.0
 40
8.0
 40
9.0
 40
9.0
 40
9.0
 40
9.0
 10
-2.62378472222222
 20
-8.268229166666666
 30
0.0
 10
-2.62378472222222
 20
-8.268229166666666
 30
0.0
 10
-2.62378472222222
 20
8.180034722222217
 30
0.0
 10
-2.62378472222222
 20
8.180034722222217
 30
0.0
 10
-2.62378472222222
 20
8.180034722222217
 30
0.0
 10
-0.3376193576388888
 20
8.180034722222217
 30
0.0
 10
-0.3376193576388888
 20
8.180034722222217
 30
0.0
 10
0.6972873263888888
 20
8.180034722222217
 30
0.0
 10
1.449007161458333
 20
7.445540364583332
 30
0.0
 10
1.918918185763885
 20
5.977929687499997
 30
0.0
 10
2.388829210069443
 20
4.510319010416666
 30
0.0
 10
2.62378472222222
 20
2.449462890624999
 30
0.0
 10
2.62378472222222
 20
-0.204638671875
 30
0.0
 10
2.62378472222222
 20
-0.8950358072916666
 30
0.0
 10
2.590022786458332
 20
-1.643310546874999
 30
0.0
 10
2.523187934027772
 20
-2.45015190972222
 30
0.0
 10
2.408121744791666
 20
-3.80200737847222
 30
0.0
 10
2.226220703124999
 20
-4.909950086805555
 30
0.0
 10
1.976795789930553
 20
-5.774669053819441
 30
0.0
 10
1.659847005208333
 20
-6.853672960069442
 30
0.0
 10
1.252636718749998
 20
-7.583344184027778
 30
0.0
 10
0.7544759114583333
 20
-7.962304687499997
 30
0.0
 10
0.4664659288194444
 20
-8.166254340277777
 30
0.0
 10
0.1074869791666666
 20
-8.268229166666666
 30
0.0
 10
-0.3231499565972222
 20
-8.268229166666666
 30
0.0
 10
-0.3231499565972222
 20
-8.268229166666666
 30
0.0
 10
-2.62378472222222
 20
-8.268229166666666
 30
0.0
 10
-2.62378472222222
 20
-8.268229166666666
 30
0.0
  0
SPLINE
  5
4B6
330
4B4
100
AcDbEntity
  8
LAYER_1
 62
     7
100
AcDbSpline
210
0.0
220
0.0
230
1.0
 70
    11
 71
     3
 72
    26
 73
    22
 74
     0
 42
0.0000000001
 43
0.0000000001
 40
0.0
 40
0.0
 40
0.0
 40
0.0
 40
1.0
 40
1.0
 40
1.0
 40
2.0
 40
2.0
 40
2.0
 40
3.0
 40
3.0
 40
3.0
 40
4.0
 40
4.0
 40
4.0
 40
5.0
 40
5.0
 40
5.0
 40
6.0
 40
6.0
 40
6.0
 40
7.0
 40
7.0
 40
7.0
 40
7.0
 10
-3.946701388888888
 20
-10.7376736111111
 30
0.0
 10
-3.946701388888888
 20
-10.7376736111111
 30
0.0
 10
-0.0943956163194444
 20
-10.7376736111111
 30
0.0
 10
-0.0943956163194444
 20
-10.7376736111111
 30
0.0
 10
1.546847873263885
 20
-10.7376736111111
 30
0.0
 10
2.705777994791666
 20
-9.11021050347222
 30
0.0
 10
3.381705729166666
 20
-5.854595269097222
 30
0.0
 10
3.757910156249999
 20
-4.01284722222222
 30
0.0
 10
3.946701388888888
 20
-1.951991102430555
 30
0.0
 10
3.946701388888888
 20
0.328662109375
 30
0.0
 10
3.946701388888888
 20
3.281797960069443
 30
0.0
 10
3.622862413194443
 20
5.703700086805552
 30
0.0
 10
2.976562499999998
 20
7.594368489583332
 30
0.0
 10
2.25171440972222
 20
9.689675564236106
 30
0.0
 10
1.233344184027777
 20
10.7376736111111
 30
0.0
 10
-0.0799262152777778
 20
10.7376736111111
 30
0.0
 10
-0.0799262152777778
 20
10.7376736111111
 30
0.0
 10
-3.946701388888888
 20
10.7376736111111
 30
0.0
 10
-3.946701388888888
 20
10.7376736111111
 30
0.0
 10
-3.946701388888888
 20
10.7376736111111
 30
0.0
 10
-3.946701388888888
 20
-10.7376736111111
 30
0.0
 10
-3.946701388888888
 20
-10.7376736111111
 30
0.0
  0
ENDBLK
  5
4B8
330
4B4
100
AcDbEntity
  8
0
100
AcDbBlockEnd
  0
BLOCK
  5
4BC
330
4B9
100
AcDbEntity
  8
0
 62
     7
100
AcDbBlockBegin
  2
AI9-BLK4
 70
     0
 10
0.0
 20
0.0
 30
0.0
  3
AI9-BLK4
  1

  0
SPLINE
  5
4BA
330
4B9
100
AcDbEntity
  8
LAYER_1
 62
     7
100
AcDbSpline
210
0.0
220
0.0
230
1.0
 70
    11
 71
     3
 72
    26
 73
    22
 74
     0
 42
0.0000000001
 43
0.0000000001
 40
0.0
 40
0.0
 40
0.0
 40
0.0
 40
1.0
 40
1.0
 40
1.0
 40
2.0
 40
2.0
 40
2.0
 40
3.0
 40
3.0
 40
3.0
 40
4.0
 40
4.0
 40
4.0
 40
5.0
 40
5.0
 40
5.0
 40
6.0
 40
6.0
 40
6.0
 40
7.0
 40
7.0
 40
7.0
 40
7.0
 10
-2.645833333333333
 20
0.9039930555555551
 30
0.0
 10
-2.645833333333333
 20
0.9039930555555551
 30
0.0
 10
-2.645833333333333
 20
8.180034722222217
 30
0.0
 10
-2.645833333333333
 20
8.180034722222217
 30
0.0
 10
-2.645833333333333
 20
8.180034722222217
 30
0.0
 10
0.465087890625
 20
8.180034722222217
 30
0.0
 10
0.465087890625
 20
8.180034722222217
 30
0.0
 10
0.9026150173611108
 20
8.180034722222217
 30
0.0
 10
1.24988064236111
 20
8.034651692708331
 30
0.0
 10
1.506884765625
 20
7.745263671874997
 30
0.0
 10
2.001600477430554
 20
7.194048394097221
 30
0.0
 10
2.248958333333332
 20
6.160519748263887
 30
0.0
 10
2.248958333333332
 20
4.643299696180553
 30
0.0
 10
2.248958333333332
 20
3.232188585069443
 30
0.0
 10
2.072569444444444
 20
2.256537543402775
 30
0.0
 10
1.720480685763888
 20
1.715657552083333
 30
0.0
 10
1.368391927083333
 20
1.174088541666665
 30
0.0
 10
0.8929687499999998
 20
0.9039930555555551
 30
0.0
 10
0.2942111545138888
 20
0.9039930555555551
 30
0.0
 10
0.2942111545138888
 20
0.9039930555555551
 30
0.0
 10
-2.645833333333333
 20
0.9039930555555551
 30
0.0
 10
-2.645833333333333
 20
0.9039930555555551
 30
0.0
  0
SPLINE
  5
4BB
330
4B9
100
AcDbEntity
  8
LAYER_1
 62
     7
100
AcDbSpline
210
0.0
220
0.0
230
1.0
 70
    11
 71
     3
 72
    68
 73
    64
 74
     0
 42
0.0000000001
 43
0.0000000001
 40
0.0
 40
0.0
 40
0.0
 40
0.0
 40
1.0
 40
1.0
 40
1.0
 40
2.0
 40
2.0
 40
2.0
 40
3.0
 40
3.0
 40
3.0
 40
4.0
 40
4.0
 40
4.0
 40
5.0
 40
5.0
 40
5.0
 40
6.0
 40
6.0
 40
6.0
 40
7.0
 40
7.0
 40
7.0
 40
8.0
 40
8.0
 40
8.0
 40
9.0
 40
9.0
 40
9.0
 40
10.0
 40
10.0
 40
10.0
 40
11.0
 40
11.0
 40
11.0
 40
12.0
 40
12.0
 40
12.0
 40
13.0
 40
13.0
 40
13.0
 40
14.0
 40
14.0
 40
14.0
 40
15.0
 40
15.0
 40
15.0
 40
16.0
 40
16.0
 40
16.0
 40
17.0
 40
17.0
 40
17.0
 40
18.0
 40
18.0
 40
18.0
 40
19.0
 40
19.0
 40
19.0
 40
20.0
 40
20.0
 40
20.0
 40
21.0
 40
21.0
 40
21.0
 40
21.0
 10
-3.968749999999998
 20
-10.7376736111111
 30
0.0
 10
-3.968749999999998
 20
-10.7376736111111
 30
0.0
 10
-2.645833333333333
 20
-10.7376736111111
 30
0.0
 10
-2.645833333333333
 20
-10.7376736111111
 30
0.0
 10
-2.645833333333333
 20
-10.7376736111111
 30
0.0
 10
-2.645833333333333
 20
-1.521354166666665
 30
0.0
 10
-2.645833333333333
 20
-1.521354166666665
 30
0.0
 10
-2.645833333333333
 20
-1.521354166666665
 30
0.0
 10
0.2390896267361111
 20
-1.521354166666665
 30
0.0
 10
0.2390896267361111
 20
-1.521354166666665
 30
0.0
 10
0.7599880642361111
 20
-1.521354166666665
 30
0.0
 10
1.143771701388887
 20
-1.65295681423611
 30
0.0
 10
1.390440538194444
 20
-1.916162109374999
 30
0.0
 10
1.816254340277773
 20
-2.39434136284722
 30
0.0
 10
2.04363064236111
 20
-3.335541449652775
 30
0.0
 10
2.072569444444444
 20
-4.739762369791666
 30
0.0
 10
2.072569444444444
 20
-4.739762369791666
 30
0.0
 10
2.160763888888888
 20
-8.324039713541665
 30
0.0
 10
2.160763888888888
 20
-8.324039713541665
 30
0.0
 10
2.18005642361111
 20
-9.163264973958332
 30
0.0
 10
2.202794053819443
 20
-9.728949652777775
 30
0.0
 10
2.227598741319444
 20
-10.02109374999998
 30
0.0
 10
2.252403428819443
 20
-10.31392686631944
 30
0.0
 10
2.28892144097222
 20
-10.55301649305555
 30
0.0
 10
2.33853081597222
 20
-10.7376736111111
 30
0.0
 10
2.33853081597222
 20
-10.7376736111111
 30
0.0
 10
3.968749999999998
 20
-10.7376736111111
 30
0.0
 10
3.968749999999998
 20
-10.7376736111111
 30
0.0
 10
3.968749999999998
 20
-10.7376736111111
 30
0.0
 10
3.968749999999998
 20
-10.25260416666666
 30
0.0
 10
3.968749999999998
 20
-10.25260416666666
 30
0.0
 10
3.766867404513888
 20
-10.05830078125
 30
0.0
 10
3.625618489583333
 20
-9.621462673611112
 30
0.0
 10
3.545692274305555
 20
-8.942089843749997
 30
0.0
 10
3.49470486111111
 20
-8.543836805555555
 30
0.0
 10
3.459564887152775
 20
-7.937499999999999
 30
0.0
 10
3.439583333333333
 20
-7.121701388888887
 30
0.0
 10
3.439583333333333
 20
-7.121701388888887
 30
0.0
 10
3.395486111111106
 20
-4.232644314236106
 30
0.0
 10
3.395486111111106
 20
-4.232644314236106
 30
0.0
 10
3.375504557291666
 20
-2.981385633680555
 30
0.0
 10
3.26870659722222
 20
-2.077392578125
 30
0.0
 10
3.075781249999999
 20
-1.522043185763888
 30
0.0
 10
2.882166883680555
 20
-0.9666937934027776
 30
0.0
 10
2.592089843749999
 20
-0.5188313802083333
 30
0.0
 10
2.204861111111104
 20
-0.1770779079861111
 30
0.0
 10
2.63618706597222
 20
0.3197048611111111
 30
0.0
 10
2.971739366319443
 20
0.9770290798611107
 30
0.0
 10
3.211518012152775
 20
1.79558376736111
 30
0.0
 10
3.451296657986107
 20
2.613449435763888
 30
0.0
 10
3.571874999999999
 20
3.66558159722222
 30
0.0
 10
3.571874999999999
 20
4.951291232638888
 30
0.0
 10
3.571874999999999
 20
7.415912543402777
 30
0.0
 10
3.124701605902775
 20
9.106076388888887
 30
0.0
 10
2.231043836805555
 20
10.02178276909722
 30
0.0
 10
1.759754774305553
 20
10.498583984375
 30
0.0
 10
1.163753255208332
 20
10.7376736111111
 30
0.0
 10
0.443039279513889
 20
10.7376736111111
 30
0.0
 10
0.443039279513889
 20
10.7376736111111
 30
0.0
 10
-3.968749999999998
 20
10.7376736111111
 30
0.0
 10
-3.968749999999998
 20
10.7376736111111
 30
0.0
 10
-3.968749999999998
 20
10.7376736111111
 30
0.0
 10
-3.968749999999998
 20
-10.7376736111111
 30
0.0
 10
-3.968749999999998
 20
-10.7376736111111
 30
0.0
  0
ENDBLK
  5
4BD
330
4B9
100
AcDbEntity
  8
0
100
AcDbBlockEnd
  0
BLOCK
  5
4C1
330
4BE
100
AcDbEntity
  8
0
 62
     7
100
AcDbBlockBegin
  2
AI9-BLK3
 70
     0
 10
0.0
 20
0.0
 30
0.0
  3
AI9-BLK3
  1

  0
LWPOLYLINE
  5
4BF
330
4BE
100
AcDbEntity
  8
LAYER_1
 62
     7
100
AcDbPolyline
 90
        4
 70
     1
 43
0.0
 10
-0.6613722059461809
 20
10.7376736111111
 10
0.6613722059461809
 20
10.7376736111111
 10
0.6613722059461809
 20
-10.7376736111111
 10
-0.6613722059461809
 20
-10.7376736111111
  0
HATCH
  5
4C0
330
4BE
100
AcDbEntity
  8
LAYER_1
 62
     7
100
AcDbHatch
 10
0.0
 20
0.0
 30
0.0
210
0.0
220
0.0
230
1.0
  2
SOLID
 70
     1
 71
     0
 91
        1
 92
        3
 72
     0
 73
     1
 93
        4
 10
-0.6613722059461809
 20
10.7376736111111
 10
0.6613722059461809
 20
10.7376736111111
 10
0.6613722059461809
 20
-10.7376736111111
 10
-0.6613722059461809
 20
-10.7376736111111
 97
        0
 75
     2
 76
     1
 98
        1
 10
0.0
 20
0.0
  0
ENDBLK
  5
4C2
330
4BE
100
AcDbEntity
  8
0
100
AcDbBlockEnd
  0
BLOCK
  5
4C6
330
4C3
100
AcDbEntity
  8
0
 62
     7
100
AcDbBlockBegin
  2
AI9-BLK2
 70
     0
 10
0.0
 20
0.0
 30
0.0
  3
AI9-BLK2
  1

  0
LWPOLYLINE
  5
4C4
330
4C3
100
AcDbEntity
  8
LAYER_1
 62
     7
100
AcDbPolyline
 90
        7
 70
     1
 43
0.0
 10
-2.785704210069443
 20
10.7376736111111
 10
0.0
 20
-7.550960286458332
 10
2.771234809027776
 20
10.7376736111111
 10
4.233333333333331
 20
10.7376736111111
 10
0.6910861545138888
 20
-10.7376736111111
 10
-0.7055555555555558
 20
-10.7376736111111
 10
-4.233333333333331
 20
10.7376736111111
  0
HATCH
  5
4C5
330
4C3
100
AcDbEntity
  8
LAYER_1
 62
     7
100
AcDbHatch
 10
0.0
 20
0.0
 30
0.0
210
0.0
220
0.0
230
1.0
  2
SOLID
 70
     1
 71
     0
 91
        1
 92
        3
 72
     0
 73
     1
 93
        7
 10
-2.785704210069443
 20
10.7376736111111
 10
0.0
 20
-7.550960286458332
 10
2.771234809027776
 20
10.7376736111111
 10
4.233333333333331
 20
10.7376736111111
 10
0.6910861545138888
 20
-10.7376736111111
 10
-0.7055555555555558
 20
-10.7376736111111
 10
-4.233333333333331
 20
10.7376736111111
 97
        0
 75
     2
 76
     1
 98
        1
 10
0.0
 20
0.0
  0
ENDBLK
  5
4C7
330
4C3
100
AcDbEntity
  8
0
100
AcDbBlockEnd
  0
BLOCK
  5
4CB
330
4C8
100
AcDbEntity
  8
0
 62
     7
100
AcDbBlockBegin
  2
AI9-BLK1
 70
     0
 10
0.0
 20
0.0
 30
0.0
  3
AI9-BLK1
  1

  0
LWPOLYLINE
  5
4C9
330
4C8
100
AcDbEntity
  8
LAYER_1
 62
     7
100
AcDbPolyline
 90
       12
 70
     1
 43
0.0
 10
-3.571874999999999
 20
10.7376736111111
 10
3.483680555555555
 20
10.7376736111111
 10
3.483680555555555
 20
8.091840277777777
 10
-2.248958333333332
 20
8.091840277777777
 10
-2.248958333333332
 20
1.565451388888888
 10
3.042708333333333
 20
1.565451388888888
 10
3.042708333333333
 20
-0.9039930555555551
 10
-2.248958333333332
 20
-0.9039930555555551
 10
-2.248958333333332
 20
-8.180034722222217
 10
3.571874999999999
 20
-8.180034722222217
 10
3.571874999999999
 20
-10.7376736111111
 10
-3.571874999999999
 20
-10.7376736111111
  0
HATCH
  5
4CA
330
4C8
100
AcDbEntity
  8
LAYER_1
 62
     7
100
AcDbHatch
 10
0.0
 20
0.0
 30
0.0
210
0.0
220
0.0
230
1.0
  2
SOLID
 70
     1
 71
     0
 91
        1
 92
        3
 72
     0
 73
     1
 93
       12
 10
-3.571874999999999
 20
10.7376736111111
 10
3.483680555555555
 20
10.7376736111111
 10
3.483680555555555
 20
8.091840277777777
 10
-2.248958333333332
 20
8.091840277777777
 10
-2.248958333333332
 20
1.565451388888888
 10
3.042708333333333
 20
1.565451388888888
 10
3.042708333333333
 20
-0.9039930555555551
 10
-2.248958333333332
 20
-0.9039930555555551
 10
-2.248958333333332
 20
-8.180034722222217
 10
3.571874999999999
 20
-8.180034722222217
 10
3.571874999999999
 20
-10.7376736111111
 10
-3.571874999999999
 20
-10.7376736111111
 97
        0
 75
     2
 76
     1
 98
        1
 10
0.0
 20
0.0
  0
ENDBLK
  5
4CC
330
4C8
100
AcDbEntity
  8
0
100
AcDbBlockEnd
  0
BLOCK
  5
4F0
330
4CD
100
AcDbEntity
  8
0
100
AcDbBlockBegin
  2
HD_LLC_logo_OT5
 70
     0
 10
0.0
 20
0.0
 30
0.0
  3
HD_LLC_logo_OT5
  1

  0
SPLINE
  5
4CE
102
{ACAD_REACTORS
330
4EE
102
}
330
4CD
100
AcDbEntity
  8
LAYER_1
 62
     7
100
AcDbSpline
210
0.0
220
0.0
230
1.0
 70
    11
 71
     3
 72
   113
 73
   109
 74
     0
 42
0.0000000001
 43
0.0000000001
 40
0.0
 40
0.0
 40
0.0
 40
0.0
 40
1.0
 40
1.0
 40
1.0
 40
2.0
 40
2.0
 40
2.0
 40
3.0
 40
3.0
 40
3.0
 40
4.0
 40
4.0
 40
4.0
 40
5.0
 40
5.0
 40
5.0
 40
6.0
 40
6.0
 40
6.0
 40
7.0
 40
7.0
 40
7.0
 40
8.0
 40
8.0
 40
8.0
 40
9.0
 40
9.0
 40
9.0
 40
10.0
 40
10.0
 40
10.0
 40
11.0
 40
11.0
 40
11.0
 40
12.0
 40
12.0
 40
12.0
 40
13.0
 40
13.0
 40
13.0
 40
14.0
 40
14.0
 40
14.0
 40
15.0
 40
15.0
 40
15.0
 40
16.0
 40
16.0
 40
16.0
 40
17.0
 40
17.0
 40
17.0
 40
18.0
 40
18.0
 40
18.0
 40
19.0
 40
19.0
 40
19.0
 40
20.0
 40
20.0
 40
20.0
 40
21.0
 40
21.0
 40
21.0
 40
22.0
 40
22.0
 40
22.0
 40
23.0
 40
23.0
 40
23.0
 40
24.0
 40
24.0
 40
24.0
 40
25.0
 40
25.0
 40
25.0
 40
26.0
 40
26.0
 40
26.0
 40
27.0
 40
27.0
 40
27.0
 40
28.0
 40
28.0
 40
28.0
 40
29.0
 40
29.0
 40
29.0
 40
30.0
 40
30.0
 40
30.0
 40
31.0
 40
31.0
 40
31.0
 40
32.0
 40
32.0
 40
32.0
 40
33.0
 40
33.0
 40
33.0
 40
34.0
 40
34.0
 40
34.0
 40
35.0
 40
35.0
 40
35.0
 40
36.0
 40
36.0
 40
36.0
 40
36.0
 10
193.3039632161458
 20
186.1548733181423
 30
0.0
 10
193.3039632161458
 20
186.1860514322916
 30
0.0
 10
193.3039632161458
 20
219.6932223849826
 30
0.0
 10
193.3039632161458
 20
219.6932223849826
 30
0.0
 10
193.3039632161458
 20
219.6932223849826
 30
0.0
 10
193.2974175347219
 20
219.7488606770833
 30
0.0
 10
193.2974175347219
 20
219.7488606770833
 30
0.0
 10
191.5293945312499
 20
235.455740017361
 30
0.0
 10
175.1458984374999
 20
235.2467949761284
 30
0.0
 10
174.9808783637151
 20
235.2428331163193
 30
0.0
 10
174.9808783637151
 20
235.2428331163193
 30
0.0
 10
125.8827555338541
 20
235.2430053710937
 30
0.0
 10
125.8827555338541
 20
235.2430053710937
 30
0.0
 10
125.8827555338541
 20
235.2430053710937
 30
0.0
 10
125.8827555338541
 20
255.5278998480901
 30
0.0
 10
125.8827555338541
 20
255.5278998480901
 30
0.0
 10
125.8827555338541
 20
255.5278998480901
 30
0.0
 10
84.5626247829861
 20
255.5278998480901
 30
0.0
 10
84.5626247829861
 20
255.5278998480901
 30
0.0
 10
84.5626247829861
 20
255.5278998480901
 30
0.0
 10
84.55711263020829
 20
233.7919311523436
 30
0.0
 10
84.55711263020829
 20
233.7919311523436
 30
0.0
 10
84.55711263020829
 20
233.7919311523436
 30
0.0
 10
64.42052951388888
 20
233.7919311523436
 30
0.0
 10
64.42052951388888
 20
233.7919311523436
 30
0.0
 10
64.42052951388888
 20
233.7919311523436
 30
0.0
 10
64.41501736111111
 20
255.5278998480901
 30
0.0
 10
64.41501736111111
 20
255.5278998480901
 30
0.0
 10
64.41501736111111
 20
255.5278998480901
 30
0.0
 10
23.91757541232637
 20
255.5278998480901
 30
0.0
 10
23.91757541232637
 20
255.5278998480901
 30
0.0
 10
23.91757541232637
 20
255.5278998480901
 30
0.0
 10
23.91757541232637
 20
233.2393378363715
 30
0.0
 10
23.91757541232637
 20
233.2393378363715
 30
0.0
 10
23.91757541232637
 20
233.2393378363715
 30
0.0
 10
43.65624999999999
 20
233.2393378363715
 30
0.0
 10
43.65624999999999
 20
233.2393378363715
 30
0.0
 10
43.65624999999999
 20
233.2393378363715
 30
0.0
 10
43.65624999999999
 20
211.5188720703125
 30
0.0
 10
43.65624999999999
 20
211.5188720703125
 30
0.0
 10
43.65624999999999
 20
211.5188720703125
 30
0.0
 10
23.91757541232637
 20
211.5188720703125
 30
0.0
 10
23.91757541232637
 20
211.5188720703125
 30
0.0
 10
23.91757541232637
 20
211.5188720703125
 30
0.0
 10
23.91757541232637
 20
189.2303100585936
 30
0.0
 10
23.91757541232637
 20
189.2303100585936
 30
0.0
 10
23.91757541232637
 20
189.2303100585936
 30
0.0
 10
64.41501736111111
 20
189.2303100585936
 30
0.0
 10
64.41501736111111
 20
189.2303100585936
 30
0.0
 10
64.41501736111111
 20
189.2303100585936
 30
0.0
 10
64.42052951388888
 20
211.069976128472
 30
0.0
 10
64.42052951388888
 20
211.069976128472
 30
0.0
 10
64.42052951388888
 20
211.069976128472
 30
0.0
 10
84.55711263020829
 20
211.069976128472
 30
0.0
 10
84.55711263020829
 20
211.069976128472
 30
0.0
 10
84.55711263020829
 20
211.069976128472
 30
0.0
 10
84.5626247829861
 20
189.2303100585936
 30
0.0
 10
84.5626247829861
 20
189.2303100585936
 30
0.0
 10
84.5626247829861
 20
189.2303100585936
 30
0.0
 10
125.8827555338541
 20
189.2303100585936
 30
0.0
 10
125.8827555338541
 20
189.2303100585936
 30
0.0
 10
125.8827555338541
 20
189.2303100585936
 30
0.0
 10
125.8827555338541
 20
211.5188720703125
 30
0.0
 10
125.8827555338541
 20
211.5188720703125
 30
0.0
 10
125.8827555338541
 20
211.5188720703125
 30
0.0
 10
105.3213921440971
 20
211.5188720703125
 30
0.0
 10
105.3213921440971
 20
211.5188720703125
 30
0.0
 10
105.3213921440971
 20
211.5188720703125
 30
0.0
 10
105.3213921440971
 20
233.2393378363715
 30
0.0
 10
105.3213921440971
 20
233.2393378363715
 30
0.0
 10
105.3213921440971
 20
233.2393378363715
 30
0.0
 10
175.0046495225693
 20
233.243127441406
 30
0.0
 10
175.0046495225693
 20
233.243127441406
 30
0.0
 10
175.6268337673611
 20
233.2560465494791
 30
0.0
 10
189.7165852864583
 20
233.3962619357638
 30
0.0
 10
191.3037407769094
 20
219.5690266927083
 30
0.0
 10
191.3037407769094
 20
219.4332899305555
 30
0.0
 10
191.3037407769094
 20
186.1142211914062
 30
0.0
 10
191.3037407769094
 20
186.1142211914062
 30
0.0
 10
191.3037407769094
 20
186.1142211914062
 30
0.0
 10
191.3051188151039
 20
186.0880384657115
 30
0.0
 10
191.3051188151039
 20
186.0880384657115
 30
0.0
 10
191.3054633246526
 20
186.0787367078991
 30
0.0
 10
191.3109754774304
 20
185.9566080729166
 30
0.0
 10
191.3109754774304
 20
185.7399115668401
 30
0.0
 10
191.3109754774304
 20
184.2090833875865
 30
0.0
 10
191.0488037109374
 20
177.9643310546874
 30
0.0
 10
186.9866916232638
 20
173.5652886284722
 30
0.0
 10
184.2540418836804
 20
170.6064683702255
 30
0.0
 10
180.3224989149304
 20
169.0308539496526
 30
0.0
 10
175.300927734375
 20
168.8825425889756
 30
0.0
 10
175.300927734375
 20
168.8825425889756
 30
0.0
 10
107.0094889322916
 20
168.8828870985243
 30
0.0
 10
107.0094889322916
 20
168.8828870985243
 30
0.0
 10
107.0094889322916
 20
168.8828870985243
 30
0.0
 10
107.0094889322916
 20
166.8830091688368
 30
0.0
 10
107.0094889322916
 20
166.8830091688368
 30
0.0
 10
107.0094889322916
 20
166.8830091688368
 30
0.0
 10
175.3305555555555
 20
166.8830091688368
 30
0.0
 10
175.3305555555555
 20
166.8830091688368
 30
0.0
 10
180.9467502170138
 20
167.0485460069444
 30
0.0
 10
185.3571614583333
 20
168.8448187934026
 30
0.0
 10
188.4687717013888
 20
172.2223904079861
 30
0.0
 10
192.9649658203124
 20
177.1034016927083
 30
0.0
 10
193.3136094835069
 20
183.7202243381076
 30
0.0
 10
193.3136094835069
 20
185.6520616319443
 30
0.0
 10
193.3136094835069
 20
185.9247409396701
 30
0.0
 10
193.3070638020833
 20
186.0868326822916
 30
0.0
 10
193.3039632161458
 20
186.1548733181423
 30
0.0
  0
INSERT
  5
4CF
102
{ACAD_REACTORS
330
4EF
102
}
330
4CD
100
AcDbEntity
  8
LAYER_1
 62
     7
100
AcDbBlockReference
  2
AI9-BLK14
 10
159.5625257703993
 20
200.5118781195744
 30
0.0
  0
INSERT
  5
4D0
330
4CD
100
AcDbEntity
  8
LAYER_1
 62
     7
100
AcDbBlockReference
  2
AI9-BLK13
 10
27.69615614149305
 20
179.2145562065971
 30
0.0
 42
0.9200000000000001
  0
INSERT
  5
4D1
102
{ACAD_REACTORS
330
4DC
102
}
330
4CD
100
AcDbEntity
  8
LAYER_1
 62
     7
100
AcDbBlockReference
  2
AI9-BLK11
 10
44.76591525607638
 20
179.2145562065971
 30
0.0
 42
0.9200000000000001
  0
INSERT
  5
4D2
102
{ACAD_REACTORS
330
4EA
102
}
330
4CD
100
AcDbEntity
  8
LAYER_1
 62
     7
100
AcDbBlockReference
  2
AI9-BLK10
 10
54.04665798611111
 20
179.2145562065971
 30
0.0
 42
0.9200000000000001
  0
INSERT
  5
4D3
102
{ACAD_REACTORS
330
4E9
102
}
330
4CD
100
AcDbEntity
  8
LAYER_1
 62
     7
100
AcDbBlockReference
  2
AI9-BLK9
 10
62.79013807508679
 20
179.2145562065971
 30
0.0
 42
0.9
  0
INSERT
  5
4D4
330
4CD
100
AcDbEntity
  8
LAYER_1
 62
     7
100
AcDbBlockReference
  2
AI9-BLK8
 10
71.03046196831595
 20
179.2145562065971
 30
0.0
 42
0.9200000000000001
  0
INSERT
  5
4D5
330
4CD
100
AcDbEntity
  8
LAYER_1
 62
     7
100
AcDbBlockReference
  2
AI9-BLK7
 10
76.93793945312498
 20
179.2145562065971
 30
0.0
 42
0.9200000000000001
  0
INSERT
  5
4D6
102
{ACAD_REACTORS
330
4DD
102
}
330
4CD
100
AcDbEntity
  8
LAYER_1
 62
     7
100
AcDbBlockReference
  2
AI9-BLK6
 10
82.55602891710069
 20
179.2145562065971
 30
0.0
 42
0.9
  0
INSERT
  5
4D7
102
{ACAD_REACTORS
330
4EB
102
}
330
4CD
100
AcDbEntity
  8
LAYER_1
 62
     7
100
AcDbBlockReference
  2
AI9-BLK5
 10
94.32430284288193
 20
179.2145562065971
 30
0.0
 42
0.9200000000000001
  0
INSERT
  5
4D8
102
{ACAD_REACTORS
330
4EC
102
}
330
4CD
100
AcDbEntity
  8
LAYER_1
 62
     7
100
AcDbBlockReference
  2
AI9-BLK4
 10
103.2081705729166
 20
179.2145562065971
 30
0.0
 42
0.9200000000000001
  0
INSERT
  5
4D9
330
4CD
100
AcDbEntity
  8
LAYER_1
 62
     7
100
AcDbBlockReference
  2
AI9-BLK3
 10
108.850978597005
 20
179.2145562065971
 30
0.0
 42
0.9200000000000001
  0
INSERT
  5
4DA
330
4CD
100
AcDbEntity
  8
LAYER_1
 62
     7
100
AcDbBlockReference
  2
AI9-BLK2
 10
114.2045708550346
 20
179.2145562065971
 30
0.0
 42
0.9200000000000001
  0
INSERT
  5
4DB
330
4CD
100
AcDbEntity
  8
LAYER_1
 62
     7
100
AcDbBlockReference
  2
AI9-BLK1
 10
122.4125108506944
 20
179.2145562065971
 30
0.0
 42
0.9200000000000001
  0
HATCH
  5
4DC
330
4CD
100
AcDbEntity
  8
0
  6
Continuous
100
AcDbHatch
 10
0.0
 20
0.0
 30
0.0
210
0.0
220
0.0
230
1.0
  2
SOLID
 70
     1
 71
     1
 91
        2
 92
       16
 93
        1
 72
     4
 94
        3
 73
     0
 74
     0
 95
       26
 96
       22
 40
0.0
 40
0.0
 40
0.0
 40
0.0
 40
1.0
 40
1.0
 40
1.0
 40
2.0
 40
2.0
 40
2.0
 40
3.0
 40
3.0
 40
3.0
 40
4.0
 40
4.0
 40
4.0
 40
5.0
 40
5.0
 40
5.0
 40
6.0
 40
6.0
 40
6.0
 40
7.0
 40
7.0
 40
7.0
 40
7.0
 10
42.12008192274304
 20
180.046229817708
 10
42.12008192274304
 20
180.046229817708
 10
42.12008192274304
 20
186.7401881510414
 10
42.12008192274304
 20
186.7401881510414
 10
42.12008192274304
 20
186.7401881510414
 10
45.23100314670138
 20
186.7401881510414
 10
45.23100314670138
 20
186.7401881510414
 10
45.66853027343749
 20
186.7401881510414
 10
46.01579589843749
 20
186.6064357638887
 10
46.27280002170138
 20
186.3401987847216
 10
46.76751573350694
 20
185.8330807291664
 10
47.01487358940972
 20
184.8822343749995
 10
47.01487358940972
 20
183.4863919270832
 10
47.01487358940972
 20
182.188169704861
 10
46.83848470052082
 20
181.2905707465276
 10
46.48639594184028
 20
180.7929611545137
 10
46.13430718315971
 20
180.2947176649304
 10
45.65888400607638
 20
180.046229817708
 10
45.06012641059028
 20
180.046229817708
 10
45.06012641059028
 20
180.046229817708
 10
42.12008192274304
 20
180.046229817708
 10
42.12008192274304
 20
180.046229817708
 97
        1
330
4D1
 92
        1
 93
        1
 72
     4
 94
        3
 73
     0
 74
     0
 95
       68
 96
       64
 40
0.0
 40
0.0
 40
0.0
 40
0.0
 40
1.0
 40
1.0
 40
1.0
 40
2.0
 40
2.0
 40
2.0
 40
3.0
 40
3.0
 40
3.0
 40
4.0
 40
4.0
 40
4.0
 40
5.0
 40
5.0
 40
5.0
 40
6.0
 40
6.0
 40
6.0
 40
7.0
 40
7.0
 40
7.0
 40
8.0
 40
8.0
 40
8.0
 40
9.0
 40
9.0
 40
9.0
 40
10.0
 40
10.0
 40
10.0
 40
11.0
 40
11.0
 40
11.0
 40
12.0
 40
12.0
 40
12.0
 40
13.0
 40
13.0
 40
13.0
 40
14.0
 40
14.0
 40
14.0
 40
15.0
 40
15.0
 40
15.0
 40
16.0
 40
16.0
 40
16.0
 40
17.0
 40
17.0
 40
17.0
 40
18.0
 40
18.0
 40
18.0
 40
19.0
 40
19.0
 40
19.0
 40
20.0
 40
20.0
 40
20.0
 40
21.0
 40
21.0
 40
21.0
 40
21.0
 10
40.79716525607638
 20
169.3358964843748
 10
40.79716525607638
 20
169.3358964843748
 10
42.12008192274304
 20
169.3358964843748
 10
42.12008192274304
 20
169.3358964843748
 10
42.12008192274304
 20
169.3358964843748
 10
42.12008192274304
 20
177.8149103732637
 10
42.12008192274304
 20
177.8149103732637
 10
42.12008192274304
 20
177.8149103732637
 10
45.00500488281249
 20
177.8149103732637
 10
45.00500488281249
 20
177.8149103732637
 10
45.52590332031249
 20
177.8149103732637
 10
45.90968695746528
 20
177.6938359374998
 10
46.15635579427083
 20
177.4516870659717
 10
46.58216959635415
 20
177.0117621527776
 10
46.80954589843749
 20
176.1458580729164
 10
46.83848470052082
 20
174.8539748263887
 10
46.83848470052082
 20
174.8539748263887
 10
46.92667914496527
 20
171.5564396701385
 10
46.92667914496527
 20
171.5564396701385
 10
46.94597167968749
 20
170.7843524305554
 10
46.96870930989581
 20
170.2639225260415
 10
46.99351399739582
 20
169.9951499565971
 10
47.01831868489581
 20
169.725743489583
 10
47.0548366970486
 20
169.5057810329859
 10
47.10444607204859
 20
169.3358964843748
 10
47.10444607204859
 20
169.3358964843748
 10
48.73466525607638
 20
169.3358964843748
 10
48.73466525607638
 20
169.3358964843748
 10
48.73466525607638
 20
169.3358964843748
 10
48.73466525607638
 20
169.7821603732633
 10
48.73466525607638
 20
169.7821603732633
 10
48.53278266059028
 20
169.9609194878471
 10
48.39153374565971
 20
170.3628105468748
 10
48.31160753038194
 20
170.9878335503471
 10
48.26062011718749
 20
171.3542263454858
 10
48.22548014322915
 20
171.9120562065971
 10
48.20549858940971
 20
172.6625909288193
 10
48.20549858940971
 20
172.6625909288193
 10
48.16140136718749
 20
175.3205234374999
 10
48.16140136718749
 20
175.3205234374999
 10
48.14141981336803
 20
176.4716814236109
 10
48.03462185329859
 20
177.3033550347219
 10
47.84169650607638
 20
177.814276475694
 10
47.64808213975693
 20
178.3251979166665
 10
47.35800509982638
 20
178.7372313368054
 10
46.97077636718749
 20
179.0516445312498
 10
47.4021023220486
 20
179.5086846788193
 10
47.73765462239582
 20
180.1134229600693
 10
47.97743326822915
 20
180.866493272569
 10
48.21721191406249
 20
181.6189296874999
 10
48.33779025607638
 20
182.5868912760411
 10
48.33779025607638
 20
183.7697441406248
 10
48.33779025607638
 20
186.0371957465273
 10
47.89061686197913
 20
187.5921464843749
 10
46.99695909288194
 20
188.4345963541665
 10
46.52567003038194
 20
188.8732534722221
 10
45.92966851128472
 20
189.0932159288193
 10
45.20895453559027
 20
189.0932159288193
 10
45.20895453559027
 20
189.0932159288193
 10
40.79716525607638
 20
189.0932159288193
 10
40.79716525607638
 20
189.0932159288193
 10
40.79716525607638
 20
189.0932159288193
 10
40.79716525607638
 20
169.3358964843748
 10
40.79716525607638
 20
169.3358964843748
 97
        0
 75
     0
 76
     1
 98
        0
  0
HATCH
  5
4DD
330
4CD
100
AcDbEntity
  8
0
  6
Continuous
100
AcDbHatch
 10
0.0
 20
0.0
 30
0.0
210
0.0
220
0.0
230
1.0
  2
SOLID
 70
     1
 71
     1
 91
        1
 92
        1
 93
        1
 72
     4
 94
        3
 73
     0
 74
     0
 95
       59
 96
       55
 40
0.0
 40
0.0
 40
0.0
 40
0.0
 40
1.0
 40
1.0
 40
1.0
 40
2.0
 40
2.0
 40
2.0
 40
3.0
 40
3.0
 40
3.0
 40
4.0
 40
4.0
 40
4.0
 40
5.0
 40
5.0
 40
5.0
 40
6.0
 40
6.0
 40
6.0
 40
7.0
 40
7.0
 40
7.0
 40
8.0
 40
8.0
 40
8.0
 40
9.0
 40
9.0
 40
9.0
 40
10.0
 40
10.0
 40
10.0
 40
11.0
 40
11.0
 40
11.0
 40
12.0
 40
12.0
 40
12.0
 40
13.0
 40
13.0
 40
13.0
 40
14.0
 40
14.0
 40
14.0
 40
15.0
 40
15.0
 40
15.0
 40
16.0
 40
16.0
 40
16.0
 40
17.0
 40
17.0
 40
17.0
 40
18.0
 40
18.0
 40
18.0
 40
18.0
 10
85.61871880425345
 20
187.4658355034721
 10
86.29120144314232
 20
186.1797124565971
 10
86.66671685112847
 20
184.7193364800346
 10
86.7452650282118
 20
183.0840874565969
 10
86.7452650282118
 20
183.0840874565969
 10
85.42234836154511
 20
183.0840874565969
 10
85.42234836154511
 20
183.0840874565969
 10
85.27696533203123
 20
184.3156401909719
 10
84.99171142578125
 20
185.2917046440971
 10
84.56589762369791
 20
186.0122808159719
 10
84.14008382161458
 20
186.7322368706594
 10
83.53994818793401
 20
187.0925249565969
 10
82.76617974175342
 20
187.0925249565969
 10
81.81740044487847
 20
187.0925249565969
 10
81.05258924696178
 20
186.4240386284721
 10
80.47243516710068
 20
185.0883062065971
 10
79.89159206814234
 20
183.7525737847219
 10
79.6015150282118
 20
181.7049468315971
 10
79.6015150282118
 20
178.9454253472221
 10
79.6015150282118
 20
176.6844780815969
 10
79.86265326605901
 20
174.8514116753471
 10
80.38561876085069
 20
173.4456060112846
 10
80.90789523654512
 20
172.0391802300344
 10
81.69199896918403
 20
171.3365874565971
 10
82.73724093967013
 20
171.3365874565971
 10
83.69497748480901
 20
171.3365874565971
 10
84.42120361328125
 20
172.0794878472221
 10
84.91523030598958
 20
173.5665288628469
 10
85.18601481119791
 20
174.3491167534719
 10
85.38445231119791
 20
175.3785112847221
 10
85.51054280598959
 20
176.6547124565971
 10
85.51054280598959
 20
176.6547124565971
 10
86.83345947265625
 20
176.6547124565971
 10
86.83345947265625
 20
176.6547124565971
 10
86.72597249348957
 20
174.6157671440971
 10
86.35114610460069
 20
172.9061040581596
 10
85.70760226779514
 20
171.526343315972
 10
84.93727891710069
 20
169.8650493706596
 10
83.90375027126735
 20
169.0347124565971
 10
82.60701633029514
 20
169.0347124565971
 10
81.48598225911458
 20
169.0347124565971
 10
80.54547119140625
 20
169.7143608940971
 10
79.78479410807292
 20
171.0742778862845
 10
78.78020426432292
 20
172.8726177300344
 10
78.27859836154512
 20
175.6495024956596
 10
78.27859836154512
 20
179.4049321831594
 10
78.27859836154512
 20
182.2562310112846
 10
78.65342475043402
 20
184.5946929253469
 10
79.40445556640622
 20
186.4196978081596
 10
80.22301025390625
 20
188.4028325737846
 10
81.34955647786458
 20
189.3943999565971
 10
82.78271620008679
 20
189.3943999565971
 10
84.00090196397568
 20
189.3943999565971
 10
84.94623616536458
 20
188.7513384331594
 10
85.61871880425345
 20
187.4658355034721
 97
        1
330
4D6
 75
     0
 76
     1
 98
        1
 10
0.0
 20
0.0
  0
LINE
  5
4DE
102
{ACAD_REACTORS
330
4ED
102
}
330
4CD
100
AcDbEntity
  8
LAYER_1
 62
     7
100
AcDbLine
 10
34.65766059027778
 20
177.4497853732638
 30
0.0
 11
36.19830729166666
 21
186.1658769531249
 31
0.0
  0
LINE
  5
4DF
102
{ACAD_REACTORS
330
4ED
102
}
330
4CD
100
AcDbEntity
  8
LAYER_1
 62
     7
100
AcDbLine
 10
36.19830729166666
 20
186.1658769531249
 30
0.0
 11
37.67556423611111
 21
177.4497853732638
 31
0.0
  0
LINE
  5
4E0
102
{ACAD_REACTORS
330
4ED
102
}
330
4CD
100
AcDbEntity
  8
LAYER_1
 62
     7
100
AcDbLine
 10
37.67556423611111
 20
177.4497853732638
 30
0.0
 11
34.65766059027778
 21
177.4497853732638
 31
0.0
  0
LINE
  5
4E1
102
{ACAD_REACTORS
330
4ED
102
}
330
4CD
100
AcDbEntity
  8
LAYER_1
 62
     7
100
AcDbLine
 10
31.83957248263888
 20
169.3358964843748
 30
0.0
 11
33.22450086805555
 21
169.3358964843748
 31
0.0
  0
LINE
  5
4E2
102
{ACAD_REACTORS
330
4ED
102
}
330
4CD
100
AcDbEntity
  8
LAYER_1
 62
     7
100
AcDbLine
 10
33.22450086805555
 20
169.3358964843748
 30
0.0
 11
34.27043185763887
 21
175.2590353732638
 31
0.0
  0
LINE
  5
4E3
102
{ACAD_REACTORS
330
4ED
102
}
330
4CD
100
AcDbEntity
  8
LAYER_1
 62
     7
100
AcDbLine
 10
34.27043185763887
 20
175.2590353732638
 30
0.0
 11
38.04694552951389
 21
175.2590353732638
 31
0.0
  0
LINE
  5
4E4
102
{ACAD_REACTORS
330
4ED
102
}
330
4CD
100
AcDbEntity
  8
LAYER_1
 62
     7
100
AcDbLine
 10
38.04694552951389
 20
175.2590353732638
 30
0.0
 11
39.05015733506942
 21
169.3358964843748
 31
0.0
  0
LINE
  5
4E5
102
{ACAD_REACTORS
330
4ED
102
}
330
4CD
100
AcDbEntity
  8
LAYER_1
 62
     7
100
AcDbLine
 10
39.05015733506942
 20
169.3358964843748
 30
0.0
 11
40.43508572048611
 21
169.3358964843748
 31
0.0
  0
LINE
  5
4E6
102
{ACAD_REACTORS
330
4ED
102
}
330
4CD
100
AcDbEntity
  8
LAYER_1
 62
     7
100
AcDbLine
 10
40.43508572048611
 20
169.3358964843748
 30
0.0
 11
36.952783203125
 21
189.0932159288193
 31
0.0
  0
LINE
  5
4E7
102
{ACAD_REACTORS
330
4ED
102
}
330
4CD
100
AcDbEntity
  8
LAYER_1
 62
     7
100
AcDbLine
 10
36.952783203125
 20
189.0932159288193
 30
0.0
 11
35.47828233506943
 21
189.0932159288193
 31
0.0
  0
LINE
  5
4E8
102
{ACAD_REACTORS
330
4ED
102
}
330
4CD
100
AcDbEntity
  8
LAYER_1
 62
     7
100
AcDbLine
 10
35.47828233506943
 20
189.0932159288193
 30
0.0
 11
31.83957248263888
 21
169.3358964843748
 31
0.0
  0
HATCH
  5
4E9
330
4CD
100
AcDbEntity
  8
0
  6
Continuous
100
AcDbHatch
 10
0.0
 20
0.0
 30
0.0
210
0.0
220
0.0
230
1.0
  2
SOLID
 70
     1
 71
     1
 91
        2
 92
       16
 93
        1
 72
     4
 94
        3
 73
     0
 74
     0
 95
       29
 96
       25
 40
0.0
 40
0.0
 40
0.0
 40
0.0
 40
1.0
 40
1.0
 40
1.0
 40
2.0
 40
2.0
 40
2.0
 40
3.0
 40
3.0
 40
3.0
 40
4.0
 40
4.0
 40
4.0
 40
5.0
 40
5.0
 40
5.0
 40
6.0
 40
6.0
 40
6.0
 40
7.0
 40
7.0
 40
7.0
 40
8.0
 40
8.0
 40
8.0
 40
8.0
 10
62.85697292751734
 20
171.3365874565971
 10
61.88338894314235
 20
171.3365874565971
 10
61.18058946397566
 20
172.0714263237844
 10
60.74857449001735
 20
173.5411040581594
 10
60.31587049696178
 20
175.0107817925344
 10
60.10020751953123
 20
176.8165630425341
 10
60.10020751953123
 20
178.9578276909721
 10
60.10020751953123
 20
181.6342534722221
 10
60.35101047092013
 20
183.6589360894094
 10
60.85261637369789
 20
185.0324956597219
 10
61.35422227647566
 20
186.4054351128471
 10
62.00741238064235
 20
187.0925249565969
 10
62.81218668619789
 20
187.0925249565969
 10
63.6369425455729
 20
187.0925249565969
 10
64.28806559244789
 20
186.3992339409721
 10
64.76486680772568
 20
185.0126519097221
 10
65.24166802300347
 20
183.6260698784719
 10
65.48006863064235
 20
181.7961040581594
 10
65.48006863064235
 20
179.5239946831596
 10
65.48006863064235
 20
177.3734282769096
 10
65.27336290147568
 20
175.4715288628467
 10
64.86132948133678
 20
173.8176763237846
 10
64.4492960611979
 20
172.1632036675344
 10
63.78094753689235
 20
171.3365874565971
 10
62.85697292751734
 20
171.3365874565971
 97
        1
330
4D3
 92
        1
 93
        1
 72
     4
 94
        3
 73
     0
 74
     0
 95
       29
 96
       25
 40
0.0
 40
0.0
 40
0.0
 40
0.0
 40
1.0
 40
1.0
 40
1.0
 40
2.0
 40
2.0
 40
2.0
 40
3.0
 40
3.0
 40
3.0
 40
4.0
 40
4.0
 40
4.0
 40
5.0
 40
5.0
 40
5.0
 40
6.0
 40
6.0
 40
6.0
 40
7.0
 40
7.0
 40
7.0
 40
8.0
 40
8.0
 40
8.0
 40
8.0
 10
62.76119927300346
 20
189.4340874565971
 10
61.47273356119789
 20
189.4340874565971
 10
60.50121663411457
 20
188.2397417534719
 10
59.84733751085068
 20
185.8516704644094
 10
59.3395304361979
 20
183.9900786675344
 10
59.08597140842012
 20
181.7514556206596
 10
59.08597140842012
 20
179.1351812065971
 10
59.08597140842012
 20
176.2379937065971
 10
59.3836276584201
 20
173.8412407769094
 10
59.9789401584201
 20
171.9449224175346
 10
60.6424655490451
 20
169.9779106987846
 10
61.5602389865451
 20
168.9950249565971
 10
62.7315714518229
 20
168.9950249565971
 10
63.9904093424479
 20
168.9950249565971
 10
64.95641411675345
 20
170.1186773003469
 10
65.63027479383679
 20
172.3659819878471
 10
66.20629475911457
 20
174.2796636284719
 10
66.49430474175345
 20
176.6813774956591
 10
66.49430474175345
 20
179.5698833550344
 10
66.49430474175345
 20
182.2388677300341
 10
66.24005669487845
 20
184.4291216362844
 10
65.73293863932289
 20
186.1412651909719
 10
65.08870578342011
 20
188.3364800347219
 10
64.09789632161457
 20
189.4340874565971
 10
62.76119927300346
 20
189.4340874565971
 97
        0
 75
     0
 76
     1
 98
        0
  0
HATCH
  5
4EA
330
4CD
100
AcDbEntity
  8
0
  6
Continuous
100
AcDbHatch
 10
0.0
 20
0.0
 30
0.0
210
0.0
220
0.0
230
1.0
  2
SOLID
 70
     1
 71
     1
 91
        1
 92
        1
 93
        1
 72
     4
 94
        3
 73
     0
 74
     0
 95
       59
 96
       55
 40
0.0
 40
0.0
 40
0.0
 40
0.0
 40
1.0
 40
1.0
 40
1.0
 40
2.0
 40
2.0
 40
2.0
 40
3.0
 40
3.0
 40
3.0
 40
4.0
 40
4.0
 40
4.0
 40
5.0
 40
5.0
 40
5.0
 40
6.0
 40
6.0
 40
6.0
 40
7.0
 40
7.0
 40
7.0
 40
8.0
 40
8.0
 40
8.0
 40
9.0
 40
9.0
 40
9.0
 40
10.0
 40
10.0
 40
10.0
 40
11.0
 40
11.0
 40
11.0
 40
12.0
 40
12.0
 40
12.0
 40
13.0
 40
13.0
 40
13.0
 40
14.0
 40
14.0
 40
14.0
 40
15.0
 40
15.0
 40
15.0
 40
16.0
 40
16.0
 40
16.0
 40
17.0
 40
17.0
 40
17.0
 40
18.0
 40
18.0
 40
18.0
 40
18.0
 10
49.39440104166666
 20
189.0932159288193
 10
49.39440104166666
 20
189.0932159288193
 10
51.24786241319444
 20
189.0932159288193
 10
51.24786241319444
 20
189.0932159288193
 10
51.24786241319444
 20
189.0932159288193
 10
54.04665798611111
 20
172.3887471788193
 10
54.04665798611111
 20
172.3887471788193
 10
54.04665798611111
 20
172.3887471788193
 10
56.83994140624999
 20
189.0932159288193
 10
56.83994140624999
 20
189.0932159288193
 10
56.83994140624999
 20
189.0932159288193
 10
58.69891493055553
 20
189.0932159288193
 10
58.69891493055553
 20
189.0932159288193
 10
58.69891493055553
 20
189.0932159288193
 10
58.69891493055553
 20
169.3358964843748
 10
58.69891493055553
 20
169.3358964843748
 10
58.69891493055553
 20
169.3358964843748
 10
57.46419270833333
 20
169.3358964843748
 10
57.46419270833333
 20
169.3358964843748
 10
57.46419270833333
 20
169.3358964843748
 10
57.46419270833333
 20
180.9964422743054
 10
57.46419270833333
 20
180.9964422743054
 10
57.46419270833333
 20
181.3996011284721
 10
57.47108289930555
 20
182.0677291666664
 10
57.48624131944444
 20
183.0001924913193
 10
57.50071072048609
 20
183.9326558159721
 10
57.50828993055553
 20
184.932312282986
 10
57.50828993055553
 20
185.9997957899304
 10
57.50828993055553
 20
185.9997957899304
 10
54.700537109375
 20
169.3358964843748
 10
54.700537109375
 20
169.3358964843748
 10
54.700537109375
 20
169.3358964843748
 10
53.38382161458333
 20
169.3358964843748
 10
53.38382161458333
 20
169.3358964843748
 10
53.38382161458333
 20
169.3358964843748
 10
50.58502604166665
 20
185.9997957899304
 10
50.58502604166665
 20
185.9997957899304
 10
50.58502604166665
 20
185.9997957899304
 10
50.58502604166665
 20
185.3944236111109
 10
50.58502604166665
 20
185.3944236111109
 10
50.58502604166665
 20
184.9101258680554
 10
50.59191623263888
 20
184.1729029947915
 10
50.60707465277777
 20
183.1821210937498
 10
50.62154405381942
 20
182.1913391927082
 10
50.62912326388889
 20
181.4629908854165
 10
50.62912326388889
 20
180.9964422743054
 10
50.62912326388889
 20
180.9964422743054
 10
50.62912326388889
 20
169.3358964843748
 10
50.62912326388889
 20
169.3358964843748
 10
50.62912326388889
 20
169.3358964843748
 10
49.39440104166666
 20
169.3358964843748
 10
49.39440104166666
 20
169.3358964843748
 10
49.39440104166666
 20
169.3358964843748
 10
49.39440104166666
 20
189.0932159288193
 10
49.39440104166666
 20
189.0932159288193
 97
        1
330
4D2
 75
     0
 76
     1
 98
        1
 10
0.0
 20
0.0
  0
HATCH
  5
4EB
330
4CD
100
AcDbEntity
  8
0
  6
Continuous
100
AcDbHatch
 10
0.0
 20
0.0
 30
0.0
210
0.0
220
0.0
230
1.0
  2
SOLID
 70
     1
 71
     1
 91
        2
 92
       16
 93
        1
 72
     4
 94
        3
 73
     0
 74
     0
 95
       32
 96
       28
 40
0.0
 40
0.0
 40
0.0
 40
0.0
 40
1.0
 40
1.0
 40
1.0
 40
2.0
 40
2.0
 40
2.0
 40
3.0
 40
3.0
 40
3.0
 40
4.0
 40
4.0
 40
4.0
 40
5.0
 40
5.0
 40
5.0
 40
6.0
 40
6.0
 40
6.0
 40
7.0
 40
7.0
 40
7.0
 40
8.0
 40
8.0
 40
8.0
 40
9.0
 40
9.0
 40
9.0
 40
9.0
 10
91.70051812065969
 20
171.6077853732634
 10
91.70051812065969
 20
171.6077853732634
 10
91.70051812065969
 20
186.7401881510414
 10
91.70051812065969
 20
186.7401881510414
 10
91.70051812065969
 20
186.7401881510414
 10
93.98668348524305
 20
186.7401881510414
 10
93.98668348524305
 20
186.7401881510414
 10
95.02159016927082
 20
186.7401881510414
 10
95.77331000434028
 20
186.0644533420137
 10
96.24322102864582
 20
184.7142515190969
 10
96.71313205295138
 20
183.3640496961804
 10
96.94808756510417
 20
181.4680620659721
 10
96.94808756510417
 20
179.0262886284719
 10
96.94808756510417
 20
178.3911232638887
 10
96.91432562934028
 20
177.7027105034721
 10
96.84749077690971
 20
176.9604164496524
 10
96.7324245876736
 20
175.7167094184024
 10
96.55052354600693
 20
174.6974021267359
 10
96.30109863281248
 20
173.901860677083
 10
95.98414984809028
 20
172.9091770833332
 10
95.57693956163193
 20
172.2378795572914
 10
95.07877875434026
 20
171.8892358940971
 10
94.79076877170138
 20
171.7016022135415
 10
94.43178982204859
 20
171.6077853732634
 10
94.00115288628471
 20
171.6077853732634
 10
94.00115288628471
 20
171.6077853732634
 10
91.70051812065969
 20
171.6077853732634
 10
91.70051812065969
 20
171.6077853732634
 97
        1
330
4D7
 92
        1
 93
        1
 72
     4
 94
        3
 73
     0
 74
     0
 95
       26
 96
       22
 40
0.0
 40
0.0
 40
0.0
 40
0.0
 40
1.0
 40
1.0
 40
1.0
 40
2.0
 40
2.0
 40
2.0
 40
3.0
 40
3.0
 40
3.0
 40
4.0
 40
4.0
 40
4.0
 40
5.0
 40
5.0
 40
5.0
 40
6.0
 40
6.0
 40
6.0
 40
7.0
 40
7.0
 40
7.0
 40
7.0
 10
90.37760145399305
 20
169.3358964843748
 10
90.37760145399305
 20
169.3358964843748
 10
94.22990722656248
 20
169.3358964843748
 10
94.22990722656248
 20
169.3358964843748
 10
95.87115071614581
 20
169.3358964843748
 10
97.03008083767359
 20
170.8331625434026
 10
97.70600857204859
 20
173.8283285590274
 10
98.08221299913194
 20
175.5227367621523
 10
98.27100423177082
 20
177.4187243923609
 10
98.27100423177082
 20
179.5169253472221
 10
98.27100423177082
 20
182.233810329861
 10
97.94716525607638
 20
184.4619602864582
 10
97.30086534288195
 20
186.2013752170135
 10
96.57601725260416
 20
188.1290577256939
 10
95.5576470269097
 20
189.0932159288193
 10
94.24437662760416
 20
189.0932159288193
 10
94.24437662760416
 20
189.0932159288193
 10
90.37760145399305
 20
189.0932159288193
 10
90.37760145399305
 20
189.0932159288193
 10
90.37760145399305
 20
189.0932159288193
 10
90.37760145399305
 20
169.3358964843748
 10
90.37760145399305
 20
169.3358964843748
 97
        0
 75
     0
 76
     1
 98
        0
  0
HATCH
  5
4EC
330
4CD
100
AcDbEntity
  8
0
  6
Continuous
100
AcDbHatch
 10
0.0
 20
0.0
 30
0.0
210
0.0
220
0.0
230
1.0
  2
SOLID
 70
     1
 71
     1
 91
        2
 92
       16
 93
        1
 72
     4
 94
        3
 73
     0
 74
     0
 95
       26
 96
       22
 40
0.0
 40
0.0
 40
0.0
 40
0.0
 40
1.0
 40
1.0
 40
1.0
 40
2.0
 40
2.0
 40
2.0
 40
3.0
 40
3.0
 40
3.0
 40
4.0
 40
4.0
 40
4.0
 40
5.0
 40
5.0
 40
5.0
 40
6.0
 40
6.0
 40
6.0
 40
7.0
 40
7.0
 40
7.0
 40
7.0
 10
100.5623372395832
 20
180.046229817708
 10
100.5623372395832
 20
180.046229817708
 10
100.5623372395832
 20
186.7401881510414
 10
100.5623372395832
 20
186.7401881510414
 10
100.5623372395832
 20
186.7401881510414
 10
103.6732584635416
 20
186.7401881510414
 10
103.6732584635416
 20
186.7401881510414
 10
104.1107855902777
 20
186.7401881510414
 10
104.4580512152777
 20
186.6064357638887
 10
104.7150553385415
 20
186.3401987847216
 10
105.2097710503471
 20
185.8330807291664
 10
105.4571289062495
 20
184.8822343749995
 10
105.4571289062495
 20
183.4863919270832
 10
105.4571289062495
 20
182.188169704861
 10
105.280740017361
 20
181.2905707465276
 10
104.9286512586804
 20
180.7929611545137
 10
104.5765624999999
 20
180.2947176649304
 10
104.1011393229166
 20
180.046229817708
 10
103.5023817274304
 20
180.046229817708
 10
103.5023817274304
 20
180.046229817708
 10
100.5623372395832
 20
180.046229817708
 10
100.5623372395832
 20
180.046229817708
 97
        1
330
4D8
 92
        1
 93
        1
 72
     4
 94
        3
 73
     0
 74
     0
 95
       68
 96
       64
 40
0.0
 40
0.0
 40
0.0
 40
0.0
 40
1.0
 40
1.0
 40
1.0
 40
2.0
 40
2.0
 40
2.0
 40
3.0
 40
3.0
 40
3.0
 40
4.0
 40
4.0
 40
4.0
 40
5.0
 40
5.0
 40
5.0
 40
6.0
 40
6.0
 40
6.0
 40
7.0
 40
7.0
 40
7.0
 40
8.0
 40
8.0
 40
8.0
 40
9.0
 40
9.0
 40
9.0
 40
10.0
 40
10.0
 40
10.0
 40
11.0
 40
11.0
 40
11.0
 40
12.0
 40
12.0
 40
12.0
 40
13.0
 40
13.0
 40
13.0
 40
14.0
 40
14.0
 40
14.0
 40
15.0
 40
15.0
 40
15.0
 40
16.0
 40
16.0
 40
16.0
 40
17.0
 40
17.0
 40
17.0
 40
18.0
 40
18.0
 40
18.0
 40
19.0
 40
19.0
 40
19.0
 40
20.0
 40
20.0
 40
20.0
 40
21.0
 40
21.0
 40
21.0
 40
21.0
 10
99.23942057291661
 20
169.3358964843748
 10
99.23942057291661
 20
169.3358964843748
 10
100.5623372395832
 20
169.3358964843748
 10
100.5623372395832
 20
169.3358964843748
 10
100.5623372395832
 20
169.3358964843748
 10
100.5623372395832
 20
177.8149103732637
 10
100.5623372395832
 20
177.8149103732637
 10
100.5623372395832
 20
177.8149103732637
 10
103.4472601996527
 20
177.8149103732637
 10
103.4472601996527
 20
177.8149103732637
 10
103.9681586371527
 20
177.8149103732637
 10
104.3519422743053
 20
177.6938359374998
 10
104.5986111111109
 20
177.4516870659717
 10
105.0244249131943
 20
177.0117621527776
 10
105.2518012152777
 20
176.1458580729164
 10
105.280740017361
 20
174.8539748263887
 10
105.280740017361
 20
174.8539748263887
 10
105.3689344618053
 20
171.5564396701385
 10
105.3689344618053
 20
171.5564396701385
 10
105.3882269965277
 20
170.7843524305554
 10
105.4109646267359
 20
170.2639225260415
 10
105.4357693142359
 20
169.9951499565971
 10
105.4605740017358
 20
169.725743489583
 10
105.4970920138888
 20
169.5057810329859
 10
105.5467013888887
 20
169.3358964843748
 10
105.5467013888887
 20
169.3358964843748
 10
107.1769205729166
 20
169.3358964843748
 10
107.1769205729166
 20
169.3358964843748
 10
107.1769205729166
 20
169.3358964843748
 10
107.1769205729166
 20
169.7821603732633
 10
107.1769205729166
 20
169.7821603732633
 10
106.9750379774303
 20
169.9609194878471
 10
106.8337890624996
 20
170.3628105468748
 10
106.7538628472221
 20
170.9878335503471
 10
106.7028754340274
 20
171.3542263454858
 10
106.6677354600692
 20
171.9120562065971
 10
106.6477539062496
 20
172.6625909288193
 10
106.6477539062496
 20
172.6625909288193
 10
106.6036566840277
 20
175.3205234374999
 10
106.6036566840277
 20
175.3205234374999
 10
106.5836751302082
 20
176.4716814236109
 10
106.4768771701387
 20
177.3033550347219
 10
106.2839518229166
 20
177.814276475694
 10
106.0903374565971
 20
178.3251979166665
 10
105.8002604166666
 20
178.7372313368054
 10
105.4130316840276
 20
179.0516445312498
 10
105.8443576388885
 20
179.5086846788193
 10
106.179909939236
 20
180.1134229600693
 10
106.4196885850692
 20
180.866493272569
 10
106.6594672309027
 20
181.6189296874999
 10
106.7800455729166
 20
182.5868912760411
 10
106.7800455729166
 20
183.7697441406248
 10
106.7800455729166
 20
186.0371957465273
 10
106.3328721788193
 20
187.5921464843749
 10
105.4392144097221
 20
188.4345963541665
 10
104.9679253472221
 20
188.8732534722221
 10
104.3719238281249
 20
189.0932159288193
 10
103.6512098524303
 20
189.0932159288193
 10
103.6512098524303
 20
189.0932159288193
 10
99.23942057291661
 20
189.0932159288193
 10
99.23942057291661
 20
189.0932159288193
 10
99.23942057291661
 20
189.0932159288193
 10
99.23942057291661
 20
169.3358964843748
 10
99.23942057291661
 20
169.3358964843748
 97
        0
 75
     0
 76
     1
 98
        0
  0
HATCH
  5
4ED
330
4CD
100
AcDbEntity
  8
0
  6
Continuous
100
AcDbHatch
 10
0.0
 20
0.0
 30
0.0
210
0.0
220
0.0
230
1.0
  2
SOLID
 70
     1
 71
     1
 91
        2
 92
        1
 93
        8
 72
     1
 10
35.47828233506943
 20
189.0932159288193
 11
31.83957248263888
 21
169.3358964843748
 72
     1
 10
31.83957248263888
 20
169.3358964843748
 11
33.22450086805555
 21
169.3358964843748
 72
     1
 10
33.22450086805555
 20
169.3358964843748
 11
34.27043185763887
 21
175.2590353732638
 72
     1
 10
34.27043185763887
 20
175.2590353732638
 11
38.04694552951389
 21
175.2590353732638
 72
     1
 10
38.04694552951389
 20
175.2590353732638
 11
39.05015733506942
 21
169.3358964843748
 72
     1
 10
39.05015733506942
 20
169.3358964843748
 11
40.43508572048611
 21
169.3358964843748
 72
     1
 10
40.43508572048611
 20
169.3358964843748
 11
36.952783203125
 21
189.0932159288193
 72
     1
 10
36.952783203125
 20
189.0932159288193
 11
35.47828233506943
 21
189.0932159288193
 97
        8
330
4E8
330
4E1
330
4E2
330
4E3
330
4E4
330
4E5
330
4E6
330
4E7
 92
       16
 93
        3
 72
     1
 10
37.67556423611111
 20
177.4497853732638
 11
34.65766059027778
 21
177.4497853732638
 72
     1
 10
34.65766059027778
 20
177.4497853732638
 11
36.19830729166666
 21
186.1658769531249
 72
     1
 10
36.19830729166666
 20
186.1658769531249
 11
37.67556423611111
 21
177.4497853732638
 97
        3
330
4E0
330
4DE
330
4DF
 75
     0
 76
     1
 98
        1
 10
0.0
 20
0.0
  0
HATCH
  5
4EE
330
4CD
100
AcDbEntity
  8
0
  6
Continuous
100
AcDbHatch
 10
0.0
 20
0.0
 30
0.0
210
0.0
220
0.0
230
1.0
  2
SOLID
 70
     1
 71
     1
 91
        1
 92
        1
 93
        1
 72
     4
 94
        3
 73
     0
 74
     0
 95
      113
 96
      109
 40
0.0
 40
0.0
 40
0.0
 40
0.0
 40
1.0
 40
1.0
 40
1.0
 40
2.0
 40
2.0
 40
2.0
 40
3.0
 40
3.0
 40
3.0
 40
4.0
 40
4.0
 40
4.0
 40
5.0
 40
5.0
 40
5.0
 40
6.0
 40
6.0
 40
6.0
 40
7.0
 40
7.0
 40
7.0
 40
8.0
 40
8.0
 40
8.0
 40
9.0
 40
9.0
 40
9.0
 40
10.0
 40
10.0
 40
10.0
 40
11.0
 40
11.0
 40
11.0
 40
12.0
 40
12.0
 40
12.0
 40
13.0
 40
13.0
 40
13.0
 40
14.0
 40
14.0
 40
14.0
 40
15.0
 40
15.0
 40
15.0
 40
16.0
 40
16.0
 40
16.0
 40
17.0
 40
17.0
 40
17.0
 40
18.0
 40
18.0
 40
18.0
 40
19.0
 40
19.0
 40
19.0
 40
20.0
 40
20.0
 40
20.0
 40
21.0
 40
21.0
 40
21.0
 40
22.0
 40
22.0
 40
22.0
 40
23.0
 40
23.0
 40
23.0
 40
24.0
 40
24.0
 40
24.0
 40
25.0
 40
25.0
 40
25.0
 40
26.0
 40
26.0
 40
26.0
 40
27.0
 40
27.0
 40
27.0
 40
28.0
 40
28.0
 40
28.0
 40
29.0
 40
29.0
 40
29.0
 40
30.0
 40
30.0
 40
30.0
 40
31.0
 40
31.0
 40
31.0
 40
32.0
 40
32.0
 40
32.0
 40
33.0
 40
33.0
 40
33.0
 40
34.0
 40
34.0
 40
34.0
 40
35.0
 40
35.0
 40
35.0
 40
36.0
 40
36.0
 40
36.0
 40
36.0
 10
193.3039632161458
 20
186.1548733181423
 10
193.3039632161458
 20
186.1860514322916
 10
193.3039632161458
 20
219.6932223849826
 10
193.3039632161458
 20
219.6932223849826
 10
193.3039632161458
 20
219.6932223849826
 10
193.2974175347219
 20
219.7488606770833
 10
193.2974175347219
 20
219.7488606770833
 10
191.5293945312499
 20
235.455740017361
 10
175.1458984374999
 20
235.2467949761284
 10
174.9808783637151
 20
235.2428331163193
 10
174.9808783637151
 20
235.2428331163193
 10
125.8827555338541
 20
235.2430053710937
 10
125.8827555338541
 20
235.2430053710937
 10
125.8827555338541
 20
235.2430053710937
 10
125.8827555338541
 20
255.5278998480901
 10
125.8827555338541
 20
255.5278998480901
 10
125.8827555338541
 20
255.5278998480901
 10
84.5626247829861
 20
255.5278998480901
 10
84.5626247829861
 20
255.5278998480901
 10
84.5626247829861
 20
255.5278998480901
 10
84.55711263020829
 20
233.7919311523436
 10
84.55711263020829
 20
233.7919311523436
 10
84.55711263020829
 20
233.7919311523436
 10
64.42052951388888
 20
233.7919311523436
 10
64.42052951388888
 20
233.7919311523436
 10
64.42052951388888
 20
233.7919311523436
 10
64.41501736111111
 20
255.5278998480901
 10
64.41501736111111
 20
255.5278998480901
 10
64.41501736111111
 20
255.5278998480901
 10
23.91757541232637
 20
255.5278998480901
 10
23.91757541232637
 20
255.5278998480901
 10
23.91757541232637
 20
255.5278998480901
 10
23.91757541232637
 20
233.2393378363715
 10
23.91757541232637
 20
233.2393378363715
 10
23.91757541232637
 20
233.2393378363715
 10
43.65624999999999
 20
233.2393378363715
 10
43.65624999999999
 20
233.2393378363715
 10
43.65624999999999
 20
233.2393378363715
 10
43.65624999999999
 20
211.5188720703125
 10
43.65624999999999
 20
211.5188720703125
 10
43.65624999999999
 20
211.5188720703125
 10
23.91757541232637
 20
211.5188720703125
 10
23.91757541232637
 20
211.5188720703125
 10
23.91757541232637
 20
211.5188720703125
 10
23.91757541232637
 20
189.2303100585936
 10
23.91757541232637
 20
189.2303100585936
 10
23.91757541232637
 20
189.2303100585936
 10
64.41501736111111
 20
189.2303100585936
 10
64.41501736111111
 20
189.2303100585936
 10
64.41501736111111
 20
189.2303100585936
 10
64.42052951388888
 20
211.069976128472
 10
64.42052951388888
 20
211.069976128472
 10
64.42052951388888
 20
211.069976128472
 10
84.55711263020829
 20
211.069976128472
 10
84.55711263020829
 20
211.069976128472
 10
84.55711263020829
 20
211.069976128472
 10
84.5626247829861
 20
189.2303100585936
 10
84.5626247829861
 20
189.2303100585936
 10
84.5626247829861
 20
189.2303100585936
 10
125.8827555338541
 20
189.2303100585936
 10
125.8827555338541
 20
189.2303100585936
 10
125.8827555338541
 20
189.2303100585936
 10
125.8827555338541
 20
211.5188720703125
 10
125.8827555338541
 20
211.5188720703125
 10
125.8827555338541
 20
211.5188720703125
 10
105.3213921440971
 20
211.5188720703125
 10
105.3213921440971
 20
211.5188720703125
 10
105.3213921440971
 20
211.5188720703125
 10
105.3213921440971
 20
233.2393378363715
 10
105.3213921440971
 20
233.2393378363715
 10
105.3213921440971
 20
233.2393378363715
 10
175.0046495225693
 20
233.243127441406
 10
175.0046495225693
 20
233.243127441406
 10
175.6268337673611
 20
233.2560465494791
 10
189.7165852864583
 20
233.3962619357638
 10
191.3037407769094
 20
219.5690266927083
 10
191.3037407769094
 20
219.4332899305555
 10
191.3037407769094
 20
186.1142211914062
 10
191.3037407769094
 20
186.1142211914062
 10
191.3037407769094
 20
186.1142211914062
 10
191.3051188151039
 20
186.0880384657115
 10
191.3051188151039
 20
186.0880384657115
 10
191.3054633246526
 20
186.0787367078991
 10
191.3109754774304
 20
185.9566080729166
 10
191.3109754774304
 20
185.7399115668401
 10
191.3109754774304
 20
184.2090833875865
 10
191.0488037109374
 20
177.9643310546874
 10
186.9866916232638
 20
173.5652886284722
 10
184.2540418836804
 20
170.6064683702255
 10
180.3224989149304
 20
169.0308539496526
 10
175.300927734375
 20
168.8825425889756
 10
175.300927734375
 20
168.8825425889756
 10
107.0094889322916
 20
168.8828870985243
 10
107.0094889322916
 20
168.8828870985243
 10
107.0094889322916
 20
168.8828870985243
 10
107.0094889322916
 20
166.8830091688368
 10
107.0094889322916
 20
166.8830091688368
 10
107.0094889322916
 20
166.8830091688368
 10
175.3305555555555
 20
166.8830091688368
 10
175.3305555555555
 20
166.8830091688368
 10
180.9467502170138
 20
167.0485460069444
 10
185.3571614583333
 20
168.8448187934026
 10
188.4687717013888
 20
172.2223904079861
 10
192.9649658203124
 20
177.1034016927083
 10
193.3136094835069
 20
183.7202243381076
 10
193.3136094835069
 20
185.6520616319443
 10
193.3136094835069
 20
185.9247409396701
 10
193.3070638020833
 20
186.0868326822916
 10
193.3039632161458
 20
186.1548733181423
 97
        1
330
4CE
 75
     0
 76
     1
 98
        1
 10
0.0
 20
0.0
  0
HATCH
  5
4EF
330
4CD
100
AcDbEntity
  8
0
  6
Continuous
100
AcDbHatch
 10
0.0
 20
0.0
 30
0.0
210
0.0
220
0.0
230
1.0
  2
SOLID
 70
     1
 71
     1
 91
        2
 92
        1
 93
        1
 72
     4
 94
        3
 73
     0
 74
     0
 95
       23
 96
       19
 40
0.0
 40
0.0
 40
0.0
 40
0.0
 40
1.0
 40
1.0
 40
1.0
 40
2.0
 40
2.0
 40
2.0
 40
3.0
 40
3.0
 40
3.0
 40
4.0
 40
4.0
 40
4.0
 40
5.0
 40
5.0
 40
5.0
 40
6.0
 40
6.0
 40
6.0
 40
6.0
 10
148.6593153211804
 20
211.3929538302948
 10
148.6593153211804
 20
211.3929538302948
 10
148.6593153211804
 20
189.6308024088539
 10
148.6593153211804
 20
189.6308024088539
 10
148.6593153211804
 20
189.6308024088539
 10
161.3152180989583
 20
189.6308024088539
 10
161.3152180989583
 20
189.6308024088539
 10
162.8431179470483
 20
189.6308024088539
 10
170.4657362196178
 20
190.1880466037321
 10
170.4657362196178
 20
201.1911648220483
 10
170.4657362196178
 20
211.1288872612844
 10
162.3356553819444
 20
211.3914035373261
 10
162.2536621093749
 20
211.3927815755205
 10
162.2536621093749
 20
211.3927815755205
 10
149.6594265407986
 20
211.3929538302948
 10
149.6594265407986
 20
211.3929538302948
 10
149.6594265407986
 20
211.3929538302948
 10
148.6593153211804
 20
211.3929538302948
 10
148.6593153211804
 20
211.3929538302948
 97
        1
330
4CF
 92
       16
 93
        1
 72
     4
 94
        3
 73
     0
 74
     0
 95
       20
 96
       16
 40
0.0
 40
0.0
 40
0.0
 40
0.0
 40
1.0
 40
1.0
 40
1.0
 40
2.0
 40
2.0
 40
2.0
 40
3.0
 40
3.0
 40
3.0
 40
4.0
 40
4.0
 40
4.0
 40
5.0
 40
5.0
 40
5.0
 40
5.0
 10
162.2354031032983
 20
209.3930759006072
 10
162.467947048611
 20
209.3861857096351
 10
168.4655137803819
 20
209.1283203124997
 10
168.4655137803819
 20
201.1911648220483
 10
168.4655137803819
 20
192.3202162000865
 10
162.9926350911458
 20
191.6306803385413
 10
161.3152180989583
 20
191.6306803385413
 10
161.3152180989583
 20
191.6306803385413
 10
152.3310980902776
 20
191.6306803385413
 10
150.6595377604166
 20
191.6306803385413
 10
150.6595377604166
 20
193.3373806423608
 10
150.6595377604166
 20
207.6863755967879
 10
150.6595377604166
 20
209.3930759006072
 10
152.3538357204859
 20
209.3930759006072
 10
162.2354031032983
 20
209.3930759006072
 10
162.2354031032983
 20
209.3930759006072
 97
        0
 75
     0
 76
     1
 98
        0
  0
ENDBLK
  5
4F1
330
4CD
100
AcDbEntity
  8
0
100
AcDbBlockEnd
  0
BLOCK
  5
4F4
330
4F2
100
AcDbEntity
  8
0
100
AcDbBlockBegin
  2
HD logo-new
 70
     0
 10
0.0
 20
0.0
 30
0.0
  3
HD logo-new
  1

  0
INSERT
  5
4F3
330
4F2
100
AcDbEntity
  8
0
 62
     3
100
AcDbBlockReference
  2
HD_LLC_logo_OT5
 10
-27.1607188578505
 20
-68.37367811463031
 30
0.0
 41
0.2999999999999971
 42
0.3000000000000007
 43
0.3
  0
ENDBLK
  5
4F5
330
4F2
100
AcDbEntity
  8
0
100
AcDbBlockEnd
  0
BLOCK
  5
4F8
330
4F6
100
AcDbEntity
  8
0
100
AcDbBlockBegin
  2
HD Logo
 70
     0
 10
0.0
 20
0.0
 30
0.0
  3
HD Logo
  1

  0
INSERT
  5
4F7
330
4F6
100
AcDbEntity
  8
0
100
AcDbBlockReference
  2
HD logo-new
 10
0.9700256734946606
 20
7.273795608420527
 30
0.0
  0
ENDBLK
  5
4F9
330
4F6
100
AcDbEntity
  8
0
100
AcDbBlockEnd
  0
BLOCK
  5
50B
330
508
100
AcDbEntity
  8
0
100
AcDbBlockBegin
  2
Notice
 70
     0
 10
0.0
 20
0.0
 30
0.0
  3
Notice
  1

  0
LWPOLYLINE
  5
509
330
508
100
AcDbEntity
  8
0
100
AcDbPolyline
 90
        8
 70
     1
 43
0.0
 10
-22.76688241418626
 20
22.0252409919858
 10
91.45032196416307
 20
22.0252409919858
 42
-0.4142135623730951
 10
93.4503219641631
 20
20.0252409919858
 10
93.4503219641631
 20
-16.65735233494911
 42
-0.4142135623730951
 10
91.45032196416307
 20
-18.65735233494911
 10
-22.7668824141863
 20
-18.65735233494911
 42
-0.4142135623730951
 10
-24.76688241418631
 20
-16.65735233494911
 10
-24.76688241418628
 20
20.0252409919858
 42
-0.4142135623730951
  0
MTEXT
  5
50A
330
508
100
AcDbEntity
  8
0
  6
Continuous
370
    30
100
AcDbMText
 10
-23.02803999797196
 20
20.91357196996034
 30
0.0
 40
3.5
 41
117.8173
 71
     1
 72
     5
  3
{\fArial|b1|i0|c0|p34;Notice:\P\fArial|b0|i0|c0|p34;\H0.5714x;All specifications and dimensions shown in the drawing are subject to change without notice. This drawing is the property of Harmonic Drive LLC.   This data is believed to be accurate, how
  1
ever, Harmonic Drive LLC assumes no liability for any errors or omissions in the specifications, models, or drawings.\P\PHarmonic Drive LLC\PTel: 800-921-3332\Pwww.harmonicdrive.net}
 73
     1
 44
1.0
  0
ENDBLK
  5
50C
330
508
100
AcDbEntity
  8
0
100
AcDbBlockEnd
  0
BLOCK
  5
521
330
51E
100
AcDbEntity
  8
0
100
AcDbBlockBegin
  2
NTC
 70
     0
 10
0.0
 20
0.0
 30
0.0
  3
NTC
  1

  0
LWPOLYLINE
  5
51F
330
51E
100
AcDbEntity
  8
0
100
AcDbPolyline
 90
        8
 70
     1
 43
0.0
 10
4.581008201925953
 20
-10.78862239032818
 10
319.3921777697513
 20
-10.78862239032818
 42
-0.4142135623730951
 10
324.9046777697513
 20
-16.30112239032816
 10
324.9046777697513
 20
-117.4075202476924
 42
-0.4142135623730951
 10
319.3921777697513
 20
-122.9200202476925
 10
4.581008201925839
 20
-122.9200202476925
 42
-0.4142135623730951
 10
-0.9314917980741483
 20
-117.4075202476924
 10
-0.9314917980740915
 20
-16.30112239032816
 42
-0.4142135623730951
  0
MTEXT
  5
520
330
51E
100
AcDbEntity
  8
0
  6
Continuous
370
    30
100
AcDbMText
 10
21.65307678143926
 20
-17.4535155144544
 30
0.0
 40
8.75
 41
294.5432999999998
 71
     1
 72
     5
  3
{\fTxt|b1|i0|c0|p2;Notice:\P\Ftxt.shx;\H0.5714x;All specifications and dimensions shown in the drawing are subject to change without notice. This drawing is the property of Harmonic Drive LLC.   This data is believed to be accurate, however, Harmonic
  1
 Drive LLC assumes no liability for any errors or omissions in the specifications, models, or drawings.\P\PHarmonic Drive LLC\PTel: 800-921-3332\Pwww.harmonicdrive.net}
 73
     1
 44
1.0
  0
ENDBLK
  5
522
330
51E
100
AcDbEntity
  8
0
100
AcDbBlockEnd
  0
ENDSEC
  0
SECTION
  2
ENTITIES
  0
LINE
  5
60
330
1E
100
AcDbEntity
  8
1
 62
     7
100
AcDbLine
 10
-66.7556845979163
 20
44.92817804423736
 30
0.0
 11
-66.38211148451246
 21
46.3223718838004
 31
0.0
  0
LINE
  5
61
330
1E
100
AcDbEntity
  8
1
 62
     7
100
AcDbLine
 10
-66.38211148451246
 20
46.3223718838004
 30
0.0
 11
-67.40273221067328
 21
47.34299260995984
 31
0.0
  0
LINE
  5
62
330
1E
100
AcDbEntity
  8
1
 62
     7
100
AcDbLine
 10
-67.40273221067328
 20
47.34299260995984
 30
0.0
 11
-68.79692605023656
 21
46.96941949655648
 31
0.0
  0
LINE
  5
63
330
1E
100
AcDbEntity
  8
1
 62
     7
100
AcDbLine
 10
-68.79692605023656
 20
46.96941949655648
 30
0.0
 11
-69.17049916363858
 21
45.57522565699341
 31
0.0
  0
LINE
  5
64
330
1E
100
AcDbEntity
  8
1
 62
     7
100
AcDbLine
 10
-69.17049916363858
 20
45.57522565699341
 30
0.0
 11
-68.14987843747958
 21
44.55460493083373
 31
0.0
  0
LINE
  5
65
330
1E
100
AcDbEntity
  8
1
 62
     7
100
AcDbLine
 10
-68.14987843747958
 20
44.55460493083373
 30
0.0
 11
-66.7556845979163
 21
44.92817804423736
 31
0.0
  0
LINE
  5
66
330
1E
100
AcDbEntity
  8
1
 62
     7
100
AcDbLine
 10
-47.60307526033027
 20
-26.55033310115382
 30
0.0
 11
-47.22950214692644
 21
-25.15613926159077
 31
0.0
  0
LINE
  5
67
330
1E
100
AcDbEntity
  8
1
 62
     7
100
AcDbLine
 10
-47.22950214692644
 20
-25.15613926159077
 30
0.0
 11
-48.25012287308545
 21
-24.13551853543109
 31
0.0
  0
LINE
  5
68
330
1E
100
AcDbEntity
  8
1
 62
     7
100
AcDbLine
 10
-48.25012287308545
 20
-24.13551853543109
 30
0.0
 11
-49.64431671265057
 21
-24.5090916488347
 31
0.0
  0
LINE
  5
69
330
1E
100
AcDbEntity
  8
1
 62
     7
100
AcDbLine
 10
-49.64431671265057
 20
-24.5090916488347
 30
0.0
 11
-50.01788982605258
 21
-25.9032854883973
 31
0.0
  0
LINE
  5
6A
330
1E
100
AcDbEntity
  8
1
 62
     7
100
AcDbLine
 10
-50.01788982605258
 20
-25.9032854883973
 30
0.0
 11
-48.9972690998945
 21
-26.92390621455721
 31
0.0
  0
LINE
  5
6B
330
1E
100
AcDbEntity
  8
1
 62
     7
100
AcDbLine
 10
-48.9972690998945
 20
-26.92390621455721
 30
0.0
 11
-47.60307526033027
 21
-26.55033310115382
 31
0.0
  0
LINE
  5
6C
330
1E
100
AcDbEntity
  8
1
 62
     3
100
AcDbLine
 10
27.09021433737443
 20
-14.58744228477067
 30
0.0
 11
30.39021433737371
 21
-14.58744228477067
 31
0.0
  0
LINE
  5
6D
330
1E
100
AcDbEntity
  8
1
 62
     3
100
AcDbLine
 10
27.09021433737443
 20
-15.98744228477077
 30
0.0
 11
30.39021433737371
 21
-15.98744228477077
 31
0.0
  0
LINE
  5
6E
330
1E
100
AcDbEntity
  8
1
 62
     3
100
AcDbLine
 10
27.09021433737443
 20
-14.58744228477067
 30
0.0
 11
26.57059909510444
 21
-14.28744228477071
 31
0.0
  0
LINE
  5
6F
330
1E
100
AcDbEntity
  8
1
 62
     3
100
AcDbLine
 10
27.09021433737443
 20
-15.98744228477077
 30
0.0
 11
26.57059909510444
 21
-16.28744228477072
 31
0.0
  0
LINE
  5
70
330
1E
100
AcDbEntity
  8
1
 62
     7
100
AcDbLine
 10
26.3902143373737
 20
-17.18744228477056
 30
0.0
 11
26.3902143373737
 21
-13.38744228477063
 31
0.0
  0
LINE
  5
71
330
1E
100
AcDbEntity
  8
1
 62
     7
100
AcDbLine
 10
26.3902143373737
 20
-13.38744228477063
 30
0.0
 11
24.49021433737543
 21
-13.38744228477063
 31
0.0
  0
LINE
  5
72
330
1E
100
AcDbEntity
  8
1
 62
     7
100
AcDbLine
 10
24.49021433737543
 20
-13.38744228477063
 30
0.0
 11
24.39021433737371
 21
-13.48744228477054
 31
0.0
  0
LINE
  5
73
330
1E
100
AcDbEntity
  8
1
 62
     7
100
AcDbLine
 10
24.39021433737371
 20
-13.48744228477054
 30
0.0
 11
24.39021433737371
 21
-17.08744228477067
 31
0.0
  0
LINE
  5
74
330
1E
100
AcDbEntity
  8
1
 62
     7
100
AcDbLine
 10
24.39021433737371
 20
-17.08744228477067
 30
0.0
 11
24.49021433737543
 21
-17.18744228477056
 31
0.0
  0
LINE
  5
75
330
1E
100
AcDbEntity
  8
1
 62
     7
100
AcDbLine
 10
24.49021433737543
 20
-17.18744228477056
 30
0.0
 11
26.3902143373737
 21
-17.18744228477056
 31
0.0
  0
LINE
  5
76
330
1E
100
AcDbEntity
  8
1
 62
     7
100
AcDbLine
 10
26.49021433737543
 20
-16.28744228477072
 30
0.0
 11
30.09021433737443
 21
-16.28744228477072
 31
0.0
  0
LINE
  5
77
330
1E
100
AcDbEntity
  8
1
 62
     7
100
AcDbLine
 10
30.09021433737443
 20
-16.28744228477072
 30
0.0
 11
30.39021433737371
 21
-15.98744228477077
 31
0.0
  0
LINE
  5
78
330
1E
100
AcDbEntity
  8
1
 62
     7
100
AcDbLine
 10
30.39021433737371
 20
-15.98744228477077
 30
0.0
 11
30.39021433737371
 21
-14.58744228477067
 31
0.0
  0
LINE
  5
79
330
1E
100
AcDbEntity
  8
1
 62
     7
100
AcDbLine
 10
30.39021433737371
 20
-14.58744228477067
 30
0.0
 11
30.09021433737443
 21
-14.28744228477071
 31
0.0
  0
LINE
  5
7A
330
1E
100
AcDbEntity
  8
1
 62
     7
100
AcDbLine
 10
30.09021433737443
 20
-14.28744228477071
 30
0.0
 11
26.49021433737543
 21
-14.28744228477071
 31
0.0
  0
LINE
  5
7B
330
1E
100
AcDbEntity
  8
1
 62
     7
100
AcDbLine
 10
27.09021433737443
 20
-14.28744228477071
 30
0.0
 11
27.09021433737443
 21
-16.28744228477072
 31
0.0
  0
LINE
  5
7C
330
1E
100
AcDbEntity
  8
1
 62
     7
100
AcDbLine
 10
30.09021433737443
 20
-16.28744228477072
 30
0.0
 11
30.09021433737443
 21
-14.28744228477071
 31
0.0
  0
LINE
  5
7D
330
1E
100
AcDbEntity
  8
1
 62
     7
100
AcDbLine
 10
24.49021433737543
 20
-13.38744228477063
 30
0.0
 11
24.49021433737543
 21
-17.18744228477056
 31
0.0
  0
LINE
  5
7E
330
1E
100
AcDbEntity
  8
1
 62
     3
100
AcDbLine
 10
21.49021433737543
 20
-25.6874422847708
 30
0.0
 11
26.49021433737543
 21
-25.6874422847708
 31
0.0
  0
LINE
  5
7F
330
1E
100
AcDbEntity
  8
1
 62
     3
100
AcDbLine
 10
21.49021433737543
 20
-27.88744228477086
 30
0.0
 11
26.49021433737543
 21
-27.88744228477086
 31
0.0
  0
LINE
  5
80
330
1E
100
AcDbEntity
  8
1
 62
     3
100
AcDbLine
 10
21.49021433737543
 20
-25.6874422847708
 30
0.0
 11
20.79739401434771
 21
-25.28744228477071
 31
0.0
  0
LINE
  5
81
330
1E
100
AcDbEntity
  8
1
 62
     3
100
AcDbLine
 10
21.49021433737543
 20
-27.88744228477086
 30
0.0
 11
20.79739401434771
 21
-28.28744228477071
 31
0.0
  0
LINE
  5
82
330
1E
100
AcDbEntity
  8
1
 62
     7
100
AcDbLine
 10
20.49021433737542
 20
-29.53744228477049
 30
0.0
 11
20.49021433737542
 21
-24.03744228477071
 31
0.0
  0
LINE
  5
83
330
1E
100
AcDbEntity
  8
1
 62
     7
100
AcDbLine
 10
20.49021433737542
 20
-24.03744228477071
 30
0.0
 11
17.69021433737343
 21
-24.03744228477071
 31
0.0
  0
LINE
  5
84
330
1E
100
AcDbEntity
  8
1
 62
     7
100
AcDbLine
 10
17.69021433737343
 20
-24.03744228477071
 30
0.0
 11
17.4902143373754
 21
-24.23744228477076
 31
0.0
  0
LINE
  5
85
330
1E
100
AcDbEntity
  8
1
 62
     7
100
AcDbLine
 10
17.4902143373754
 20
-24.23744228477076
 30
0.0
 11
17.4902143373754
 21
-29.33744228477067
 31
0.0
  0
LINE
  5
86
330
1E
100
AcDbEntity
  8
1
 62
     7
100
AcDbLine
 10
17.4902143373754
 20
-29.33744228477067
 30
0.0
 11
17.69021433737343
 21
-29.53744228477049
 31
0.0
  0
LINE
  5
87
330
1E
100
AcDbEntity
  8
1
 62
     7
100
AcDbLine
 10
17.69021433737343
 20
-29.53744228477049
 30
0.0
 11
20.49021433737542
 21
-29.53744228477049
 31
0.0
  0
LINE
  5
88
330
1E
100
AcDbEntity
  8
1
 62
     7
100
AcDbLine
 10
20.59021433737443
 20
-28.28744228477071
 30
0.0
 11
26.09021433737443
 21
-28.28744228477071
 31
0.0
  0
LINE
  5
89
330
1E
100
AcDbEntity
  8
1
 62
     7
100
AcDbLine
 10
26.09021433737443
 20
-28.28744228477071
 30
0.0
 11
26.49021433737543
 21
-27.88744228477086
 31
0.0
  0
LINE
  5
8A
330
1E
100
AcDbEntity
  8
1
 62
     7
100
AcDbLine
 10
26.49021433737543
 20
-27.88744228477086
 30
0.0
 11
26.49021433737543
 21
-25.6874422847708
 31
0.0
  0
LINE
  5
8B
330
1E
100
AcDbEntity
  8
1
 62
     7
100
AcDbLine
 10
26.49021433737543
 20
-25.6874422847708
 30
0.0
 11
26.09021433737443
 21
-25.28744228477071
 31
0.0
  0
LINE
  5
8C
330
1E
100
AcDbEntity
  8
1
 62
     7
100
AcDbLine
 10
26.09021433737443
 20
-25.28744228477071
 30
0.0
 11
20.59021433737443
 21
-25.28744228477071
 31
0.0
  0
LINE
  5
8D
330
1E
100
AcDbEntity
  8
1
 62
     7
100
AcDbLine
 10
21.49021433737543
 20
-25.28744228477071
 30
0.0
 11
21.49021433737543
 21
-28.28744228477071
 31
0.0
  0
LINE
  5
8E
330
1E
100
AcDbEntity
  8
1
 62
     7
100
AcDbLine
 10
26.09021433737443
 20
-28.28744228477071
 30
0.0
 11
26.09021433737443
 21
-25.28744228477071
 31
0.0
  0
LINE
  5
8F
330
1E
100
AcDbEntity
  8
1
 62
     7
100
AcDbLine
 10
17.69021433737343
 20
-24.03744228477071
 30
0.0
 11
17.69021433737343
 21
-29.53744228477049
 31
0.0
  0
LINE
  5
90
330
1E
100
AcDbEntity
  8
1
 62
     7
100
AcDbLine
 10
34.21843454866621
 20
-9.517442284771163
 30
0.0
 11
32.99021433737437
 21
-9.517442284771163
 31
0.0
  0
LINE
  5
91
330
1E
100
AcDbEntity
  8
1
 62
     7
100
AcDbLine
 10
35.96199412608267
 20
-9.517442284771163
 30
0.0
 11
37.19021433737419
 21
-9.517442284771163
 31
0.0
  0
LINE
  5
92
330
1E
100
AcDbEntity
  8
1
 62
     7
100
AcDbLine
 10
37.09021433737439
 20
-4.937442284771237
 30
0.0
 11
33.09021433737445
 21
-4.937442284771237
 31
0.0
  0
LINE
  5
93
330
1E
100
AcDbEntity
  8
1
 62
     7
100
AcDbLine
 10
32.79021433737443
 20
-5.237442284771191
 30
0.0
 11
32.79021433737455
 21
-5.817442284773162
 31
0.0
  0
LINE
  5
94
330
1E
100
AcDbEntity
  8
1
 62
     7
100
AcDbLine
 10
37.39021433737446
 20
-5.81744228476816
 30
0.0
 11
37.39021433737435
 21
-5.237442284771191
 31
0.0
  0
LINE
  5
95
330
1E
100
AcDbEntity
  8
1
 62
     7
100
AcDbLine
 10
33.09021433737445
 20
-4.937442284771237
 30
0.0
 11
32.79021433737443
 21
-5.237442284771191
 31
0.0
  0
LINE
  5
96
330
1E
100
AcDbEntity
  8
1
 62
     7
100
AcDbLine
 10
37.09021433737439
 20
-4.937442284771237
 30
0.0
 11
37.39021433737435
 21
-5.237442284771191
 31
0.0
  0
LINE
  5
97
330
1E
100
AcDbEntity
  8
1
 62
     7
100
AcDbLine
 10
32.79021433737443
 20
-10.25976715017612
 30
0.0
 11
32.79021433737443
 21
-9.717442284770072
 31
0.0
  0
LINE
  5
98
330
1E
100
AcDbEntity
  8
1
 62
     7
100
AcDbLine
 10
36.89021433737435
 20
-10.5484422847711
 30
0.0
 11
33.29021433737443
 21
-10.5484422847711
 31
0.0
  0
LINE
  5
99
330
1E
100
AcDbEntity
  8
1
 62
     7
100
AcDbLine
 10
37.39021433737435
 20
-10.25976715017612
 30
0.0
 11
37.39021433737435
 21
-9.717442284770072
 31
0.0
  0
LINE
  5
9A
330
1E
100
AcDbEntity
  8
1
 62
     7
100
AcDbLine
 10
36.89021433737435
 20
-10.5484422847711
 30
0.0
 11
37.39021433737435
 21
-10.25976715017612
 31
0.0
  0
LINE
  5
9B
330
1E
100
AcDbEntity
  8
1
 62
     7
100
AcDbLine
 10
33.29021433737443
 20
-10.5484422847711
 30
0.0
 11
32.79021433737443
 21
-10.25976715017612
 31
0.0
  0
LINE
  5
9C
330
1E
100
AcDbEntity
  8
1
 62
     7
100
AcDbLine
 10
37.19021433737419
 20
-9.517442284771163
 30
0.0
 11
37.39021433737435
 21
-9.717442284770072
 31
0.0
  0
LINE
  5
9D
330
1E
100
AcDbEntity
  8
1
 62
     7
100
AcDbLine
 10
32.99021433737437
 20
-9.517442284771163
 30
0.0
 11
32.79021433737443
 21
-9.717442284770072
 31
0.0
  0
LINE
  5
9E
330
1E
100
AcDbEntity
  8
1
 62
     7
100
AcDbLine
 10
33.69196543249382
 20
-6.387442284771053
 30
0.0
 11
32.23236438305617
 21
-6.387442284771053
 31
0.0
  0
LINE
  5
9F
330
1E
100
AcDbEntity
  8
1
 62
     7
100
AcDbLine
 10
33.62379011498871
 20
-9.177442284771244
 30
0.0
 11
32.38021433737456
 21
-9.177442284771244
 31
0.0
  0
LINE
  5
A0
330
1E
100
AcDbEntity
  8
1
 62
     7
100
AcDbLine
 10
33.09021433737473
 20
-6.387442284771053
 30
0.0
 11
33.09021433737473
 21
-9.177442284771244
 31
0.0
  0
LINE
  5
A1
330
1E
100
AcDbEntity
  8
1
 62
     7
100
AcDbLine
 10
32.21021433737472
 20
-7.771981177527209
 30
0.0
 11
32.21021433737472
 21
-9.007442284771171
 31
0.0
  0
LINE
  5
A2
330
1E
100
AcDbEntity
  8
1
 62
     7
100
AcDbLine
 10
32.21021433737472
 20
-7.771981177527209
 30
0.0
 11
32.06363153727716
 21
-6.578160073150116
 31
0.0
  0
LINE
  5
A3
330
1E
100
AcDbEntity
  8
1
 62
     7
100
AcDbLine
 10
33.09021433737428
 20
-6.117442284771072
 30
0.0
 11
34.24168619995191
 21
-6.117442284771072
 31
0.0
  0
LINE
  5
A4
330
1E
100
AcDbEntity
  8
1
 62
     7
100
AcDbLine
 10
32.79021433737455
 20
-5.817442284773162
 30
0.0
 11
33.09021433737428
 21
-6.117442284771072
 31
0.0
  0
LINE
  5
A5
330
1E
100
AcDbEntity
  8
1
 62
     7
100
AcDbLine
 10
35.93874247479696
 20
-6.117442284771072
 30
0.0
 11
37.09021433737461
 21
-6.117442284771072
 31
0.0
  0
LINE
  5
A6
330
1E
100
AcDbEntity
  8
1
 62
     7
100
AcDbLine
 10
37.39021433737446
 20
-5.81744228476816
 30
0.0
 11
37.09021433737461
 21
-6.117442284771072
 31
0.0
  0
LINE
  5
A7
330
1E
100
AcDbEntity
  8
1
 62
     7
100
AcDbLine
 10
37.09021433737422
 20
26.54255771522992
 30
0.0
 11
37.39021433737446
 21
26.24255771522587
 31
0.0
  0
LINE
  5
A8
330
1E
100
AcDbEntity
  8
1
 62
     7
100
AcDbLine
 10
37.09021433737422
 20
26.54255771522992
 30
0.0
 11
35.93874247479696
 21
26.54255771522992
 31
0.0
  0
LINE
  5
A9
330
1E
100
AcDbEntity
  8
1
 62
     7
100
AcDbLine
 10
33.09021433737467
 20
26.54255771522992
 30
0.0
 11
32.79021433737455
 21
26.24255771523178
 31
0.0
  0
LINE
  5
AA
330
1E
100
AcDbEntity
  8
1
 62
     7
100
AcDbLine
 10
34.24168619995226
 20
26.54255771522992
 30
0.0
 11
33.09021433737467
 21
26.54255771522992
 31
0.0
  0
LINE
  5
AB
330
1E
100
AcDbEntity
  8
1
 62
     7
100
AcDbLine
 10
32.23236438305617
 20
26.81255771522989
 30
0.0
 11
33.69196543249382
 21
26.81255771522989
 31
0.0
  0
LINE
  5
AC
330
1E
100
AcDbEntity
  8
1
 62
     7
100
AcDbLine
 10
32.06363153727716
 20
27.00327550360873
 30
0.0
 11
32.21021433737472
 21
28.19709660798583
 31
0.0
  0
LINE
  5
AD
330
1E
100
AcDbEntity
  8
1
 62
     7
100
AcDbLine
 10
32.21021433737472
 20
29.43255771522979
 30
0.0
 11
32.21021433737472
 21
28.19709660798583
 31
0.0
  0
LINE
  5
AE
330
1E
100
AcDbEntity
  8
1
 62
     7
100
AcDbLine
 10
32.38021433737456
 20
29.60255771522986
 30
0.0
 11
33.62379011498871
 21
29.60255771522986
 31
0.0
  0
LINE
  5
AF
330
1E
100
AcDbEntity
  8
1
 62
     7
100
AcDbLine
 10
33.09021433737473
 20
29.60255771522986
 30
0.0
 11
33.09021433737473
 21
26.81255771522989
 31
0.0
  0
LINE
  5
B0
330
1E
100
AcDbEntity
  8
1
 62
     7
100
AcDbLine
 10
32.79021433737443
 20
30.14255771522892
 30
0.0
 11
32.99021433737437
 21
29.94255771522887
 31
0.0
  0
LINE
  5
B1
330
1E
100
AcDbEntity
  8
1
 62
     7
100
AcDbLine
 10
37.39021433737435
 20
30.14255771522892
 30
0.0
 11
37.19021433737419
 21
29.94255771522887
 31
0.0
  0
LINE
  5
B2
330
1E
100
AcDbEntity
  8
1
 62
     7
100
AcDbLine
 10
32.79021433737443
 20
30.68488258063382
 30
0.0
 11
33.29021433737443
 21
30.97355771522879
 31
0.0
  0
LINE
  5
B3
330
1E
100
AcDbEntity
  8
1
 62
     7
100
AcDbLine
 10
37.39021433737435
 20
30.68488258063382
 30
0.0
 11
36.89021433737435
 21
30.97355771522879
 31
0.0
  0
LINE
  5
B4
330
1E
100
AcDbEntity
  8
1
 62
     7
100
AcDbLine
 10
37.39021433737435
 20
30.14255771522892
 30
0.0
 11
37.39021433737435
 21
30.68488258063382
 31
0.0
  0
LINE
  5
B5
330
1E
100
AcDbEntity
  8
1
 62
     7
100
AcDbLine
 10
33.29021433737443
 20
30.97355771522879
 30
0.0
 11
36.89021433737435
 21
30.97355771522879
 31
0.0
  0
LINE
  5
B6
330
1E
100
AcDbEntity
  8
1
 62
     7
100
AcDbLine
 10
32.79021433737443
 20
30.14255771522892
 30
0.0
 11
32.79021433737443
 21
30.68488258063382
 31
0.0
  0
LINE
  5
B7
330
1E
100
AcDbEntity
  8
1
 62
     7
100
AcDbLine
 10
37.39021433737435
 20
25.6625577152298
 30
0.0
 11
37.09021433737439
 21
25.36255771522986
 31
0.0
  0
LINE
  5
B8
330
1E
100
AcDbEntity
  8
1
 62
     7
100
AcDbLine
 10
32.79021433737443
 20
25.6625577152298
 30
0.0
 11
33.09021433737445
 21
25.36255771522986
 31
0.0
  0
LINE
  5
B9
330
1E
100
AcDbEntity
  8
1
 62
     7
100
AcDbLine
 10
37.39021433737435
 20
25.6625577152298
 30
0.0
 11
37.39021433737446
 21
26.24255771522587
 31
0.0
  0
LINE
  5
BA
330
1E
100
AcDbEntity
  8
1
 62
     7
100
AcDbLine
 10
32.79021433737455
 20
26.24255771523178
 30
0.0
 11
32.79021433737443
 21
25.6625577152298
 31
0.0
  0
LINE
  5
BB
330
1E
100
AcDbEntity
  8
1
 62
     7
100
AcDbLine
 10
33.09021433737445
 20
25.36255771522986
 30
0.0
 11
37.09021433737439
 21
25.36255771522986
 31
0.0
  0
LINE
  5
BC
330
1E
100
AcDbEntity
  8
1
 62
     7
100
AcDbLine
 10
37.19021433737419
 20
29.94255771522887
 30
0.0
 11
35.96199412608267
 21
29.94255771522884
 31
0.0
  0
LINE
  5
BD
330
1E
100
AcDbEntity
  8
1
 62
     7
100
AcDbLine
 10
32.99021433737437
 20
29.94255771522887
 30
0.0
 11
34.21843454866614
 21
29.94255771522887
 31
0.0
  0
LINE
  5
BE
330
1E
100
AcDbEntity
  8
1
  6
CENTER
 62
     3
100
AcDbLine
 10
27.49021433737543
 20
-16.96173039934379
 30
0.0
 11
27.49021433737543
 21
-23.11315417019673
 31
0.0
  0
LINE
  5
BF
330
1E
100
AcDbEntity
  8
1
  6
CENTER
 62
     3
100
AcDbLine
 10
27.49021433737543
 20
43.53826960065574
 30
0.0
 11
27.49021433737543
 21
37.38684582980281
 31
0.0
  0
LINE
  5
C0
330
1E
100
AcDbEntity
  8
1
 62
     7
100
AcDbLine
 10
20.49021433737542
 20
49.81255771522919
 30
0.0
 11
20.49021433737542
 21
-29.38744228477062
 31
0.0
  0
LINE
  5
C1
330
1E
100
AcDbEntity
  8
1
 62
     7
100
AcDbLine
 10
23.49021433737543
 20
49.81255771521897
 30
0.0
 11
23.49021433737543
 21
32.44555771522876
 31
0.0
  0
LINE
  5
C2
330
1E
100
AcDbEntity
  8
1
 62
     7
100
AcDbLine
 10
37.12021433737371
 20
-11.62244228477097
 30
0.0
 11
30.83770409407127
 21
-11.62244228477099
 31
0.0
  0
LINE
  5
C3
330
1E
100
AcDbEntity
  8
1
 62
     7
100
AcDbLine
 10
23.21821433737548
 20
40.41255771522933
 30
0.0
 11
23.21821433737548
 21
-19.98744228477076
 31
0.0
  0
LINE
  5
C8
330
1E
100
AcDbEntity
  8
1
  6
DIVIDE
 62
     7
100
AcDbLine
 10
38.99021433737543
 20
32.7125577152295
 30
0.0
 11
39.99021433737543
 21
32.7125577152295
 31
0.0
  0
LINE
  5
C9
330
1E
100
AcDbEntity
  8
1
  6
DIVIDE
 62
     7
100
AcDbLine
 10
39.99021433737543
 20
32.7125577152295
 30
0.0
 11
39.99021433737543
 21
26.20365550396113
 31
0.0
  0
LINE
  5
CA
330
1E
100
AcDbEntity
  8
1
  6
DIVIDE
 62
     7
100
AcDbLine
 10
26.71821433737548
 20
-8.787442284770492
 30
0.0
 11
22.29021433737562
 21
-8.787442284770492
 31
0.0
  0
LINE
  5
CB
330
1E
100
AcDbEntity
  8
1
  6
DIVIDE
 62
     7
100
AcDbLine
 10
22.29021433737562
 20
-8.787442284770492
 30
0.0
 11
22.29021433737562
 21
-11.85376179466498
 31
0.0
  0
LINE
  5
CC
330
1E
100
AcDbEntity
  8
1
  6
DIVIDE
 62
     7
100
AcDbLine
 10
22.29021433737562
 20
32.27887722512401
 30
0.0
 11
22.29021433737562
 21
29.21255771522951
 31
0.0
  0
LINE
  5
CD
330
1E
100
AcDbEntity
  8
1
  6
CENTER
 62
     3
100
AcDbLine
 10
114.1563213637067
 20
55.40922260404901
 30
0.0
 11
114.1563213637067
 21
-34.19077739595101
 31
0.0
  0
LINE
  5
CE
330
1E
100
AcDbEntity
  8
1
  6
CENTER
 62
     3
100
AcDbLine
 10
69.55125194081633
 20
10.20954240233217
 30
0.0
 11
158.5512519408163
 21
10.20954240233217
 31
0.0
  0
LINE
  5
CF
330
1E
100
AcDbEntity
  8
1
 62
     7
100
AcDbLine
 10
36.99021433737543
 20
44.21255771522928
 30
0.0
 11
31.99021433737543
 21
39.71255771522928
 31
0.0
  0
LINE
  5
D0
330
1E
100
AcDbEntity
  8
1
  6
CENTER
 62
     3
100
AcDbLine
 10
-58.20000000000046
 20
52.21256216818605
 30
0.0
 11
-58.19999999999954
 21
-31.79347577278341
 31
0.0
  0
LINE
  5
D1
330
1E
100
AcDbEntity
  8
1
  6
CENTER
 62
     3
100
AcDbLine
 10
-100.2030195176505
 20
10.21255691952942
 30
0.0
 11
-16.19698179291544
 21
10.21255691952942
 31
0.0
  0
LINE
  5
D2
330
1E
100
AcDbEntity
  8
1
  6
CENTER
 62
     3
100
AcDbLine
 10
31.11021433737441
 20
-0.2874422847704921
 30
0.0
 11
38.71021433737342
 21
-0.2874422847704921
 31
0.0
  0
LINE
  5
D3
330
1E
100
AcDbEntity
  8
1
 62
     7
100
AcDbLine
 10
32.39021433737234
 20
25.3625577152296
 30
0.0
 11
37.39021433737235
 21
25.3625577152296
 31
0.0
  0
LINE
  5
D4
330
1E
100
AcDbEntity
  8
1
 62
     7
100
AcDbLine
 10
32.39021433737234
 20
25.3625577152296
 30
0.0
 11
32.39021433737234
 21
24.81255771522942
 31
0.0
  0
LINE
  5
D5
330
1E
100
AcDbEntity
  8
1
 62
     7
100
AcDbLine
 10
30.89021433737234
 20
28.26255771522946
 30
0.0
 11
31.69021433737343
 21
28.26255771522946
 31
0.0
  0
LINE
  5
D6
330
1E
100
AcDbEntity
  8
1
 62
     7
100
AcDbLine
 10
31.69021433737343
 20
24.81255771522942
 30
0.0
 11
32.39021433737234
 21
24.81255771522942
 31
0.0
  0
LINE
  5
D7
330
1E
100
AcDbEntity
  8
1
 62
     7
100
AcDbLine
 10
31.69021433737343
 20
24.81255771522942
 30
0.0
 11
31.69021433737343
 21
28.26255771522946
 31
0.0
  0
LINE
  5
D8
330
1E
100
AcDbEntity
  8
1
 62
     7
100
AcDbLine
 10
32.39021433737234
 20
-4.387442284770628
 30
0.0
 11
32.39021433737234
 21
-4.937442284770356
 31
0.0
  0
LINE
  5
D9
330
1E
100
AcDbEntity
  8
1
 62
     7
100
AcDbLine
 10
31.69021433737343
 20
-7.837442284770445
 30
0.0
 11
30.89021433737234
 21
-7.837442284770445
 31
0.0
  0
LINE
  5
DA
330
1E
100
AcDbEntity
  8
1
 62
     7
100
AcDbLine
 10
32.39021433737234
 20
-4.387442284770628
 30
0.0
 11
31.69021433737343
 21
-4.387442284770628
 31
0.0
  0
LINE
  5
DB
330
1E
100
AcDbEntity
  8
1
 62
     7
100
AcDbLine
 10
31.69021433737343
 20
-7.837442284770445
 30
0.0
 11
31.69021433737343
 21
-4.387442284770628
 31
0.0
  0
LINE
  5
DC
330
1E
100
AcDbEntity
  8
1
 62
     7
100
AcDbLine
 10
30.89021433737234
 20
28.26255771522946
 30
0.0
 11
30.89021433737234
 21
24.21255771522928
 31
0.0
  0
LINE
  5
DD
330
1E
100
AcDbEntity
  8
1
 62
     3
100
AcDbLine
 10
32.39021433737234
 20
19.21255771522928
 30
0.0
 11
37.39021433737235
 21
19.21255771522928
 31
0.0
  0
LINE
  5
DE
330
1E
100
AcDbEntity
  8
1
 62
     3
100
AcDbLine
 10
32.39021433737234
 20
22.21255771522928
 30
0.0
 11
37.39021433737235
 21
22.21255771522928
 31
0.0
  0
LINE
  5
DF
330
1E
100
AcDbEntity
  8
1
  6
CENTER
 62
     3
100
AcDbLine
 10
31.1102143373735
 20
20.71255771522928
 30
0.0
 11
38.71021433737342
 21
20.71255771522928
 31
0.0
  0
LINE
  5
E0
330
1E
100
AcDbEntity
  8
1
 62
     7
100
AcDbLine
 10
32.39021433737234
 20
19.51255771522923
 30
0.0
 11
37.39021433737235
 21
19.51255771522923
 31
0.0
  0
LINE
  5
E1
330
1E
100
AcDbEntity
  8
1
 62
     7
100
AcDbLine
 10
32.39021433737234
 20
21.91255771522933
 30
0.0
 11
37.39021433737235
 21
21.91255771522933
 31
0.0
  0
LINE
  5
E2
330
1E
100
AcDbEntity
  8
1
 62
     7
100
AcDbLine
 10
32.79021433737332
 20
17.71255771522951
 30
0.0
 11
32.39021433737234
 21
18.11255771522937
 31
0.0
  0
LINE
  5
E3
330
1E
100
AcDbEntity
  8
1
 62
     7
100
AcDbLine
 10
32.79021433737332
 20
17.71255771522951
 30
0.0
 11
36.99021433737453
 21
17.71255771522951
 31
0.0
  0
LINE
  5
E4
330
1E
100
AcDbEntity
  8
1
 62
     7
100
AcDbLine
 10
36.99021433737453
 20
17.71255771522951
 30
0.0
 11
37.39021433737235
 21
18.11255771522937
 31
0.0
  0
LINE
  5
E5
330
1E
100
AcDbEntity
  8
1
 62
     7
100
AcDbLine
 10
37.39021433737235
 20
2.31255771522919
 30
0.0
 11
36.99021433737453
 21
2.712557715229508
 31
0.0
  0
LINE
  5
E6
330
1E
100
AcDbEntity
  8
1
 62
     7
100
AcDbLine
 10
37.39021433737235
 20
-4.937442284770356
 30
0.0
 11
37.39021433737235
 21
25.3625577152296
 31
0.0
  0
LINE
  5
E7
330
1E
100
AcDbEntity
  8
1
 62
     7
100
AcDbLine
 10
32.39021433737234
 20
2.31255771522919
 30
0.0
 11
32.79021433737332
 21
2.712557715229508
 31
0.0
  0
LINE
  5
E8
330
1E
100
AcDbEntity
  8
1
 62
     7
100
AcDbLine
 10
32.39021433737234
 20
-4.937442284770356
 30
0.0
 11
37.39021433737235
 21
-4.937442284770356
 31
0.0
  0
LINE
  5
E9
330
1E
100
AcDbEntity
  8
1
 62
     7
100
AcDbLine
 10
30.89021433737234
 20
-3.787442284770491
 30
0.0
 11
32.39021433737234
 21
-2.287442284770718
 31
0.0
  0
LINE
  5
EA
330
1E
100
AcDbEntity
  8
1
 62
     7
100
AcDbLine
 10
30.89021433737234
 20
-3.787442284770491
 30
0.0
 11
30.89021433737234
 21
-7.837442284770445
 31
0.0
  0
LINE
  5
EB
330
1E
100
AcDbEntity
  8
1
 62
     7
100
AcDbLine
 10
30.89021433737234
 20
24.21255771522928
 30
0.0
 11
32.39021433737234
 21
22.71255771522951
 31
0.0
  0
LINE
  5
EC
330
1E
100
AcDbEntity
  8
1
 62
     7
100
AcDbLine
 10
32.39021433737234
 20
22.71255771522951
 30
0.0
 11
32.39021433737234
 21
-2.287442284770718
 31
0.0
  0
LINE
  5
ED
330
1E
100
AcDbEntity
  8
1
 62
     3
100
AcDbLine
 10
32.39021433737234
 20
-1.787442284770492
 30
0.0
 11
37.39021433737235
 21
-1.787442284770492
 31
0.0
  0
LINE
  5
EE
330
1E
100
AcDbEntity
  8
1
 62
     7
100
AcDbLine
 10
32.39021433737234
 20
-1.487442284770538
 30
0.0
 11
37.39021433737235
 21
-1.487442284770538
 31
0.0
  0
LINE
  5
EF
330
1E
100
AcDbEntity
  8
1
 62
     7
100
AcDbLine
 10
32.39021433737234
 20
0.9125577152295534
 30
0.0
 11
37.39021433737235
 21
0.9125577152295534
 31
0.0
  0
LINE
  5
F0
330
1E
100
AcDbEntity
  8
1
 62
     3
100
AcDbLine
 10
32.39021433737234
 20
1.212557715229281
 30
0.0
 11
37.39021433737235
 21
1.212557715229281
 31
0.0
  0
LINE
  5
F1
330
1E
100
AcDbEntity
  8
1
 62
     7
100
AcDbLine
 10
32.79021433737332
 20
2.712557715229508
 30
0.0
 11
36.99021433737453
 21
2.712557715229508
 31
0.0
  0
LINE
  5
F2
330
1E
100
AcDbEntity
  8
1
 62
     7
100
AcDbLine
 10
24.59021433737443
 20
-23.83744228477089
 30
0.0
 11
24.59021433737443
 21
-21.8374422847709
 31
0.0
  0
LINE
  5
F3
330
1E
100
AcDbEntity
  8
1
 62
     7
100
AcDbLine
 10
24.59021433737443
 20
-21.8374422847709
 30
0.0
 11
23.49021433737543
 21
-21.8374422847709
 31
0.0
  0
LINE
  5
F4
330
1E
100
AcDbEntity
  8
1
 62
     7
100
AcDbLine
 10
24.59021433737443
 20
-23.83744228477089
 30
0.0
 11
23.49021433737543
 21
-23.83744228477089
 31
0.0
  0
LINE
  5
F5
330
1E
100
AcDbEntity
  8
1
 62
     7
100
AcDbLine
 10
24.59021433737443
 20
42.26255771522924
 30
0.0
 11
24.59021433737443
 21
44.26255771522924
 31
0.0
  0
LINE
  5
F6
330
1E
100
AcDbEntity
  8
1
 62
     7
100
AcDbLine
 10
23.49021433737543
 20
42.26255771522924
 30
0.0
 11
24.59021433737443
 21
42.26255771522924
 31
0.0
  0
LINE
  5
F7
330
1E
100
AcDbEntity
  8
1
 62
     7
100
AcDbLine
 10
23.49021433737543
 20
44.26255771522924
 30
0.0
 11
24.59021433737443
 21
44.26255771522924
 31
0.0
  0
LINE
  5
F8
330
1E
100
AcDbEntity
  8
1
  6
CENTER
 62
     3
100
AcDbLine
 10
19.49021433737541
 20
47.21255771522928
 30
0.0
 11
38.94698209353946
 21
47.21255771522928
 31
0.0
  0
LINE
  5
F9
330
1E
100
AcDbEntity
  8
1
 62
     7
100
AcDbLine
 10
20.49021433737542
 20
-20.68744228477056
 30
0.0
 11
20.89021433737371
 21
-20.28744228477071
 31
0.0
  0
LINE
  5
FA
330
1E
100
AcDbEntity
  8
1
 62
     7
100
AcDbLine
 10
22.9182143373735
 20
-20.28744228477071
 30
0.0
 11
20.89021433737371
 21
-20.28744228477071
 31
0.0
  0
LINE
  5
FB
330
1E
100
AcDbEntity
  8
1
 62
     7
100
AcDbLine
 10
20.89021433737371
 20
-29.78744228477049
 30
0.0
 11
20.49021433737542
 21
-29.38744228477062
 31
0.0
  0
LINE
  5
FC
330
1E
100
AcDbEntity
  8
1
 62
     7
100
AcDbLine
 10
23.09021433737443
 20
-29.78744228477049
 30
0.0
 11
20.89021433737371
 21
-29.78744228477049
 31
0.0
  0
LINE
  5
FD
330
1E
100
AcDbEntity
  8
1
 62
     7
100
AcDbLine
 10
23.09021433737443
 20
-29.78744228477049
 30
0.0
 11
23.49021433737543
 21
-29.38744228477062
 31
0.0
  0
LINE
  5
FE
330
1E
100
AcDbEntity
  8
1
 62
     7
100
AcDbLine
 10
23.21821433737548
 20
10.21255771522951
 30
0.0
 11
23.21821433737548
 21
-11.84844228477015
 31
0.0
  0
LINE
  5
FF
330
1E
100
AcDbEntity
  8
1
 62
     7
100
AcDbLine
 10
23.49021433737543
 20
-12.02044228477021
 30
0.0
 11
23.49021433737543
 21
-25.6874422847708
 31
0.0
  0
LINE
  5
100
330
1E
100
AcDbEntity
  8
1
 62
     7
100
AcDbLine
 10
20.89021433737371
 20
40.71255771522928
 30
0.0
 11
20.49021433737542
 21
41.1125577152296
 31
0.0
  0
LINE
  5
101
330
1E
100
AcDbEntity
  8
1
 62
     7
100
AcDbLine
 10
20.49021433737542
 20
49.81255771522919
 30
0.0
 11
20.89021433737371
 21
50.21255771522905
 31
0.0
  0
LINE
  5
102
330
1E
100
AcDbEntity
  8
1
 62
     7
100
AcDbLine
 10
20.89021433737371
 20
50.21255771522905
 30
0.0
 11
23.09021433737443
 21
50.21255771522905
 31
0.0
  0
LINE
  5
103
330
1E
100
AcDbEntity
  8
1
 62
     7
100
AcDbLine
 10
23.49021433737543
 20
49.81255771522919
 30
0.0
 11
23.09021433737443
 21
50.21255771522905
 31
0.0
  0
LINE
  5
104
330
1E
100
AcDbEntity
  8
1
 62
     7
100
AcDbLine
 10
24.49021433737543
 20
31.44555771522876
 30
0.0
 11
29.1004610645894
 21
31.44555771522876
 31
0.0
  0
LINE
  5
105
330
1E
100
AcDbEntity
  8
1
 62
     7
100
AcDbLine
 10
37.21021433737433
 20
30.97355771522879
 30
0.0
 11
37.52068152862446
 21
30.98982861126236
 31
0.0
  0
LINE
  5
106
330
1E
100
AcDbEntity
  8
1
 62
     7
100
AcDbLine
 10
37.65163569361247
 20
31.51613635899193
 30
0.0
 11
37.12021433737371
 21
32.04755771522909
 31
0.0
  0
LINE
  5
107
330
1E
100
AcDbEntity
  8
1
 62
     7
100
AcDbLine
 10
24.51821433737432
 20
30.97355771522879
 30
0.0
 11
37.21021433737433
 21
30.97355771522879
 31
0.0
  0
LINE
  5
108
330
1E
100
AcDbEntity
  8
1
 62
     7
100
AcDbLine
 10
20.49021433737542
 20
-25.03744228477071
 30
0.0
 11
23.49021433737543
 21
-25.03744228477071
 31
0.0
  0
LINE
  5
109
330
1E
100
AcDbEntity
  8
1
 62
     7
100
AcDbLine
 10
20.49021433737542
 20
-28.53744228477071
 30
0.0
 11
23.49021433737543
 21
-28.53744228477071
 31
0.0
  0
LINE
  5
10A
330
1E
100
AcDbEntity
  8
1
 62
     7
100
AcDbLine
 10
37.71021433737342
 20
31.18955451821337
 30
0.0
 11
37.71021433737342
 21
31.37471500275486
 31
0.0
  0
LINE
  5
10B
330
1E
100
AcDbEntity
  8
1
 62
     7
100
AcDbLine
 10
23.49021433737543
 20
48.96255771522928
 30
0.0
 11
20.49021433737542
 21
48.96255771522928
 31
0.0
  0
LINE
  5
10C
330
1E
100
AcDbEntity
  8
1
  6
CENTER
 62
     3
100
AcDbLine
 10
39.49021433737543
 20
36.21255771522928
 30
0.0
 11
31.54739401434635
 21
36.21255771522928
 31
0.0
  0
LINE
  5
10D
330
1E
100
AcDbEntity
  8
1
 62
     7
100
AcDbLine
 10
25.66889399381471
 20
40.16255771522933
 30
0.0
 11
24.39021433737371
 21
40.16255771522933
 31
0.0
  0
LINE
  5
10E
330
1E
100
AcDbEntity
  8
1
 62
     7
100
AcDbLine
 10
31.49021433737543
 20
40.16255771522933
 30
0.0
 11
29.31153468076836
 21
40.16255771522933
 31
0.0
  0
LINE
  5
10F
330
1E
100
AcDbEntity
  8
1
 62
     7
100
AcDbLine
 10
29.31153468077244
 20
40.76255771522945
 30
0.0
 11
31.49021433737543
 21
40.76255771522945
 31
0.0
  0
LINE
  5
110
330
1E
100
AcDbEntity
  8
1
 62
     7
100
AcDbLine
 10
24.09021433737443
 20
39.86255771522913
 30
0.0
 11
24.39021433737371
 21
40.16255771522933
 31
0.0
  0
LINE
  5
111
330
1E
100
AcDbEntity
  8
1
 62
     7
100
AcDbLine
 10
23.49021433740771
 20
48.96255771522905
 30
0.0
 11
36.99021433737543
 21
48.96255771522905
 31
0.0
  0
LINE
  5
112
330
1E
100
AcDbEntity
  8
1
 62
     7
100
AcDbLine
 10
20.49021433737542
 20
45.46255771522949
 30
0.0
 11
36.99021433737543
 21
45.46255771522949
 31
0.0
  0
LINE
  5
113
330
1E
100
AcDbEntity
  8
1
 62
     7
100
AcDbLine
 10
36.99021433737543
 20
49.81255771522896
 30
0.0
 11
36.99021433737543
 21
48.96255771522905
 31
0.0
  0
LINE
  5
114
330
1E
100
AcDbEntity
  8
1
 62
     7
100
AcDbLine
 10
36.59021433737442
 20
50.21255771522905
 30
0.0
 11
36.99021433737543
 21
49.81255771522896
 31
0.0
  0
LINE
  5
115
330
1E
100
AcDbEntity
  8
1
 62
     7
100
AcDbLine
 10
23.89021433736734
 20
50.21255771522905
 30
0.0
 11
36.59021433737442
 21
50.21255771522905
 31
0.0
  0
LINE
  5
116
330
1E
100
AcDbEntity
  8
1
 62
     7
100
AcDbLine
 10
23.49021433737543
 20
49.81255771521897
 30
0.0
 11
23.89021433736734
 21
50.21255771522905
 31
0.0
  0
LINE
  5
117
330
1E
100
AcDbEntity
  8
1
 62
     7
100
AcDbLine
 10
23.8902143373737
 20
40.76255771522945
 30
0.0
 11
25.66889399381471
 21
40.76255771522945
 31
0.0
  0
LINE
  5
118
330
1E
100
AcDbEntity
  8
1
 62
     7
100
AcDbLine
 10
23.8902143373737
 20
40.76255771522945
 30
0.0
 11
23.49021433737543
 21
41.16255771522933
 31
0.0
  0
LINE
  5
119
330
1E
100
AcDbEntity
  8
1
 62
     7
100
AcDbLine
 10
25.36889399381543
 20
40.46255771522928
 30
0.0
 11
27.24021433737634
 21
42.33387805879065
 31
0.0
  0
LINE
  5
11A
330
1E
100
AcDbEntity
  8
1
 62
     7
100
AcDbLine
 10
27.49021433737543
 20
42.58387805878881
 30
0.0
 11
27.74021433737543
 21
42.33387805878746
 31
0.0
  0
LINE
  5
11B
330
1E
100
AcDbEntity
  8
1
  6
CENTER
 62
     3
100
AcDbLine
 10
23.5542840918295
 20
40.46255771522928
 30
0.0
 11
31.49021433737543
 21
40.46255771522928
 31
0.0
  0
LINE
  5
11C
330
1E
100
AcDbEntity
  8
1
 62
     7
100
AcDbLine
 10
29.6115346807417
 20
40.46255771522928
 30
0.0
 11
27.49021433737543
 21
38.34123737166996
 31
0.0
  0
LINE
  5
11D
330
1E
100
AcDbEntity
  8
1
 62
     7
100
AcDbLine
 10
27.49021433737543
 20
38.34123737166996
 30
0.0
 11
25.36889399381543
 21
40.46255771522928
 31
0.0
  0
LINE
  5
11E
330
1E
100
AcDbEntity
  8
1
 62
     7
100
AcDbLine
 10
27.24021433737634
 20
42.33387805879065
 30
0.0
 11
27.24021433737543
 21
42.883878058789
 31
0.0
  0
LINE
  5
11F
330
1E
100
AcDbEntity
  8
1
 62
     7
100
AcDbLine
 10
27.24021433737634
 20
42.33387805879065
 30
0.0
 11
27.49021433737543
 21
42.58387805878881
 31
0.0
  0
LINE
  5
120
330
1E
100
AcDbEntity
  8
1
 62
     7
100
AcDbLine
 10
27.24021433737543
 20
42.883878058789
 30
0.0
 11
27.74021433737543
 21
42.88387805878878
 31
0.0
  0
LINE
  5
121
330
1E
100
AcDbEntity
  8
1
 62
     7
100
AcDbLine
 10
27.74021433737543
 20
42.88387805878878
 30
0.0
 11
27.74021433737543
 21
42.33387805878746
 31
0.0
  0
LINE
  5
122
330
1E
100
AcDbEntity
  8
1
 62
     7
100
AcDbLine
 10
27.74021433737543
 20
42.33387805878746
 30
0.0
 11
29.6115346807417
 21
40.46255771522928
 31
0.0
  0
LINE
  5
123
330
1E
100
AcDbEntity
  8
1
 62
     7
100
AcDbLine
 10
27.24021433737543
 20
38.04123737166978
 30
0.0
 11
27.24021433737634
 21
38.59123737166837
 31
0.0
  0
LINE
  5
124
330
1E
100
AcDbEntity
  8
1
 62
     7
100
AcDbLine
 10
27.74021433737543
 20
38.04123737166978
 30
0.0
 11
27.24021433737543
 21
38.04123737166978
 31
0.0
  0
LINE
  5
125
330
1E
100
AcDbEntity
  8
1
 62
     7
100
AcDbLine
 10
27.74021433737543
 20
38.59123737169406
 30
0.0
 11
27.74021433737543
 21
38.04123737166978
 31
0.0
  0
LINE
  5
126
330
1E
100
AcDbEntity
  8
1
 62
     3
100
AcDbLine
 10
38.99021433737543
 20
34.71255771522903
 30
0.0
 11
34.49021433737543
 21
34.71255771522928
 31
0.0
  0
LINE
  5
127
330
1E
100
AcDbEntity
  8
1
 62
     3
100
AcDbLine
 10
34.49021433737543
 20
34.71255771522928
 30
0.0
 11
33.97059909510271
 21
35.01255771522924
 31
0.0
  0
LINE
  5
128
330
1E
100
AcDbEntity
  8
1
 62
     3
100
AcDbLine
 10
33.97059909510271
 20
37.4125577152291
 30
0.0
 11
34.49021433737543
 21
37.71255771522928
 31
0.0
  0
LINE
  5
129
330
1E
100
AcDbEntity
  8
1
 62
     3
100
AcDbLine
 10
34.49021433737543
 20
37.71255771522928
 30
0.0
 11
38.99021433737543
 21
37.71255771522928
 31
0.0
  0
LINE
  5
12A
330
1E
100
AcDbEntity
  8
1
 62
     7
100
AcDbLine
 10
38.99021433737543
 20
35.01255771522924
 30
0.0
 11
32.74021433737543
 21
35.01255771523061
 31
0.0
  0
LINE
  5
12B
330
1E
100
AcDbEntity
  8
1
 62
     7
100
AcDbLine
 10
32.74021433737543
 20
35.01255771523061
 30
0.0
 11
32.74021433737543
 21
37.4125577152291
 31
0.0
  0
LINE
  5
12C
330
1E
100
AcDbEntity
  8
1
 62
     7
100
AcDbLine
 10
34.49021433737543
 20
34.71255771522928
 30
0.0
 11
34.49021433737543
 21
37.71255771522928
 31
0.0
  0
LINE
  5
12D
330
1E
100
AcDbEntity
  8
1
 62
     7
100
AcDbLine
 10
32.74021433737543
 20
37.4125577152291
 30
0.0
 11
38.99021433737543
 21
37.4125577152291
 31
0.0
  0
LINE
  5
12E
330
1E
100
AcDbEntity
  8
1
 62
     7
100
AcDbLine
 10
32.74021433737543
 20
35.01255771523061
 30
0.0
 11
32.04739401434635
 21
36.21255771522928
 31
0.0
  0
LINE
  5
12F
330
1E
100
AcDbEntity
  8
1
 62
     7
100
AcDbLine
 10
32.04739401434635
 20
36.21255771522928
 30
0.0
 11
32.74021433737543
 21
37.4125577152291
 31
0.0
  0
LINE
  5
130
330
1E
100
AcDbEntity
  8
1
 62
     7
100
AcDbLine
 10
38.69021433737434
 20
39.71255771522928
 30
0.0
 11
31.49021433737543
 21
39.71255771522928
 31
0.0
  0
LINE
  5
131
330
1E
100
AcDbEntity
  8
1
 62
     7
100
AcDbLine
 10
38.99021433737543
 20
39.41255771522909
 30
0.0
 11
38.99021433737543
 21
38.51255771522945
 31
0.0
  0
LINE
  5
132
330
1E
100
AcDbEntity
  8
1
 62
     7
100
AcDbLine
 10
31.49021433737543
 20
40.16255771522933
 30
0.0
 11
31.49021433737543
 21
39.71255771522928
 31
0.0
  0
LINE
  5
133
330
1E
100
AcDbEntity
  8
1
 62
     7
100
AcDbLine
 10
38.69021433737434
 20
39.71255771522928
 30
0.0
 11
38.99021433737543
 21
39.41255771522909
 31
0.0
  0
LINE
  5
134
330
1E
100
AcDbEntity
  8
1
 62
     7
100
AcDbLine
 10
23.49021433740771
 20
-28.53744228477049
 30
0.0
 11
23.49021433738543
 21
-29.38744228477062
 31
0.0
  0
LINE
  5
135
330
1E
100
AcDbEntity
  8
1
 62
     7
100
AcDbLine
 10
23.89021433736734
 20
-29.78744228477049
 30
0.0
 11
23.49021433738543
 21
-29.38744228477062
 31
0.0
  0
LINE
  5
136
330
1E
100
AcDbEntity
  8
1
 62
     7
100
AcDbLine
 10
23.49021433737543
 20
-20.73744228477076
 30
0.0
 11
23.8902143373737
 21
-20.33744228477067
 31
0.0
  0
LINE
  5
137
330
1E
100
AcDbEntity
  8
1
 62
     7
100
AcDbLine
 10
24.09021433737443
 20
33.71255771522928
 30
0.0
 11
24.09021433737443
 21
39.86255771522913
 31
0.0
  0
LINE
  5
138
330
1E
100
AcDbEntity
  8
1
 62
     7
100
AcDbLine
 10
25.29021433737471
 20
32.51255771522945
 30
0.0
 11
30.49021433737543
 21
32.51255771522945
 31
0.0
  0
LINE
  5
139
330
1E
100
AcDbEntity
  8
1
 62
     7
100
AcDbLine
 10
25.29021433737471
 20
32.51255771522945
 30
0.0
 11
24.09021433737443
 21
33.71255771522928
 31
0.0
  0
LINE
  5
13A
330
1E
100
AcDbEntity
  8
1
 62
     7
100
AcDbLine
 10
30.49021433737543
 20
32.51255771522945
 30
0.0
 11
30.49021433737543
 21
32.0865577152293
 31
0.0
  0
LINE
  5
13B
330
1E
100
AcDbEntity
  8
1
 62
     7
100
AcDbLine
 10
30.99021433737543
 20
31.5865577152293
 30
0.0
 11
38.49021433737543
 21
31.5865577152293
 31
0.0
  0
LINE
  5
13C
330
1E
100
AcDbEntity
  8
1
 62
     7
100
AcDbLine
 10
38.99021433737543
 20
32.08655771523101
 30
0.0
 11
38.49021433737543
 21
31.5865577152293
 31
0.0
  0
LINE
  5
13D
330
1E
100
AcDbEntity
  8
1
 62
     7
100
AcDbLine
 10
37.12021433737371
 20
32.04755771522909
 30
0.0
 11
30.80705884965702
 21
32.04755771522911
 31
0.0
  0
LINE
  5
13E
330
1E
100
AcDbEntity
  8
1
 62
     7
100
AcDbLine
 10
30.49021433737543
 20
32.0865577152293
 30
0.0
 11
30.99021433737543
 21
31.5865577152293
 31
0.0
  0
LINE
  5
13F
330
1E
100
AcDbEntity
  8
1
 62
     7
100
AcDbLine
 10
30.99021433737543
 20
-11.16144228477071
 30
0.0
 11
30.52921433737473
 21
-11.62244228477097
 31
0.0
  0
LINE
  5
140
330
1E
100
AcDbEntity
  8
1
 62
     7
100
AcDbLine
 10
38.49021433737543
 20
-11.16144228477071
 30
0.0
 11
38.99021433737543
 21
-11.66144228476926
 31
0.0
  0
LINE
  5
141
330
1E
100
AcDbEntity
  8
1
 62
     7
100
AcDbLine
 10
38.49021433737543
 20
-11.16144228477071
 30
0.0
 11
30.99021433737543
 21
-11.16144228477071
 31
0.0
  0
LINE
  5
142
330
1E
100
AcDbEntity
  8
1
 62
     7
100
AcDbLine
 10
30.52921433737473
 20
-11.62244228477097
 30
0.0
 11
30.49021433737543
 21
-11.66144228477071
 31
0.0
  0
LINE
  5
143
330
1E
100
AcDbEntity
  8
1
 62
     7
100
AcDbLine
 10
30.49021433737543
 20
-11.66144228477071
 30
0.0
 11
30.49021433737543
 21
-12.08744228477067
 31
0.0
  0
LINE
  5
144
330
1E
100
AcDbEntity
  8
1
 62
     7
100
AcDbLine
 10
27.74021433737543
 20
-17.61612194121122
 30
0.0
 11
27.74021433737543
 21
-18.16612194118001
 31
0.0
  0
LINE
  5
145
330
1E
100
AcDbEntity
  8
1
 62
     7
100
AcDbLine
 10
27.24021433737543
 20
-17.61612194121122
 30
0.0
 11
27.74021433737543
 21
-17.61612194121122
 31
0.0
  0
LINE
  5
146
330
1E
100
AcDbEntity
  8
1
 62
     7
100
AcDbLine
 10
27.24021433737543
 20
-18.16612194121114
 30
0.0
 11
27.24021433737543
 21
-17.61612194121122
 31
0.0
  0
LINE
  5
147
330
1E
100
AcDbEntity
  8
1
 62
     7
100
AcDbLine
 10
29.61153468073944
 20
-20.03744228477069
 30
0.0
 11
27.74021433737543
 21
-21.90876262833027
 31
0.0
  0
LINE
  5
148
330
1E
100
AcDbEntity
  8
1
 62
     7
100
AcDbLine
 10
27.74021433737543
 20
-21.90876262833027
 30
0.0
 11
27.74021433737543
 21
-22.45876262833021
 31
0.0
  0
LINE
  5
149
330
1E
100
AcDbEntity
  8
1
 62
     7
100
AcDbLine
 10
27.74021433737543
 20
-22.45876262833021
 30
0.0
 11
27.24021433737543
 21
-22.45876262833021
 31
0.0
  0
LINE
  5
14A
330
1E
100
AcDbEntity
  8
1
 62
     7
100
AcDbLine
 10
27.24021433737543
 20
-22.45876262833021
 30
0.0
 11
27.24021433737543
 21
-21.90876262833027
 31
0.0
  0
LINE
  5
14B
330
1E
100
AcDbEntity
  8
1
 62
     7
100
AcDbLine
 10
25.36889399381543
 20
-20.03744228477069
 30
0.0
 11
27.49021433737543
 21
-17.91612194121117
 31
0.0
  0
LINE
  5
14C
330
1E
100
AcDbEntity
  8
1
 62
     7
100
AcDbLine
 10
27.49021433737543
 20
-17.91612194121117
 30
0.0
 11
29.61153468073944
 21
-20.03744228477069
 31
0.0
  0
LINE
  5
14D
330
1E
100
AcDbEntity
  8
1
 62
     7
100
AcDbLine
 10
27.74021433737543
 20
-21.90876262833027
 30
0.0
 11
27.49021433737543
 21
-22.15876262833027
 31
0.0
  0
LINE
  5
14E
330
1E
100
AcDbEntity
  8
1
 62
     7
100
AcDbLine
 10
27.49021433737543
 20
-22.15876262833027
 30
0.0
 11
25.36889399381543
 21
-20.03744228477069
 31
0.0
  0
LINE
  5
14F
330
1E
100
AcDbEntity
  8
1
 62
     7
100
AcDbLine
 10
31.49021433737543
 20
-20.33744228477022
 30
0.0
 11
29.31153468077244
 21
-20.33744228477067
 31
0.0
  0
LINE
  5
150
330
1E
100
AcDbEntity
  8
1
 62
     7
100
AcDbLine
 10
29.31153468076836
 20
-19.73744228477053
 30
0.0
 11
31.49021433737543
 21
-19.73744228477007
 31
0.0
  0
LINE
  5
151
330
1E
100
AcDbEntity
  8
1
 62
     7
100
AcDbLine
 10
37.71021433737342
 20
-10.9495995722963
 30
0.0
 11
37.71021433737342
 21
-10.76443908775482
 31
0.0
  0
LINE
  5
152
330
1E
100
AcDbEntity
  8
1
 62
     7
100
AcDbLine
 10
37.12021433737371
 20
-11.62244228477097
 30
0.0
 11
37.65163569361247
 21
-11.09102092853333
 31
0.0
  0
LINE
  5
153
330
1E
100
AcDbEntity
  8
1
 62
     7
100
AcDbLine
 10
37.52068152862446
 20
-10.5647131808038
 30
0.0
 11
37.21021433737433
 21
-10.54844228477022
 31
0.0
  0
LINE
  5
154
330
1E
100
AcDbEntity
  8
1
 62
     7
100
AcDbLine
 10
24.09021433737443
 20
-13.28744228477094
 30
0.0
 11
24.24021433737543
 21
-13.13744228477063
 31
0.0
  0
LINE
  5
155
330
1E
100
AcDbEntity
  8
1
 62
     7
100
AcDbLine
 10
30.49021433737543
 20
-12.08744228477067
 30
0.0
 11
25.29021433737471
 21
-12.08744228477067
 31
0.0
  0
LINE
  5
156
330
1E
100
AcDbEntity
  8
1
 62
     7
100
AcDbLine
 10
25.66889399381471
 20
-20.33744228477067
 30
0.0
 11
23.8902143373737
 21
-20.33744228477067
 31
0.0
  0
LINE
  5
157
330
1E
100
AcDbEntity
  8
1
 62
     7
100
AcDbLine
 10
24.39021433737371
 20
-19.73744228477053
 30
0.0
 11
24.09021433737443
 21
-19.43744228477078
 31
0.0
  0
LINE
  5
158
330
1E
100
AcDbEntity
  8
1
 62
     7
100
AcDbLine
 10
24.39021433737371
 20
-19.73744228477053
 30
0.0
 11
25.66889399381471
 21
-19.73744228477053
 31
0.0
  0
LINE
  5
159
330
1E
100
AcDbEntity
  8
1
  6
CENTER
 62
     3
100
AcDbLine
 10
31.49021433737543
 20
-20.03744228477069
 30
0.0
 11
23.5542840918295
 21
-20.03744228477069
 31
0.0
  0
LINE
  5
15A
330
1E
100
AcDbEntity
  8
1
 62
     7
100
AcDbLine
 10
37.21021433737433
 20
-10.54844228477022
 30
0.0
 11
24.51821433737432
 21
-10.54844228477022
 31
0.0
  0
LINE
  5
15B
330
1E
100
AcDbEntity
  8
1
 62
     7
100
AcDbLine
 10
29.70950485600965
 20
-11.02044228477021
 30
0.0
 11
24.49021433737543
 21
-11.02044228477021
 31
0.0
  0
LINE
  5
15C
330
1E
100
AcDbEntity
  8
1
 62
     7
100
AcDbLine
 10
36.59021433737442
 20
-29.78744228477026
 30
0.0
 11
23.89021433736734
 21
-29.78744228477049
 31
0.0
  0
LINE
  5
15D
330
1E
100
AcDbEntity
  8
1
  6
CENTER
 62
     3
100
AcDbLine
 10
18.99021433737542
 20
10.21255771522951
 30
0.0
 11
40.99021433737543
 21
10.21255771522951
 31
0.0
  0
LINE
  5
15E
330
1E
100
AcDbEntity
  8
1
 62
     7
100
AcDbLine
 10
20.89021433737371
 20
40.71255771522928
 30
0.0
 11
22.9182143373735
 21
40.71255771522928
 31
0.0
  0
LINE
  5
15F
330
1E
100
AcDbEntity
  8
1
 62
     7
100
AcDbLine
 10
31.99021433737543
 20
44.21255771522928
 30
0.0
 11
31.99021433737543
 21
39.71255771522928
 31
0.0
  0
LINE
  5
160
330
1E
100
AcDbEntity
  8
1
 62
     7
100
AcDbLine
 10
31.99021433737543
 20
39.71255771522928
 30
0.0
 11
33.47189755649542
 21
41.48308329427536
 31
0.0
  0
LINE
  5
161
330
1E
100
AcDbEntity
  8
1
 62
     7
100
AcDbLine
 10
33.93192902762239
 20
41.02305187147506
 30
0.0
 11
31.99021433737543
 21
39.71255771522928
 31
0.0
  0
LINE
  5
162
330
1E
100
AcDbEntity
  8
1
 62
     7
100
AcDbLine
 10
33.47189755649542
 20
41.48308329427536
 30
0.0
 11
33.93192902762239
 21
41.02305187147506
 31
0.0
  0
LINE
  5
163
330
1E
100
AcDbEntity
  8
1
 62
     7
100
AcDbLine
 10
36.99021433737543
 20
44.61255771522937
 30
0.0
 11
36.59021433737442
 21
44.21255771522928
 31
0.0
  0
LINE
  5
164
330
1E
100
AcDbEntity
  8
1
 62
     7
100
AcDbLine
 10
36.59021433737442
 20
44.21255771522928
 30
0.0
 11
31.99021433737543
 21
44.21255771522928
 31
0.0
  0
LINE
  5
165
330
1E
100
AcDbEntity
  8
1
 62
     7
100
AcDbLine
 10
31.99021433737543
 20
44.21255771522928
 30
0.0
 11
31.49021433737543
 21
44.21255771522928
 31
0.0
  0
LINE
  5
166
330
1E
100
AcDbEntity
  8
1
 62
     7
100
AcDbLine
 10
31.49021433737543
 20
44.21255771522928
 30
0.0
 11
31.49021433737543
 21
40.76255771522945
 31
0.0
  0
LINE
  5
167
330
1E
100
AcDbEntity
  8
1
 62
     7
100
AcDbLine
 10
36.99021433737543
 20
48.96255771522905
 30
0.0
 11
36.99021433737543
 21
44.61255771522937
 31
0.0
  0
LINE
  5
168
330
1E
100
AcDbEntity
  8
1
 62
     7
100
AcDbLine
 10
36.59021433737442
 20
44.21255771522928
 30
0.0
 11
36.99021433737543
 21
44.21255771522928
 31
0.0
  0
LINE
  5
169
330
1E
100
AcDbEntity
  8
1
 62
     7
100
AcDbLine
 10
36.99021433737543
 20
44.21255771522928
 30
0.0
 11
36.99021433737543
 21
39.71255771522928
 31
0.0
  0
LINE
  5
16A
330
1E
100
AcDbEntity
  8
1
 62
     7
100
AcDbLine
 10
31.49021433737543
 20
39.71255771522928
 30
0.0
 11
31.49021433737543
 21
38.21255771522928
 31
0.0
  0
LINE
  5
16B
330
1E
100
AcDbEntity
  8
1
 62
     7
100
AcDbLine
 10
31.49021433737543
 20
38.21255771522928
 30
0.0
 11
38.69021433737434
 21
38.21255771522951
 31
0.0
  0
LINE
  5
16C
330
1E
100
AcDbEntity
  8
1
 62
     7
100
AcDbLine
 10
38.69021433737434
 20
38.21255771522951
 30
0.0
 11
38.99021433737543
 21
38.51255771522945
 31
0.0
  0
LINE
  5
16D
330
1E
100
AcDbEntity
  8
1
 62
     7
100
AcDbLine
 10
38.69021433737434
 20
38.21255771522951
 30
0.0
 11
38.99021433737543
 21
37.93959431902734
 31
0.0
  0
LINE
  5
16E
330
1E
100
AcDbEntity
  8
1
 62
     7
100
AcDbLine
 10
38.39021433737642
 20
34.2125577152295
 30
0.0
 11
38.99021433737543
 21
34.2125577152295
 31
0.0
  0
LINE
  5
16F
330
1E
100
AcDbEntity
  8
1
 62
     7
100
AcDbLine
 10
38.39021433737642
 20
33.11255771522937
 30
0.0
 11
38.39021433737642
 21
34.2125577152295
 31
0.0
  0
LINE
  5
170
330
1E
100
AcDbEntity
  8
1
 62
     7
100
AcDbLine
 10
38.99021433737543
 20
33.11255771522937
 30
0.0
 11
38.39021433737642
 21
33.11255771522937
 31
0.0
  0
LINE
  5
171
330
1E
100
AcDbEntity
  8
1
 62
     7
100
AcDbLine
 10
36.99021433737543
 20
-29.38744228477017
 30
0.0
 11
36.59021433737442
 21
-29.78744228477026
 31
0.0
  0
LINE
  5
172
330
1E
100
AcDbEntity
  8
1
 62
     7
100
AcDbLine
 10
36.99021433737543
 20
-19.28744228477026
 30
0.0
 11
36.99021433737543
 21
-23.78744228477026
 31
0.0
  0
LINE
  5
173
330
1E
100
AcDbEntity
  8
1
 62
     7
100
AcDbLine
 10
36.99021433737543
 20
-23.78744228477026
 30
0.0
 11
36.59021433737442
 21
-23.78744228477026
 31
0.0
  0
LINE
  5
174
330
1E
100
AcDbEntity
  8
1
 62
     7
100
AcDbLine
 10
31.49021433737543
 20
-20.33744228477022
 30
0.0
 11
31.49021433737543
 21
-23.78744228477026
 31
0.0
  0
LINE
  5
175
330
1E
100
AcDbEntity
  8
1
 62
     7
100
AcDbLine
 10
31.49021433737543
 20
-23.78744228477026
 30
0.0
 11
31.99021433737543
 21
-23.78744228477026
 31
0.0
  0
LINE
  5
176
330
1E
100
AcDbEntity
  8
1
 62
     7
100
AcDbLine
 10
31.99021433737543
 20
-23.78744228477026
 30
0.0
 11
36.59021433737442
 21
-23.78744228477026
 31
0.0
  0
LINE
  5
177
330
1E
100
AcDbEntity
  8
1
 62
     7
100
AcDbLine
 10
36.59021433737442
 20
-23.78744228477026
 30
0.0
 11
36.99021433737543
 21
-24.18744228477013
 31
0.0
  0
LINE
  5
178
330
1E
100
AcDbEntity
  8
1
 62
     7
100
AcDbLine
 10
33.93192902762239
 20
-20.59793644101606
 30
0.0
 11
33.47189755649542
 21
-21.05796786381634
 31
0.0
  0
LINE
  5
179
330
1E
100
AcDbEntity
  8
1
 62
     7
100
AcDbLine
 10
31.99021433737543
 20
-19.28744228477026
 30
0.0
 11
33.93192902762239
 21
-20.59793644101606
 31
0.0
  0
LINE
  5
17A
330
1E
100
AcDbEntity
  8
1
 62
     7
100
AcDbLine
 10
33.47189755649542
 20
-21.05796786381634
 30
0.0
 11
31.99021433737543
 21
-19.28744228477026
 31
0.0
  0
LINE
  5
17B
330
1E
100
AcDbEntity
  8
1
 62
     7
100
AcDbLine
 10
31.99021433737543
 20
-19.28744228477026
 30
0.0
 11
36.99021433737543
 21
-23.78744228477026
 31
0.0
  0
LINE
  5
17C
330
1E
100
AcDbEntity
  8
1
 62
     7
100
AcDbLine
 10
31.99021433737543
 20
-19.28744228477026
 30
0.0
 11
31.99021433737543
 21
-23.78744228477026
 31
0.0
  0
LINE
  5
17D
330
1E
100
AcDbEntity
  8
1
 62
     7
100
AcDbLine
 10
36.99021433737543
 20
-24.18744228477013
 30
0.0
 11
36.99021433737543
 21
-29.38744228477017
 31
0.0
  0
LINE
  5
17E
330
1E
100
AcDbEntity
  8
1
 62
     7
100
AcDbLine
 10
31.49021433737543
 20
-19.28744228477071
 30
0.0
 11
31.49021433737543
 21
-19.73744228477007
 31
0.0
  0
LINE
  5
17F
330
1E
100
AcDbEntity
  8
1
 62
     7
100
AcDbLine
 10
36.99021433737543
 20
-29.38744228477017
 30
0.0
 11
36.59021433737442
 21
-29.78744228477026
 31
0.0
  0
LINE
  5
180
330
1E
100
AcDbEntity
  8
1
 62
     7
100
AcDbLine
 10
38.69021433737434
 20
-17.78744228477027
 30
0.0
 11
31.49021433737543
 21
-17.78744228477027
 31
0.0
  0
LINE
  5
181
330
1E
100
AcDbEntity
  8
1
 62
     7
100
AcDbLine
 10
31.49021433737543
 20
-17.78744228477027
 30
0.0
 11
31.49021433737543
 21
-19.28744228477071
 31
0.0
  0
LINE
  5
182
330
1E
100
AcDbEntity
  8
1
 62
     7
100
AcDbLine
 10
31.49021433737543
 20
-19.28744228477071
 30
0.0
 11
38.69021433737434
 21
-19.28744228477048
 31
0.0
  0
LINE
  5
183
330
1E
100
AcDbEntity
  8
1
 62
     7
100
AcDbLine
 10
38.39021433737642
 20
-12.68744228477036
 30
0.0
 11
38.99021433737543
 21
-12.68744228477036
 31
0.0
  0
LINE
  5
184
330
1E
100
AcDbEntity
  8
1
 62
     7
100
AcDbLine
 10
38.39021433737642
 20
-13.78744228477072
 30
0.0
 11
38.39021433737642
 21
-12.68744228477036
 31
0.0
  0
LINE
  5
185
330
1E
100
AcDbEntity
  8
1
 62
     7
100
AcDbLine
 10
38.99021433737543
 20
-13.78744228477072
 30
0.0
 11
38.39021433737642
 21
-13.78744228477072
 31
0.0
  0
LINE
  5
186
330
1E
100
AcDbEntity
  8
1
 62
     7
100
AcDbLine
 10
38.99021433737543
 20
-17.51447888856811
 30
0.0
 11
38.69021433737434
 21
-17.78744228477027
 31
0.0
  0
LINE
  5
187
330
1E
100
AcDbEntity
  8
1
 62
     7
100
AcDbLine
 10
38.99021433737543
 20
-18.08744228477022
 30
0.0
 11
38.69021433737434
 21
-17.78744228477027
 31
0.0
  0
LINE
  5
188
330
1E
100
AcDbEntity
  8
1
 62
     7
100
AcDbLine
 10
38.49021433737543
 20
-11.16144228477071
 30
0.0
 11
38.95121433737431
 21
-11.62244228477051
 31
0.0
  0
LINE
  5
189
330
1E
100
AcDbEntity
  8
1
 62
     7
100
AcDbLine
 10
38.99021433737543
 20
37.93959431902734
 30
0.0
 11
38.99021433737543
 21
-17.51447888856811
 31
0.0
  0
LINE
  5
18A
330
1E
100
AcDbEntity
  8
1
 62
     7
100
AcDbLine
 10
38.99021433737543
 20
-18.98744228477029
 30
0.0
 11
38.69021433737434
 21
-19.28744228477048
 31
0.0
  0
LINE
  5
18B
330
1E
100
AcDbEntity
  8
1
 62
     7
100
AcDbLine
 10
38.99021433737543
 20
-18.08744228477022
 30
0.0
 11
38.99021433737543
 21
-18.98744228477029
 31
0.0
  0
LINE
  5
18C
330
1E
100
AcDbEntity
  8
1
 62
     7
100
AcDbLine
 10
30.39021433737371
 20
-15.98744228477077
 30
0.0
 11
32.49021433737543
 21
-15.98744228477077
 31
0.0
  0
LINE
  5
18D
330
1E
100
AcDbEntity
  8
1
 62
     7
100
AcDbLine
 10
32.49021433737543
 20
-15.98744228477077
 30
0.0
 11
32.49021433737543
 21
-14.58744228477067
 31
0.0
  0
LINE
  5
18E
330
1E
100
AcDbEntity
  8
1
 62
     7
100
AcDbLine
 10
32.49021433737543
 20
-14.58744228477067
 30
0.0
 11
30.39021433737371
 21
-14.58744228477067
 31
0.0
  0
LINE
  5
18F
330
1E
100
AcDbEntity
  8
1
 62
     7
100
AcDbLine
 10
32.49021433737543
 20
-15.98744228477077
 30
0.0
 11
32.89435952580634
 21
-15.28744228477072
 31
0.0
  0
LINE
  5
190
330
1E
100
AcDbEntity
  8
1
 62
     7
100
AcDbLine
 10
32.89435952580634
 20
-15.28744228477072
 30
0.0
 11
32.49021433737543
 21
-14.58744228477067
 31
0.0
  0
LINE
  5
191
330
1E
100
AcDbEntity
  8
1
 62
     7
100
AcDbLine
 10
31.49021433737543
 20
-16.28744228477072
 30
0.0
 11
31.49021433737543
 21
-14.28744228477071
 31
0.0
  0
LINE
  5
192
330
1E
100
AcDbEntity
  8
1
 62
     3
100
AcDbLine
 10
30.09021433737443
 20
-16.28744228477072
 30
0.0
 11
31.49021433737543
 21
-16.28744228477072
 31
0.0
  0
LINE
  5
193
330
1E
100
AcDbEntity
  8
1
 62
     3
100
AcDbLine
 10
31.49021433737543
 20
-14.28744228477071
 30
0.0
 11
30.09021433737443
 21
-14.28744228477071
 31
0.0
  0
LINE
  5
194
330
1E
100
AcDbEntity
  8
1
 62
     7
100
AcDbLine
 10
24.24021433737543
 20
-13.13744228477063
 30
0.0
 11
26.3902143373737
 21
-13.13744228477063
 31
0.0
  0
LINE
  5
195
330
1E
100
AcDbEntity
  8
1
 62
     7
100
AcDbLine
 10
24.24021433737543
 20
-13.13744228477063
 30
0.0
 11
25.29021433737471
 21
-12.08744228477067
 31
0.0
  0
LINE
  5
196
330
1E
100
AcDbEntity
  8
1
 62
     7
100
AcDbLine
 10
26.3902143373737
 20
-17.43744228477081
 30
0.0
 11
24.09021433737443
 21
-17.43744228477081
 31
0.0
  0
LINE
  5
197
330
1E
100
AcDbEntity
  8
1
 62
     7
100
AcDbLine
 10
24.09021433737443
 20
-19.43744228477078
 30
0.0
 11
24.09021433737443
 21
-13.28744228477094
 31
0.0
  0
LINE
  5
198
330
1E
100
AcDbEntity
  8
1
 62
     7
100
AcDbLine
 10
27.49021433737543
 20
-14.18744228477081
 30
0.0
 11
26.3902143373737
 21
-14.18744228477081
 31
0.0
  0
LINE
  5
199
330
1E
100
AcDbEntity
  8
1
 62
     7
100
AcDbLine
 10
27.49021433737543
 20
-12.08744228477113
 30
0.0
 11
27.49021433737543
 21
-14.58744228477067
 31
0.0
  0
LINE
  5
19A
330
1E
100
AcDbEntity
  8
1
 62
     7
100
AcDbLine
 10
27.49021433737543
 20
-16.38744228477086
 30
0.0
 11
26.3902143373737
 21
-16.38744228477086
 31
0.0
  0
LINE
  5
19B
330
1E
100
AcDbEntity
  8
1
 62
     7
100
AcDbLine
 10
26.3902143373737
 20
-13.13744228477063
 30
0.0
 11
26.3902143373737
 21
-17.43744228477081
 31
0.0
  0
LINE
  5
19C
330
1E
100
AcDbEntity
  8
1
 62
     7
100
AcDbLine
 10
27.49021433737543
 20
-15.98744228477077
 30
0.0
 11
27.49021433737543
 21
-17.61612194121123
 31
0.0
  0
LINE
  5
19D
330
1E
100
AcDbEntity
  8
1
  6
CENTER
 62
     3
100
AcDbLine
 10
23.70876058568938
 20
-15.28744228477049
 30
0.0
 11
33.49435952580852
 21
-15.28744228477072
 31
0.0
  0
LINE
  5
19E
330
1E
100
AcDbEntity
  8
1
 62
     7
100
AcDbLine
 10
26.49021433737543
 20
-27.88744228477086
 30
0.0
 11
36.99021433737543
 21
-27.88744228477086
 31
0.0
  0
LINE
  5
19F
330
1E
100
AcDbEntity
  8
1
 62
     3
100
AcDbLine
 10
26.09021433737443
 20
-28.28744228477071
 30
0.0
 11
36.99021433737634
 21
-28.28744228477049
 31
0.0
  0
LINE
  5
1A0
330
1E
100
AcDbEntity
  8
1
 62
     3
100
AcDbLine
 10
36.99021433737543
 20
-25.28744228477048
 30
0.0
 11
26.09021433737443
 21
-25.28744228477071
 31
0.0
  0
LINE
  5
1A1
330
1E
100
AcDbEntity
  8
1
  6
CENTER
 62
     3
100
AcDbLine
 10
16.59021433737443
 20
-26.78744228477071
 30
0.0
 11
38.08812973073945
 21
-26.78744228477071
 31
0.0
  0
LINE
  5
1A2
330
1E
100
AcDbEntity
  8
1
 62
     7
100
AcDbLine
 10
23.49021433737543
 20
-27.88744228477086
 30
0.0
 11
23.49021433737543
 21
-29.38744228477062
 31
0.0
  0
LINE
  5
1A3
330
1E
100
AcDbEntity
  8
1
  6
CENTER
 62
     3
100
AcDbLine
 10
-49.39937175473843
 20
-22.63485099768687
 30
0.0
 11
-47.58763843902051
 21
-29.39633178171053
 31
0.0
  0
LINE
  5
1A4
330
1E
100
AcDbEntity
  8
1
  6
CENTER
 62
     3
100
AcDbLine
 10
-67.00062955582662
 20
43.0539373930895
 30
0.0
 11
-68.81236287154452
 21
49.81541817711296
 31
0.0
  0
LINE
  5
1A5
330
1E
100
AcDbEntity
  8
1
  6
CENTER
 62
     3
100
AcDbLine
 10
-92.51625588595764
 20
30.0220456133728
 30
0.0
 11
-87.9696227008746
 21
27.3970452933157
 31
0.0
  0
LINE
  5
1A6
330
1E
100
AcDbEntity
  8
1
  6
CENTER
 62
     3
100
AcDbLine
 10
-92.51625867532556
 20
-9.602954386840936
 30
0.0
 11
-87.96962512067258
 21
-6.977954706897577
 31
0.0
  0
LINE
  5
1A7
330
1E
100
AcDbEntity
  8
1
  6
CENTER
 62
     3
100
AcDbLine
 10
-78.01250307126855
 20
-24.10671203285656
 30
0.0
 11
-75.38750275121329
 21
-19.56007884777287
 31
0.0
  0
LINE
  5
1A8
330
1E
100
AcDbEntity
  8
1
  6
CENTER
 62
     3
100
AcDbLine
 10
-38.38750307105528
 20
-24.10671482222428
 30
0.0
 11
-41.01250275099956
 21
-19.56008126757128
 31
0.0
  0
LINE
  5
1A9
330
1E
100
AcDbEntity
  8
1
  6
CENTER
 62
     3
100
AcDbLine
 10
-23.88374542503853
 20
-9.602959218167283
 30
0.0
 11
-28.43037861012154
 21
-6.977958898110187
 31
0.0
  0
LINE
  5
1AA
330
1E
100
AcDbEntity
  8
1
  6
CENTER
 62
     3
100
AcDbLine
 10
-23.88374263567148
 20
30.02204078204645
 30
0.0
 11
-28.43037619032447
 21
27.39704110210309
 31
0.0
  0
LINE
  5
1AB
330
1E
100
AcDbEntity
  8
1
  6
CENTER
 62
     3
100
AcDbLine
 10
-38.38749823972849
 20
44.52579842806229
 30
0.0
 11
-41.01249855978557
 21
39.97916524297906
 31
0.0
  0
LINE
  5
1AC
330
1E
100
AcDbEntity
  8
1
  6
CENTER
 62
     3
100
AcDbLine
 10
-78.01249823962753
 20
44.52580121731267
 30
0.0
 11
-75.38749855968553
 21
39.97916766265902
 31
0.0
  0
LINE
  5
1AD
330
1E
100
AcDbEntity
  8
1
  6
CENTER
 62
     3
100
AcDbLine
 10
103.9976738438114
 20
-27.70304627957526
 30
0.0
 11
105.1623595467434
 21
-23.35638006126682
 31
0.0
  0
LINE
  5
1AE
330
1E
100
AcDbEntity
  8
1
  6
CENTER
 62
     3
100
AcDbLine
 10
124.3149688837595
 20
48.12213108389469
 30
0.0
 11
123.1502831808263
 21
43.77546486558602
 31
0.0
  0
LINE
  5
1AF
330
1E
100
AcDbEntity
  8
1
  6
CENTER
 62
     3
100
AcDbLine
 10
148.4725779885613
 20
30.02204240220098
 30
0.0
 11
143.9259446186954
 21
27.39704240220098
 31
0.0
  0
LINE
  5
1B0
330
1E
100
AcDbEntity
  8
1
  6
CENTER
 62
     3
100
AcDbLine
 10
133.9688213636035
 20
-24.10671422276042
 30
0.0
 11
131.3438213636024
 21
-19.56008085289148
 31
0.0
  0
LINE
  5
1B1
330
1E
100
AcDbEntity
  8
1
  6
CENTER
 62
     3
100
AcDbLine
 10
79.84006473864456
 20
-9.602957597799928
 30
0.0
 11
84.38669810851143
 21
-6.977957597799472
 31
0.0
  0
LINE
  5
1B2
330
1E
100
AcDbEntity
  8
1
  6
CENTER
 62
     3
100
AcDbLine
 10
94.34382136360254
 20
44.52579902715849
 30
0.0
 11
96.96882136360343
 21
39.97916565728981
 31
0.0
  0
LINE
  5
1B3
330
1E
100
AcDbEntity
  8
1
  6
CENTER
 62
     3
100
AcDbLine
 10
128.2813213635484
 20
34.6747600590646
 30
0.0
 11
126.0313213635484
 21
30.77764574203488
 31
0.0
  0
LINE
  5
1B4
330
1E
100
AcDbEntity
  8
1
  6
CENTER
 62
     3
100
AcDbLine
 10
138.6215390204596
 20
24.33454240215437
 30
0.0
 11
134.7244247034284
 21
22.08454240215437
 31
0.0
  0
LINE
  5
1B5
330
1E
100
AcDbEntity
  8
1
  6
CENTER
 62
     3
100
AcDbLine
 10
138.6215390204596
 20
-3.915457597844266
 30
0.0
 11
134.7244247034284
 21
-1.665457597844266
 31
0.0
  0
LINE
  5
1B6
330
1E
100
AcDbEntity
  8
1
  6
CENTER
 62
     3
100
AcDbLine
 10
128.2813213635484
 20
-14.25567525475381
 30
0.0
 11
126.0313213635484
 21
-10.35856093772455
 31
0.0
  0
LINE
  5
1B7
330
1E
100
AcDbEntity
  8
1
  6
CENTER
 62
     3
100
AcDbLine
 10
100.0313213635484
 20
-14.25567525475494
 30
0.0
 11
102.2813213635484
 21
-10.35856093772478
 31
0.0
  0
LINE
  5
1B8
330
1E
100
AcDbEntity
  8
1
  6
CENTER
 62
     3
100
AcDbLine
 10
89.69110370663953
 20
-3.915457597844721
 30
0.0
 11
93.58821802366836
 21
-1.665457597844949
 31
0.0
  0
LINE
  5
1B9
330
1E
100
AcDbEntity
  8
1
  6
CENTER
 62
     3
100
AcDbLine
 10
89.69110370663953
 20
24.33454240215482
 30
0.0
 11
93.58821802366836
 21
22.0845424021546
 31
0.0
  0
LINE
  5
1BA
330
1E
100
AcDbEntity
  8
1
  6
CENTER
 62
     3
100
AcDbLine
 10
100.0313213635484
 20
34.67476005906551
 30
0.0
 11
102.2813213635484
 21
30.77764574203532
 31
0.0
  0
LINE
  5
1BB
330
1E
100
AcDbEntity
  8
1
  6
CENTER
 62
     3
100
AcDbLine
 10
133.9688213635733
 20
44.52579902705823
 30
0.0
 11
131.3438213635754
 21
39.97916565719046
 31
0.0
  0
LINE
  5
1BC
330
1E
100
AcDbEntity
  8
1
  6
CENTER
 62
     3
100
AcDbLine
 10
148.4725779885333
 20
-9.602957597903156
 30
0.0
 11
143.9259446186646
 21
-6.977957597903156
 31
0.0
  0
LINE
  5
1BD
330
1E
100
AcDbEntity
  8
1
  6
CENTER
 62
     3
100
AcDbLine
 10
94.34382136357344
 20
-24.10671422286069
 30
0.0
 11
96.96882136357345
 21
-19.560080852992
 31
0.0
  0
LINE
  5
1BE
330
1E
100
AcDbEntity
  8
1
  6
CENTER
 62
     3
100
AcDbLine
 10
79.84006473861545
 20
30.02204240209821
 30
0.0
 11
84.3866981084855
 21
27.39704240209889
 31
0.0
  0
LINE
  5
1BF
330
1E
100
AcDbEntity
  8
1
 62
     7
100
AcDbLine
 10
36.99021433737543
 20
-25.6874422847708
 30
0.0
 11
26.49021433737543
 21
-25.6874422847708
 31
0.0
  0
LINE
  5
1C0
330
1E
100
AcDbEntity
  8
1
  6
DIVIDE
 62
     7
100
AcDbLine
 10
39.99021433737543
 20
-5.778540073502114
 30
0.0
 11
39.99021433737543
 21
-12.28744228477049
 31
0.0
  0
LINE
  5
1C1
330
1E
100
AcDbEntity
  8
1
  6
DIVIDE
 62
     7
100
AcDbLine
 10
39.99021433737543
 20
-12.28744228477049
 30
0.0
 11
38.99021433737543
 21
-12.28744228477049
 31
0.0
  0
LINE
  5
1C2
330
1E
100
AcDbEntity
  8
1
  6
DIVIDE
 62
     7
100
AcDbLine
 10
22.29021433737562
 20
29.21255771522951
 30
0.0
 11
26.71821433737548
 21
29.21255771522951
 31
0.0
  0
ARC
  5
1C3
330
1E
100
AcDbEntity
  8
1
 62
     7
100
AcDbCircle
 10
114.1563213635484
 20
28.23954240215525
 30
0.0
 40
2.169999999999919
100
AcDbArc
 50
139.845035006053
 51
223.8705057092905
  0
ARC
  5
1C4
330
1E
100
AcDbEntity
  8
1
 62
     7
100
AcDbCircle
 10
114.1563213635484
 20
10.20954240215208
 30
0.0
 40
16.60000000000294
100
AcDbArc
 50
95.40753118537679
 51
100.2424688146259
  0
ARC
  5
1C5
330
1E
100
AcDbEntity
  8
1
 62
     7
100
AcDbCircle
 10
114.1563213635275
 20
10.20954240239219
 30
0.0
 40
16.59999999976222
100
AcDbArc
 50
94.6320526739356
 51
95.40753118538304
  0
ARC
  5
1C6
330
1E
100
AcDbEntity
  8
1
 62
     7
100
AcDbCircle
 10
109.2925443082392
 20
27.57112564667099
 30
0.0
 40
2.170000000000419
100
AcDbArc
 50
331.7794942907083
 51
55.80496499391072
  0
ARC
  5
1C7
330
1E
100
AcDbEntity
  8
1
 62
     7
100
AcDbCircle
 10
114.1563213635284
 20
10.20954240226396
 30
0.0
 40
16.59999999988948
100
AcDbArc
 50
100.2424688146266
 51
101.0179473260726
  0
ARC
  5
1C8
330
1E
100
AcDbEntity
  8
1
 62
     7
100
AcDbCircle
 10
114.1563213635484
 20
10.20954240215208
 30
0.0
 40
19.50000000000305
100
AcDbArc
 50
94.8790852287402
 51
100.7709147712557
  0
ARC
  5
1C9
330
1E
100
AcDbEntity
  8
1
 62
     7
100
AcDbCircle
 10
114.1563213635484
 20
10.20954240214458
 30
0.0
 40
19.50000000001034
100
AcDbArc
 50
94.14481200307822
 51
94.87908522873835
  0
ARC
  5
1CA
330
1E
100
AcDbEntity
  8
1
 62
     7
100
AcDbCircle
 10
114.1563213635694
 20
10.20954240204478
 30
0.0
 40
19.50000000011207
100
AcDbArc
 50
100.7709147712573
 51
101.5051879969183
  0
ARC
  5
1CB
330
1E
100
AcDbEntity
  8
1
 62
     7
100
AcDbCircle
 10
109.2925443082392
 20
27.57112564667099
 30
0.0
 40
2.169999999999148
100
AcDbArc
 50
155.4950350060408
 51
239.5205057093144
  0
ARC
  5
1CC
330
1E
100
AcDbEntity
  8
1
 62
     7
100
AcDbCircle
 10
104.7893917763591
 20
25.61543510944929
 30
0.0
 40
2.170000000000805
100
AcDbArc
 50
347.4294942907109
 51
71.45496499393558
  0
ARC
  5
1CD
330
1E
100
AcDbEntity
  8
1
 62
     7
100
AcDbCircle
 10
114.1563213635484
 20
10.20954240215208
 30
0.0
 40
19.50000000000276
100
AcDbArc
 50
110.5290852287387
 51
116.4209147712572
  0
ARC
  5
1CE
330
1E
100
AcDbEntity
  8
1
 62
     7
100
AcDbCircle
 10
114.1563213635484
 20
10.20954240215208
 30
0.0
 40
16.60000000000297
100
AcDbArc
 50
111.0575311853725
 51
115.8924688146232
  0
ARC
  5
1CF
330
1E
100
AcDbEntity
  8
1
 62
     7
100
AcDbCircle
 10
114.1563213635985
 20
10.20954240205453
 30
0.0
 40
19.50000000011285
100
AcDbArc
 50
116.4209147712615
 51
117.1551879969148
  0
ARC
  5
1D0
330
1E
100
AcDbEntity
  8
1
 62
     7
100
AcDbCircle
 10
114.1563213635524
 20
10.20954240214505
 30
0.0
 40
19.50000000001064
100
AcDbArc
 50
109.7948120030818
 51
110.5290852287426
  0
ARC
  5
1D1
330
1E
100
AcDbEntity
  8
1
 62
     7
100
AcDbCircle
 10
114.1563213634984
 20
10.20954240225419
 30
0.0
 40
16.59999999988935
100
AcDbArc
 50
115.8924688146219
 51
116.6679473260623
  0
ARC
  5
1D2
330
1E
100
AcDbEntity
  8
1
 62
     7
100
AcDbCircle
 10
114.1563213634634
 20
10.20954240237765
 30
0.0
 40
16.59999999976156
100
AcDbArc
 50
110.2820526739278
 51
111.0575311853783
  0
ARC
  5
1D3
330
1E
100
AcDbEntity
  8
1
 62
     7
100
AcDbCircle
 10
104.7893917763591
 20
25.61543510944929
 30
0.0
 40
2.16999999999924
100
AcDbArc
 50
171.1450350060359
 51
255.1705057093209
  0
ARC
  5
1D4
330
1E
100
AcDbEntity
  8
1
 62
     7
100
AcDbCircle
 10
100.9807498028297
 20
22.5174753743639
 30
0.0
 40
2.170000000000126
100
AcDbArc
 50
3.079494290703868
 51
87.10496499399868
  0
ARC
  5
1D5
330
1E
100
AcDbEntity
  8
1
 62
     7
100
AcDbCircle
 10
114.1563213635484
 20
10.20954240215208
 30
0.0
 40
19.50000000000295
100
AcDbArc
 50
126.1790852287372
 51
132.0709147712582
  0
ARC
  5
1D6
330
1E
100
AcDbEntity
  8
1
 62
     7
100
AcDbCircle
 10
114.1563213635484
 20
10.20954240215208
 30
0.0
 40
16.60000000000284
100
AcDbArc
 50
126.7075311853704
 51
131.5424688146194
  0
ARC
  5
1D7
330
1E
100
AcDbEntity
  8
1
 62
     7
100
AcDbCircle
 10
114.1563213636235
 20
10.20954240207183
 30
0.0
 40
19.50000000011355
100
AcDbArc
 50
132.070914771264
 51
132.8051879969152
  0
ARC
  5
1D8
330
1E
100
AcDbEntity
  8
1
 62
     7
100
AcDbCircle
 10
114.1563213635534
 20
10.2095424021464
 30
0.0
 40
19.50000000001107
100
AcDbArc
 50
125.4448120030818
 51
126.1790852287393
  0
ARC
  5
1D9
330
1E
100
AcDbEntity
  8
1
 62
     7
100
AcDbCircle
 10
114.1563213634742
 20
10.20954240223782
 30
0.0
 40
16.59999999988916
100
AcDbArc
 50
131.5424688146241
 51
132.317947326068
  0
ARC
  5
1DA
330
1E
100
AcDbEntity
  8
1
 62
     7
100
AcDbCircle
 10
114.1563213634074
 20
10.20954240234673
 30
0.0
 40
16.59999999976193
100
AcDbArc
 50
125.9320526739307
 51
126.7075311853821
  0
ARC
  5
1DB
330
1E
100
AcDbEntity
  8
1
 62
     7
100
AcDbCircle
 10
100.9807498028297
 20
22.5174753743639
 30
0.0
 40
2.170000000000769
100
AcDbArc
 50
186.7950350060435
 51
270.8205057092825
  0
ARC
  5
1DC
330
1E
100
AcDbEntity
  8
1
 62
     7
100
AcDbCircle
 10
98.14900996953957
 20
18.50694452180809
 30
0.0
 40
2.169999999997775
100
AcDbArc
 50
18.72949429071787
 51
102.7549649939589
  0
ARC
  5
1DD
330
1E
100
AcDbEntity
  8
1
 62
     7
100
AcDbCircle
 10
114.1563213635484
 20
10.20954240215208
 30
0.0
 40
19.50000000000271
100
AcDbArc
 50
141.8290852287362
 51
147.7209147712509
  0
ARC
  5
1DE
330
1E
100
AcDbEntity
  8
1
 62
     7
100
AcDbCircle
 10
114.1563213635484
 20
10.20954240215208
 30
0.0
 40
16.60000000000269
100
AcDbArc
 50
142.3575311853686
 51
147.1924688146198
  0
ARC
  5
1DF
330
1E
100
AcDbEntity
  8
1
 62
     7
100
AcDbCircle
 10
114.1563213636435
 20
10.20954240209571
 30
0.0
 40
19.50000000011212
100
AcDbArc
 50
147.72091477126
 51
148.4551879969152
  0
ARC
  5
1E0
330
1E
100
AcDbEntity
  8
1
 62
     7
100
AcDbCircle
 10
114.1563213635557
 20
10.20954240214823
 30
0.0
 40
19.50000000001028
100
AcDbArc
 50
141.0948120030809
 51
141.8290852287404
  0
ARC
  5
1E1
330
1E
100
AcDbEntity
  8
1
 62
     7
100
AcDbCircle
 10
114.1563213634531
 20
10.20954240221485
 30
0.0
 40
16.59999999988949
100
AcDbArc
 50
147.1924688146243
 51
147.9679473260651
  0
ARC
  5
1E2
330
1E
100
AcDbEntity
  8
1
 62
     7
100
AcDbCircle
 10
114.1563213633614
 20
10.20954240230171
 30
0.0
 40
16.5999999997623
100
AcDbArc
 50
141.5820526739315
 51
142.3575311853834
  0
ARC
  5
1E3
330
1E
100
AcDbEntity
  8
1
 62
     7
100
AcDbCircle
 10
98.14900996953957
 20
18.50694452180809
 30
0.0
 40
2.170000000000777
100
AcDbArc
 50
202.4450350060523
 51
286.4705057092553
  0
ARC
  5
1E4
330
1E
100
AcDbEntity
  8
1
 62
     7
100
AcDbCircle
 10
96.50413149465048
 20
13.88120317521233
 30
0.0
 40
2.170000000000134
100
AcDbArc
 50
34.37949429069732
 51
118.4049649939402
  0
ARC
  5
1E5
330
1E
100
AcDbEntity
  8
1
 62
     7
100
AcDbCircle
 10
114.1563213635504
 20
10.20954240215414
 30
0.0
 40
16.60000000000387
100
AcDbArc
 50
158.0075311853755
 51
162.842468814626
  0
ARC
  5
1E6
330
1E
100
AcDbEntity
  8
1
 62
     7
100
AcDbCircle
 10
114.1563213634425
 20
10.20954240218734
 30
0.0
 40
16.59999999989003
100
AcDbArc
 50
162.8424688146253
 51
163.6179473260662
  0
ARC
  5
1E7
330
1E
100
AcDbEntity
  8
1
 62
     7
100
AcDbCircle
 10
114.1563213633274
 20
10.20954240224555
 30
0.0
 40
16.59999999976141
100
AcDbArc
 50
157.2320526739305
 51
158.0075311853794
  0
ARC
  5
1E8
330
1E
100
AcDbEntity
  8
1
 62
     7
100
AcDbCircle
 10
114.1563213635504
 20
10.20954240215414
 30
0.0
 40
19.50000000000265
100
AcDbArc
 50
157.4790852287418
 51
163.3709147712583
  0
ARC
  5
1E9
330
1E
100
AcDbEntity
  8
1
 62
     7
100
AcDbCircle
 10
114.1563213636544
 20
10.20954240212367
 30
0.0
 40
19.50000000011127
100
AcDbArc
 50
163.3709147712596
 51
164.1051879969164
  0
ARC
  5
1EA
330
1E
100
AcDbEntity
  8
1
 62
     7
100
AcDbCircle
 10
114.1563213635581
 20
10.20954240215073
 30
0.0
 40
19.50000000001144
100
AcDbArc
 50
156.744812003082
 51
157.4790852287411
  0
ARC
  5
1EB
330
1E
100
AcDbEntity
  8
1
 62
     7
100
AcDbCircle
 10
96.50413149465048
 20
13.88120317521233
 30
0.0
 40
2.169999999999955
100
AcDbArc
 50
218.0950350060516
 51
302.1205057093428
  0
ARC
  5
1EC
330
1E
100
AcDbEntity
  8
1
 62
     7
100
AcDbCircle
 10
114.1563213635504
 20
10.20954240215414
 30
0.0
 40
19.50000000000321
100
AcDbArc
 50
173.1290852287397
 51
179.0209147712555
  0
ARC
  5
1ED
330
1E
100
AcDbEntity
  8
1
 62
     7
100
AcDbCircle
 10
114.1563213635581
 20
10.20954240215323
 30
0.0
 40
19.50000000001037
100
AcDbArc
 50
172.3948120030789
 51
173.1290852287398
  0
ARC
  5
1EE
330
1E
100
AcDbEntity
  8
1
 62
     7
100
AcDbCircle
 10
96.16807381614243
 20
8.983226711460556
 30
0.0
 40
2.169999999999864
100
AcDbArc
 50
50.02949429069588
 51
134.054964993939
  0
ARC
  5
1EF
330
1E
100
AcDbEntity
  8
1
 62
     7
100
AcDbCircle
 10
114.1563213636602
 20
10.20954240215391
 30
0.0
 40
19.50000000011177
100
AcDbArc
 50
179.0209147712604
 51
179.755187996916
  0
ARC
  5
1F0
330
1E
100
AcDbEntity
  8
1
 62
     7
100
AcDbCircle
 10
114.1563213635504
 20
10.20954240215573
 30
0.0
 40
16.60000000000156
100
AcDbArc
 50
173.6575311853765
 51
178.4924688146289
  0
ARC
  5
1F1
330
1E
100
AcDbEntity
  8
1
 62
     7
100
AcDbCircle
 10
114.1563213634374
 20
10.20954240215776
 30
0.0
 40
16.59999999988913
100
AcDbArc
 50
178.4924688146258
 51
179.2679473260675
  0
ARC
  5
1F2
330
1E
100
AcDbEntity
  8
1
 62
     7
100
AcDbCircle
 10
114.1563213633115
 20
10.20954240218276
 30
0.0
 40
16.59999999976301
100
AcDbArc
 50
172.88205267393
 51
173.6575311853781
  0
ARC
  5
1F3
330
1E
100
AcDbEntity
  8
1
 62
     7
100
AcDbCircle
 10
96.16807381614243
 20
8.983226711460556
 30
0.0
 40
2.170000000000566
100
AcDbArc
 50
233.7450350060303
 51
317.7705057093173
  0
ARC
  5
1F4
330
1E
100
AcDbEntity
  8
1
 62
     7
100
AcDbCircle
 10
97.16575391494536
 20
4.176175367528315
 30
0.0
 40
2.17000000000034
100
AcDbArc
 50
65.67949429068554
 51
149.7049649939468
  0
ARC
  5
1F5
330
1E
100
AcDbEntity
  8
1
 62
     7
100
AcDbCircle
 10
114.1563213635504
 20
10.20954240215573
 30
0.0
 40
19.50000000000336
100
AcDbArc
 50
188.7790852287416
 51
194.6709147712578
  0
ARC
  5
1F6
330
1E
100
AcDbEntity
  8
1
 62
     7
100
AcDbCircle
 10
114.1563213635504
 20
10.20954240215573
 30
0.0
 40
16.60000000000191
100
AcDbArc
 50
189.3075311853746
 51
194.1424688146248
  0
ARC
  5
1F7
330
1E
100
AcDbEntity
  8
1
 62
     7
100
AcDbCircle
 10
114.1563213636574
 20
10.20954240218438
 30
0.0
 40
19.50000000011451
100
AcDbArc
 50
194.6709147712598
 51
195.4051879969165
  0
ARC
  5
1F8
330
1E
100
AcDbEntity
  8
1
 62
     7
100
AcDbCircle
 10
114.1563213635581
 20
10.20954240215641
 30
0.0
 40
19.50000000001032
100
AcDbArc
 50
188.0448120030813
 51
188.7790852287402
  0
ARC
  5
1F9
330
1E
100
AcDbEntity
  8
1
 62
     7
100
AcDbCircle
 10
114.1563213634416
 20
10.20954240212799
 30
0.0
 40
16.59999999989074
100
AcDbArc
 50
194.1424688146237
 51
194.9179473260659
  0
ARC
  5
1FA
330
1E
100
AcDbEntity
  8
1
 62
     7
100
AcDbCircle
 10
114.1563213633115
 20
10.20954240211799
 30
0.0
 40
16.59999999976164
100
AcDbArc
 50
188.5320526739303
 51
189.3075311853794
  0
ARC
  5
1FB
330
1E
100
AcDbEntity
  8
1
 62
     7
100
AcDbCircle
 10
97.16575391494536
 20
4.176175367528315
 30
0.0
 40
2.169999999999831
100
AcDbArc
 50
249.3950350060599
 51
333.4205057093166
  0
ARC
  5
1FC
330
1E
100
AcDbEntity
  8
1
 62
     7
100
AcDbCircle
 10
99.42319884656654
 20
-0.1835322583862364
 30
0.0
 40
2.169999999999919
100
AcDbArc
 50
81.32949429072743
 51
165.3549649939525
  0
ARC
  5
1FD
330
1E
100
AcDbEntity
  8
1
 62
     7
100
AcDbCircle
 10
114.1563213635504
 20
10.20954240215573
 30
0.0
 40
19.50000000000337
100
AcDbArc
 50
204.4290852287385
 51
210.320914771256
  0
ARC
  5
1FE
330
1E
100
AcDbEntity
  8
1
 62
     7
100
AcDbCircle
 10
114.1563213635504
 20
10.20954240215573
 30
0.0
 40
16.60000000000311
100
AcDbArc
 50
204.9575311853708
 51
209.7924688146222
  0
ARC
  5
1FF
330
1E
100
AcDbEntity
  8
1
 62
     7
100
AcDbCircle
 10
114.1563213636444
 20
10.2095424022128
 30
0.0
 40
19.50000000011235
100
AcDbArc
 50
210.3209147712619
 51
211.0551879969184
  0
ARC
  5
200
330
1E
100
AcDbEntity
  8
1
 62
     7
100
AcDbCircle
 10
114.1563213635581
 20
10.20954240215914
 30
0.0
 40
19.50000000001169
100
AcDbArc
 50
203.6948120030794
 51
204.4290852287384
  0
ARC
  5
201
330
1E
100
AcDbEntity
  8
1
 62
     7
100
AcDbCircle
 10
114.1563213634524
 20
10.20954240210024
 30
0.0
 40
16.59999999989006
100
AcDbArc
 50
209.7924688146244
 51
210.5679473260668
  0
ARC
  5
202
330
1E
100
AcDbEntity
  8
1
 62
     7
100
AcDbCircle
 10
114.1563213633324
 20
10.20954240205637
 30
0.0
 40
16.59999999976285
100
AcDbArc
 50
204.1820526739307
 51
204.9575311853778
  0
ARC
  5
203
330
1E
100
AcDbEntity
  8
1
 62
     7
100
AcDbCircle
 10
102.7730304615954
 20
-3.772645847240168
 30
0.0
 40
2.170000000000011
100
AcDbArc
 50
96.97949429072004
 51
181.0049649939495
  0
ARC
  5
204
330
1E
100
AcDbEntity
  8
1
 62
     7
100
AcDbCircle
 10
114.1563213635484
 20
10.20954240215801
 30
0.0
 40
19.50000000000253
100
AcDbArc
 50
220.0790852287465
 51
225.9709147712623
  0
ARC
  5
205
330
1E
100
AcDbEntity
  8
1
 62
     7
100
AcDbCircle
 10
114.1563213636257
 20
10.20954240223691
 30
0.0
 40
19.50000000011328
100
AcDbArc
 50
225.9709147712602
 51
226.7051879969169
  0
ARC
  5
206
330
1E
100
AcDbEntity
  8
1
 62
     7
100
AcDbCircle
 10
99.42319884656654
 20
-0.1835322583862364
 30
0.0
 40
2.170000000000308
100
AcDbArc
 50
265.0450350060205
 51
349.0705057092928
  0
ARC
  5
207
330
1E
100
AcDbEntity
  8
1
 62
     7
100
AcDbCircle
 10
114.1563213635484
 20
10.20954240215801
 30
0.0
 40
16.60000000000257
100
AcDbArc
 50
220.6075311853805
 51
225.4424688146291
  0
ARC
  5
208
330
1E
100
AcDbEntity
  8
1
 62
     7
100
AcDbCircle
 10
114.1563213635557
 20
10.20954240216165
 30
0.0
 40
19.50000000001025
100
AcDbArc
 50
219.3448120030813
 51
220.079085228741
  0
ARC
  5
209
330
1E
100
AcDbEntity
  8
1
 62
     7
100
AcDbCircle
 10
114.1563213634716
 20
10.20954240207638
 30
0.0
 40
16.59999999989109
100
AcDbArc
 50
225.4424688146203
 51
226.2179473260645
  0
ARC
  5
20A
330
1E
100
AcDbEntity
  8
1
 62
     7
100
AcDbCircle
 10
114.1563213633665
 20
10.20954240200157
 30
0.0
 40
16.59999999976198
100
AcDbArc
 50
219.8320526739315
 51
220.6075311853791
  0
ARC
  5
20B
330
1E
100
AcDbEntity
  8
1
 62
     7
100
AcDbCircle
 10
102.7730304615954
 20
-3.772645847240168
 30
0.0
 40
2.170000000000285
100
AcDbArc
 50
280.6950350060582
 51
4.720505709303509
  0
ARC
  5
20C
330
1E
100
AcDbEntity
  8
1
 62
     7
100
AcDbCircle
 10
114.1563213635484
 20
10.20954240215801
 30
0.0
 40
16.60000000000303
100
AcDbArc
 50
236.2575311853763
 51
241.092468814626
  0
ARC
  5
20D
330
1E
100
AcDbEntity
  8
1
 62
     7
100
AcDbCircle
 10
114.1563213634134
 20
10.20954240195836
 30
0.0
 40
16.59999999976118
100
AcDbArc
 50
235.4820526739374
 51
236.2575311853809
  0
ARC
  5
20E
330
1E
100
AcDbEntity
  8
1
 62
     7
100
AcDbCircle
 10
106.9668756508262
 20
-6.325050739008842
 30
0.0
 40
2.17000000000094
100
AcDbArc
 50
112.629494290739
 51
196.6549649939398
  0
ARC
  5
20F
330
1E
100
AcDbEntity
  8
1
 62
     7
100
AcDbCircle
 10
114.1563213635484
 20
10.20954240215801
 30
0.0
 40
19.5000000000027
100
AcDbArc
 50
235.7290852287452
 51
241.6209147712635
  0
ARC
  5
210
330
1E
100
AcDbEntity
  8
1
 62
     7
100
AcDbCircle
 10
114.1563213636007
 20
10.20954240225464
 30
0.0
 40
19.50000000011218
100
AcDbArc
 50
241.6209147712633
 51
242.3551879969162
  0
ARC
  5
211
330
1E
100
AcDbEntity
  8
1
 62
     7
100
AcDbCircle
 10
114.1563213635534
 20
10.20954240216392
 30
0.0
 40
19.50000000001094
100
AcDbArc
 50
234.994812003081
 51
235.7290852287429
  0
ARC
  5
212
330
1E
100
AcDbEntity
  8
1
 62
     7
100
AcDbCircle
 10
114.1563213634934
 20
10.20954240205842
 30
0.0
 40
16.59999999988943
100
AcDbArc
 50
241.092468814626
 51
241.8679473260727
  0
ARC
  5
213
330
1E
100
AcDbEntity
  8
1
 62
     7
100
AcDbCircle
 10
106.9668756508262
 20
-6.325050739008842
 30
0.0
 40
2.170000000000142
100
AcDbArc
 50
296.3450350060579
 51
20.3705057093214
  0
ARC
  5
214
330
1E
100
AcDbEntity
  8
1
 62
     7
100
AcDbCircle
 10
111.6937819578614
 20
-7.651498991768362
 30
0.0
 40
2.170000000000178
100
AcDbArc
 50
128.2794942906965
 51
212.3049649939685
  0
ARC
  5
215
330
1E
100
AcDbEntity
  8
1
 62
     7
100
AcDbCircle
 10
114.1563213635484
 20
10.20954240215801
 30
0.0
 40
19.50000000000271
100
AcDbArc
 50
251.3790852287458
 51
257.2709147712611
  0
ARC
  5
216
330
1E
100
AcDbEntity
  8
1
 62
     7
100
AcDbCircle
 10
114.1563213635484
 20
10.20954240215801
 30
0.0
 40
16.60000000000294
100
AcDbArc
 50
251.9075311853744
 51
256.7424688146226
  0
ARC
  5
217
330
1E
100
AcDbEntity
  8
1
 62
     7
100
AcDbCircle
 10
114.1563213635724
 20
10.20954240226509
 30
0.0
 40
19.50000000011254
100
AcDbArc
 50
257.2709147712614
 51
258.0051879969136
  0
ARC
  5
218
330
1E
100
AcDbEntity
  8
1
 62
     7
100
AcDbCircle
 10
114.1563213635524
 20
10.20954240216505
 30
0.0
 40
19.50000000001098
100
AcDbArc
 50
250.6448120030785
 51
251.3790852287409
  0
ARC
  5
219
330
1E
100
AcDbEntity
  8
1
 62
     7
100
AcDbCircle
 10
114.1563213635224
 20
10.2095424020475
 30
0.0
 40
16.59999999988961
100
AcDbArc
 50
256.7424688146224
 51
257.5179473260694
  0
ARC
  5
21A
330
1E
100
AcDbEntity
  8
1
 62
     7
100
AcDbCircle
 10
114.1563213634725
 20
10.20954240192927
 30
0.0
 40
16.59999999976222
100
AcDbArc
 50
251.1320526739277
 51
251.9075311853781
  0
ARC
  5
21B
330
1E
100
AcDbEntity
  8
1
 62
     7
100
AcDbCircle
 10
111.6937819578614
 20
-7.651498991768362
 30
0.0
 40
2.170000000000706
100
AcDbArc
 50
311.9950350060751
 51
36.02050570927149
  0
ARC
  5
21C
330
1E
100
AcDbEntity
  8
1
 62
     7
100
AcDbCircle
 10
114.1563213635484
 20
10.20954240215801
 30
0.0
 40
19.50000000000288
100
AcDbArc
 50
267.0290852287407
 51
272.9209147712573
  0
ARC
  5
21D
330
1E
100
AcDbEntity
  8
1
 62
     7
100
AcDbCircle
 10
114.1563213635484
 20
10.20954240216574
 30
0.0
 40
19.5000000000108
100
AcDbArc
 50
266.2948120030819
 51
267.0290852287418
  0
ARC
  5
21E
330
1E
100
AcDbEntity
  8
1
 62
     7
100
AcDbCircle
 10
116.6032731345382
 20
-7.653641161544925
 30
0.0
 40
2.17000000000028
100
AcDbArc
 50
143.9294942907054
 51
227.9549649939518
  0
ARC
  5
21F
330
1E
100
AcDbEntity
  8
1
 62
     7
100
AcDbCircle
 10
114.1563213635407
 20
10.20954240226757
 30
0.0
 40
19.5000000001127
100
AcDbArc
 50
272.9209147712635
 51
273.6551879969196
  0
ARC
  5
220
330
1E
100
AcDbEntity
  8
1
 62
     7
100
AcDbCircle
 10
114.1563213635484
 20
10.20954240215801
 30
0.0
 40
16.60000000000295
100
AcDbArc
 50
267.5575311853768
 51
272.3924688146222
  0
ARC
  5
221
330
1E
100
AcDbEntity
  8
1
 62
     7
100
AcDbCircle
 10
114.1563213635534
 20
10.20954240204478
 30
0.0
 40
16.59999999988955
100
AcDbArc
 50
272.3924688146212
 51
273.1679473260633
  0
ARC
  5
222
330
1E
100
AcDbEntity
  8
1
 62
     7
100
AcDbCircle
 10
114.1563213635357
 20
10.20954240191767
 30
0.0
 40
16.5999999997622
100
AcDbArc
 50
266.7820526739357
 51
267.5575311853853
  0
ARC
  5
223
330
1E
100
AcDbEntity
  8
1
 62
     7
100
AcDbCircle
 10
116.6032731345382
 20
-7.653641161544925
 30
0.0
 40
2.169999999999369
100
AcDbArc
 50
327.6450350060446
 51
51.67050570931814
  0
ARC
  5
224
330
1E
100
AcDbEntity
  8
1
 62
     7
100
AcDbCircle
 10
114.1563213635484
 20
10.20954240215801
 30
0.0
 40
19.50000000000238
100
AcDbArc
 50
282.6790852287357
 51
288.5709147712541
  0
ARC
  5
225
330
1E
100
AcDbEntity
  8
1
 62
     7
100
AcDbCircle
 10
114.1563213635454
 20
10.20954240216551
 30
0.0
 40
19.50000000001062
100
AcDbArc
 50
281.9448120030827
 51
282.6790852287388
  0
ARC
  5
226
330
1E
100
AcDbEntity
  8
1
 62
     7
100
AcDbCircle
 10
121.3313351860245
 20
-6.331318417260177
 30
0.0
 40
2.169999999999041
100
AcDbArc
 50
159.5794942907001
 51
243.6049649939355
  0
ARC
  5
227
330
1E
100
AcDbEntity
  8
1
 62
     7
100
AcDbCircle
 10
114.1563213635107
 20
10.20954240226192
 30
0.0
 40
19.50000000011301
100
AcDbArc
 50
288.5709147712617
 51
289.3051879969202
  0
ARC
  5
228
330
1E
100
AcDbEntity
  8
1
 62
     7
100
AcDbCircle
 10
114.1563213635484
 20
10.20954240215801
 30
0.0
 40
16.60000000000268
100
AcDbArc
 50
283.207531185367
 51
288.0424688146248
  0
ARC
  5
229
330
1E
100
AcDbEntity
  8
1
 62
     7
100
AcDbCircle
 10
114.1563213635834
 20
10.20954240205001
 30
0.0
 40
16.59999999988968
100
AcDbArc
 50
288.0424688146252
 51
288.8179473260646
  0
ARC
  5
22A
330
1E
100
AcDbEntity
  8
1
 62
     7
100
AcDbCircle
 10
114.1563213636007
 20
10.20954240192313
 30
0.0
 40
16.59999999976196
100
AcDbArc
 50
282.4320526739291
 51
283.2075311853765
  0
ARC
  5
22B
330
1E
100
AcDbEntity
  8
1
 62
     7
100
AcDbCircle
 10
121.3313351860245
 20
-6.331318417260177
 30
0.0
 40
2.170000000000184
100
AcDbArc
 50
343.2950350060473
 51
67.3205057093036
  0
ARC
  5
22C
330
1E
100
AcDbEntity
  8
1
 62
     7
100
AcDbCircle
 10
125.5274061715334
 20
-3.782574317254698
 30
0.0
 40
2.169999999999145
100
AcDbArc
 50
175.229494290698
 51
259.2549649939495
  0
ARC
  5
22D
330
1E
100
AcDbEntity
  8
1
 62
     7
100
AcDbCircle
 10
114.1563213635484
 20
10.20954240215801
 30
0.0
 40
19.50000000000255
100
AcDbArc
 50
298.3290852287371
 51
304.2209147712516
  0
ARC
  5
22E
330
1E
100
AcDbEntity
  8
1
 62
     7
100
AcDbCircle
 10
114.1563213635484
 20
10.20954240215801
 30
0.0
 40
16.60000000000257
100
AcDbArc
 50
298.8575311853683
 51
303.6924688146193
  0
ARC
  5
22F
330
1E
100
AcDbEntity
  8
1
 62
     7
100
AcDbCircle
 10
114.1563213634834
 20
10.20954240224781
 30
0.0
 40
19.50000000011262
100
AcDbArc
 50
304.2209147712611
 51
304.9551879969153
  0
ARC
  5
230
330
1E
100
AcDbEntity
  8
1
 62
     7
100
AcDbCircle
 10
114.1563213635434
 20
10.20954240216483
 30
0.0
 40
19.50000000001102
100
AcDbArc
 50
297.5948120030821
 51
298.3290852287403
  0
ARC
  5
231
330
1E
100
AcDbEntity
  8
1
 62
     7
100
AcDbCircle
 10
114.1563213636094
 20
10.20954240206318
 30
0.0
 40
16.59999999988966
100
AcDbArc
 50
303.6924688146257
 51
304.4679473260627
  0
ARC
  5
232
330
1E
100
AcDbEntity
  8
1
 62
     7
100
AcDbCircle
 10
114.1563213636624
 20
10.20954240194587
 30
0.0
 40
16.59999999976148
100
AcDbArc
 50
298.0820526739268
 51
298.8575311853763
  0
ARC
  5
233
330
1E
100
AcDbEntity
  8
1
 62
     7
100
AcDbCircle
 10
125.5274061715334
 20
-3.782574317254698
 30
0.0
 40
2.16999999999885
100
AcDbArc
 50
358.9450350060492
 51
82.97050570930901
  0
ARC
  5
234
330
1E
100
AcDbEntity
  8
1
 62
     7
100
AcDbCircle
 10
128.8803686031126
 20
-0.1963853742162485
 30
0.0
 40
2.169999999998894
100
AcDbArc
 50
190.8794942906982
 51
274.9049649939495
  0
ARC
  5
235
330
1E
100
AcDbEntity
  8
1
 62
     7
100
AcDbCircle
 10
114.1563213635454
 20
10.20954240215732
 30
0.0
 40
19.50000000000196
100
AcDbArc
 50
313.9790852287371
 51
319.8709147712573
  0
ARC
  5
236
330
1E
100
AcDbEntity
  8
1
 62
     7
100
AcDbCircle
 10
114.1563213635454
 20
10.20954240215732
 30
0.0
 40
16.60000000000248
100
AcDbArc
 50
314.5075311853726
 51
319.3424688146271
  0
ARC
  5
237
330
1E
100
AcDbEntity
  8
1
 62
     7
100
AcDbCircle
 10
114.1563213634614
 20
10.20954240222713
 30
0.0
 40
19.50000000011232
100
AcDbArc
 50
319.8709147712595
 51
320.6051879969141
  0
ARC
  5
238
330
1E
100
AcDbEntity
  8
1
 62
     7
100
AcDbCircle
 10
114.1563213635407
 20
10.20954240216324
 30
0.0
 40
19.50000000001141
100
AcDbArc
 50
313.244812003082
 51
313.9790852287358
  0
ARC
  5
239
330
1E
100
AcDbEntity
  8
1
 62
     7
100
AcDbCircle
 10
114.1563213636326
 20
10.20954240208342
 30
0.0
 40
16.5999999998896
100
AcDbArc
 50
319.3424688146251
 51
320.1179473260643
  0
ARC
  5
23A
330
1E
100
AcDbEntity
  8
1
 62
     7
100
AcDbCircle
 10
114.1563213637134
 20
10.20954240198449
 30
0.0
 40
16.59999999976224
100
AcDbArc
 50
313.7320526739312
 51
314.5075311853776
  0
ARC
  5
23B
330
1E
100
AcDbEntity
  8
1
 62
     7
100
AcDbCircle
 10
114.1563213634442
 20
10.20954240220098
 30
0.0
 40
19.5000000001128
100
AcDbArc
 50
335.5209147712621
 51
336.2551879969171
  0
ARC
  5
23C
330
1E
100
AcDbEntity
  8
1
 62
     7
100
AcDbCircle
 10
131.1416172373035
 20
4.161350599558176
 30
0.0
 40
2.169999999999723
100
AcDbArc
 50
206.5294942907049
 51
290.5549649939175
  0
ARC
  5
23D
330
1E
100
AcDbEntity
  8
1
 62
     7
100
AcDbCircle
 10
128.8803686031126
 20
-0.1963853742162485
 30
0.0
 40
2.1699999999999
100
AcDbArc
 50
14.59503500605713
 51
98.62050570934826
  0
ARC
  5
23E
330
1E
100
AcDbEntity
  8
1
 62
     7
100
AcDbCircle
 10
114.1563213635454
 20
10.20954240215732
 30
0.0
 40
19.50000000000255
100
AcDbArc
 50
329.6290852287383
 51
335.5209147712553
  0
ARC
  5
23F
330
1E
100
AcDbEntity
  8
1
 62
     7
100
AcDbCircle
 10
114.1563213635383
 20
10.20954240216074
 30
0.0
 40
19.50000000001091
100
AcDbArc
 50
328.8948120030811
 51
329.6290852287406
  0
ARC
  5
240
330
1E
100
AcDbEntity
  8
1
 62
     7
100
AcDbCircle
 10
114.1563213635454
 20
10.20954240215732
 30
0.0
 40
16.60000000000124
100
AcDbArc
 50
330.1575311853678
 51
334.9924688146237
  0
ARC
  5
241
330
1E
100
AcDbEntity
  8
1
 62
     7
100
AcDbCircle
 10
114.1563213637541
 20
10.20954240203541
 30
0.0
 40
16.59999999976011
100
AcDbArc
 50
329.3820526739253
 51
330.1575311853742
  0
ARC
  5
242
330
1E
100
AcDbEntity
  8
1
 62
     7
100
AcDbCircle
 10
114.1563213636484
 20
10.20954240210867
 30
0.0
 40
16.59999999989023
100
AcDbArc
 50
334.9924688146259
 51
335.7679473260678
  0
ARC
  5
243
330
1E
100
AcDbEntity
  8
1
 62
     7
100
AcDbCircle
 10
132.1434918993494
 20
8.967529473081043
 30
0.0
 40
2.169999999998858
100
AcDbArc
 50
222.1794942907159
 51
306.2049649939372
  0
ARC
  5
244
330
1E
100
AcDbEntity
  8
1
 62
     7
100
AcDbCircle
 10
114.1563213635441
 20
10.20954240215596
 30
0.0
 40
16.60000000000448
100
AcDbArc
 50
345.807531185374
 51
350.6424688146257
  0
ARC
  5
245
330
1E
100
AcDbEntity
  8
1
 62
     7
100
AcDbCircle
 10
114.1563213636574
 20
10.20954240213709
 30
0.0
 40
16.59999999988997
100
AcDbArc
 50
350.6424688146263
 51
351.4179473260686
  0
ARC
  5
246
330
1E
100
AcDbEntity
  8
1
 62
     7
100
AcDbCircle
 10
131.1416172373035
 20
4.161350599558176
 30
0.0
 40
2.17000000000013
100
AcDbArc
 50
30.24503500604425
 51
114.2705057093091
  0
ARC
  5
247
330
1E
100
AcDbEntity
  8
1
 62
     7
100
AcDbCircle
 10
114.1563213635441
 20
10.20954240215596
 30
0.0
 40
19.50000000000467
100
AcDbArc
 50
345.2790852287421
 51
351.1709147712581
  0
ARC
  5
248
330
1E
100
AcDbEntity
  8
1
 62
     7
100
AcDbCircle
 10
114.1563213634374
 20
10.20954240217164
 30
0.0
 40
19.50000000011072
100
AcDbArc
 50
351.1709147712605
 51
351.9051879969166
  0
ARC
  5
249
330
1E
100
AcDbEntity
  8
1
 62
     7
100
AcDbCircle
 10
114.1563213635383
 20
10.20954240215824
 30
0.0
 40
19.50000000000989
100
AcDbArc
 50
344.5448120030802
 51
345.27908522874
  0
ARC
  5
24A
330
1E
100
AcDbEntity
  8
1
 62
     7
100
AcDbCircle
 10
114.1563213637785
 20
10.20954240209525
 30
0.0
 40
16.59999999976132
100
AcDbArc
 50
345.0320526739311
 51
345.8075311853789
  0
ARC
  5
24B
330
1E
100
AcDbEntity
  8
1
 62
     7
100
AcDbCircle
 10
132.1434918993494
 20
8.967529473081043
 30
0.0
 40
2.170000000000321
100
AcDbArc
 50
45.89503500605768
 51
129.9205057093157
  0
ARC
  5
24C
330
1E
100
AcDbEntity
  8
1
 62
     7
100
AcDbCircle
 10
131.8117086390574
 20
13.86579733743301
 30
0.0
 40
2.169999999998811
100
AcDbArc
 50
237.8294942907363
 51
321.8549649939478
  0
ARC
  5
24D
330
1E
100
AcDbEntity
  8
1
 62
     7
100
AcDbCircle
 10
114.1563213635441
 20
10.20954240215596
 30
0.0
 40
19.50000000000346
100
AcDbArc
 50
0.9290852287391576
 51
6.820914771255512
  0
ARC
  5
24E
330
1E
100
AcDbEntity
  8
1
 62
     7
100
AcDbCircle
 10
114.1563213635441
 20
10.20954240215596
 30
0.0
 40
16.60000000000257
100
AcDbArc
 50
1.457531185371544
 51
6.292468814621781
  0
ARC
  5
24F
330
1E
100
AcDbEntity
  8
1
 62
     7
100
AcDbCircle
 10
114.1563213634364
 20
10.20954240214094
 30
0.0
 40
19.50000000011122
100
AcDbArc
 50
6.820914771261726
 51
7.555187996917148
  0
ARC
  5
250
330
1E
100
AcDbEntity
  8
1
 62
     7
100
AcDbCircle
 10
114.1563213635375
 20
10.20954240215505
 30
0.0
 40
19.50000000000952
100
AcDbArc
 50
0.1948120030812069
 51
0.9290852287415113
  0
ARC
  5
251
330
1E
100
AcDbEntity
  8
1
 62
     7
100
AcDbCircle
 10
114.1563213636585
 20
10.20954240216733
 30
0.0
 40
16.59999999988972
100
AcDbArc
 50
6.292468814625986
 51
7.067947326069019
  0
ARC
  5
252
330
1E
100
AcDbEntity
  8
1
 62
     7
100
AcDbCircle
 10
114.1563213637853
 20
10.20954240215983
 30
0.0
 40
16.5999999997619
100
AcDbArc
 50
0.682052673931043
 51
1.45753118537936
  0
ARC
  5
253
330
1E
100
AcDbEntity
  8
1
 62
     7
100
AcDbCircle
 10
131.8117086390574
 20
13.86579733743301
 30
0.0
 40
2.170000000000249
100
AcDbArc
 50
61.54503500604286
 51
145.5705057092758
  0
ARC
  5
254
330
1E
100
AcDbEntity
  8
1
 62
     7
100
AcDbCircle
 10
130.1708675108237
 20
18.49297234975378
 30
0.0
 40
2.16999999999976
100
AcDbArc
 50
253.4794942906995
 51
337.5049649939465
  0
ARC
  5
255
330
1E
100
AcDbEntity
  8
1
 62
     7
100
AcDbCircle
 10
114.1563213635441
 20
10.20954240215414
 30
0.0
 40
19.50000000000325
100
AcDbArc
 50
16.57908522874131
 51
22.47091477125722
  0
ARC
  5
256
330
1E
100
AcDbEntity
  8
1
 62
     7
100
AcDbCircle
 10
114.1563213635441
 20
10.20954240215414
 30
0.0
 40
16.6000000000043
100
AcDbArc
 50
17.1075311853741
 51
21.94246881462475
  0
ARC
  5
257
330
1E
100
AcDbEntity
  8
1
 62
     7
100
AcDbCircle
 10
114.1563213634425
 20
10.20954240211117
 30
0.0
 40
19.50000000011426
100
AcDbArc
 50
22.4709147712596
 51
23.20518799691642
  0
ARC
  5
258
330
1E
100
AcDbEntity
  8
1
 62
     7
100
AcDbCircle
 10
114.1563213635383
 20
10.20954240215232
 30
0.0
 40
19.50000000000857
100
AcDbArc
 50
15.84481200308317
 51
16.5790852287415
  0
ARC
  5
259
330
1E
100
AcDbEntity
  8
1
 62
     7
100
AcDbCircle
 10
114.1563213636494
 20
10.20954240219666
 30
0.0
 40
16.59999999989061
100
AcDbArc
 50
21.94246881462416
 51
22.71794732606457
  0
ARC
  5
25A
330
1E
100
AcDbEntity
  8
1
 62
     7
100
AcDbCircle
 10
114.1563213637754
 20
10.20954240222372
 30
0.0
 40
16.59999999976225
100
AcDbArc
 50
16.3320526739303
 51
17.10753118537922
  0
ARC
  5
25B
330
1E
100
AcDbEntity
  8
1
 62
     7
100
AcDbCircle
 10
127.3426286037414
 20
22.50597283408169
 30
0.0
 40
2.169999999999669
100
AcDbArc
 50
269.1294942907207
 51
353.1549649939607
  0
ARC
  5
25C
330
1E
100
AcDbEntity
  8
1
 62
     7
100
AcDbCircle
 10
114.1563213635441
 20
10.20954240215414
 30
0.0
 40
16.60000000000317
100
AcDbArc
 50
32.75753118537064
 51
37.59246881461935
  0
ARC
  5
25D
330
1E
100
AcDbEntity
  8
1
 62
     7
100
AcDbCircle
 10
114.1563213636334
 20
10.20954240222281
 30
0.0
 40
16.59999999989151
100
AcDbArc
 50
37.59246881461935
 51
38.3679473260611
  0
ARC
  5
25E
330
1E
100
AcDbEntity
  8
1
 62
     7
100
AcDbCircle
 10
114.1563213637494
 20
10.20954240228238
 30
0.0
 40
16.59999999976241
100
AcDbArc
 50
31.98205267393134
 51
32.75753118538145
  0
ARC
  5
25F
330
1E
100
AcDbEntity
  8
1
 62
     7
100
AcDbCircle
 10
130.1708675108237
 20
18.49297234975378
 30
0.0
 40
2.169999999999914
100
AcDbArc
 50
77.19503500607429
 51
161.220505709311
  0
ARC
  5
260
330
1E
100
AcDbEntity
  8
1
 62
     7
100
AcDbCircle
 10
114.1563213635383
 20
10.20954240214982
 30
0.0
 40
19.50000000001056
100
AcDbArc
 50
31.49481200308063
 51
32.22908522874095
  0
ARC
  5
261
330
1E
100
AcDbEntity
  8
1
 62
     7
100
AcDbCircle
 10
114.1563213635441
 20
10.20954240215414
 30
0.0
 40
19.50000000000295
100
AcDbArc
 50
32.22908522873946
 51
38.12091477125479
  0
ARC
  5
262
330
1E
100
AcDbEntity
  8
1
 62
     7
100
AcDbCircle
 10
114.1563213634584
 20
10.20954240208501
 30
0.0
 40
19.50000000011389
100
AcDbArc
 50
38.12091477125876
 51
38.85518799691359
  0
ARC
  5
263
330
1E
100
AcDbEntity
  8
1
 62
     7
100
AcDbCircle
 10
114.1563213635407
 20
10.20954240214732
 30
0.0
 40
19.50000000001031
100
AcDbArc
 50
47.14481200308329
 51
47.87908522873964
  0
ARC
  5
264
330
1E
100
AcDbEntity
  8
1
 62
     7
100
AcDbCircle
 10
114.1563213637067
 20
10.20954240233217
 30
0.0
 40
16.5999999997625
100
AcDbArc
 50
47.63205267392889
 51
48.40753118537779
  0
ARC
  5
265
330
1E
100
AcDbEntity
  8
1
 62
     7
100
AcDbCircle
 10
127.3426286037414
 20
22.50597283408169
 30
0.0
 40
2.170000000000225
100
AcDbArc
 50
92.84503500603495
 51
176.8705057092972
  0
ARC
  5
266
330
1E
100
AcDbEntity
  8
1
 62
     7
100
AcDbCircle
 10
114.1563213635454
 20
10.20954240215255
 30
0.0
 40
19.50000000000369
100
AcDbArc
 50
47.87908522874022
 51
53.77091477125883
  0
ARC
  5
267
330
1E
100
AcDbEntity
  8
1
 62
     7
100
AcDbCircle
 10
123.5366915599654
 20
25.60725505625337
 30
0.0
 40
2.169999999999459
100
AcDbArc
 50
284.7794942906567
 51
8.804964993957336
  0
ARC
  5
268
330
1E
100
AcDbEntity
  8
1
 62
     7
100
AcDbCircle
 10
114.1563213634824
 20
10.20954240206365
 30
0.0
 40
19.50000000011235
100
AcDbArc
 50
53.77091477126342
 51
54.50518799691888
  0
ARC
  5
269
330
1E
100
AcDbEntity
  8
1
 62
     7
100
AcDbCircle
 10
114.1563213635454
 20
10.20954240215255
 30
0.0
 40
16.60000000000349
100
AcDbArc
 50
48.40753118537375
 51
53.24246881462663
  0
ARC
  5
26A
330
1E
100
AcDbEntity
  8
1
 62
     7
100
AcDbCircle
 10
114.1563213636134
 20
10.20954240224373
 30
0.0
 40
16.59999999988948
100
AcDbArc
 50
53.24246881462578
 51
54.01794732606873
  0
ARC
  5
26B
330
1E
100
AcDbEntity
  8
1
 62
     7
100
AcDbCircle
 10
123.5366915599654
 20
25.60725505625337
 30
0.0
 40
2.170000000000579
100
AcDbArc
 50
108.4950350060843
 51
192.5205057092943
  0
ARC
  5
26C
330
1E
100
AcDbEntity
  8
1
 62
     7
100
AcDbCircle
 10
114.1563213635454
 20
10.20954240215255
 30
0.0
 40
19.50000000000321
100
AcDbArc
 50
63.52908522873953
 51
69.42091477125467
  0
ARC
  5
26D
330
1E
100
AcDbEntity
  8
1
 62
     7
100
AcDbCircle
 10
114.1563213635434
 20
10.20954240214573
 30
0.0
 40
19.50000000001044
100
AcDbArc
 50
62.79481200308246
 51
63.52908522874241
  0
ARC
  5
26E
330
1E
100
AcDbEntity
  8
1
 62
     7
100
AcDbCircle
 10
119.0352474044924
 20
27.56687459022471
 30
0.0
 40
2.169999999999995
100
AcDbArc
 50
300.4294942906856
 51
24.45496499393318
  0
ARC
  5
26F
330
1E
100
AcDbEntity
  8
1
 62
     7
100
AcDbCircle
 10
114.1563213635454
 20
10.20954240215255
 30
0.0
 40
16.60000000000345
100
AcDbArc
 50
64.05753118537072
 51
68.89246881462409
  0
ARC
  5
270
330
1E
100
AcDbEntity
  8
1
 62
     7
100
AcDbCircle
 10
114.1563213635075
 20
10.20954240204906
 30
0.0
 40
19.50000000011338
100
AcDbArc
 50
69.42091477125643
 51
70.15518799691342
  0
ARC
  5
271
330
1E
100
AcDbEntity
  8
1
 62
     7
100
AcDbCircle
 10
114.1563213635885
 20
10.20954240225828
 30
0.0
 40
16.59999999988891
100
AcDbArc
 50
68.89246881463053
 51
69.66794732607164
  0
ARC
  5
272
330
1E
100
AcDbEntity
  8
1
 62
     7
100
AcDbCircle
 10
114.1563213636535
 20
10.20954240236856
 30
0.0
 40
16.59999999976183
100
AcDbArc
 50
63.28205267393258
 51
64.05753118537915
  0
ARC
  5
273
330
1E
100
AcDbEntity
  8
1
 62
     7
100
AcDbCircle
 10
119.0352474044924
 20
27.56687459022471
 30
0.0
 40
2.170000000000043
100
AcDbArc
 50
124.1450350060498
 51
208.1705057093285
  0
ARC
  5
274
330
1E
100
AcDbEntity
  8
1
 62
     7
100
AcDbCircle
 10
114.1563213635454
 20
10.20954240214482
 30
0.0
 40
19.50000000001064
100
AcDbArc
 50
78.44481200308056
 51
79.17908522874141
  0
ARC
  5
275
330
1E
100
AcDbEntity
  8
1
 62
     7
100
AcDbCircle
 10
114.1563213635925
 20
10.20954240238902
 30
0.0
 40
16.59999999976154
100
AcDbArc
 50
78.93205267393499
 51
79.70753118537742
  0
ARC
  5
276
330
1E
100
AcDbEntity
  8
1
 62
     7
100
AcDbCircle
 10
114.1563213635484
 20
28.23954240215525
 30
0.0
 40
2.169999999999657
100
AcDbArc
 50
316.1294942906766
 51
40.15496499394681
  0
ARC
  5
277
330
1E
100
AcDbEntity
  8
1
 62
     7
100
AcDbCircle
 10
114.1563213635484
 20
10.20954240215208
 30
0.0
 40
19.50000000000309
100
AcDbArc
 50
79.17908522874518
 51
85.07091477125783
  0
ARC
  5
278
330
1E
100
AcDbEntity
  8
1
 62
     7
100
AcDbCircle
 10
114.1563213635383
 20
10.20954240204296
 30
0.0
 40
19.5000000001128
100
AcDbArc
 50
85.0709147712561
 51
85.80518799691244
  0
ARC
  5
279
330
1E
100
AcDbEntity
  8
1
 62
     7
100
AcDbCircle
 10
114.1563213635484
 20
10.20954240215208
 30
0.0
 40
16.60000000000301
100
AcDbArc
 50
79.70753118537378
 51
84.54246881462983
  0
ARC
  5
27A
330
1E
100
AcDbEntity
  8
1
 62
     7
100
AcDbCircle
 10
114.1563213635581
 20
10.20954240226509
 30
0.0
 40
16.59999999988949
100
AcDbArc
 50
84.5424688146271
 51
85.31794732606707
  0
ARC
  5
27B
330
1E
100
AcDbEntity
  8
1
 62
     7
100
AcDbCircle
 10
114.1563213635484
 20
28.23954240215525
 30
0.0
 40
1.99999999999971
100
AcDbArc
 50
295.8419327631381
 51
62.80572069266518
  0
ARC
  5
27C
330
1E
100
AcDbEntity
  8
1
 62
     7
100
AcDbCircle
 10
114.1563213635484
 20
28.23954240215525
 30
0.0
 40
1.999999999999858
100
AcDbArc
 50
115.8419327631615
 51
244.1580672368413
  0
ARC
  5
27D
330
1E
100
AcDbEntity
  8
1
 62
     7
100
AcDbCircle
 10
109.2925443082392
 20
27.57112564667099
 30
0.0
 40
1.999999999999534
100
AcDbArc
 50
131.4919327631524
 51
259.8080672368012
  0
ARC
  5
27E
330
1E
100
AcDbEntity
  8
1
 62
     7
100
AcDbCircle
 10
104.7893917763591
 20
25.61543510944929
 30
0.0
 40
1.999999999999078
100
AcDbArc
 50
147.1419327631444
 51
275.4580672368629
  0
ARC
  5
27F
330
1E
100
AcDbEntity
  8
1
 62
     7
100
AcDbCircle
 10
100.9807498028297
 20
22.5174753743639
 30
0.0
 40
1.999999999999175
100
AcDbArc
 50
162.7919327631523
 51
291.1080672368503
  0
ARC
  5
280
330
1E
100
AcDbEntity
  8
1
 62
     7
100
AcDbCircle
 10
98.14900996953957
 20
18.50694452180809
 30
0.0
 40
2.000000000002251
100
AcDbArc
 50
178.4419327631665
 51
306.7580672368253
  0
ARC
  5
281
330
1E
100
AcDbEntity
  8
1
 62
     7
100
AcDbCircle
 10
96.50413149465048
 20
13.88120317521233
 30
0.0
 40
1.999999999999363
100
AcDbArc
 50
194.0919327631639
 51
322.408067236853
  0
ARC
  5
282
330
1E
100
AcDbEntity
  8
1
 62
     7
100
AcDbCircle
 10
96.16807381614243
 20
8.983226711460556
 30
0.0
 40
1.999999999999904
100
AcDbArc
 50
209.7419327631679
 51
338.0580672368278
  0
ARC
  5
283
330
1E
100
AcDbEntity
  8
1
 62
     7
100
AcDbCircle
 10
97.16575391494536
 20
4.176175367528315
 30
0.0
 40
1.999999999999601
100
AcDbArc
 50
225.3919327631825
 51
353.708067236847
  0
ARC
  5
284
330
1E
100
AcDbEntity
  8
1
 62
     7
100
AcDbCircle
 10
99.42319884656654
 20
-0.1835322583862364
 30
0.0
 40
2.00000000000161
100
AcDbArc
 50
241.0419327630962
 51
9.358067236841664
  0
ARC
  5
285
330
1E
100
AcDbEntity
  8
1
 62
     7
100
AcDbCircle
 10
102.7730304615954
 20
-3.772645847240168
 30
0.0
 40
2.000000000000091
100
AcDbArc
 50
256.6919327631715
 51
25.00806723682067
  0
ARC
  5
286
330
1E
100
AcDbEntity
  8
1
 62
     7
100
AcDbCircle
 10
106.9668756508262
 20
-6.325050739008842
 30
0.0
 40
2.0
100
AcDbArc
 50
272.3419327631734
 51
40.65806723686445
  0
ARC
  5
287
330
1E
100
AcDbEntity
  8
1
 62
     7
100
AcDbCircle
 10
111.6937819578614
 20
-7.651498991768362
 30
0.0
 40
1.999999999999709
100
AcDbArc
 50
287.9919327631466
 51
56.30806723679814
  0
ARC
  5
288
330
1E
100
AcDbEntity
  8
1
 62
     7
100
AcDbCircle
 10
116.6032731345382
 20
-7.653641161544925
 30
0.0
 40
2.000000000000274
100
AcDbArc
 50
303.6419327631727
 51
71.95806723683832
  0
ARC
  5
289
330
1E
100
AcDbEntity
  8
1
 62
     7
100
AcDbCircle
 10
121.3313351860245
 20
-6.331318417260177
 30
0.0
 40
1.999999999999379
100
AcDbArc
 50
319.2919327631528
 51
87.60806723684391
  0
ARC
  5
28A
330
1E
100
AcDbEntity
  8
1
 62
     7
100
AcDbCircle
 10
125.5274061715334
 20
-3.782574317254698
 30
0.0
 40
1.999999999999548
100
AcDbArc
 50
334.9419327631612
 51
103.2580672368256
  0
ARC
  5
28B
330
1E
100
AcDbEntity
  8
1
 62
     7
100
AcDbCircle
 10
128.8803686031126
 20
-0.1963853742162485
 30
0.0
 40
2.000000000000198
100
AcDbArc
 50
350.5919327631715
 51
118.908067236804
  0
ARC
  5
28C
330
1E
100
AcDbEntity
  8
1
 62
     7
100
AcDbCircle
 10
131.1416172373035
 20
4.161350599558176
 30
0.0
 40
1.999999999998003
100
AcDbArc
 50
6.241932763172267
 51
134.5580672368269
  0
ARC
  5
28D
330
1E
100
AcDbEntity
  8
1
 62
     7
100
AcDbCircle
 10
132.1434918993494
 20
8.967529473081043
 30
0.0
 40
2.000000000001266
100
AcDbArc
 50
21.89193276315937
 51
150.2080672368078
  0
ARC
  5
28E
330
1E
100
AcDbEntity
  8
1
 62
     7
100
AcDbCircle
 10
131.8117086390574
 20
13.86579733743301
 30
0.0
 40
2.000000000000476
100
AcDbArc
 50
37.54193276315119
 51
165.8580672368303
  0
ARC
  5
28F
330
1E
100
AcDbEntity
  8
1
 62
     7
100
AcDbCircle
 10
130.1708675108237
 20
18.49297234975378
 30
0.0
 40
1.999999999999926
100
AcDbArc
 50
53.19193276316244
 51
181.5080672368349
  0
ARC
  5
290
330
1E
100
AcDbEntity
  8
1
 62
     7
100
AcDbCircle
 10
127.3426286037414
 20
22.50597283408169
 30
0.0
 40
2.000000000000698
100
AcDbArc
 50
68.84193276313856
 51
197.1580672368143
  0
ARC
  5
291
330
1E
100
AcDbEntity
  8
1
 62
     7
100
AcDbCircle
 10
123.5366915599654
 20
25.60725505625337
 30
0.0
 40
1.999999999999648
100
AcDbArc
 50
84.4919327632513
 51
212.8080672368083
  0
ARC
  5
292
330
1E
100
AcDbEntity
  8
1
 62
     7
100
AcDbCircle
 10
119.0352474044924
 20
27.56687459022471
 30
0.0
 40
1.999999999999764
100
AcDbArc
 50
100.1419327631305
 51
228.4580672368651
  0
ARC
  5
293
330
1E
100
AcDbEntity
  8
1
 62
     7
100
AcDbCircle
 10
109.2925443082392
 20
27.57112564667099
 30
0.0
 40
1.999999999999788
100
AcDbArc
 50
311.4919327631613
 51
78.4557206926144
  0
ARC
  5
294
330
1E
100
AcDbEntity
  8
1
 62
     7
100
AcDbCircle
 10
104.7893917763591
 20
25.61543510944929
 30
0.0
 40
2.000000000000643
100
AcDbArc
 50
327.1419327631972
 51
94.1057206925865
  0
ARC
  5
295
330
1E
100
AcDbEntity
  8
1
 62
     7
100
AcDbCircle
 10
100.9807498028297
 20
22.5174753743639
 30
0.0
 40
1.999999999998634
100
AcDbArc
 50
342.7919327631611
 51
109.7557206926601
  0
ARC
  5
296
330
1E
100
AcDbEntity
  8
1
 62
     7
100
AcDbCircle
 10
98.14900996953957
 20
18.50694452180809
 30
0.0
 40
2.000000000000023
100
AcDbArc
 50
358.4419327631651
 51
125.4057206926715
  0
ARC
  5
297
330
1E
100
AcDbEntity
  8
1
 62
     7
100
AcDbCircle
 10
96.50413149465048
 20
13.88120317521233
 30
0.0
 40
1.999999999999911
100
AcDbArc
 50
14.09193276317316
 51
141.0557206926176
  0
ARC
  5
298
330
1E
100
AcDbEntity
  8
1
 62
     7
100
AcDbCircle
 10
96.16807381614243
 20
8.983226711460556
 30
0.0
 40
1.999999999999228
100
AcDbArc
 50
29.74193276318649
 51
156.7057206926444
  0
ARC
  5
299
330
1E
100
AcDbEntity
  8
1
 62
     7
100
AcDbCircle
 10
97.16575391494536
 20
4.176175367528315
 30
0.0
 40
2.000000000001195
100
AcDbArc
 50
45.3919327631361
 51
172.3557206926411
  0
ARC
  5
29A
330
1E
100
AcDbEntity
  8
1
 62
     7
100
AcDbCircle
 10
99.42319884656654
 20
-0.1835322583862364
 30
0.0
 40
1.999999999999879
100
AcDbArc
 50
61.04193276317255
 51
188.005720692633
  0
ARC
  5
29B
330
1E
100
AcDbEntity
  8
1
 62
     7
100
AcDbCircle
 10
102.7730304615954
 20
-3.772645847240168
 30
0.0
 40
1.99999999999987
100
AcDbArc
 50
76.6919327631702
 51
203.6557206926416
  0
ARC
  5
29C
330
1E
100
AcDbEntity
  8
1
 62
     7
100
AcDbCircle
 10
106.9668756508262
 20
-6.325050739008842
 30
0.0
 40
2.000000000000266
100
AcDbArc
 50
92.34193276320127
 51
219.30572069262
  0
ARC
  5
29D
330
1E
100
AcDbEntity
  8
1
 62
     7
100
AcDbCircle
 10
111.6937819578614
 20
-7.651498991768362
 30
0.0
 40
1.999999999999986
100
AcDbArc
 50
107.9919327631714
 51
234.9557206926692
  0
ARC
  5
29E
330
1E
100
AcDbEntity
  8
1
 62
     7
100
AcDbCircle
 10
116.6032731345382
 20
-7.653641161544925
 30
0.0
 40
1.999999999999856
100
AcDbArc
 50
123.6419327631667
 51
250.6057206926653
  0
ARC
  5
29F
330
1E
100
AcDbEntity
  8
1
 62
     7
100
AcDbCircle
 10
121.3313351860245
 20
-6.331318417260177
 30
0.0
 40
2.00000000000106
100
AcDbArc
 50
139.2919327631942
 51
266.2557206926023
  0
ARC
  5
2A0
330
1E
100
AcDbEntity
  8
1
 62
     7
100
AcDbCircle
 10
125.5274061715334
 20
-3.782574317254698
 30
0.0
 40
1.999999999999548
100
AcDbArc
 50
154.9419327631609
 51
281.9057206926123
  0
ARC
  5
2A1
330
1E
100
AcDbEntity
  8
1
 62
     7
100
AcDbCircle
 10
128.8803686031126
 20
-0.1963853742162485
 30
0.0
 40
2.000000000000698
100
AcDbArc
 50
170.5919327631673
 51
297.5557206926611
  0
ARC
  5
2A2
330
1E
100
AcDbEntity
  8
1
 62
     7
100
AcDbCircle
 10
131.1416172373035
 20
4.161350599558176
 30
0.0
 40
2.000000000000288
100
AcDbArc
 50
186.2419327631714
 51
313.2057206926456
  0
ARC
  5
2A3
330
1E
100
AcDbEntity
  8
1
 62
     7
100
AcDbCircle
 10
132.1434918993494
 20
8.967529473081043
 30
0.0
 40
1.999999999998989
100
AcDbArc
 50
201.8919327631714
 51
328.8557206926643
  0
ARC
  5
2A4
330
1E
100
AcDbEntity
  8
1
 62
     7
100
AcDbCircle
 10
131.8117086390574
 20
13.86579733743301
 30
0.0
 40
2.000000000000158
100
AcDbArc
 50
217.5419327631581
 51
344.5057206926605
  0
ARC
  5
2A5
330
1E
100
AcDbEntity
  8
1
 62
     7
100
AcDbCircle
 10
130.1708675108237
 20
18.49297234975378
 30
0.0
 40
2.000000000000179
100
AcDbArc
 50
233.1919327631525
 51
0.1557206926311993
  0
ARC
  5
2A6
330
1E
100
AcDbEntity
  8
1
 62
     7
100
AcDbCircle
 10
127.3426286037414
 20
22.50597283408169
 30
0.0
 40
1.999999999999553
100
AcDbArc
 50
248.8419327631691
 51
15.80572069264764
  0
ARC
  5
2A7
330
1E
100
AcDbEntity
  8
1
 62
     7
100
AcDbCircle
 10
123.5366915599654
 20
25.60725505625337
 30
0.0
 40
2.000000000000043
100
AcDbArc
 50
264.4919327631341
 51
31.45572069265129
  0
ARC
  5
2A8
330
1E
100
AcDbEntity
  8
1
 62
     7
100
AcDbCircle
 10
119.0352474044924
 20
27.56687459022471
 30
0.0
 40
2.000000000000609
100
AcDbArc
 50
280.1419327631908
 51
47.10572069267175
  0
ARC
  5
2A9
330
1E
100
AcDbEntity
  8
1
 62
     7
100
AcDbCircle
 10
29.10046106458849
 20
34.1655577152288
 30
0.0
 40
2.720000000000037
100
AcDbArc
 50
270.0000000000192
 51
308.860446475154
  0
ARC
  5
2AE
330
1E
100
AcDbEntity
  8
1
 62
     7
100
AcDbCircle
 10
29.40498296029936
 20
-12.94931293442769
 30
0.0
 40
1.952761011510894
100
AcDbArc
 50
42.80336558432964
 51
81.02843493040124
  0
ARC
  5
2AF
330
1E
100
AcDbEntity
  8
1
 62
     7
100
AcDbCircle
 10
114.1563213635484
 20
10.20954240215505
 30
0.0
 40
21.37399999999996
100
AcDbArc
 50
247.6098872398388
 51
262.3943330585295
  0
CIRCLE
  5
2B0
330
1E
100
AcDbEntity
  8
1
 62
     7
100
AcDbCircle
 10
-67.77630532407757
 20
45.94879877039678
 30
0.0
 40
2.750000000000909
  0
CIRCLE
  5
2B1
330
1E
100
AcDbEntity
  8
1
 62
     7
100
AcDbCircle
 10
-67.77630532407757
 20
45.94879877039678
 30
0.0
 40
2.403589838487278
  0
CIRCLE
  5
2B2
330
1E
100
AcDbEntity
  8
1
 62
     7
100
AcDbCircle
 10
-48.62369598649066
 20
-25.52971237499415
 30
0.0
 40
2.75
  0
CIRCLE
  5
2B3
330
1E
100
AcDbEntity
  8
1
 62
     7
100
AcDbCircle
 10
-48.62369598649066
 20
-25.52971237499415
 30
0.0
 40
2.403589838488187
  0
CIRCLE
  5
2B4
330
1E
100
AcDbEntity
  8
1
 62
     7
100
AcDbCircle
 10
114.1563213635484
 20
10.20954240215505
 30
0.0
 40
15.15000000000009
  0
CIRCLE
  5
2B5
330
1E
100
AcDbEntity
  8
1
 62
     7
100
AcDbCircle
 10
114.1563213635484
 20
10.20954240215505
 30
0.0
 40
15.15000000000009
  0
CIRCLE
  5
2B6
330
1E
100
AcDbEntity
  8
1
 62
     7
100
AcDbCircle
 10
114.1563213635484
 20
10.20954240215505
 30
0.0
 40
15.15000000000009
  0
CIRCLE
  5
2B7
330
1E
100
AcDbEntity
  8
1
 62
     7
100
AcDbCircle
 10
114.1563213635484
 20
10.20954240215505
 30
0.0
 40
16.23000000000001
  0
CIRCLE
  5
2B8
330
1E
100
AcDbEntity
  8
1
 62
     7
100
AcDbCircle
 10
114.1563213635484
 20
10.20954240215505
 30
0.0
 40
19.83000000000014
  0
CIRCLE
  5
2B9
330
1E
100
AcDbEntity
  8
1
 62
     7
100
AcDbCircle
 10
114.1563213635484
 20
10.20954240215505
 30
0.0
 40
20.86099999999988
  0
CIRCLE
  5
2BA
330
1E
100
AcDbEntity
  8
1
 62
     7
100
AcDbCircle
 10
35.09021433737444
 20
-7.817442284771119
 30
0.0
 40
1.899999999999806
  0
CIRCLE
  5
2BB
330
1E
100
AcDbEntity
  8
1
 62
     7
100
AcDbCircle
 10
35.09021433737444
 20
28.24255771522974
 30
0.0
 40
1.899999999999806
  0
CIRCLE
  5
2BC
330
1E
100
AcDbEntity
  8
1
 62
     7
100
AcDbCircle
 10
-58.20000065528366
 20
10.20954319770144
 30
0.0
 40
40.00301897048459
  0
CIRCLE
  5
2BD
330
1E
100
AcDbEntity
  8
1
 62
     7
100
AcDbCircle
 10
-58.20000065528366
 20
10.20954319770144
 30
0.0
 40
20.85808834583712
  0
CIRCLE
  5
2BE
330
1E
100
AcDbEntity
  8
1
  6
CENTER
 62
     3
100
AcDbCircle
 10
-58.20000065528366
 20
10.20954319770144
 30
0.0
 40
37.0
  0
CIRCLE
  5
2BF
330
1E
100
AcDbEntity
  8
1
 62
     7
100
AcDbCircle
 10
-58.19999805091558
 20
47.20954319781511
 30
0.0
 40
1.75
  0
CIRCLE
  5
2C0
330
1E
100
AcDbEntity
  8
1
 62
     7
100
AcDbCircle
 10
-90.24293929341656
 20
28.70954545334402
 30
0.0
 40
1.750000000000244
  0
CIRCLE
  5
2C1
330
1E
100
AcDbEntity
  8
1
 62
     7
100
AcDbCircle
 10
-95.20000065571158
 20
10.20954580218549
 30
0.0
 40
1.749999999999771
  0
CIRCLE
  5
2C2
330
1E
100
AcDbEntity
  8
1
 62
     7
100
AcDbCircle
 10
-90.24294189799929
 20
-8.290454546869026
 30
0.0
 40
1.749999999999845
  0
CIRCLE
  5
2C3
330
1E
100
AcDbEntity
  8
1
 62
     7
100
AcDbCircle
 10
-76.7000029112425
 20
-21.8333954403146
 30
0.0
 40
1.749999999998273
  0
CIRCLE
  5
2C4
330
1E
100
AcDbEntity
  8
1
 62
     7
100
AcDbCircle
 10
-58.20000326008058
 20
-26.79045680261098
 30
0.0
 40
1.75
  0
CIRCLE
  5
2C5
330
1E
100
AcDbEntity
  8
1
 62
     7
100
AcDbCircle
 10
-39.70000291102561
 20
-21.83339804489802
 30
0.0
 40
1.75000000000103
  0
CIRCLE
  5
2C6
330
1E
100
AcDbEntity
  8
1
 62
     7
100
AcDbCircle
 10
-26.15706201758049
 20
-8.290459058138738
 30
0.0
 40
1.750000000000045
  0
CIRCLE
  5
2C7
330
1E
100
AcDbEntity
  8
1
 62
     7
100
AcDbCircle
 10
-21.20000065528456
 20
10.20954059302001
 30
0.0
 40
1.749999999999995
  0
CIRCLE
  5
2C8
330
1E
100
AcDbEntity
  8
1
 62
     7
100
AcDbCircle
 10
-26.15705941299866
 20
28.70954094207499
 30
0.0
 40
1.750000000000244
  0
CIRCLE
  5
2C9
330
1E
100
AcDbEntity
  8
1
 62
     7
100
AcDbCircle
 10
-39.69999839975725
 20
42.25248183552078
 30
0.0
 40
1.749999999999845
  0
CIRCLE
  5
2CA
330
1E
100
AcDbEntity
  8
1
 62
     7
100
AcDbCircle
 10
-76.69999839965541
 20
42.25248443998596
 30
0.0
 40
1.74999999999737
  0
CIRCLE
  5
2CB
330
1E
100
AcDbEntity
  8
1
 62
     7
100
AcDbCircle
 10
-58.20000065528366
 20
10.20954319770144
 30
0.0
 40
30.5
  0
CIRCLE
  5
2CC
330
1E
100
AcDbEntity
  8
1
 62
     3
100
AcDbCircle
 10
104.5800166952775
 20
-25.52971317042116
 30
0.0
 40
1.5
  0
CIRCLE
  5
2CD
330
1E
100
AcDbEntity
  8
1
 62
     7
100
AcDbCircle
 10
104.5800166952775
 20
-25.52971317042116
 30
0.0
 40
1.199999999998893
  0
CIRCLE
  5
2CE
330
1E
100
AcDbEntity
  8
1
 62
     7
100
AcDbCircle
 10
123.7326260322921
 20
45.94879797474036
 30
0.0
 40
1.200000000000301
  0
CIRCLE
  5
2CF
330
1E
100
AcDbEntity
  8
1
 62
     3
100
AcDbCircle
 10
123.7326260322921
 20
45.94879797474036
 30
0.0
 40
1.499999999999104
  0
CIRCLE
  5
2D0
330
1E
100
AcDbEntity
  8
1
 62
     7
100
AcDbCircle
 10
146.1992613036285
 20
28.7095424022012
 30
0.0
 40
1.749999999999845
  0
CIRCLE
  5
2D1
330
1E
100
AcDbEntity
  8
1
 62
     7
100
AcDbCircle
 10
132.6563213636035
 20
-21.83339753782607
 30
0.0
 40
1.750000000000289
  0
CIRCLE
  5
2D2
330
1E
100
AcDbEntity
  8
1
 62
     7
100
AcDbCircle
 10
82.11338142357845
 20
-8.290457597799928
 30
0.0
 40
1.750000000000894
  0
CIRCLE
  5
2D3
330
1E
100
AcDbEntity
  8
1
 62
     7
100
AcDbCircle
 10
95.65632136360344
 20
42.25248234222461
 30
0.0
 40
1.750000000000128
  0
CIRCLE
  5
2D4
330
1E
100
AcDbEntity
  8
1
 62
     7
100
AcDbCircle
 10
114.1563213635484
 20
10.20954240215505
 30
0.0
 40
21.95100000000001
  0
CIRCLE
  5
2D5
330
1E
100
AcDbEntity
  8
1
 62
     7
100
AcDbCircle
 10
114.1563213635484
 20
10.20954240215505
 30
0.0
 40
21.24499999999966
  0
CIRCLE
  5
2D6
330
1E
100
AcDbEntity
  8
1
 62
     3
100
AcDbCircle
 10
127.1563213635484
 20
32.72620290054994
 30
0.0
 40
1.500000000000379
  0
CIRCLE
  5
2D7
330
1E
100
AcDbEntity
  8
1
 62
     7
100
AcDbCircle
 10
127.1563213635484
 20
32.72620290054994
 30
0.0
 40
1.199999999999584
  0
CIRCLE
  5
2D8
330
1E
100
AcDbEntity
  8
1
 62
     3
100
AcDbCircle
 10
136.6729818619432
 20
23.20954240215414
 30
0.0
 40
1.499999999999923
  0
CIRCLE
  5
2D9
330
1E
100
AcDbEntity
  8
1
 62
     7
100
AcDbCircle
 10
136.6729818619432
 20
23.20954240215414
 30
0.0
 40
1.199999999999362
  0
CIRCLE
  5
2DA
330
1E
100
AcDbEntity
  8
1
 62
     3
100
AcDbCircle
 10
140.1563213635484
 20
10.20954240215505
 30
0.0
 40
1.499999999999771
  0
CIRCLE
  5
2DB
330
1E
100
AcDbEntity
  8
1
 62
     7
100
AcDbCircle
 10
140.1563213635484
 20
10.20954240215505
 30
0.0
 40
1.199999999999362
  0
CIRCLE
  5
2DC
330
1E
100
AcDbEntity
  8
1
 62
     3
100
AcDbCircle
 10
136.6729818619444
 20
-2.790457597844493
 30
0.0
 40
1.499999999999729
  0
CIRCLE
  5
2DD
330
1E
100
AcDbEntity
  8
1
 62
     7
100
AcDbCircle
 10
136.6729818619444
 20
-2.790457597844493
 30
0.0
 40
1.199999999999125
  0
CIRCLE
  5
2DE
330
1E
100
AcDbEntity
  8
1
 62
     3
100
AcDbCircle
 10
127.1563213635484
 20
-12.30711809623941
 30
0.0
 40
1.500000000000295
  0
CIRCLE
  5
2DF
330
1E
100
AcDbEntity
  8
1
 62
     7
100
AcDbCircle
 10
127.1563213635484
 20
-12.30711809623941
 30
0.0
 40
1.199999999998915
  0
CIRCLE
  5
2E0
330
1E
100
AcDbEntity
  8
1
 62
     3
100
AcDbCircle
 10
114.1563213635484
 20
-15.79045759784427
 30
0.0
 40
1.5
  0
CIRCLE
  5
2E1
330
1E
100
AcDbEntity
  8
1
 62
     7
100
AcDbCircle
 10
114.1563213635484
 20
-15.79045759784427
 30
0.0
 40
1.199999999998893
  0
CIRCLE
  5
2E2
330
1E
100
AcDbEntity
  8
1
 62
     3
100
AcDbCircle
 10
101.1563213635484
 20
-12.30711809623985
 30
0.0
 40
1.50000000000108
  0
CIRCLE
  5
2E3
330
1E
100
AcDbEntity
  8
1
 62
     7
100
AcDbCircle
 10
101.1563213635484
 20
-12.30711809623985
 30
0.0
 40
1.199999999999689
  0
CIRCLE
  5
2E4
330
1E
100
AcDbEntity
  8
1
 62
     3
100
AcDbCircle
 10
91.63966086515236
 20
-2.79045759784472
 30
0.0
 40
1.500000000000379
  0
CIRCLE
  5
2E5
330
1E
100
AcDbEntity
  8
1
 62
     7
100
AcDbCircle
 10
91.63966086515236
 20
-2.79045759784472
 30
0.0
 40
1.19999999999997
  0
CIRCLE
  5
2E6
330
1E
100
AcDbEntity
  8
1
 62
     3
100
AcDbCircle
 10
88.15632136354842
 20
10.2095424021546
 30
0.0
 40
1.50000000000022
  0
CIRCLE
  5
2E7
330
1E
100
AcDbEntity
  8
1
 62
     7
100
AcDbCircle
 10
88.15632136354842
 20
10.2095424021546
 30
0.0
 40
1.19999999999982
  0
CIRCLE
  5
2E8
330
1E
100
AcDbEntity
  8
1
 62
     3
100
AcDbCircle
 10
91.63966086515236
 20
23.20954240215482
 30
0.0
 40
1.499999999999868
  0
CIRCLE
  5
2E9
330
1E
100
AcDbEntity
  8
1
 62
     7
100
AcDbCircle
 10
91.63966086515236
 20
23.20954240215482
 30
0.0
 40
1.19999999999997
  0
CIRCLE
  5
2EA
330
1E
100
AcDbEntity
  8
1
 62
     3
100
AcDbCircle
 10
101.1563213635484
 20
32.72620290055042
 30
0.0
 40
1.500000000000379
  0
CIRCLE
  5
2EB
330
1E
100
AcDbEntity
  8
1
 62
     7
100
AcDbCircle
 10
101.1563213635484
 20
32.72620290055042
 30
0.0
 40
1.199999999998691
  0
CIRCLE
  5
2EC
330
1E
100
AcDbEntity
  8
1
 62
     7
100
AcDbCircle
 10
114.1563213635484
 20
36.20954240215503
 30
0.0
 40
1.199999999998893
  0
CIRCLE
  5
2ED
330
1E
100
AcDbEntity
  8
1
 62
     3
100
AcDbCircle
 10
114.1563213635484
 20
36.20954240215503
 30
0.0
 40
1.5
  0
CIRCLE
  5
2EE
330
1E
100
AcDbEntity
  8
1
  6
CENTER
 62
     3
100
AcDbCircle
 10
114.1563213635484
 20
10.20954240215505
 30
0.0
 40
25.99999999999999
  0
CIRCLE
  5
2EF
330
1E
100
AcDbEntity
  8
1
 62
     7
100
AcDbCircle
 10
132.6563213635744
 20
42.25248234212435
 30
0.0
 40
1.749999999999871
  0
CIRCLE
  5
2F0
330
1E
100
AcDbEntity
  8
1
 62
     7
100
AcDbCircle
 10
151.1563213635504
 20
10.20954240215505
 30
0.0
 40
1.749999999999771
  0
CIRCLE
  5
2F1
330
1E
100
AcDbEntity
  8
1
 62
     7
100
AcDbCircle
 10
146.1992613035984
 20
-8.290457597903156
 30
0.0
 40
1.749999999999196
  0
CIRCLE
  5
2F2
330
1E
100
AcDbEntity
  8
1
 62
     7
100
AcDbCircle
 10
114.1563213635484
 20
-26.79045759784654
 30
0.0
 40
1.75
  0
CIRCLE
  5
2F3
330
1E
100
AcDbEntity
  8
1
 62
     7
100
AcDbCircle
 10
95.65632136357343
 20
-21.83339753792635
 30
0.0
 40
1.750000000001144
  0
CIRCLE
  5
2F4
330
1E
100
AcDbEntity
  8
1
 62
     7
100
AcDbCircle
 10
77.15632136354845
 20
10.2095424021546
 30
0.0
 40
1.75000000000022
  0
CIRCLE
  5
2F5
330
1E
100
AcDbEntity
  8
1
 62
     7
100
AcDbCircle
 10
82.11338142354845
 20
28.70954240209821
 30
0.0
 40
1.750000000000242
  0
CIRCLE
  5
2F6
330
1E
100
AcDbEntity
  8
1
 62
     7
100
AcDbCircle
 10
114.1563213635484
 20
47.20954240215504
 30
0.0
 40
1.75
  0
CIRCLE
  5
2F7
330
1E
100
AcDbEntity
  8
1
  6
CENTER
 62
     3
100
AcDbCircle
 10
114.1563213635484
 20
10.20954240215505
 30
0.0
 40
36.99999999999999
  0
CIRCLE
  5
2F8
330
1E
100
AcDbEntity
  8
1
 62
     7
100
AcDbCircle
 10
114.1563213635484
 20
10.20954240215505
 30
0.0
 40
40.0
  0
CIRCLE
  5
2F9
330
1E
100
AcDbEntity
  8
1
 62
     7
100
AcDbCircle
 10
114.1563213635484
 20
10.20954240215505
 30
0.0
 40
21.37399999999798
  0
CIRCLE
  5
2FA
330
1E
100
AcDbEntity
  8
1
 62
     7
100
AcDbCircle
 10
114.1563213635484
 20
10.20954240215505
 30
0.0
 40
22.90000000000032
  0
CIRCLE
  5
2FB
330
1E
100
AcDbEntity
  8
1
 62
     7
100
AcDbCircle
 10
114.1563213635484
 20
10.20954240215505
 30
0.0
 40
24.01169871279705
  0
CIRCLE
  5
2FC
330
1E
100
AcDbEntity
  8
1
 62
     7
100
AcDbCircle
 10
114.1563213635484
 20
10.20954240215505
 30
0.0
 40
28.00335632240946
  0
CIRCLE
  5
2FD
330
1E
100
AcDbEntity
  8
1
 62
     7
100
AcDbCircle
 10
114.1563213635484
 20
10.20954240215505
 30
0.0
 40
29.50402423774447
  0
CIRCLE
  5
2FE
330
1E
100
AcDbEntity
  8
1
 62
     7
100
AcDbCircle
 10
114.1563213635484
 20
10.20954240215505
 30
0.0
 40
34.0
  0
CIRCLE
  5
2FF
330
1E
100
AcDbEntity
  8
1
 62
     3
100
AcDbCircle
 10
124.6563213635484
 20
10.20954240215505
 30
0.0
 40
1.499999999999998
  0
CIRCLE
  5
300
330
1E
100
AcDbEntity
  8
1
 62
     7
100
AcDbCircle
 10
124.6563213635484
 20
10.20954240215505
 30
0.0
 40
1.199999999999814
  0
CIRCLE
  5
301
330
1E
100
AcDbEntity
  8
1
 62
     3
100
AcDbCircle
 10
114.1563213635484
 20
-0.2904575978456307
 30
0.0
 40
1.5
  0
CIRCLE
  5
302
330
1E
100
AcDbEntity
  8
1
 62
     7
100
AcDbCircle
 10
114.1563213635484
 20
-0.2904575978456307
 30
0.0
 40
1.200000000000698
  0
CIRCLE
  5
303
330
1E
100
AcDbEntity
  8
1
 62
     3
100
AcDbCircle
 10
103.6563213635484
 20
10.20954240215482
 30
0.0
 40
1.500000000000228
  0
CIRCLE
  5
304
330
1E
100
AcDbEntity
  8
1
 62
     7
100
AcDbCircle
 10
103.6563213635484
 20
10.20954240215482
 30
0.0
 40
1.19999999999982
  0
CIRCLE
  5
305
330
1E
100
AcDbEntity
  8
1
 62
     7
100
AcDbCircle
 10
114.1563213635484
 20
20.70954240215505
 30
0.0
 40
1.199999999998893
  0
CIRCLE
  5
306
330
1E
100
AcDbEntity
  8
1
 62
     3
100
AcDbCircle
 10
114.1563213635484
 20
20.70954240215505
 30
0.0
 40
1.5
  0
CIRCLE
  5
307
330
1E
100
AcDbEntity
  8
1
  6
CENTER
 62
     3
100
AcDbCircle
 10
114.1563213635484
 20
10.20954240215505
 30
0.0
 40
10.5
  0
CIRCLE
  5
308
330
1E
100
AcDbEntity
  8
1
 62
     7
100
AcDbCircle
 10
114.1563213635484
 20
10.20954240215505
 30
0.0
 40
7.5
  0
LWPOLYLINE
  5
309
330
1E
100
AcDbEntity
  8
1
 62
     7
100
AcDbPolyline
 90
       54
 70
     1
 43
0.0
 10
23.99208833921397
 20
44.26255771522921
 42
0.0196218009365775
 10
23.94470783965685
 20
44.25350520372676
 42
0.0413677187545474
 10
23.89735959357451
 20
44.238180744593
 42
0.0015436377116033
 10
23.85086576678632
 20
44.21675828166578
 42
0.0526298760420823
 10
23.76521433737489
 20
44.15847932434473
 42
0.049647446887725
 10
23.72409816924089
 20
44.12032044451009
 42
0.0014130172886366
 10
23.68548208422585
 20
44.07703125977529
 42
0.0407227166757299
 10
23.61888989365958
 20
43.97988908906613
 42
0.0382005827359105
 10
23.58931891109672
 20
43.92378060678661
 42
0.0007873571112939
 10
23.56335221904544
 20
43.86427804864617
 42
0.033163684389738
 10
23.5233833959433
 20
43.73927511597766
 42
0.0318293061469241
 10
23.50887688210609
 20
43.67231547442977
 42
0.0002423746834526
 10
23.49850371462252
 20
43.60403013704703
 42
0.0301773682025129
 10
23.49021433737523
 20
43.46565900131703
 42
0.0299379652018593
 10
23.49850371462252
 20
43.32728786558713
 42
0.030107888576722
 10
23.50887688210609
 20
43.25900252820445
 42
0.000500882909136
 10
23.5233833959433
 20
43.1920428866565
 42
0.0324185010572867
 10
23.56335221904544
 20
43.06703995398779
 42
0.0336046629737552
 10
23.58931891109672
 20
43.00753739584712
 42
0.0011029964323697
 10
23.61888989365958
 20
42.95142891356753
 42
0.0394264025659096
 10
23.68548208422585
 20
42.85428674285884
 42
0.0418918332495369
 10
23.72409816924089
 20
42.8109975581241
 42
0.0016245679270188
 10
23.76521433737489
 20
42.77283867828942
 42
0.0512034701220574
 10
23.85086576678632
 20
42.71455972096827
 42
0.0548452584266743
 10
23.89735959357451
 20
42.69313725804106
 42
0.0009861349499224
 10
23.94470783965685
 20
42.67781279890736
 42
0.0620887528925062
 10
24.04021433737465
 20
42.66565900131682
 42
0.0621037961955206
 10
24.13572083509238
 20
42.67781279890736
 42
0.0620143221504627
 10
24.18306908117534
 20
42.69313725804106
 42
0.0015436377119357
 10
24.22956290796389
 20
42.71455972096827
 42
0.0526298760449986
 10
24.31521433737342
 20
42.77283867828944
 42
0.0496474468821369
 10
24.3563305055067
 20
42.8109975581241
 42
0.0014130172884335
 10
24.39494659052171
 20
42.85428674285884
 42
0.0407227166771602
 10
24.46153878108961
 20
42.95142891356753
 42
0.0382005827475835
 10
24.49110976365182
 20
43.00753739584712
 42
0.0007873571109936
 10
24.5170764557025
 20
43.06703995398779
 42
0.0331636843882062
 10
24.55704527880678
 20
43.19204288665646
 42
0.031829306159099
 10
24.57155179264379
 20
43.25900252820422
 42
0.0002423746834047
 10
24.58192496012678
 20
43.32728786558678
 42
0.0301773682016123
 10
24.59021433737439
 20
43.46565900131696
 42
0.0299379652008843
 10
24.58192496012678
 20
43.60403013704703
 42
0.0301078885763692
 10
24.57155179264379
 20
43.67231547442977
 42
0.0005008829093052
 10
24.55704527880676
 20
43.73927511597766
 42
0.0324185010562708
 10
24.51707645570248
 20
43.86427804864616
 42
0.0336046629624304
 10
24.49110976365182
 20
43.92378060678661
 42
0.0011029964326693
 10
24.4615387810896
 20
43.97988908906613
 42
0.0394264025665009
 10
24.39494659052171
 20
44.07703125977529
 42
0.041891833247927
 10
24.3563305055067
 20
44.12032044451009
 42
0.0016245679270946
 10
24.31521433737344
 20
44.15847932434473
 42
0.05120347012451
 10
24.22956290796389
 20
44.21675828166579
 42
0.0548452584199005
 10
24.18306908117532
 20
44.238180744593
 42
0.0009861349499023
 10
24.13572083509238
 20
44.25350520372676
 42
0.062088752891983
 10
24.04021433737465
 20
44.26565900131704
 10
23.99208833921397
 20
44.26255771522921
  0
LWPOLYLINE
  5
341
330
1E
100
AcDbEntity
  8
1
 62
     7
100
AcDbPolyline
 90
       54
 70
     1
 43
0.0
 10
23.99208833921397
 20
-23.83434099868281
 42
-0.0196218009368049
 10
23.94470783965685
 20
-23.82528848718046
 42
-0.0413677187552722
 10
23.89735959357451
 20
-23.80996402804675
 42
-0.0015436377117167
 10
23.85086576678632
 20
-23.78854156511946
 42
-0.0526298760421699
 10
23.76521433737489
 20
-23.73026260779828
 42
-0.0496474468836547
 10
23.72409816924089
 20
-23.69210372796361
 42
-0.0014130172885752
 10
23.68548208422585
 20
-23.64881454322884
 42
-0.0407227166759913
 10
23.61888989365958
 20
-23.55167237252
 42
-0.0382005827390019
 10
23.58931891109672
 20
-23.49556389024046
 42
-0.0007873571113593
 10
23.56335221904544
 20
-23.43606133209987
 42
-0.0331636843895076
 10
23.5233833959433
 20
-23.31105839943105
 42
-0.0318293061474067
 10
23.50887688210609
 20
-23.24409875788326
 42
-0.0002423746834718
 10
23.49850371462252
 20
-23.17581342050071
 42
-0.0301773682025991
 10
23.49021433737523
 20
-23.03744228477069
 42
-0.0299379652018084
 10
23.49850371462252
 20
-22.89907114904053
 42
-0.03010788857621
 10
23.50887688210609
 20
-22.83078581165794
 42
-0.0005008829091511
 10
23.5233833959433
 20
-22.76382617011019
 42
-0.0324185010573145
 10
23.56335221904544
 20
-22.63882323744156
 42
-0.0336046629739234
 10
23.58931891109672
 20
-22.57932067930107
 42
-0.0011029964323742
 10
23.61888989365958
 20
-22.5232121970216
 42
-0.0394264025655151
 10
23.68548208422585
 20
-22.42607002631259
 42
-0.0418918332491382
 10
23.72409816924089
 20
-22.38278084157772
 42
-0.0016245679271725
 10
23.76521433737489
 20
-22.34462196174303
 42
-0.0512034701216322
 10
23.85086576678632
 20
-22.28634300442207
 42
-0.054845258423035
 10
23.89735959357451
 20
-22.26492054149467
 42
-0.0009861349499615
 10
23.94470783965685
 20
-22.24959608236083
 42
-0.0620887528922781
 10
24.04021433737465
 20
-22.23744228477078
 42
-0.0621037961953953
 10
24.13572083509238
 20
-22.24959608236083
 42
-0.0620143221573591
 10
24.18306908117534
 20
-22.26492054149467
 42
-0.0015436377117655
 10
24.22956290796389
 20
-22.28634300442207
 42
-0.0526298760444875
 10
24.31521433737342
 20
-22.34462196174303
 42
-0.0496474468840333
 10
24.3563305055067
 20
-22.38278084157772
 42
-0.0014130172883788
 10
24.39494659052171
 20
-22.42607002631259
 42
-0.0407227166765746
 10
24.46153878108961
 20
-22.5232121970216
 42
-0.0382005827438667
 10
24.49110976365182
 20
-22.57932067930107
 42
-0.0007873571109982
 10
24.5170764557025
 20
-22.63882323744156
 42
-0.0331636843883581
 10
24.55704527880678
 20
-22.76382617011019
 42
-0.0318293061599105
 10
24.57155179264379
 20
-22.83078581165794
 42
-0.0002423746834126
 10
24.58192496012678
 20
-22.89907114904053
 42
-0.0301773682016076
 10
24.59021433737439
 20
-23.03744228477069
 42
-0.0299379652009088
 10
24.58192496012678
 20
-23.17581342050071
 42
-0.030107888574432
 10
24.57155179264379
 20
-23.24409875788326
 42
-0.0005008829093021
 10
24.55704527880676
 20
-23.31105839943107
 42
-0.0324185010560627
 10
24.51707645570248
 20
-23.43606133210001
 42
-0.0336046629645262
 10
24.49110976365182
 20
-23.49556389024058
 42
-0.0011029964326554
 10
24.4615387810896
 20
-23.55167237252003
 42
-0.0394264025666559
 10
24.39494659052171
 20
-23.64881454322884
 42
-0.0418918332473091
 10
24.3563305055067
 20
-23.69210372796361
 42
-0.0016245679270134
 10
24.31521433737344
 20
-23.73026260779826
 42
-0.0512034701245827
 10
24.22956290796389
 20
-23.78854156511948
 42
-0.0548452584259713
 10
24.18306908117532
 20
-23.80996402804675
 42
-0.0009861349499639
 10
24.13572083509238
 20
-23.82528848718046
 42
-0.062088752891749
 10
24.04021433737465
 20
-23.8374422847706
 10
23.99208833921397
 20
-23.83434099868281
  0
LWPOLYLINE
  5
379
330
1E
100
AcDbEntity
  8
1
 62
     7
100
AcDbPolyline
 90
       54
 70
     1
 43
0.0
 10
38.71652282112757
 20
34.2106007843111
 42
-0.0214972455702903
 10
38.74230879067609
 20
34.20496159173561
 42
-0.0467051709210573
 10
38.76827864308875
 20
34.19531789038979
 42
-0.0024604606552808
 10
38.7938261936991
 20
34.18179439860159
 42
-0.0549324242356566
 10
38.84021433737481
 20
34.14557041712153
 42
-0.0502059998140726
 10
38.86277762577572
 20
34.12156891443643
 42
-0.0018242262396477
 10
38.88392866044983
 20
34.09435209973485
 42
-0.0385427191138951
 10
38.92002767030974
 20
34.03395152007273
 42
-0.0353418778826712
 10
38.93621271698417
 20
33.99875802990047
 42
-0.0008896511313162
 10
38.95039714022995
 20
33.96147462207169
 42
-0.0296350552646879
 10
38.97212212361201
 20
33.88356778689229
 42
-0.0281289104121197
 10
38.98004498193509
 20
33.84166191276939
 42
-0.0002584131940057
 10
38.98570076104281
 20
33.79896496721046
 42
-0.0263856343300998
 10
38.990214337374
 20
33.71255771522934
 42
-0.0261310134070671
 10
38.98570076104281
 20
33.62615046324846
 42
-0.0262881404964627
 10
38.98004498193509
 20
33.58345351768949
 42
-0.0005453695028919
 10
38.97212212361201
 20
33.54154764356652
 42
-0.0288045435202074
 10
38.95039714022995
 20
33.4636408083871
 42
-0.0300627662170909
 10
38.93621271698417
 20
33.42635740055842
 42
-0.0013179701818809
 10
38.92002767030972
 20
33.39116391038622
 42
-0.0369147566327705
 10
38.88392866044983
 20
33.33076333072398
 42
-0.0398126047693146
 10
38.86277762577572
 20
33.30354651602235
 42
-0.0023174311785342
 10
38.84021433737478
 20
33.2795450133373
 42
-0.0527435906175583
 10
38.79382619369909
 20
33.24332103185755
 42
-0.0579499638894839
 10
38.76827864308875
 20
33.22979754006933
 42
-0.0017333175395065
 10
38.74230879067609
 20
33.22015383872343
 42
-0.0703340061020779
 10
38.69021433737474
 20
33.21255771522951
 42
-0.0703718097087475
 10
38.63811988407488
 20
33.22015383872322
 42
-0.0699991589595242
 10
38.61215003166114
 20
33.2297975400691
 42
-0.0024604606554706
 10
38.58660248104938
 20
33.24332103185735
 42
-0.0549324242440927
 10
38.54021433737443
 20
33.27954501333729
 42
-0.0502059998097036
 10
38.51765104897471
 20
33.30354651602235
 42
-0.001824226238694
 10
38.49650001430118
 20
33.33076333072394
 42
-0.0385427191140227
 10
38.46040100443907
 20
33.39116391038605
 42
-0.0353418779091017
 10
38.44421595776554
 20
33.4263574005583
 42
-0.0008896511306801
 10
38.43003153452136
 20
33.46364080838707
 42
-0.0296350552557949
 10
38.40830655113965
 20
33.54154764356648
 42
-0.0281289104237455
 10
38.40038369281588
 20
33.58345351768939
 42
-0.0002584131941145
 10
38.39472791370759
 20
33.62615046324829
 42
-0.0263856343315724
 10
38.39021433737672
 20
33.7125577152293
 42
-0.0261310134083519
 10
38.39472791370758
 20
33.79896496721046
 42
-0.0262881405097827
 10
38.40038369281588
 20
33.84166191276939
 42
-0.0005453695027807
 10
38.40830655113963
 20
33.88356778689229
 42
-0.0288045435115856
 10
38.43003153452138
 20
33.96147462207168
 42
-0.0300627662070076
 10
38.44421595776557
 20
33.99875802990038
 42
-0.0013179701828072
 10
38.46040100443906
 20
34.03395152007256
 42
-0.036914756637328
 10
38.49650001430154
 20
34.09435209973482
 42
-0.0398126047586521
 10
38.51765104897611
 20
34.12156891443643
 42
-0.0023174311779245
 10
38.54021433737647
 20
34.14557041712153
 42
-0.0527435906252782
 10
38.5866024810497
 20
34.1817943986016
 42
-0.0579499638935966
 10
38.61215003166114
 20
34.19531789038979
 42
-0.0017333175388866
 10
38.63811988407488
 20
34.20496159173561
 42
-0.070334006103611
 10
38.69021433737474
 20
34.21255771522949
 10
38.71652282112757
 20
34.2106007843111
  0
LWPOLYLINE
  5
3B1
330
1E
100
AcDbEntity
  8
1
 62
     7
100
AcDbPolyline
 90
       54
 70
     1
 43
0.0
 10
38.71652282112757
 20
-13.78548535385206
 42
0.0214972455705313
 10
38.74230879067609
 20
-13.77984616127656
 42
0.046705170920786
 10
38.76827864308875
 20
-13.77020245993067
 42
0.0024604606552615
 10
38.7938261936991
 20
-13.75667896814241
 42
0.054932424235081
 10
38.84021433737481
 20
-13.7204549866625
 42
0.0502059998152301
 10
38.86277762577572
 20
-13.69645348397753
 42
0.0018242262397328
 10
38.88392866044983
 20
-13.669236669276
 42
0.0385427191141213
 10
38.92002767030974
 20
-13.60883608961374
 42
0.0353418778818509
 10
38.93621271698417
 20
-13.57364259944148
 42
0.0008896511312177
 10
38.95039714022995
 20
-13.53635919161269
 42
0.0296350552646777
 10
38.97212212361201
 20
-13.45845235643327
 42
0.0281289104120965
 10
38.98004498193509
 20
-13.41654648231038
 42
0.0002584131940011
 10
38.98570076104281
 20
-13.37384953675148
 42
0.026385634330163
 10
38.990214337374
 20
-13.28744228477049
 42
0.0261310134070316
 10
38.98570076104281
 20
-13.2010350327895
 42
0.0262881404979611
 10
38.98004498193509
 20
-13.15833808723058
 42
0.0005453695029033
 10
38.97212212361201
 20
-13.11643221310768
 42
0.0288045435200573
 10
38.95039714022995
 20
-13.03852537792812
 42
0.0300627662173445
 10
38.93621271698417
 20
-13.0012419700994
 42
0.0013179701819173
 10
38.92002767030972
 20
-12.96604847992722
 42
0.0369147566322902
 10
38.88392866044983
 20
-12.9056479002649
 42
0.0398126047661599
 10
38.86277762577572
 20
-12.87843108556309
 42
0.0023174311785823
 10
38.84021433737478
 20
-12.85442958287797
 42
0.0527435906184396
 10
38.79382619369909
 20
-12.81820560139848
 42
0.0579499638860187
 10
38.76827864308875
 20
-12.80468210961031
 42
0.0017333175392002
 10
38.74230879067609
 20
-12.79503840826442
 42
0.0703340061019464
 10
38.69021433737474
 20
-12.78744228477049
 42
0.0703718097086138
 10
38.63811988407488
 20
-12.79503840826422
 42
0.069999158962175
 10
38.61215003166114
 20
-12.80468210961009
 42
0.002460460655426
 10
38.58660248104938
 20
-12.8182056013983
 42
0.0549324242450296
 10
38.54021433737443
 20
-12.85442958287791
 42
0.0502059998160075
 10
38.51765104897471
 20
-12.87843108556309
 42
0.0018242262386291
 10
38.49650001430118
 20
-12.90564790026484
 42
0.0385427191138927
 10
38.46040100443907
 20
-12.96604847992687
 42
0.0353418779096563
 10
38.44421595776554
 20
-13.00124197009916
 42
0.000889651130615
 10
38.43003153452136
 20
-13.03852537792806
 42
0.0296350552553795
 10
38.40830655113965
 20
-13.11643221310763
 42
0.0281289104226836
 10
38.40038369281588
 20
-13.15833808723038
 42
0.0002584131941241
 10
38.39472791370759
 20
-13.20103503278916
 42
0.0263856343315152
 10
38.39021433737672
 20
-13.28744228477042
 42
0.0261310134084012
 10
38.39472791370758
 20
-13.37384953675148
 42
0.0262881405107547
 10
38.40038369281588
 20
-13.41654648231038
 42
0.000545369502765
 10
38.40830655113963
 20
-13.45845235643327
 42
0.0288045435115987
 10
38.43003153452138
 20
-13.53635919161266
 42
0.0300627662090655
 10
38.44421595776557
 20
-13.57364259944136
 42
0.001317970182743
 10
38.46040100443906
 20
-13.60883608961358
 42
0.0369147566374706
 10
38.49650001430154
 20
-13.66923666927597
 42
0.0398126047609328
 10
38.51765104897611
 20
-13.69645348397753
 42
0.0023174311780432
 10
38.54021433737647
 20
-13.72045498666251
 42
0.0527435906249244
 10
38.5866024810497
 20
-13.75667896814241
 42
0.0579499638969537
 10
38.61215003166114
 20
-13.77020245993067
 42
0.0017333175389515
 10
38.63811988407488
 20
-13.77984616127656
 42
0.0703340061041269
 10
38.69021433737474
 20
-13.78744228477047
 10
38.71652282112757
 20
-13.78548535385206
  0
LWPOLYLINE
  5
3E9
330
1E
100
AcDbEntity
  8
1
 62
     7
100
AcDbPolyline
 90
       54
 70
     1
 43
0.0
 10
19.98834033553417
 20
44.26255771522921
 42
-0.0196218009365592
 10
20.03572083509128
 20
44.25350520372676
 42
-0.0413677187546031
 10
20.08306908117363
 20
44.238180744593
 42
-0.0015436377115743
 10
20.1295629079618
 20
44.21675828166578
 42
-0.052629876042049
 10
20.21521433737325
 20
44.15847932434473
 42
-0.0496474468889636
 10
20.25633050550723
 20
44.12032044451009
 42
-0.0014130172886381
 10
20.29494659052227
 20
44.07703125977529
 42
-0.0407227166756816
 10
20.36153878108855
 20
43.97988908906613
 42
-0.038200582735861
 10
20.39110976365142
 20
43.92378060678661
 42
-0.0007873571111924
 10
20.41707645570269
 20
43.86427804864617
 42
-0.0331636843897895
 10
20.45704527880483
 20
43.73927511597766
 42
-0.0318293061501165
 10
20.47155179264203
 20
43.67231547442977
 42
-0.0002423746834014
 10
20.4819249601256
 20
43.60403013704703
 42
-0.0301773682025129
 10
20.49021433737291
 20
43.46565900131703
 42
-0.0299379652018593
 10
20.4819249601256
 20
43.32728786558713
 42
-0.030107888576722
 10
20.47155179264203
 20
43.25900252820445
 42
-0.000500882909136
 10
20.45704527880483
 20
43.1920428866565
 42
-0.0324185010573125
 10
20.41707645570269
 20
43.06703995398779
 42
-0.0336046629780925
 10
20.39110976365142
 20
43.00753739584712
 42
-0.0011029964324688
 10
20.36153878108855
 20
42.95142891356753
 42
-0.0394264025659349
 10
20.29494659052227
 20
42.85428674285884
 42
-0.0418918332495825
 10
20.25633050550723
 20
42.8109975581241
 42
-0.0016245679270634
 10
20.21521433737325
 20
42.77283867828942
 42
-0.0512034701220596
 10
20.1295629079618
 20
42.71455972096827
 42
-0.0548452584243403
 10
20.08306908117363
 20
42.69313725804106
 42
-0.0009861349499448
 10
20.03572083509128
 20
42.67781279890736
 42
-0.0620887528925108
 10
19.94021433737348
 20
42.66565900131682
 42
-0.0621037961955206
 10
19.84470783965576
 20
42.67781279890736
 42
-0.0620143221516117
 10
19.79735959357278
 20
42.69313725804106
 42
-0.0015436377120249
 10
19.75086576678425
 20
42.71455972096827
 42
-0.0526298760450345
 10
19.66521433737471
 20
42.77283867828944
 42
-0.0496474468846569
 10
19.62409816924143
 20
42.8109975581241
 42
-0.0014130172883406
 10
19.58548208422643
 20
42.85428674285884
 42
-0.0407227166771126
 10
19.51888989365853
 20
42.95142891356753
 42
-0.0382005827509364
 10
19.48931891109632
 20
43.00753739584712
 42
-0.0007873571109936
 10
19.46335221904565
 20
43.06703995398779
 42
-0.0331636843882576
 10
19.42338339594136
 20
43.19204288665646
 42
-0.0318293061558054
 10
19.40887688210435
 20
43.25900252820422
 42
-0.0002423746833534
 10
19.39850371462135
 20
43.32728786558678
 42
-0.0301773682016379
 10
19.39021433737372
 20
43.46565900131696
 42
-0.0299379652009099
 10
19.39850371462135
 20
43.60403013704703
 42
-0.0301078885699818
 10
19.40887688210435
 20
43.67231547442977
 42
-0.000500882909306
 10
19.42338339594136
 20
43.73927511597766
 42
-0.0324185010562452
 10
19.46335221904565
 20
43.86427804864616
 42
-0.0336046629669679
 10
19.48931891109632
 20
43.92378060678661
 42
-0.0011029964326722
 10
19.51888989365853
 20
43.97988908906613
 42
-0.0394264025665758
 10
19.58548208422643
 20
44.07703125977529
 42
-0.0418918332463872
 10
19.62409816924143
 20
44.12032044451009
 42
-0.0016245679270932
 10
19.6652143373747
 20
44.15847932434473
 42
-0.0512034701245484
 10
19.75086576678426
 20
44.21675828166579
 42
-0.0548452584198426
 10
19.79735959357281
 20
44.238180744593
 42
-0.0009861349499243
 10
19.84470783965576
 20
44.25350520372676
 42
-0.0620887528919921
 10
19.94021433737348
 20
44.26565900131704
 10
19.98834033553417
 20
44.26255771522921
  0
LWPOLYLINE
  5
421
330
1E
100
AcDbEntity
  8
1
 62
     7
100
AcDbPolyline
 90
       54
 70
     1
 43
0.0
 10
19.98834033553417
 20
-23.83434099868281
 42
0.0196218009367867
 10
20.03572083509128
 20
-23.82528848718046
 42
0.0413677187553279
 10
20.08306908117363
 20
-23.80996402804675
 42
0.0015436377116876
 10
20.1295629079618
 20
-23.78854156511946
 42
0.0526298760421366
 10
20.21521433737325
 20
-23.73026260779828
 42
0.0496474468848933
 10
20.25633050550723
 20
-23.69210372796361
 42
0.0014130172885768
 10
20.29494659052227
 20
-23.64881454322884
 42
0.0407227166759429
 10
20.36153878108855
 20
-23.55167237252
 42
0.0382005827389524
 10
20.39110976365142
 20
-23.49556389024046
 42
0.0007873571112579
 10
20.41707645570269
 20
-23.43606133209987
 42
0.0331636843895591
 10
20.45704527880483
 20
-23.31105839943105
 42
0.0318293061505991
 10
20.47155179264203
 20
-23.24409875788326
 42
0.0002423746834205
 10
20.4819249601256
 20
-23.17581342050071
 42
0.0301773682025991
 10
20.49021433737291
 20
-23.03744228477069
 42
0.0299379652018084
 10
20.4819249601256
 20
-22.89907114904053
 42
0.03010788857621
 10
20.47155179264203
 20
-22.83078581165794
 42
0.0005008829091511
 10
20.45704527880483
 20
-22.76382617011019
 42
0.0324185010573402
 10
20.41707645570269
 20
-22.63882323744156
 42
0.0336046629782607
 10
20.39110976365142
 20
-22.57932067930107
 42
0.0011029964324733
 10
20.36153878108855
 20
-22.5232121970216
 42
0.0394264025655403
 10
20.29494659052227
 20
-22.42607002631259
 42
0.0418918332491839
 10
20.25633050550723
 20
-22.38278084157772
 42
0.0016245679272171
 10
20.21521433737325
 20
-22.34462196174303
 42
0.0512034701216345
 10
20.1295629079618
 20
-22.28634300442207
 42
0.054845258420701
 10
20.08306908117363
 20
-22.26492054149467
 42
0.0009861349499838
 10
20.03572083509128
 20
-22.24959608236083
 42
0.0620887528922828
 10
19.94021433737348
 20
-22.23744228477078
 42
0.0621037961953952
 10
19.84470783965576
 20
-22.24959608236083
 42
0.062014322158508
 10
19.79735959357278
 20
-22.26492054149467
 42
0.0015436377118548
 10
19.75086576678425
 20
-22.28634300442207
 42
0.0526298760445234
 10
19.66521433737471
 20
-22.34462196174303
 42
0.0496474468865532
 10
19.62409816924143
 20
-22.38278084157772
 42
0.0014130172882858
 10
19.58548208422643
 20
-22.42607002631259
 42
0.040722716676527
 10
19.51888989365853
 20
-22.5232121970216
 42
0.0382005827472197
 10
19.48931891109632
 20
-22.57932067930107
 42
0.0007873571109982
 10
19.46335221904565
 20
-22.63882323744156
 42
0.0331636843884096
 10
19.42338339594136
 20
-22.76382617011019
 42
0.0318293061566168
 10
19.40887688210435
 20
-22.83078581165794
 42
0.0002423746833614
 10
19.39850371462135
 20
-22.89907114904053
 42
0.0301773682016332
 10
19.39021433737372
 20
-23.03744228477069
 42
0.0299379652009344
 10
19.39850371462135
 20
-23.17581342050071
 42
0.0301078885680446
 10
19.40887688210435
 20
-23.24409875788326
 42
0.0005008829093029
 10
19.42338339594136
 20
-23.31105839943107
 42
0.0324185010560371
 10
19.46335221904565
 20
-23.43606133210001
 42
0.0336046629690638
 10
19.48931891109632
 20
-23.49556389024058
 42
0.0011029964326583
 10
19.51888989365853
 20
-23.55167237252003
 42
0.0394264025667308
 10
19.58548208422643
 20
-23.64881454322884
 42
0.0418918332457693
 10
19.62409816924143
 20
-23.69210372796361
 42
0.0016245679270119
 10
19.6652143373747
 20
-23.73026260779826
 42
0.051203470124621
 10
19.75086576678426
 20
-23.78854156511948
 42
0.0548452584259135
 10
19.79735959357281
 20
-23.80996402804675
 42
0.0009861349499859
 10
19.84470783965576
 20
-23.82528848718046
 42
0.0620887528917581
 10
19.94021433737348
 20
-23.8374422847706
 10
19.98834033553417
 20
-23.83434099868281
  0
ARC
  5
459
330
1E
100
AcDbEntity
  8
1
 62
     7
100
AcDbCircle
 10
26.49021433737543
 20
-14.18744228477081
 30
0.0
 40
0.1000000000017209
100
AcDbArc
 50
180.0
 51
270.0
  0
ARC
  5
45A
330
1E
100
AcDbEntity
  8
1
 62
     7
100
AcDbCircle
 10
26.49021433737543
 20
-16.38744228477086
 30
0.0
 40
0.10000000000014
100
AcDbArc
 50
90.0
 51
180.0
  0
ARC
  5
45B
330
1E
100
AcDbEntity
  8
1
 62
     7
100
AcDbCircle
 10
20.59021433737443
 20
-25.1874422847708
 30
0.0
 40
0.0999999999989996
100
AcDbArc
 50
180.0
 51
270.0
  0
ARC
  5
45C
330
1E
100
AcDbEntity
  8
1
 62
     7
100
AcDbCircle
 10
20.59021433737443
 20
-28.38744228477063
 30
0.0
 40
0.0999999999999091
100
AcDbArc
 50
90.0
 51
180.0
  0
ARC
  5
45D
330
1E
100
AcDbEntity
  8
1
 62
     7
100
AcDbCircle
 10
32.38021433737456
 20
-9.007442284771171
 30
0.0
 40
0.1699999999998454
100
AcDbArc
 50
180.0
 51
270.0
  0
ARC
  5
45E
330
1E
100
AcDbEntity
  8
1
 62
     7
100
AcDbCircle
 10
32.23236438305617
 20
-6.557442284771127
 30
0.0
 40
0.1700000000000728
100
AcDbArc
 50
90.0
 51
187.0000000000384
  0
ARC
  5
45F
330
1E
100
AcDbEntity
  8
1
 62
     7
100
AcDbCircle
 10
32.23236438305617
 20
26.98255771522974
 30
0.0
 40
0.1699999999999999
100
AcDbArc
 50
172.9999999999639
 51
270.0
  0
ARC
  5
460
330
1E
100
AcDbEntity
  8
1
 62
     7
100
AcDbCircle
 10
32.38021433737456
 20
29.43255771522979
 30
0.0
 40
0.1700000000000692
100
AcDbArc
 50
90.0
 51
180.0
  0
ARC
  5
461
330
1E
100
AcDbEntity
  8
1
 62
     7
100
AcDbCircle
 10
22.9182143373735
 20
-19.98744228477076
 30
0.0
 40
0.299999999999951
100
AcDbArc
 50
270.0
 51
0.0
  0
ARC
  5
462
330
1E
100
AcDbEntity
  8
1
 62
     7
100
AcDbCircle
 10
24.51821433737432
 20
-11.84844228477015
 30
0.0
 40
1.299999999999948
100
AcDbArc
 50
90.0
 51
180.0
  0
ARC
  5
463
330
1E
100
AcDbEntity
  8
1
 62
     7
100
AcDbCircle
 10
24.49021433737543
 20
-12.02044228477021
 30
0.0
 40
1.0
100
AcDbArc
 50
90.0
 51
180.0
  0
ARC
  5
464
330
1E
100
AcDbEntity
  8
1
 62
     7
100
AcDbCircle
 10
22.9182143373735
 20
40.41255771522933
 30
0.0
 40
0.3000000000020009
100
AcDbArc
 50
0.0
 51
90.0
  0
ARC
  5
465
330
1E
100
AcDbEntity
  8
1
 62
     7
100
AcDbCircle
 10
24.51821433737432
 20
32.27355771522875
 30
0.0
 40
1.29999999999882
100
AcDbArc
 50
180.0
 51
270.0
  0
ARC
  5
466
330
1E
100
AcDbEntity
  8
1
 62
     7
100
AcDbCircle
 10
37.51021433737451
 20
31.37471500275486
 30
0.0
 40
0.1999999999989157
100
AcDbArc
 50
0.0
 51
44.99999999981574
  0
ARC
  5
467
330
1E
100
AcDbEntity
  8
1
 62
     7
100
AcDbCircle
 10
37.51021433737451
 20
31.18955451821337
 30
0.0
 40
0.2000000000001775
100
AcDbArc
 50
273.0000000003943
 51
0.0
  0
ARC
  5
468
330
1E
100
AcDbEntity
  8
1
 62
     7
100
AcDbCircle
 10
24.49021433737543
 20
32.44555771522876
 30
0.0
 40
1.0
100
AcDbArc
 50
180.0
 51
270.0
  0
ARC
  5
469
330
1E
100
AcDbEntity
  8
1
 62
     7
100
AcDbCircle
 10
37.51021433737451
 20
-10.76443908775482
 30
0.0
 40
0.1999999999989157
100
AcDbArc
 50
0.0
 51
86.99999999960569
  0
ARC
  5
46A
330
1E
100
AcDbEntity
  8
1
 62
     7
100
AcDbCircle
 10
37.51021433737451
 20
-10.9495995722963
 30
0.0
 40
0.2000000000002898
100
AcDbArc
 50
315.0000000001846
 51
0.0
  0
TEXT
  5
46B
330
1E
100
AcDbEntity
  8
1
 62
     0
100
AcDbText
 10
-19.65535110292202
 20
-56.05779401259262
 30
0.0
 40
2.609175677887378
  1
REMARKS:  M.H.C = MINIMUM HOUSING CLEARANCE
 41
0.8100000000000001
100
AcDbText
  0
TEXT
  5
475
330
1E
100
AcDbEntity
  8
1
 62
     0
100
AcDbText
 10
87.03486381993736
 20
-55.16946173871806
 30
0.0
 40
4.703133405981581
  1
SHD-17-XX-2SH.dxf
 41
0.8100000000000001
100
AcDbText
  0
DIMENSION
  5
476
330
1E
100
AcDbEntity
  8
1
  6
Continuous
 62
     2
100
AcDbDimension
  2
*D0
 10
20.49021433737542
 20
-44.78744228477075
 30
0.0
 11
8.910087905768316
 21
-42.50619228477074
 31
0.0
  1
M.H.C <>
 71
     5
 42
-1.0
  3
DMST_1
100
AcDbAlignedDimension
 13
22.29021433737562
 23
-11.85376179466498
 33
0.0
 14
20.49021433737542
 24
-29.38744228477062
 34
0.0
100
AcDbRotatedDimension
  0
DIMENSION
  5
477
330
1E
100
AcDbEntity
  8
1
  6
Continuous
 62
     2
100
AcDbDimension
  2
*D1
 10
39.99021433737543
 20
-44.78744228477003
 30
0.0
 11
49.75913969875939
 21
-42.50619228477003
 31
0.0
  1
M.H.C <>
 71
     5
 42
-1.0
  3
DMST_1
100
AcDbAlignedDimension
 13
38.99021433737543
 23
-18.98744228477029
 33
0.0
 14
39.99021433737543
 24
-12.28744228477049
 34
0.0
100
AcDbRotatedDimension
  0
DIMENSION
  5
478
330
1E
100
AcDbEntity
  8
1
  6
Continuous
 62
     2
100
AcDbDimension
  2
*D2
 10
5.490214337375433
 20
29.21255771522951
 30
0.0
 11
3.208964337375431
 21
11.348054683732
 31
0.0
  1
M.H.C <>
 71
     5
 42
-1.0
  3
DMST_1
100
AcDbAlignedDimension
 13
22.29021433737562
 23
-8.787442284770492
 33
0.0
 14
22.29021433737562
 24
29.21255771522951
 34
0.0
 50
90.0
100
AcDbRotatedDimension
  0
DIMENSION
  5
479
330
1E
100
AcDbEntity
  8
1
  6
Continuous
 62
     2
100
AcDbDimension
  2
*D3
 10
53.99021433737543
 20
32.7125577152295
 30
0.0
 11
51.70896433737543
 21
10.267391937886
 31
0.0
  1
M.H.C <>
 71
     5
 42
-1.0
  3
DMST_1
100
AcDbAlignedDimension
 13
39.99021433737543
 23
-12.28744228477049
 33
0.0
 14
39.99021433737543
 24
32.7125577152295
 34
0.0
 50
90.0
100
AcDbRotatedDimension
  0
INSERT
  5
484
330
1E
100
AcDbEntity
  8
0
100
AcDbBlockReference
  2
Harmonic Drive LLC
 10
-47.40467539314756
 20
77.65769723395846
 30
0.0
 41
1.089026312727676
 42
1.089026312727676
 43
1.089026312727676
  0
INSERT
  5
500
330
1E
100
AcDbEntity
  8
0
100
AcDbBlockReference
  2
HD Logo
 10
63.66088845641478
 20
-99.62072840155457
 30
0.0
 41
0.5903670175472215
 42
0.5903670175472215
 43
0.5903670175472215
  0
INSERT
  5
529
330
1E
100
AcDbEntity
  8
0
100
AcDbBlockReference
  2
NTC
 10
-109.9041334512666
 20
-71.90950362266022
 30
0.0
 41
0.445568
 42
0.445568
 43
0.445568
  0
ENDSEC
  0
SECTION
  2
OBJECTS
  0
DICTIONARY
  5
C
330
0
100
AcDbDictionary
281
     1
  3
ACAD_GROUP
350
D
  3
ACAD_LAYOUT
350
19
  3
ACAD_MLINESTYLE
350
16
  3
ACAD_PLOTSETTINGS
350
18
  3
ACAD_PLOTSTYLENAME
350
E
  3
AcDbVariableDictionary
350
485
  0
DICTIONARY
  5
D
102
{ACAD_REACTORS
330
C
102
}
330
C
100
AcDbDictionary
281
     1
  0
DICTIONARY
  5
19
102
{ACAD_REACTORS
330
C
102
}
330
C
100
AcDbDictionary
281
     1
  3
Layout1
350
1D
  3
Model
350
21
  0
DICTIONARY
  5
16
102
{ACAD_REACTORS
330
C
102
}
330
C
100
AcDbDictionary
281
     1
  3
Standard
350
17
  0
DICTIONARY
  5
18
102
{ACAD_REACTORS
330
C
102
}
330
C
100
AcDbDictionary
281
     1
  0
ACDBDICTIONARYWDFLT
  5
E
102
{ACAD_REACTORS
330
C
102
}
330
C
100
AcDbDictionary
281
     1
  3
Normal
350
F
100
AcDbDictionaryWithDefault
340
F
  0
DICTIONARY
  5
485
102
{ACAD_REACTORS
330
C
102
}
330
C
100
AcDbDictionary
281
     1
  3
DIMASSOC
350
486
  0
LAYOUT
  5
1D
102
{ACAD_REACTORS
330
19
102
}
330
19
100
AcDbPlotSettings
  1

  2
\\SERVER9\HP LaserJet 5100 PCL 5e
  4

  6

 40
0.0
 41
0.0
 42
0.0
 43
0.0
 44
0.0
 45
0.0
 46
0.0
 47
0.0
 48
0.0
 49
0.0
140
0.0
141
0.0
142
1.0
143
1.0
 70
   688
 72
     0
 73
     0
 74
     5
  7

 75
    16
147
1.0
148
0.0
149
0.0
100
AcDbLayout
  1
Layout1
 70
     1
 71
     1
 10
0.0
 20
0.0
 11
12.0
 21
9.0
 12
0.0
 22
0.0
 32
0.0
 14
1.000000000000000E+20
 24
1.000000000000000E+20
 34
1.000000000000000E+20
 15
-1.000000000000000E+20
 25
-1.000000000000000E+20
 35
-1.000000000000000E+20
146
0.0
 13
0.0
 23
0.0
 33
0.0
 16
1.0
 26
0.0
 36
0.0
 17
0.0
 27
1.0
 37
0.0
 76
     0
330
1A
  0
LAYOUT
  5
21
102
{ACAD_REACTORS
330
19
102
}
330
19
100
AcDbPlotSettings
  1

  2
\\SERVER9\HP LaserJet 5100 PCL 5e
  4
Letter
  6

 40
6.349999904632567
 41
4.233341693878172
 42
6.349990844726562
 43
4.23333740234375
 44
215.8999938964842
 45
279.3999938964843
 46
0.0
 47
0.0
 48
0.0
 49
0.0
140
0.0
141
0.0
142
1.0
143
31.73380868071803
 70
 11952
 72
     0
 73
     1
 74
     0
  7

 75
     0
147
0.0315121330080879
148
2935.267605347868
149
4163.773811583856
100
AcDbLayout
  1
Model
 70
     1
 71
     0
 10
0.0
 20
0.0
 11
12.0
 21
9.0
 12
0.0
 22
0.0
 32
0.0
 14
0.0
 24
0.0
 34
0.0
 15
0.0
 25
0.0
 35
0.0
146
0.0
 13
0.0
 23
0.0
 33
0.0
 16
1.0
 26
0.0
 36
0.0
 17
0.0
 27
1.0
 37
0.0
 76
     0
330
1E
  0
MLINESTYLE
  5
17
102
{ACAD_REACTORS
330
16
102
}
330
16
100
AcDbMlineStyle
  2
STANDARD
 70
     0
  3

 62
   256
 51
90.0
 52
90.0
 71
     2
 49
0.5
 62
   256
  6
BYLAYER
 49
-0.5
 62
   256
  6
BYLAYER
  0
ACDBPLACEHOLDER
  5
F
102
{ACAD_REACTORS
330
E
102
}
330
E
  0
DICTIONARYVAR
  5
486
102
{ACAD_REACTORS
330
485
102
}
330
485
100
DictionaryVariables
280
     0
  1
1
  0
ENDSEC
  0
EOF
