  0
SECTION
  2
HEADER
  9
$ACADVER
  1
AC1015
  9
$ACADMAINTVER
 70
    13
  9
$DWGCODEPAGE
  3
ANSI_1252
  9
$INSBASE
 10
0.0
 20
0.0
 30
0.0
  9
$EXTMIN
 10
-539.6687274230063
 20
-299.4908347770163
 30
0.0
  9
$EXTMAX
 10
123.0107387450754
 20
85.533323249228
 30
0.0
  9
$LIMMIN
 10
0.0
 20
0.0
  9
$LIMMAX
 10
0.0
 20
0.0
  9
$ORTHOMODE
 70
     0
  9
$REGENMODE
 70
     1
  9
$FILLMODE
 70
     1
  9
$QTEXTMODE
 70
     0
  9
$MIRRTEXT
 70
     1
  9
$LTSCALE
 40
1.0
  9
$ATTMODE
 70
     1
  9
$TEXTSIZE
 40
0.0
  9
$TRACEWID
 40
0.05
  9
$TEXTSTYLE
  7
STANDARD
  9
$CLAYER
  8
0
  9
$CELTYPE
  6
CONTINUOUS
  9
$CECOLOR
 62
   256
  9
$CELTSCALE
 40
1.0
  9
$DISPSILH
 70
     0
  9
$DIMSCALE
 40
1.0
  9
$DIMASZ
 40
0.18
  9
$DIMEXO
 40
0.0625
  9
$DIMDLI
 40
0.38
  9
$DIMRND
 40
0.0
  9
$DIMDLE
 40
0.0
  9
$DIMEXE
 40
0.18
  9
$DIMTP
 40
0.0
  9
$DIMTM
 40
0.0
  9
$DIMTXT
 40
0.18
  9
$DIMCEN
 40
0.09
  9
$DIMTSZ
 40
0.0
  9
$DIMTOL
 70
     0
  9
$DIMLIM
 70
     0
  9
$DIMTIH
 70
     1
  9
$DIMTOH
 70
     1
  9
$DIMSE1
 70
     0
  9
$DIMSE2
 70
     0
  9
$DIMTAD
 70
     0
  9
$DIMZIN
 70
     0
  9
$DIMBLK
  1

  9
$DIMASO
 70
     1
  9
$DIMSHO
 70
     1
  9
$DIMPOST
  1

  9
$DIMAPOST
  1

  9
$DIMALT
 70
     0
  9
$DIMALTD
 70
     2
  9
$DIMALTF
 40
25.4
  9
$DIMLFAC
 40
1.0
  9
$DIMTOFL
 70
     0
  9
$DIMTVP
 40
0.0
  9
$DIMTIX
 70
     0
  9
$DIMSOXD
 70
     0
  9
$DIMSAH
 70
     0
  9
$DIMBLK1
  1

  9
$DIMBLK2
  1

  9
$DIMSTYLE
  2
STANDARD
  9
$DIMCLRD
 70
     0
  9
$DIMCLRE
 70
     0
  9
$DIMCLRT
 70
     0
  9
$DIMTFAC
 40
1.0
  9
$DIMGAP
 40
0.09
  9
$DIMJUST
 70
     0
  9
$DIMSD1
 70
     0
  9
$DIMSD2
 70
     0
  9
$DIMTOLJ
 70
     1
  9
$DIMTZIN
 70
     0
  9
$DIMALTZ
 70
     0
  9
$DIMALTTZ
 70
     0
  9
$DIMUPT
 70
     0
  9
$DIMDEC
 70
     4
  9
$DIMTDEC
 70
     4
  9
$DIMALTU
 70
     2
  9
$DIMALTTD
 70
     2
  9
$DIMTXSTY
  7
STANDARD
  9
$DIMAUNIT
 70
     0
  9
$DIMADEC
 70
     0
  9
$DIMALTRND
 40
0.0
  9
$DIMAZIN
 70
     0
  9
$DIMDSEP
 70
    46
  9
$DIMATFIT
 70
     3
  9
$DIMFRAC
 70
     0
  9
$DIMLDRBLK
  1

  9
$DIMLUNIT
 70
     2
  9
$DIMLWD
 70
    -2
  9
$DIMLWE
 70
    -2
  9
$DIMTMOVE
 70
     0
  9
$LUNITS
 70
     2
  9
$LUPREC
 70
     4
  9
$SKETCHINC
 40
0.1
  9
$FILLETRAD
 40
0.0
  9
$AUNITS
 70
     0
  9
$AUPREC
 70
     0
  9
$MENU
  1
acad
  9
$ELEVATION
 40
0.0
  9
$PELEVATION
 40
0.0
  9
$THICKNESS
 40
0.0
  9
$LIMCHECK
 70
     0
  9
$CHAMFERA
 40
0.0
  9
$CHAMFERB
 40
0.0
  9
$CHAMFERC
 40
0.0
  9
$CHAMFERD
 40
0.0
  9
$SKPOLY
 70
     0
  9
$TDCREATE
 40
2311945.642488854
  9
$TDUCREATE
 40
2311945.809155520
  9
$TDUPDATE
 40
2453861.481849317
  9
$TDUUPDATE
 40
2453861.648515984
  9
$TDINDWG
 40
0.0238254282
  9
$TDUSRTIMER
 40
0.0238236111
  9
$USRTIMER
 70
     1
  9
$ANGBASE
 50
0.0
  9
$ANGDIR
 70
     0
  9
$PDMODE
 70
     0
  9
$PDSIZE
 40
0.0
  9
$PLINEWID
 40
0.0
  9
$SPLFRAME
 70
     0
  9
$SPLINETYPE
 70
     6
  9
$SPLINESEGS
 70
     8
  9
$HANDSEED
  5
338
  9
$SURFTAB1
 70
     6
  9
$SURFTAB2
 70
     6
  9
$SURFTYPE
 70
     6
  9
$SURFU
 70
     6
  9
$SURFV
 70
     6
  9
$UCSBASE
  2

  9
$UCSNAME
  2

  9
$UCSORG
 10
0.0
 20
0.0
 30
0.0
  9
$UCSXDIR
 10
1.0
 20
0.0
 30
0.0
  9
$UCSYDIR
 10
0.0
 20
1.0
 30
0.0
  9
$UCSORTHOREF
  2

  9
$UCSORTHOVIEW
 70
     0
  9
$UCSORGTOP
 10
0.0
 20
0.0
 30
0.0
  9
$UCSORGBOTTOM
 10
0.0
 20
0.0
 30
0.0
  9
$UCSORGLEFT
 10
0.0
 20
0.0
 30
0.0
  9
$UCSORGRIGHT
 10
0.0
 20
0.0
 30
0.0
  9
$UCSORGFRONT
 10
0.0
 20
0.0
 30
0.0
  9
$UCSORGBACK
 10
0.0
 20
0.0
 30
0.0
  9
$PUCSBASE
  2

  9
$PUCSNAME
  2

  9
$PUCSORG
 10
0.0
 20
0.0
 30
0.0
  9
$PUCSXDIR
 10
1.0
 20
0.0
 30
0.0
  9
$PUCSYDIR
 10
0.0
 20
1.0
 30
0.0
  9
$PUCSORTHOREF
  2

  9
$PUCSORTHOVIEW
 70
     0
  9
$PUCSORGTOP
 10
0.0
 20
0.0
 30
0.0
  9
$PUCSORGBOTTOM
 10
0.0
 20
0.0
 30
0.0
  9
$PUCSORGLEFT
 10
0.0
 20
0.0
 30
0.0
  9
$PUCSORGRIGHT
 10
0.0
 20
0.0
 30
0.0
  9
$PUCSORGFRONT
 10
0.0
 20
0.0
 30
0.0
  9
$PUCSORGBACK
 10
0.0
 20
0.0
 30
0.0
  9
$USERI1
 70
     0
  9
$USERI2
 70
     0
  9
$USERI3
 70
     0
  9
$USERI4
 70
     0
  9
$USERI5
 70
     0
  9
$USERR1
 40
0.0
  9
$USERR2
 40
0.0
  9
$USERR3
 40
0.0
  9
$USERR4
 40
0.0
  9
$USERR5
 40
0.0
  9
$WORLDVIEW
 70
     1
  9
$SHADEDGE
 70
     3
  9
$SHADEDIF
 70
    70
  9
$TILEMODE
 70
     1
  9
$MAXACTVP
 70
    16
  9
$PINSBASE
 10
0.0
 20
0.0
 30
0.0
  9
$PLIMCHECK
 70
     0
  9
$PEXTMIN
 10
1.122261406021067
 20
0.7801350946444572
 30
-0.0000000349181948
  9
$PEXTMAX
 10
10.10523854268452
 20
7.024031407266601
 30
0.0000000814935747
  9
$PLIMMIN
 10
0.9819022437487156
 20
0.5695965567640861
  9
$PLIMMAX
 10
10.24559784724557
 20
7.727906749837551
  9
$UNITMODE
 70
     0
  9
$VISRETAIN
 70
     0
  9
$PLINEGEN
 70
     1
  9
$PSLTSCALE
 70
     0
  9
$TREEDEPTH
 70
  3020
  9
$CMLSTYLE
  2
STANDARD
  9
$CMLJUST
 70
     0
  9
$CMLSCALE
 40
1.0
  9
$PROXYGRAPHICS
 70
     1
  9
$MEASUREMENT
 70
     0
  9
$CELWEIGHT
370
    -1
  9
$ENDCAPS
280
     0
  9
$JOINSTYLE
280
     0
  9
$LWDISPLAY
290
     0
  9
$INSUNITS
 70
     0
  9
$HYPERLINKBASE
  1

  9
$STYLESHEET
  1

  9
$XEDIT
290
     1
  9
$CEPSNTYPE
380
     0
  9
$PSTYLEMODE
290
     1
  9
$FINGERPRINTGUID
  2
{6F3B2B17-1408-4955-BB6F-39B01D57864C}
  9
$VERSIONGUID
  2
{E203AF97-FB2A-457A-BF44-747C24EC7E5C}
  9
$EXTNAMES
290
     1
  9
$PSVPSCALE
 40
0.0
  9
$OLESTARTUP
290
     0
  0
ENDSEC
  0
SECTION
  2
CLASSES
  0
CLASS
  1
LWPOLYLINE
  2
AcDbPolyline
  3
AutoCAD 2000
 90
    32768
280
     0
281
     1
  0
CLASS
  1
IMAGE
  2
AcDbRasterImage
  3
ISM
 90
    32895
280
     0
281
     1
  0
CLASS
  1
OLE2FRAME
  2
AcDbOle2Frame
  3
AutoCAD 2000
 90
    32768
280
     0
281
     1
  0
CLASS
  1
HATCH
  2
AcDbHatch
  3
AutoCAD 2000
 90
    32768
280
     0
281
     1
  0
CLASS
  1
DICTIONARYVAR
  2
AcDbDictionaryVar
  3
AutoCAD 2000
 90
        0
280
     0
281
     0
  0
CLASS
  1
RASTERVARIABLES
  2
AcDbRasterVariables
  3
ISM
 90
    32768
280
     0
281
     0
  0
CLASS
  1
IMAGEDEF
  2
AcDbRasterImageDef
  3
ISM
 90
    32768
280
     0
281
     0
  0
CLASS
  1
IMAGEDEF_REACTOR
  2
AcDbRasterImageDefReactor
  3
ISM
 90
    32769
280
     0
281
     0
  0
CLASS
  1
IDBUFFER
  2
AcDbIdBuffer
  3
AutoCAD 2000
 90
    32768
280
     0
281
     0
  0
CLASS
  1
SPATIAL_FILTER
  2
AcDbSpatialFilter
  3
AutoCAD 2000
 90
    32768
280
     0
281
     0
  0
CLASS
  1
XRECORD
  2
AcDbXrecord
  3
AutoCAD 2000
 90
    32768
280
     0
281
     0
  0
CLASS
  1
SORTENTSTABLE
  2
AcDbSortentsTable
  3
AutoCAD 2000
 90
    32768
280
     0
281
     0
  0
CLASS
  1
LAYER_INDEX
  2
AcDbLayerIndex
  3
AutoCAD 2000
 90
    32768
280
     0
281
     0
  0
CLASS
  1
SPATIAL_INDEX
  2
AcDbSpatialIndex
  3
AutoCAD 2000
 90
    32768
280
     0
281
     0
  0
CLASS
  1
OBJECT_PTR
  2
CAseDLPNTableRecord
  3
"ASE-LPNTableRecord"
 90
    32769
280
     0
281
     0
  0
CLASS
  1
LAYOUT
  2
AcDbLayout
  3
AutoCAD 2000
 90
        0
280
     0
281
     0
  0
CLASS
  1
PLOTSETTINGS
  2
AcDbPlotSettings
  3
AutoCAD 2000
 90
    32768
280
     0
281
     0
  0
CLASS
  1
ACDBDICTIONARYWDFLT
  2
AcDbDictionaryWithDefault
  3
AutoCAD 2000
 90
        0
280
     0
281
     0
  0
CLASS
  1
ACDBPLACEHOLDER
  2
AcDbPlaceHolder
  3
AutoCAD 2000
 90
        0
280
     0
281
     0
  0
CLASS
  1
VBA_PROJECT
  2
AcDbVbaProject
  3
"acadvba"
 90
    32769
280
     0
281
     0
  0
CLASS
  1
WIPEOUT
  2
AcDbWipeout
  3
WipeOut|AutoCAD Express Tool|expresstools@autodesk.com
 90
    32895
280
     0
281
     1
  0
CLASS
  1
WIPEOUTVARIABLES
  2
AcDbWipeoutVariables
  3
WipeOut|AutoCAD Express Tool|expresstools@autodesk.com
 90
    32768
280
     0
281
     0
  0
CLASS
  1
RTEXT
  2
RText
  3
RText|AutoCAD Express Tool|expresstools@autodesk.com
 90
    32768
280
     0
281
     1
  0
CLASS
  1
ARCALIGNEDTEXT
  2
AcDbArcAlignedText
  3
ATEXT|AutoCAD Express Tool|expresstools@autodesk.com
 90
    32768
280
     0
281
     1
  0
CLASS
  1
LONG_TRANSACTION
  2
AcDbLongTransaction
  3
AutoCAD 2000
 90
    32768
280
     0
281
     0
  0
CLASS
  1
LWPOLYLINE
  2
AcDbPolyline
  3
AutoCAD 2000
 90
    32768
280
     0
281
     1
  0
CLASS
  1
HATCH
  2
AcDbHatch
  3
AutoCAD 2000
 90
    32768
280
     0
281
     1
  0
CLASS
  1
XRECORD
  2
AcDbXrecord
  3
AutoCAD 2000
 90
    32768
280
     0
281
     0
  0
ENDSEC
  0
SECTION
  2
TABLES
  0
TABLE
  2
VPORT
  5
7
330
0
100
AcDbSymbolTable
 70
     2
  0
VPORT
  5
337
330
7
100
AcDbSymbolTableRecord
100
AcDbViewportTableRecord
  2
*Active
 70
     0
 10
0.0
 20
0.0
 11
1.0
 21
1.0
 12
-183.3661014903306
 22
-85.00299167747414
 13
0.0
 23
0.0
 14
1.0
 24
1.0
 15
0.0
 25
0.0
 16
0.0
 26
0.0
 36
1.0
 17
0.0
 27
0.0
 37
0.0
 40
701.9092325715755
 41
1.182835820895522
 42
50.0
 43
0.0
 44
0.0
 50
0.0
 51
0.0
 71
     0
 72
   100
 73
     1
 74
     1
 75
     0
 76
     0
 77
     0
 78
     0
281
     0
 65
     1
110
0.0
120
0.0
130
0.0
111
1.0
121
0.0
131
0.0
112
0.0
122
1.0
132
0.0
 79
     0
146
0.0
  0
ENDTAB
  0
TABLE
  2
LTYPE
  5
4
330
0
100
AcDbSymbolTable
 70
     8
  0
LTYPE
  5
11
330
4
100
AcDbSymbolTableRecord
100
AcDbLinetypeTableRecord
  2
BYBLOCK
 70
     0
  3

 72
    65
 73
     0
 40
0.0
  0
LTYPE
  5
12
330
4
100
AcDbSymbolTableRecord
100
AcDbLinetypeTableRecord
  2
BYLAYER
 70
     0
  3

 72
    65
 73
     0
 40
0.0
  0
LTYPE
  5
13
330
4
100
AcDbSymbolTableRecord
100
AcDbLinetypeTableRecord
  2
CONTINUOUS
 70
     0
  3
Solid line
 72
    65
 73
     0
 40
0.0
  0
LTYPE
  5
1D
330
4
100
AcDbSymbolTableRecord
100
AcDbLinetypeTableRecord
  2
DASHED
 70
     0
  3
Dashed
 72
    65
 73
     2
 40
15.0
 49
12.0
 74
     0
 49
-3.0
 74
     0
  0
LTYPE
  5
1E
330
4
100
AcDbSymbolTableRecord
100
AcDbLinetypeTableRecord
  2
DOTTED
 70
     0
  3
Dotted
 72
    65
 73
     2
 40
3.5
 49
0.5
 74
     0
 49
-3.0
 74
     0
  0
LTYPE
  5
1F
330
4
100
AcDbSymbolTableRecord
100
AcDbLinetypeTableRecord
  2
DOT_CENTER
 70
     0
  3
Dot_Center
 72
    65
 73
     4
 40
2.0
 49
1.25
 74
     0
 49
-0.25
 74
     0
 49
0.25
 74
     0
 49
-0.25
 74
     0
  0
LTYPE
  5
20
330
4
100
AcDbSymbolTableRecord
100
AcDbLinetypeTableRecord
  2
LONG_DASHED
 70
     0
  3
Long_Dashed
 72
    65
 73
     2
 40
2.0
 49
1.5
 74
     0
 49
-0.5
 74
     0
  0
LTYPE
  5
21
330
4
100
AcDbSymbolTableRecord
100
AcDbLinetypeTableRecord
  2
DASH_CENTER
 70
     0
  3
Dash_Center
 72
    65
 73
     4
 40
36.0
 49
24.0
 74
     0
 49
-3.0
 74
     0
 49
6.0
 74
     0
 49
-3.0
 74
     0
  0
LTYPE
  5
22
330
4
100
AcDbSymbolTableRecord
100
AcDbLinetypeTableRecord
  2
PHANTOM
 70
     0
  3
Phantom
 72
    65
 73
     6
 40
2.5
 49
1.25
 74
     0
 49
-0.25
 74
     0
 49
0.25
 74
     0
 49
-0.25
 74
     0
 49
0.25
 74
     0
 49
-0.25
 74
     0
  0
LTYPE
  5
23
330
4
100
AcDbSymbolTableRecord
100
AcDbLinetypeTableRecord
  2
CENTER_DASH_DASH
 70
     0
  3
Center_Dash_Dash
 72
    65
 73
     6
 40
22.0
 49
12.0
 74
     0
 49
-3.0
 74
     0
 49
0.5
 74
     0
 49
-3.0
 74
     0
 49
0.5
 74
     0
 49
-3.0
 74
     0
  0
ENDTAB
  0
TABLE
  2
LAYER
  5
2
330
0
100
AcDbSymbolTable
 70
     3
  0
LAYER
  5
14
330
2
100
AcDbSymbolTableRecord
100
AcDbLayerTableRecord
  2
0
 70
     0
 62
     7
  6
CONTINUOUS
370
    -3
390
269
  0
LAYER
  5
24
330
2
100
AcDbSymbolTableRecord
100
AcDbLayerTableRecord
  2
1
 70
     0
 62
     7
  6
CONTINUOUS
370
    -3
390
269
  0
LAYER
  5
2F3
330
2
100
AcDbSymbolTableRecord
100
AcDbLayerTableRecord
  2
LAYER_1
 70
     0
 62
     5
  6
CONTINUOUS
370
    -3
390
269
  0
ENDTAB
  0
TABLE
  2
STYLE
  5
3
330
0
100
AcDbSymbolTable
 70
     4
  0
STYLE
  5
17
330
3
100
AcDbSymbolTableRecord
100
AcDbTextStyleTableRecord
  2
STANDARD
 70
     0
 40
0.0
 41
1.0
 50
0.0
 71
     0
 42
0.0
  3
txt
  4

  0
STYLE
  5
20F
330
3
100
AcDbSymbolTableRecord
100
AcDbTextStyleTableRecord
  2
CONVERTER_1
 70
     0
 40
0.0
 41
0.8100000000000001
 50
0.0
 71
     0
 42
0.0
  3
txt.shx
  4

  0
STYLE
  5
211
330
3
100
AcDbSymbolTableRecord
100
AcDbTextStyleTableRecord
  2
CONVERTER_2
 70
     0
 40
0.0
 41
0.6885
 50
0.0
 71
     0
 42
0.0
  3
txt.shx
  4

  0
STYLE
  5
225
330
3
100
AcDbSymbolTableRecord
100
AcDbTextStyleTableRecord
  2
CONVERTER_3
 70
     0
 40
0.0
 41
0.9
 50
0.0
 71
     0
 42
0.0
  3
txt.shx
  4

  0
ENDTAB
  0
TABLE
  2
VIEW
  5
5
330
0
100
AcDbSymbolTable
 70
     0
  0
ENDTAB
  0
TABLE
  2
UCS
  5
6
330
0
100
AcDbSymbolTable
 70
     0
  0
ENDTAB
  0
TABLE
  2
APPID
  5
8
330
0
100
AcDbSymbolTable
 70
     1
  0
APPID
  5
16
330
8
100
AcDbSymbolTableRecord
100
AcDbRegAppTableRecord
  2
ACAD
 70
     0
  0
ENDTAB
  0
TABLE
  2
DIMSTYLE
  5
9
330
0
100
AcDbSymbolTable
 70
     5
100
AcDbDimStyleTable
 71
     1
340
18
  0
DIMSTYLE
105
18
330
9
100
AcDbSymbolTableRecord
100
AcDbDimStyleTableRecord
  2
STANDARD
 70
     0
340
17
  0
DIMSTYLE
105
228
102
{ACAD_REACTORS
330
229
102
}
330
9
100
AcDbSymbolTableRecord
100
AcDbDimStyleTableRecord
  2
ME10_DIM_0
 70
     0
  3
M.H.C <>
 41
4.0
 42
1.0
 44
1.0
 73
     0
 74
     0
 77
     1
 78
     8
140
4.0
173
     1
176
     2
177
     2
178
     2
340
17
  0
DIMSTYLE
105
233
102
{ACAD_REACTORS
330
234
102
}
330
9
100
AcDbSymbolTableRecord
100
AcDbDimStyleTableRecord
  2
ME10_DIM_1
 70
     0
  3
M.H.C <>
 41
4.0
 42
1.0
 44
1.0
 73
     0
 74
     0
 77
     1
 78
     8
140
4.0
173
     1
176
     2
177
     2
178
     2
340
17
  0
DIMSTYLE
105
23E
102
{ACAD_REACTORS
330
23F
102
}
330
9
100
AcDbSymbolTableRecord
100
AcDbDimStyleTableRecord
  2
ME10_DIM_2
 70
     0
  3
M.H.C <>
 41
4.0
 42
1.0
 44
1.0
 73
     0
 74
     0
 77
     1
 78
     8
140
4.0
173
     1
176
     2
177
     2
178
     2
340
17
  0
DIMSTYLE
105
24B
102
{ACAD_REACTORS
330
24C
102
}
330
9
100
AcDbSymbolTableRecord
100
AcDbDimStyleTableRecord
  2
ME10_DIM_3
 70
     0
  3
M.H.C <>
 41
4.0
 42
1.0
 44
1.0
 73
     0
 74
     0
 77
     1
 78
     8
140
4.0
173
     1
176
     2
177
     2
178
     2
340
17
  0
ENDTAB
  0
TABLE
  2
BLOCK_RECORD
  5
1
330
0
100
AcDbSymbolTable
 70
    24
  0
BLOCK_RECORD
  5
A
102
{ACAD_XDICTIONARY
360
25E
102
}
330
1
100
AcDbSymbolTableRecord
100
AcDbBlockTableRecord
  2
*MODEL_SPACE
340
26A
  0
BLOCK_RECORD
  5
B
102
{ACAD_XDICTIONARY
360
260
102
}
330
1
100
AcDbSymbolTableRecord
100
AcDbBlockTableRecord
  2
*PAPER_SPACE
340
26B
  0
BLOCK_RECORD
  5
21C
330
1
100
AcDbSymbolTableRecord
100
AcDbBlockTableRecord
  2
*D0
340
0
  0
BLOCK_RECORD
  5
22A
330
1
100
AcDbSymbolTableRecord
100
AcDbBlockTableRecord
  2
*D1
340
0
  0
BLOCK_RECORD
  5
235
330
1
100
AcDbSymbolTableRecord
100
AcDbBlockTableRecord
  2
*D2
340
0
  0
BLOCK_RECORD
  5
240
330
1
100
AcDbSymbolTableRecord
100
AcDbBlockTableRecord
  2
*D3
340
0
  0
BLOCK_RECORD
  5
26D
330
1
100
AcDbSymbolTableRecord
100
AcDbBlockTableRecord
  2
Harmonic Drive LLC
340
0
310
2800000020000000200000000100080000000000000400000000000000000000000000000000000000000000000080000080000000808000800000008000800080800000C0C0C000C0DCC000F0CAA6000020400000206000002080000020A0000020C0000020E00000400000004020000040400000406000004080000040A0
310
000040C0000040E00000600000006020000060400000606000006080000060A0000060C0000060E00000800000008020000080400000806000008080000080A0000080C0000080E00000A0000000A0200000A0400000A0600000A0800000A0A00000A0C00000A0E00000C0000000C0200000C0400000C0600000C0800000C0
310
A00000C0C00000C0E00000E0000000E0200000E0400000E0600000E0800000E0A00000E0C00000E0E00040000000400020004000400040006000400080004000A0004000C0004000E00040200000402020004020400040206000402080004020A0004020C0004020E000404000004040200040404000404060004040800040
310
40A0004040C0004040E00040600000406020004060400040606000406080004060A0004060C0004060E00040800000408020004080400040806000408080004080A0004080C0004080E00040A0000040A0200040A0400040A0600040A0800040A0A00040A0C00040A0E00040C0000040C0200040C0400040C0600040C08000
310
40C0A00040C0C00040C0E00040E0000040E0200040E0400040E0600040E0800040E0A00040E0C00040E0E00080000000800020008000400080006000800080008000A0008000C0008000E00080200000802020008020400080206000802080008020A0008020C0008020E00080400000804020008040400080406000804080
310
008040A0008040C0008040E00080600000806020008060400080606000806080008060A0008060C0008060E00080800000808020008080400080806000808080008080A0008080C0008080E00080A0000080A0200080A0400080A0600080A0800080A0A00080A0C00080A0E00080C0000080C0200080C0400080C0600080C0
310
800080C0A00080C0C00080C0E00080E0000080E0200080E0400080E0600080E0800080E0A00080E0C00080E0E000C0000000C0002000C0004000C0006000C0008000C000A000C000C000C000E000C0200000C0202000C0204000C0206000C0208000C020A000C020C000C020E000C0400000C0402000C0404000C0406000C0
310
408000C040A000C040C000C040E000C0600000C0602000C0604000C0606000C0608000C060A000C060C000C060E000C0800000C0802000C0804000C0806000C0808000C080A000C080C000C080E000C0A00000C0A02000C0A04000C0A06000C0A08000C0A0A000C0A0C000C0A0E000C0C00000C0C02000C0C04000C0C06000
310
C0C08000C0C0A000F0FBFF00A4A0A000808080000000FF0000FF000000FFFF00FF000000FF00FF00FFFF0000FFFFFF00FFFFFFFFFFFFFFFFFFFFFFFFFFFFFFFFFFFFFFFFFFFFFFFFFFFFFFFFFFFFFFFFFFFFFFFFFFFFFFFFFFFFFFFFFFFFFFFFFFFFFFFFFFFFFFFFFFFFFFFFFFFFFFFFFFFFFFFFFFFFFFFFFFFFFFFFFFFFFF
310
FFFFFFFFFFFFFFFFFFFFFFFFFFFFFFFFFFFFFFFFFFFFFFFFFFFFFFFFFFFFFFFFFFFFFFFFFFFFFFFFFFFFFFFFFFFFFFFFFFFFFFFFFFFFFFFFFFFFFFFFFFFFFFFFFFFFFFFFFFFFFFFFFFFFFFFFFFFFFFFFFFFFFFFFFFFFFFFFFFFFFFFFFFFFFFFFFFFFFFFFFFFFFFFFFFFFFFFFFFFFFFFFFFFFFFFFFFFFFFFFFFFFFFFFFFFFFF
310
FFFFFFFFFFFFFFFFFFFFFFFFFFFFFFFFFFFFFFFFFFFFFFFFFFFFFFFFFFFFFFFFFFFFFFFFFFFFFFFFFFFFFFFFFFFFFFFFFFFFFFFFFFFFFFFFFFFFFFFFFFFFFFFFFFFFFFFFFFFFFFFFFFFFFFFFFFFFFFFFFFFFFFFFFFFFFFFFFFFFFFFFFFFFFFFFFFFFFFFFFFFFFFFFFFFFFFFFFFFFFFFFFFFFFFFFFFFFFFFFFFFFFFFFFFFFFF
310
FFFFFFFFFFFFFFFFFFFFFFFFFFFFFFFFFFFFFFFFFFFFFFFFFFFFFFFFFFFFFFFFFFFFFFFFFFFFFFFFFFFFFFFFFFFFFFFFFFFFFFFFFFFFFFFFFFFFFFFFFFFFFFFFFFFFFFFFFFFFFFFFFFFFFFFFFFFFFFFFFFFFFFFFFFFFFF000000000000000000000000000000000000000000000000FFFFFFFFFFFFFFFF0000000000000000
310
00000000000000000000000000000000FFFFFFFFFFFFFFFFFFFFFFFFFF0000000000000000FF0000000000FFFFFFFFFFFFFFFFFFFFFFFFFFFFFFFFFFFF0000000000000000000000000000FFFFFFFFFFFFFFFFFFFFFFFFFFFF00000000000000000000FF0000000000FF0000000000FFFFFFFFFFFFFFFFFFFF000000000000
310
00000000FF00000000000000FF000000FFFFFFFFFFFFFFFFFFFFFFFFFFFFFFFFFFFFFFFFFFFFFFFFFFFFFFFFFFFFFFFFFFFFFFFFFFFFFFFFFFFFFFFFFFFFFFFFFFFFFFFFFFFFFFFFFFFFFFFFFFFFFFFFFFFFFFFFFFFFFFFFFFFFFFFFFFFFFFFFFFFFFFFFFFFFFFFFFFFFFFFFFFFFFFFFFFFFFFFFFFFFFFFFFFFFFFFFFFFFFF
310
FFFFFFFFFFFFFFFFFFFFFFFFFFFFFFFFFFFFFFFFFFFFFFFFFFFFFFFFFFFFFFFFFFFFFFFFFFFFFFFFFFFFFFFFFFFFFFFFFFFFFFFFFFFFFFFFFFFFFFFFFFFFFFFFFFFFFFFFFFFFFFFFFFFFFFFFFFFFFFFFFFFFFFFFFFFFFFFFFFFFFFFFFFFFFFFFFFFFFFFFFFFFFFFFFFFFFFFFFFFFFFFFFFFFFFFFFFFFFFFFFFFFFFFFFFFFFF
310
FFFFFFFFFFFFFFFFFFFFFFFFFFFFFFFFFFFFFFFFFFFFFFFFFFFFFFFFFFFFFFFFFFFFFFFFFFFFFFFFFFFFFFFFFFFFFFFFFFFFFFFFFFFFFFFFFFFFFFFFFFFFFFFFFFFFFFFFFFFFFFFFFFFFFFFFFFFFFFFFFFFFFFFFFFFFFFFFFFFFFFFFFFFFFFFFFFFFFFFFFFFFFFFFFFFFFFFFFFFFFFFFFFFFFFFFFFFFFFFFFFFFFFFFFFFFFF
310
FFFFFFFFFFFFFFFFFFFFFFFFFFFFFFFFFFFFFFFFFFFFFFFFFFFFFFFFFFFFFFFFFFFFFFFFFFFFFFFFFFFFFFFFFFFFFFFFFFFFFFFFFFFFFFFF
102
{BLKREFS
331
272
331
276
331
278
331
27C
102
}
  0
BLOCK_RECORD
  5
287
330
1
100
AcDbSymbolTableRecord
100
AcDbBlockTableRecord
  2
AI9-BLK14
340
0
310
2800000020000000200000000100080000000000000400000000000000000000000000000000000000000000000080000080000000808000800000008000800080800000C0C0C000C0DCC000F0CAA6000020400000206000002080000020A0000020C0000020E00000400000004020000040400000406000004080000040A0
310
000040C0000040E00000600000006020000060400000606000006080000060A0000060C0000060E00000800000008020000080400000806000008080000080A0000080C0000080E00000A0000000A0200000A0400000A0600000A0800000A0A00000A0C00000A0E00000C0000000C0200000C0400000C0600000C0800000C0
310
A00000C0C00000C0E00000E0000000E0200000E0400000E0600000E0800000E0A00000E0C00000E0E00040000000400020004000400040006000400080004000A0004000C0004000E00040200000402020004020400040206000402080004020A0004020C0004020E000404000004040200040404000404060004040800040
310
40A0004040C0004040E00040600000406020004060400040606000406080004060A0004060C0004060E00040800000408020004080400040806000408080004080A0004080C0004080E00040A0000040A0200040A0400040A0600040A0800040A0A00040A0C00040A0E00040C0000040C0200040C0400040C0600040C08000
310
40C0A00040C0C00040C0E00040E0000040E0200040E0400040E0600040E0800040E0A00040E0C00040E0E00080000000800020008000400080006000800080008000A0008000C0008000E00080200000802020008020400080206000802080008020A0008020C0008020E00080400000804020008040400080406000804080
310
008040A0008040C0008040E00080600000806020008060400080606000806080008060A0008060C0008060E00080800000808020008080400080806000808080008080A0008080C0008080E00080A0000080A0200080A0400080A0600080A0800080A0A00080A0C00080A0E00080C0000080C0200080C0400080C0600080C0
310
800080C0A00080C0C00080C0E00080E0000080E0200080E0400080E0600080E0800080E0A00080E0C00080E0E000C0000000C0002000C0004000C0006000C0008000C000A000C000C000C000E000C0200000C0202000C0204000C0206000C0208000C020A000C020C000C020E000C0400000C0402000C0404000C0406000C0
310
408000C040A000C040C000C040E000C0600000C0602000C0604000C0606000C0608000C060A000C060C000C060E000C0800000C0802000C0804000C0806000C0808000C080A000C080C000C080E000C0A00000C0A02000C0A04000C0A06000C0A08000C0A0A000C0A0C000C0A0E000C0C00000C0C02000C0C04000C0C06000
310
C0C08000C0C0A000F0FBFF00A4A0A000808080000000FF0000FF000000FFFF00FF000000FF00FF00FFFF0000FFFFFF00FF00FFFFFFFF00FFFFFFFFFFFFFFFFFFFFFFFFFFFFFFFFFFFFFFFFFFFFFFFFFFFF00FFFFFFFF00FFFFFFFFFFFFFFFFFFFFFFFFFFFFFFFFFFFFFFFFFFFFFFFFFFFF00FFFFFFFF00FFFFFFFFFFFFFFFF
310
FFFFFFFFFFFFFFFFFFFFFFFFFFFFFFFFFFFF00FFFFFFFF00FFFFFFFFFFFFFFFFFFFFFFFFFFFFFFFFFFFFFFFFFFFFFFFFFFFF00FFFFFFFF00FFFFFFFFFFFFFFFFFFFFFFFFFFFFFFFFFFFFFFFFFFFFFFFFFFFF00FFFFFFFF00FFFFFFFFFFFFFFFFFFFFFFFFFFFFFFFFFFFFFFFFFFFFFFFFFFFF00FFFFFFFF00FFFFFFFFFFFFFF
310
FFFFFFFFFFFFFFFFFFFFFFFFFFFFFFFFFFFFFF00FFFFFFFF00FFFFFFFFFFFFFFFFFFFFFFFFFFFFFFFFFFFFFFFFFFFFFFFFFFFF00FFFFFFFF00FFFFFFFFFFFFFFFFFFFFFFFFFFFFFFFFFFFFFFFFFFFFFFFFFFFF00FFFFFFFF00FFFFFFFFFFFFFFFFFFFFFFFFFFFFFFFFFFFFFFFFFFFFFFFFFFFF00FFFFFFFF00FFFFFFFFFFFF
310
FFFFFFFFFFFFFFFFFFFFFFFFFFFFFFFFFFFFFFFF00FFFFFFFF00FFFFFFFFFFFFFFFFFFFFFFFFFFFFFFFFFFFFFFFFFFFFFFFFFFFF00FFFFFFFF00FFFFFFFFFFFFFFFFFFFFFFFFFFFFFFFFFFFFFFFFFFFFFFFFFFFF00FFFFFFFF0000000000000000000000000000000000000000000000000000FF00FFFFFFFFFFFFFFFFFFFF
310
FFFFFFFFFFFFFFFFFFFFFFFFFFFFFFFFFFFFFFFFFF00FFFFFFFFFFFFFFFFFFFFFFFFFFFFFFFFFFFFFFFFFFFFFFFFFFFFFFFFFFFFFF00FFFFFFFFFFFFFFFFFFFFFFFFFFFFFFFFFFFFFFFFFFFFFFFFFFFFFFFFFFFFFF00FFFFFFFFFFFFFFFFFFFFFFFFFFFFFFFFFFFFFFFFFFFFFFFFFFFFFFFFFF00FF00000000000000000000
310
0000000000000000000000000000000000000000FFFFFFFFFFFFFFFFFFFFFFFFFFFFFFFFFFFFFFFFFFFFFFFFFFFFFFFFFFFFFFFFFFFFFFFFFFFFFFFFFFFFFFFFFFFFFFFFFFFFFFFFFFFFFFFFFFFFFFFFFFFFFFFFFFFFFFFFFFFFFFFFFFFFFFFFFFFFFFFFFFFFFFFFFFFFFFFFFFFFFFFFFFFFFFFFFFFFFFFFFFFFFFFFFFFFFF
310
FFFFFFFFFFFFFFFFFFFFFFFFFFFFFFFFFFFFFFFFFFFFFFFFFFFFFFFFFFFFFFFFFFFFFFFFFFFFFFFFFFFFFFFFFFFFFFFFFFFFFFFFFFFFFFFFFFFFFFFFFFFFFFFFFFFFFFFFFFFFFFFFFFFFFFFFFFFFFFFFFFFFFFFFFFFFFFFFFFFFFFFFFFFFFFFFFFFFFFFFFFFFFFFFFFFFFFFFFFFFFFFFFFFFFFFFFFFFFFFFFFFFFFFFFFFFFF
310
FFFFFFFFFFFFFFFFFFFFFFFFFFFFFFFFFFFFFFFFFFFFFFFFFFFFFFFFFFFFFFFFFFFFFFFFFFFFFFFFFFFFFFFFFFFFFFFFFFFFFFFFFFFFFFFFFFFFFFFFFFFFFFFFFFFFFFFFFFFFFFFFFFFFFFFFFFFFFFFFFFFFFFFFFFFFFFFFFFFFFFFFFFFFFFFFFFFFFFFFFFFFFFFFFFFFFFFFFFFFFFFFFFFFFFFFFFFFFFFFFFFFFFFFFFFFFF
310
FFFFFFFFFFFFFFFFFFFFFFFFFFFFFFFFFFFFFFFFFFFFFFFFFFFFFFFFFFFFFFFFFFFFFFFFFFFFFFFFFFFFFFFFFFFFFFFFFFFFFFFFFFFFFFFF
102
{BLKREFS
331
2C8
102
}
  0
BLOCK_RECORD
  5
28C
330
1
100
AcDbSymbolTableRecord
100
AcDbBlockTableRecord
  2
AI9-BLK13
340
0
310
2800000020000000200000000100080000000000000400000000000000000000000000000000000000000000000080000080000000808000800000008000800080800000C0C0C000C0DCC000F0CAA6000020400000206000002080000020A0000020C0000020E00000400000004020000040400000406000004080000040A0
310
000040C0000040E00000600000006020000060400000606000006080000060A0000060C0000060E00000800000008020000080400000806000008080000080A0000080C0000080E00000A0000000A0200000A0400000A0600000A0800000A0A00000A0C00000A0E00000C0000000C0200000C0400000C0600000C0800000C0
310
A00000C0C00000C0E00000E0000000E0200000E0400000E0600000E0800000E0A00000E0C00000E0E00040000000400020004000400040006000400080004000A0004000C0004000E00040200000402020004020400040206000402080004020A0004020C0004020E000404000004040200040404000404060004040800040
310
40A0004040C0004040E00040600000406020004060400040606000406080004060A0004060C0004060E00040800000408020004080400040806000408080004080A0004080C0004080E00040A0000040A0200040A0400040A0600040A0800040A0A00040A0C00040A0E00040C0000040C0200040C0400040C0600040C08000
310
40C0A00040C0C00040C0E00040E0000040E0200040E0400040E0600040E0800040E0A00040E0C00040E0E00080000000800020008000400080006000800080008000A0008000C0008000E00080200000802020008020400080206000802080008020A0008020C0008020E00080400000804020008040400080406000804080
310
008040A0008040C0008040E00080600000806020008060400080606000806080008060A0008060C0008060E00080800000808020008080400080806000808080008080A0008080C0008080E00080A0000080A0200080A0400080A0600080A0800080A0A00080A0C00080A0E00080C0000080C0200080C0400080C0600080C0
310
800080C0A00080C0C00080C0E00080E0000080E0200080E0400080E0600080E0800080E0A00080E0C00080E0E000C0000000C0002000C0004000C0006000C0008000C000A000C000C000C000E000C0200000C0202000C0204000C0206000C0208000C020A000C020C000C020E000C0400000C0402000C0404000C0406000C0
310
408000C040A000C040C000C040E000C0600000C0602000C0604000C0606000C0608000C060A000C060C000C060E000C0800000C0802000C0804000C0806000C0808000C080A000C080C000C080E000C0A00000C0A02000C0A04000C0A06000C0A08000C0A0A000C0A0C000C0A0E000C0C00000C0C02000C0C04000C0C06000
310
C0C08000C0C0A000F0FBFF00A4A0A000808080000000FF0000FF000000FFFF00FF000000FF00FF00FFFF0000FFFFFF00FFFFFFFFFFFFFFFFFFFFFFFFFFFFFFFFFFFFFFFFFFFFFFFFFFFFFFFFFFFFFFFFFFFFFFFFFFFFFFFFFFFFFF0000FFFFFFFFFFFF0000FFFFFFFFFFFFFFFFFFFFFFFFFFFFFFFFFFFFFFFFFFFF0000FFFF
310
FFFFFFFF0000FFFFFFFFFFFFFFFFFFFFFFFFFFFFFFFFFFFFFFFFFFFF0000FFFFFFFFFFFF0000FFFFFFFFFFFFFFFFFFFFFFFFFFFFFFFFFFFFFFFFFFFF0000FFFFFFFFFFFF0000FFFFFFFFFFFFFFFFFFFFFFFFFFFFFFFFFFFFFFFFFFFF0000FFFFFFFFFFFF0000FFFFFFFFFFFFFFFFFFFFFFFFFFFFFFFFFFFFFFFFFFFF0000FF
310
FFFFFFFFFF0000FFFFFFFFFFFFFFFFFFFFFFFFFFFFFFFFFFFFFFFFFFFF0000FFFFFFFFFFFF0000FFFFFFFFFFFFFFFFFFFFFFFFFFFFFFFFFFFFFFFFFFFF0000FFFFFFFFFFFF0000FFFFFFFFFFFFFFFFFFFFFFFFFFFFFFFFFFFFFFFFFFFF0000FFFFFFFFFFFF0000FFFFFFFFFFFFFFFFFFFFFFFFFFFFFFFFFFFFFFFFFFFF0000
310
FFFFFFFFFFFF0000FFFFFFFFFFFFFFFFFFFFFFFFFFFFFFFFFFFFFFFFFFFF0000FFFFFFFFFFFF0000FFFFFFFFFFFFFFFFFFFFFFFFFFFFFFFFFFFFFFFFFFFF0000FFFFFFFFFFFF0000FFFFFFFFFFFFFFFFFFFFFFFFFFFFFFFFFFFFFFFFFFFF0000FFFFFFFFFFFF0000FFFFFFFFFFFFFFFFFFFFFFFFFFFFFFFFFFFFFFFFFFFF00
310
00FFFFFFFFFFFF0000FFFFFFFFFFFFFFFFFFFFFFFFFFFFFFFFFFFFFFFFFFFF00000000000000000000FFFFFFFFFFFFFFFFFFFFFFFFFFFFFFFFFFFFFFFFFFFF00FFFFFFFFFFFFFFFF00FFFFFFFFFFFFFFFFFFFFFFFFFFFFFFFFFFFFFFFFFFFF00FFFFFFFFFFFFFFFF00FFFFFFFFFFFFFFFFFFFFFFFFFFFFFFFFFFFFFFFFFFFF
310
00000000000000000000FFFFFFFFFFFFFFFFFFFFFFFFFFFFFFFFFFFFFFFFFFFF0000FFFFFFFFFFFF0000FFFFFFFFFFFFFFFFFFFFFFFFFFFFFFFFFFFFFFFFFFFF0000FFFFFFFFFFFF0000FFFFFFFFFFFFFFFFFFFFFFFFFFFFFFFFFFFFFFFFFFFF0000FFFFFFFFFFFF0000FFFFFFFFFFFFFFFFFFFFFFFFFFFFFFFFFFFFFFFFFF
310
FF0000FFFFFFFFFFFF0000FFFFFFFFFFFFFFFFFFFFFFFFFFFFFFFFFFFFFFFFFFFF0000FFFFFFFFFFFF0000FFFFFFFFFFFFFFFFFFFFFFFFFFFFFFFFFFFFFFFFFFFF0000FFFFFFFFFFFF0000FFFFFFFFFFFFFFFFFFFFFFFFFFFFFFFFFFFFFFFFFFFF0000FFFFFFFFFFFF0000FFFFFFFFFFFFFFFFFFFFFFFFFFFFFFFFFFFFFFFF
310
FFFF0000FFFFFFFFFFFF0000FFFFFFFFFFFFFFFFFFFFFFFFFFFFFFFFFFFFFFFFFFFF0000FFFFFFFFFFFF0000FFFFFFFFFFFFFFFFFFFFFFFFFFFFFFFFFFFFFFFFFFFF0000FFFFFFFFFFFF0000FFFFFFFFFFFFFFFFFFFFFFFFFFFFFFFFFFFFFFFFFFFF0000FFFFFFFFFFFF0000FFFFFFFFFFFFFFFFFFFFFFFFFFFFFFFFFFFFFF
310
FFFFFF0000FFFFFFFFFFFF0000FFFFFFFFFFFFFFFFFFFFFFFFFFFFFFFFFFFFFFFFFFFFFFFFFFFFFFFFFFFFFFFFFFFFFFFFFFFFFFFFFFFFFF
102
{BLKREFS
331
2C9
102
}
  0
BLOCK_RECORD
  5
291
330
1
100
AcDbSymbolTableRecord
100
AcDbBlockTableRecord
  2
AI9-BLK11
340
0
310
2800000020000000200000000100080000000000000400000000000000000000000000000000000000000000000080000080000000808000800000008000800080800000C0C0C000C0DCC000F0CAA6000020400000206000002080000020A0000020C0000020E00000400000004020000040400000406000004080000040A0
310
000040C0000040E00000600000006020000060400000606000006080000060A0000060C0000060E00000800000008020000080400000806000008080000080A0000080C0000080E00000A0000000A0200000A0400000A0600000A0800000A0A00000A0C00000A0E00000C0000000C0200000C0400000C0600000C0800000C0
310
A00000C0C00000C0E00000E0000000E0200000E0400000E0600000E0800000E0A00000E0C00000E0E00040000000400020004000400040006000400080004000A0004000C0004000E00040200000402020004020400040206000402080004020A0004020C0004020E000404000004040200040404000404060004040800040
310
40A0004040C0004040E00040600000406020004060400040606000406080004060A0004060C0004060E00040800000408020004080400040806000408080004080A0004080C0004080E00040A0000040A0200040A0400040A0600040A0800040A0A00040A0C00040A0E00040C0000040C0200040C0400040C0600040C08000
310
40C0A00040C0C00040C0E00040E0000040E0200040E0400040E0600040E0800040E0A00040E0C00040E0E00080000000800020008000400080006000800080008000A0008000C0008000E00080200000802020008020400080206000802080008020A0008020C0008020E00080400000804020008040400080406000804080
310
008040A0008040C0008040E00080600000806020008060400080606000806080008060A0008060C0008060E00080800000808020008080400080806000808080008080A0008080C0008080E00080A0000080A0200080A0400080A0600080A0800080A0A00080A0C00080A0E00080C0000080C0200080C0400080C0600080C0
310
800080C0A00080C0C00080C0E00080E0000080E0200080E0400080E0600080E0800080E0A00080E0C00080E0E000C0000000C0002000C0004000C0006000C0008000C000A000C000C000C000E000C0200000C0202000C0204000C0206000C0208000C020A000C020C000C020E000C0400000C0402000C0404000C0406000C0
310
408000C040A000C040C000C040E000C0600000C0602000C0604000C0606000C0608000C060A000C060C000C060E000C0800000C0802000C0804000C0806000C0808000C080A000C080C000C080E000C0A00000C0A02000C0A04000C0A06000C0A08000C0A0A000C0A0C000C0A0E000C0C00000C0C02000C0C04000C0C06000
310
C0C08000C0C0A000F0FBFF00A4A0A000808080000000FF0000FF000000FFFF00FF000000FF00FF00FFFF0000FFFFFF00FFFFFFFFFFFFFFFFFFFFFFFFFFFFFFFFFFFFFFFFFFFFFFFFFFFFFFFFFFFFFFFFFFFFFFFFFFFFFFFFFFFFFFFFFFFF00000000FFFFFFFFFFFFFFFFFFFFFF000000FFFFFFFFFFFFFFFFFFFFFFFFFFFF00
310
FFFF00FFFFFFFFFFFFFFFFFFFFFF00FFFFFFFFFFFFFFFFFFFFFFFFFFFFFFFF00FFFF00FFFFFFFFFFFFFFFFFFFFFF00FFFFFFFFFFFFFFFFFFFFFFFFFFFFFFFF00FFFF00FFFFFFFFFFFFFFFFFFFFFF00FFFFFFFFFFFFFFFFFFFFFFFFFFFFFFFF00FFFF00FFFFFFFFFFFFFFFFFFFFFF00FFFFFFFFFFFFFFFFFFFFFFFFFFFFFFFF
310
00FFFF00FFFFFFFFFFFFFFFFFFFFFF00FFFFFFFFFFFFFFFFFFFFFFFFFFFFFFFF00FFFF00FFFFFFFFFFFFFFFFFFFFFF00FFFFFFFFFFFFFFFFFFFFFFFFFFFFFFFF00FFFF00FFFFFFFFFFFFFFFFFFFFFF00FFFFFFFFFFFFFFFFFFFFFFFFFFFFFFFF00FFFF00FFFFFFFFFFFFFFFFFFFFFF00FFFFFFFFFFFFFFFFFFFFFFFFFFFFFF
310
FF00FFFF00FFFFFFFFFFFFFFFFFFFFFF00FFFFFFFFFFFFFFFFFFFFFFFFFFFFFFFF00FFFF00FFFFFFFFFFFFFFFFFFFFFF00FFFFFFFFFFFFFFFFFFFFFFFFFFFFFFFF00FFFF00FFFFFFFFFFFFFFFFFFFFFF00FFFFFFFFFFFFFFFFFFFFFFFFFFFFFFFF00FFFF00FFFFFFFFFFFFFFFFFFFFFF00FFFFFFFFFFFFFFFFFFFFFFFFFFFF
310
FFFF00FFFF00FFFFFFFFFFFFFFFFFFFFFF00FFFFFFFFFFFFFFFFFFFFFFFFFFFFFFFF00FFFF00FFFFFFFFFFFFFFFFFFFFFF00FFFFFFFFFFFFFFFFFFFFFFFFFFFFFFFF00FFFF00FFFFFFFFFFFFFFFFFFFFFF00FFFFFFFFFFFFFFFFFFFFFFFFFFFFFFFF00FFFF00FFFFFFFFFFFFFFFFFFFF00FFFFFFFFFFFFFFFFFFFFFFFFFFFF
310
FFFFFF00FFFF00FFFFFFFFFFFFFFFFFFFF00FFFFFFFFFFFFFFFFFFFFFFFFFFFFFFFFFF00FFFF00FFFFFFFFFFFFFFFFFFFF00FFFFFFFFFFFFFFFFFFFFFFFFFFFFFFFFFF00FFFF00FFFFFFFFFFFFFFFFFFFF00FFFFFFFFFFFFFFFFFFFFFFFFFFFFFFFFFF00FFFF00FFFFFFFFFFFFFFFFFFFF00FFFFFFFFFFFFFFFFFFFFFFFFFF
310
FFFFFFFF00FFFF00FFFFFFFFFFFFFFFFFF0000FFFF00FFFFFFFFFFFFFFFFFFFFFFFFFFFF00FFFF00FFFFFFFFFFFFFFFF0000FFFFFF00FFFFFFFFFFFFFFFFFFFFFFFFFFFF00FFFF00000000000000000000FFFFFFFF00FFFFFFFFFFFFFFFFFFFFFFFFFFFF00FFFFFFFFFFFFFFFFFFFFFFFFFFFFFF00FFFFFFFFFFFFFFFFFFFF
310
FFFFFFFFFF00FFFFFFFFFFFFFFFFFFFFFFFFFFFF00FFFFFFFFFFFFFFFFFFFFFFFFFFFFFFFF00FFFFFFFFFFFFFFFFFFFFFFFFFFFF00FFFFFFFFFFFFFFFFFFFFFFFFFFFFFFFF00FFFFFFFFFFFFFFFFFFFFFFFFFFFFFF00FFFFFFFFFFFFFFFFFFFFFFFFFFFFFF00FFFFFFFFFFFFFFFFFFFFFFFFFFFFFF00FFFFFFFFFFFFFFFFFF
310
FFFFFFFFFFFF00FFFF00000000000000000000FFFFFFFF00FFFFFFFFFFFFFFFFFFFFFFFFFFFF00FFFF00FFFFFFFFFFFFFFFFFF0000FFFF00
102
{BLKREFS
331
2CA
102
}
  0
BLOCK_RECORD
  5
296
330
1
100
AcDbSymbolTableRecord
100
AcDbBlockTableRecord
  2
AI9-BLK10
340
0
310
2800000020000000200000000100080000000000000400000000000000000000000000000000000000000000000080000080000000808000800000008000800080800000C0C0C000C0DCC000F0CAA6000020400000206000002080000020A0000020C0000020E00000400000004020000040400000406000004080000040A0
310
000040C0000040E00000600000006020000060400000606000006080000060A0000060C0000060E00000800000008020000080400000806000008080000080A0000080C0000080E00000A0000000A0200000A0400000A0600000A0800000A0A00000A0C00000A0E00000C0000000C0200000C0400000C0600000C0800000C0
310
A00000C0C00000C0E00000E0000000E0200000E0400000E0600000E0800000E0A00000E0C00000E0E00040000000400020004000400040006000400080004000A0004000C0004000E00040200000402020004020400040206000402080004020A0004020C0004020E000404000004040200040404000404060004040800040
310
40A0004040C0004040E00040600000406020004060400040606000406080004060A0004060C0004060E00040800000408020004080400040806000408080004080A0004080C0004080E00040A0000040A0200040A0400040A0600040A0800040A0A00040A0C00040A0E00040C0000040C0200040C0400040C0600040C08000
310
40C0A00040C0C00040C0E00040E0000040E0200040E0400040E0600040E0800040E0A00040E0C00040E0E00080000000800020008000400080006000800080008000A0008000C0008000E00080200000802020008020400080206000802080008020A0008020C0008020E00080400000804020008040400080406000804080
310
008040A0008040C0008040E00080600000806020008060400080606000806080008060A0008060C0008060E00080800000808020008080400080806000808080008080A0008080C0008080E00080A0000080A0200080A0400080A0600080A0800080A0A00080A0C00080A0E00080C0000080C0200080C0400080C0600080C0
310
800080C0A00080C0C00080C0E00080E0000080E0200080E0400080E0600080E0800080E0A00080E0C00080E0E000C0000000C0002000C0004000C0006000C0008000C000A000C000C000C000E000C0200000C0202000C0204000C0206000C0208000C020A000C020C000C020E000C0400000C0402000C0404000C0406000C0
310
408000C040A000C040C000C040E000C0600000C0602000C0604000C0606000C0608000C060A000C060C000C060E000C0800000C0802000C0804000C0806000C0808000C080A000C080C000C080E000C0A00000C0A02000C0A04000C0A06000C0A08000C0A0A000C0A0C000C0A0E000C0C00000C0C02000C0C04000C0C06000
310
C0C08000C0C0A000F0FBFF00A4A0A000808080000000FF0000FF000000FFFF00FF000000FF00FF00FFFF0000FFFFFF00FFFFFFFFFFFFFFFFFFFFFFFFFFFFFFFF00FFFFFFFFFFFFFFFFFFFFFFFF00FFFFFFFFFFFFFFFFFFFFFFFFFFFFFFFFFFFF00FFFFFFFFFFFFFFFFFFFFFF00FFFFFFFFFFFFFFFFFFFFFFFFFFFFFFFFFFFF
310
FF00FFFFFFFFFFFFFFFFFFFFFF00FFFFFFFFFFFFFFFFFFFFFFFFFFFFFFFFFFFFFF00FFFFFFFFFFFFFFFFFFFFFF00FFFFFFFFFFFFFFFFFFFFFFFFFFFFFFFFFFFFFF00FFFFFFFFFFFFFFFFFFFFFF00FFFFFFFFFFFFFFFFFFFFFFFFFFFFFFFFFFFFFF00FFFFFFFFFFFFFFFFFFFFFF00FFFFFFFFFFFFFFFFFFFFFFFFFFFFFFFFFF
310
FFFF00FFFFFFFFFFFFFFFFFFFFFF00FFFFFFFFFFFFFFFFFFFFFFFFFFFFFFFFFFFFFF00FFFFFFFFFFFFFFFFFFFF00FFFFFFFFFFFFFFFFFFFFFFFFFFFFFFFFFFFFFFFF00FFFFFFFFFFFFFFFFFFFF00FFFFFFFFFFFFFFFFFFFFFFFFFFFFFFFFFFFFFFFF00FFFFFFFFFFFFFFFFFFFF00FFFFFFFFFFFFFFFFFFFFFFFFFFFFFFFFFF
310
FFFFFF00FFFFFFFFFFFFFFFFFFFF00FFFFFFFFFFFFFFFFFFFFFFFFFFFFFFFFFFFFFFFF00FFFFFFFFFFFFFFFFFFFF00FFFFFFFFFFFFFFFFFFFFFFFFFFFFFFFFFFFFFFFF00FFFFFFFFFFFFFFFFFFFF00FFFFFFFFFFFFFFFFFFFFFFFFFFFFFFFFFFFFFFFF00FFFFFFFFFFFFFFFFFF00FFFFFFFFFFFFFFFFFFFFFFFFFFFFFFFFFF
310
FFFFFFFF00FFFFFFFFFFFFFFFFFF00FFFFFFFFFFFFFFFFFFFFFFFFFFFFFFFFFFFFFFFFFF00FFFFFFFFFFFFFFFFFF00FFFFFFFFFFFFFFFFFFFFFFFFFFFFFFFFFFFFFFFFFF0000000000000000000000FFFFFFFFFFFFFFFFFFFFFFFFFFFFFFFFFFFFFFFFFFFFFFFFFFFFFFFFFFFFFFFFFFFFFFFFFFFFFFFFFFFFFFFFFFFFFFFF
310
FFFFFFFFFFFFFFFFFFFFFFFFFFFFFFFFFFFFFFFFFFFFFFFFFFFFFFFFFFFFFFFFFFFFFFFFFFFFFFFFFFFFFFFFFFFFFFFFFFFFFFFFFFFFFFFFFFFFFFFFFFFFFFFFFFFFFFFFFFFFFFFFFFFFFFFFFFFFFFFFFFFFFFFFFFFFFFFFFFFFFFFFFFFFFFFFFFFFFFFFFFFFFFFFFFFFFFFFFFFFFFFFFFFFFFFFFFFFFFFFFFFFFFFFFFFFFF
310
FFFFFFFFFFFFFFFFFFFFFFFFFFFFFFFFFFFFFFFFFFFFFFFFFFFFFFFFFFFFFFFFFFFFFFFFFFFFFFFFFFFFFFFFFFFFFFFFFFFFFFFFFFFFFFFFFFFFFFFFFFFFFFFFFFFFFFFFFFFFFFFFFFFFFFFFFFFFFFFFFFFFFFFFFFFFFFFFFFFFFFFFFFFFFFFFFFFFFFFFFFFFFFFFFFFFFFFFFFFFFFFFFFFFFFFFFFFFFFFFFFFFFFFFFFFFFF
310
FFFFFFFFFFFFFFFFFFFFFFFFFFFFFFFFFFFFFFFFFFFFFFFFFFFFFFFFFFFFFFFFFFFFFFFFFFFFFFFFFFFFFFFFFFFFFFFFFFFFFFFFFFFFFFFFFFFFFFFFFFFFFFFFFFFFFFFFFFFFFFFFFFFFFFFFFFFFFFFFFFFFFFFFFFFFFFFFFFFFFFFFFFFFFFFFFFFFFFFFFFFFFFFFFFFFFFFFFFFFFFFFFFFFFFFFFFFFFFFFFFFFFFFFFFFFFF
310
FFFFFFFFFFFFFFFFFFFFFFFFFFFFFFFFFFFFFFFFFFFFFFFFFFFFFFFFFFFFFFFFFFFFFFFFFFFFFFFFFFFFFFFFFFFFFFFFFFFFFFFFFFFFFFFF
102
{BLKREFS
331
2CB
102
}
  0
BLOCK_RECORD
  5
29A
330
1
100
AcDbSymbolTableRecord
100
AcDbBlockTableRecord
  2
AI9-BLK9
340
0
310
2800000020000000200000000100080000000000000400000000000000000000000000000000000000000000000080000080000000808000800000008000800080800000C0C0C000C0DCC000F0CAA6000020400000206000002080000020A0000020C0000020E00000400000004020000040400000406000004080000040A0
310
000040C0000040E00000600000006020000060400000606000006080000060A0000060C0000060E00000800000008020000080400000806000008080000080A0000080C0000080E00000A0000000A0200000A0400000A0600000A0800000A0A00000A0C00000A0E00000C0000000C0200000C0400000C0600000C0800000C0
310
A00000C0C00000C0E00000E0000000E0200000E0400000E0600000E0800000E0A00000E0C00000E0E00040000000400020004000400040006000400080004000A0004000C0004000E00040200000402020004020400040206000402080004020A0004020C0004020E000404000004040200040404000404060004040800040
310
40A0004040C0004040E00040600000406020004060400040606000406080004060A0004060C0004060E00040800000408020004080400040806000408080004080A0004080C0004080E00040A0000040A0200040A0400040A0600040A0800040A0A00040A0C00040A0E00040C0000040C0200040C0400040C0600040C08000
310
40C0A00040C0C00040C0E00040E0000040E0200040E0400040E0600040E0800040E0A00040E0C00040E0E00080000000800020008000400080006000800080008000A0008000C0008000E00080200000802020008020400080206000802080008020A0008020C0008020E00080400000804020008040400080406000804080
310
008040A0008040C0008040E00080600000806020008060400080606000806080008060A0008060C0008060E00080800000808020008080400080806000808080008080A0008080C0008080E00080A0000080A0200080A0400080A0600080A0800080A0A00080A0C00080A0E00080C0000080C0200080C0400080C0600080C0
310
800080C0A00080C0C00080C0E00080E0000080E0200080E0400080E0600080E0800080E0A00080E0C00080E0E000C0000000C0002000C0004000C0006000C0008000C000A000C000C000C000E000C0200000C0202000C0204000C0206000C0208000C020A000C020C000C020E000C0400000C0402000C0404000C0406000C0
310
408000C040A000C040C000C040E000C0600000C0602000C0604000C0606000C0608000C060A000C060C000C060E000C0800000C0802000C0804000C0806000C0808000C080A000C080C000C080E000C0A00000C0A02000C0A04000C0A06000C0A08000C0A0A000C0A0C000C0A0E000C0C00000C0C02000C0C04000C0C06000
310
C0C08000C0C0A000F0FBFF00A4A0A000808080000000FF0000FF000000FFFF00FF000000FF00FF00FFFF0000FFFFFF00FFFFFFFFFFFFFFFFFFFFFFFFFFFFFFFFFFFFFFFFFFFFFFFFFFFFFFFFFFFFFFFFFFFFFFFFFFFFFFFFFFFFFFFFFFFFFF0000FFFFFFFFFFFFFFFFFFFFFFFFFFFFFFFFFFFFFFFFFFFFFFFFFFFFFFFF0000
310
FF0000FFFFFFFFFFFFFFFFFFFFFFFFFFFFFFFFFFFFFFFFFFFFFFFFFFFFFF00FFFFFF0000FFFFFFFFFFFFFFFFFFFFFFFFFFFFFFFFFFFFFFFFFFFFFFFFFFFF00FFFFFFFF0000FFFFFFFFFFFFFFFFFFFFFFFFFFFFFFFFFFFFFFFFFFFFFFFF00FF00000000FF00FFFFFFFFFFFFFFFFFFFFFFFFFFFFFFFFFFFFFFFFFFFFFFFF0000
310
00FFFF00FF00FFFFFFFFFFFFFFFFFFFFFFFFFFFFFFFFFFFFFFFFFFFFFFFF0000FFFFFFFF0000FFFFFFFFFFFFFFFFFFFFFFFFFFFFFFFFFFFFFFFFFFFFFFFF0000FFFFFFFF0000FFFFFFFFFFFFFFFFFFFFFFFFFFFFFFFFFFFFFFFFFFFFFF00FF00FFFFFFFF00FF00FFFFFFFFFFFFFFFFFFFFFFFFFFFFFFFFFFFFFFFFFFFF0000
310
FFFFFFFFFF00FF00FFFFFFFFFFFFFFFFFFFFFFFFFFFFFFFFFFFFFFFFFFFF0000FFFFFFFFFFFF0000FFFFFFFFFFFFFFFFFFFFFFFFFFFFFFFFFFFFFFFFFFFF0000FFFFFFFFFFFF0000FFFFFFFFFFFFFFFFFFFFFFFFFFFFFFFFFFFFFFFFFFFF0000FFFFFFFFFFFF0000FFFFFFFFFFFFFFFFFFFFFFFFFFFFFFFFFFFFFFFFFFFF00
310
00FFFFFFFFFFFF0000FFFFFFFFFFFFFFFFFFFFFFFFFFFFFFFFFFFFFFFFFFFF0000FFFFFFFFFFFF0000FFFFFFFFFFFFFFFFFFFFFFFFFFFFFFFFFFFFFFFFFFFF0000FFFFFFFFFFFF0000FFFFFFFFFFFFFFFFFFFFFFFFFFFFFFFFFFFFFFFFFFFF0000FFFFFFFFFFFF0000FFFFFFFFFFFFFFFFFFFFFFFFFFFFFFFFFFFFFFFFFFFF
310
0000FFFFFFFFFFFF0000FFFFFFFFFFFFFFFFFFFFFFFFFFFFFFFFFFFFFFFFFFFF0000FFFFFFFFFFFF0000FFFFFFFFFFFFFFFFFFFFFFFFFFFFFFFFFFFFFFFFFFFF0000FFFFFFFFFFFF0000FFFFFFFFFFFFFFFFFFFFFFFFFFFFFFFFFFFFFFFFFFFF00FF00FFFFFFFF00FF00FFFFFFFFFFFFFFFFFFFFFFFFFFFFFFFFFFFFFFFFFF
310
FF00FF00FFFFFFFF00FF00FFFFFFFFFFFFFFFFFFFFFFFFFFFFFFFFFFFFFFFFFFFF00FF00FFFFFFFF00FF00FFFFFFFFFFFFFFFFFFFFFFFFFFFFFFFFFFFFFFFFFFFFFF0000FFFFFFFF0000FFFFFFFFFFFFFFFFFFFFFFFFFFFFFFFFFFFFFFFFFFFFFFFF00FF00FFFF00FF00FFFFFFFFFFFFFFFFFFFFFFFFFFFFFFFFFFFFFFFFFF
310
FFFFFF00FF00000000FF00FFFFFFFFFFFFFFFFFFFFFFFFFFFFFFFFFFFFFFFFFFFFFFFFFF00FFFFFFFF0000FFFFFFFFFFFFFFFFFFFFFFFFFFFFFFFFFFFFFFFFFFFFFFFFFF00FFFFFFFF00FFFFFFFFFFFFFFFFFFFFFFFFFFFFFFFFFFFFFFFFFFFFFFFFFFFFFF00000000FFFFFFFFFFFFFFFFFFFFFFFFFFFFFFFFFFFFFFFFFFFF
310
FFFFFFFFFFFFFF0000FFFFFFFFFFFFFFFFFFFFFFFFFFFFFFFFFFFFFFFFFFFFFFFFFFFFFFFFFFFFFFFFFFFFFFFFFFFFFFFFFFFFFFFFFFFFFF
102
{BLKREFS
331
2CC
102
}
  0
BLOCK_RECORD
  5
29F
330
1
100
AcDbSymbolTableRecord
100
AcDbBlockTableRecord
  2
AI9-BLK8
340
0
310
2800000020000000200000000100080000000000000400000000000000000000000000000000000000000000000080000080000000808000800000008000800080800000C0C0C000C0DCC000F0CAA6000020400000206000002080000020A0000020C0000020E00000400000004020000040400000406000004080000040A0
310
000040C0000040E00000600000006020000060400000606000006080000060A0000060C0000060E00000800000008020000080400000806000008080000080A0000080C0000080E00000A0000000A0200000A0400000A0600000A0800000A0A00000A0C00000A0E00000C0000000C0200000C0400000C0600000C0800000C0
310
A00000C0C00000C0E00000E0000000E0200000E0400000E0600000E0800000E0A00000E0C00000E0E00040000000400020004000400040006000400080004000A0004000C0004000E00040200000402020004020400040206000402080004020A0004020C0004020E000404000004040200040404000404060004040800040
310
40A0004040C0004040E00040600000406020004060400040606000406080004060A0004060C0004060E00040800000408020004080400040806000408080004080A0004080C0004080E00040A0000040A0200040A0400040A0600040A0800040A0A00040A0C00040A0E00040C0000040C0200040C0400040C0600040C08000
310
40C0A00040C0C00040C0E00040E0000040E0200040E0400040E0600040E0800040E0A00040E0C00040E0E00080000000800020008000400080006000800080008000A0008000C0008000E00080200000802020008020400080206000802080008020A0008020C0008020E00080400000804020008040400080406000804080
310
008040A0008040C0008040E00080600000806020008060400080606000806080008060A0008060C0008060E00080800000808020008080400080806000808080008080A0008080C0008080E00080A0000080A0200080A0400080A0600080A0800080A0A00080A0C00080A0E00080C0000080C0200080C0400080C0600080C0
310
800080C0A00080C0C00080C0E00080E0000080E0200080E0400080E0600080E0800080E0A00080E0C00080E0E000C0000000C0002000C0004000C0006000C0008000C000A000C000C000C000E000C0200000C0202000C0204000C0206000C0208000C020A000C020C000C020E000C0400000C0402000C0404000C0406000C0
310
408000C040A000C040C000C040E000C0600000C0602000C0604000C0606000C0608000C060A000C060C000C060E000C0800000C0802000C0804000C0806000C0808000C080A000C080C000C080E000C0A00000C0A02000C0A04000C0A06000C0A08000C0A0A000C0A0C000C0A0E000C0C00000C0C02000C0C04000C0C06000
310
C0C08000C0C0A000F0FBFF00A4A0A000808080000000FF0000FF000000FFFF00FF000000FF00FF00FFFF0000FFFFFF00FFFFFFFFFFFFFFFFFFFFFFFFFFFFFFFFFFFFFFFFFFFFFFFFFFFFFFFFFFFFFFFFFFFFFFFFFFFFFFFFFFFFFF0000FFFFFFFFFFFF0000FFFFFFFFFFFFFFFFFFFFFFFFFFFFFFFFFFFFFFFFFFFF0000FFFF
310
FFFFFFFF0000FFFFFFFFFFFFFFFFFFFFFFFFFFFFFFFFFFFFFFFFFFFF0000FFFFFFFFFF00FF00FFFFFFFFFFFFFFFFFFFFFFFFFFFFFFFFFFFFFFFFFFFF0000FFFFFFFFFF00FF00FFFFFFFFFFFFFFFFFFFFFFFFFFFFFFFFFFFFFFFFFFFF0000FFFFFFFFFF00FF00FFFFFFFFFFFFFFFFFFFFFFFFFFFFFFFFFFFFFFFFFFFF0000FF
310
FFFFFF00FFFF00FFFFFFFFFFFFFFFFFFFFFFFFFFFFFFFFFFFFFFFFFFFF0000FFFFFFFF00FF0000FFFFFFFFFFFFFFFFFFFFFFFFFFFFFFFFFFFFFFFFFFFF0000FFFFFFFF00FF0000FFFFFFFFFFFFFFFFFFFFFFFFFFFFFFFFFFFFFFFFFFFF0000FFFFFFFF00000000FFFFFFFFFFFFFFFFFFFFFFFFFFFFFFFFFFFFFFFFFFFF0000
310
FFFFFF00FF000000FFFFFFFFFFFFFFFFFFFFFFFFFFFFFFFFFFFFFFFFFFFF0000FFFFFF00FF000000FFFFFFFFFFFFFFFFFFFFFFFFFFFFFFFFFFFFFFFFFFFF0000FFFFFF00FF000000FFFFFFFFFFFFFFFFFFFFFFFFFFFFFFFFFFFFFFFFFFFF0000FFFF00FF00FF0000FFFFFFFFFFFFFFFFFFFFFFFFFFFFFFFFFFFFFFFFFFFF00
310
00FFFF00FF00FF0000FFFFFFFFFFFFFFFFFFFFFFFFFFFFFFFFFFFFFFFFFFFF0000FFFF00FF00FF0000FFFFFFFFFFFFFFFFFFFFFFFFFFFFFFFFFFFFFFFFFFFF0000FF00FFFF00FF0000FFFFFFFFFFFFFFFFFFFFFFFFFFFFFFFFFFFFFFFFFFFF0000FF00FF00FFFF0000FFFFFFFFFFFFFFFFFFFFFFFFFFFFFFFFFFFFFFFFFFFF
310
0000FF00FF00FFFF0000FFFFFFFFFFFFFFFFFFFFFFFFFFFFFFFFFFFFFFFFFFFF0000FF00FF00FFFF0000FFFFFFFFFFFFFFFFFFFFFFFFFFFFFFFFFFFFFFFFFFFF000000FFFF00FFFF0000FFFFFFFFFFFFFFFFFFFFFFFFFFFFFFFFFFFFFFFFFFFF000000FF00FFFFFF0000FFFFFFFFFFFFFFFFFFFFFFFFFFFFFFFFFFFFFFFFFF
310
FF000000FF00FFFFFF0000FFFFFFFFFFFFFFFFFFFFFFFFFFFFFFFFFFFFFFFFFFFF0000FFFF00FFFFFF0000FFFFFFFFFFFFFFFFFFFFFFFFFFFFFFFFFFFFFFFFFFFF0000FFFF00FFFFFF0000FFFFFFFFFFFFFFFFFFFFFFFFFFFFFFFFFFFFFFFFFFFF00FFFF00FFFFFFFF0000FFFFFFFFFFFFFFFFFFFFFFFFFFFFFFFFFFFFFFFF
310
FFFF00FFFF00FFFFFFFF0000FFFFFFFFFFFFFFFFFFFFFFFFFFFFFFFFFFFFFFFFFFFF00FFFF00FFFFFFFF0000FFFFFFFFFFFFFFFFFFFFFFFFFFFFFFFFFFFFFFFFFFFF00FFFF00FFFFFFFF0000FFFFFFFFFFFFFFFFFFFFFFFFFFFFFFFFFFFFFFFFFFFF00FF00FFFFFFFFFF0000FFFFFFFFFFFFFFFFFFFFFFFFFFFFFFFFFFFFFF
310
FFFFFF000000FFFFFFFFFF0000FFFFFFFFFFFFFFFFFFFFFFFFFFFFFFFFFFFFFFFFFFFFFFFFFFFFFFFFFFFFFFFFFFFFFFFFFFFFFFFFFFFFFF
102
{BLKREFS
331
2CD
102
}
  0
BLOCK_RECORD
  5
2A4
330
1
100
AcDbSymbolTableRecord
100
AcDbBlockTableRecord
  2
AI9-BLK7
340
0
310
2800000020000000200000000100080000000000000400000000000000000000000000000000000000000000000080000080000000808000800000008000800080800000C0C0C000C0DCC000F0CAA6000020400000206000002080000020A0000020C0000020E00000400000004020000040400000406000004080000040A0
310
000040C0000040E00000600000006020000060400000606000006080000060A0000060C0000060E00000800000008020000080400000806000008080000080A0000080C0000080E00000A0000000A0200000A0400000A0600000A0800000A0A00000A0C00000A0E00000C0000000C0200000C0400000C0600000C0800000C0
310
A00000C0C00000C0E00000E0000000E0200000E0400000E0600000E0800000E0A00000E0C00000E0E00040000000400020004000400040006000400080004000A0004000C0004000E00040200000402020004020400040206000402080004020A0004020C0004020E000404000004040200040404000404060004040800040
310
40A0004040C0004040E00040600000406020004060400040606000406080004060A0004060C0004060E00040800000408020004080400040806000408080004080A0004080C0004080E00040A0000040A0200040A0400040A0600040A0800040A0A00040A0C00040A0E00040C0000040C0200040C0400040C0600040C08000
310
40C0A00040C0C00040C0E00040E0000040E0200040E0400040E0600040E0800040E0A00040E0C00040E0E00080000000800020008000400080006000800080008000A0008000C0008000E00080200000802020008020400080206000802080008020A0008020C0008020E00080400000804020008040400080406000804080
310
008040A0008040C0008040E00080600000806020008060400080606000806080008060A0008060C0008060E00080800000808020008080400080806000808080008080A0008080C0008080E00080A0000080A0200080A0400080A0600080A0800080A0A00080A0C00080A0E00080C0000080C0200080C0400080C0600080C0
310
800080C0A00080C0C00080C0E00080E0000080E0200080E0400080E0600080E0800080E0A00080E0C00080E0E000C0000000C0002000C0004000C0006000C0008000C000A000C000C000C000E000C0200000C0202000C0204000C0206000C0208000C020A000C020C000C020E000C0400000C0402000C0404000C0406000C0
310
408000C040A000C040C000C040E000C0600000C0602000C0604000C0606000C0608000C060A000C060C000C060E000C0800000C0802000C0804000C0806000C0808000C080A000C080C000C080E000C0A00000C0A02000C0A04000C0A06000C0A08000C0A0A000C0A0C000C0A0E000C0C00000C0C02000C0C04000C0C06000
310
C0C08000C0C0A000F0FBFF00A4A0A000808080000000FF0000FF000000FFFF00FF000000FF00FF00FFFF0000FFFFFF00FFFFFFFFFFFFFFFFFFFFFFFFFFFFFFFFFFFFFFFFFFFFFFFFFFFFFFFFFFFFFFFFFFFFFFFFFFFFFFFFFFFFFFFFFFFFFF0000FFFFFFFFFFFFFFFFFFFFFFFFFFFFFFFFFFFFFFFFFFFFFFFFFFFFFFFFFFFF
310
0000FFFFFFFFFFFFFFFFFFFFFFFFFFFFFFFFFFFFFFFFFFFFFFFFFFFFFFFFFFFF0000FFFFFFFFFFFFFFFFFFFFFFFFFFFFFFFFFFFFFFFFFFFFFFFFFFFFFFFFFFFF0000FFFFFFFFFFFFFFFFFFFFFFFFFFFFFFFFFFFFFFFFFFFFFFFFFFFFFFFFFFFF0000FFFFFFFFFFFFFFFFFFFFFFFFFFFFFFFFFFFFFFFFFFFFFFFFFFFFFFFFFF
310
FF0000FFFFFFFFFFFFFFFFFFFFFFFFFFFFFFFFFFFFFFFFFFFFFFFFFFFFFFFFFFFF0000FFFFFFFFFFFFFFFFFFFFFFFFFFFFFFFFFFFFFFFFFFFFFFFFFFFFFFFFFFFF0000FFFFFFFFFFFFFFFFFFFFFFFFFFFFFFFFFFFFFFFFFFFFFFFFFFFFFFFFFFFF0000FFFFFFFFFFFFFFFFFFFFFFFFFFFFFFFFFFFFFFFFFFFFFFFFFFFFFFFF
310
FFFF0000FFFFFFFFFFFFFFFFFFFFFFFFFFFFFFFFFFFFFFFFFFFFFFFFFFFFFFFFFFFF0000FFFFFFFFFFFFFFFFFFFFFFFFFFFFFFFFFFFFFFFFFFFFFFFFFFFFFFFFFFFF0000FFFFFFFFFFFFFFFFFFFFFFFFFFFFFFFFFFFFFFFFFFFFFFFFFFFFFFFFFFFF0000FFFFFFFFFFFFFFFFFFFFFFFFFFFFFFFFFFFFFFFFFFFFFFFFFFFFFF
310
FFFFFF0000FFFFFFFFFFFFFFFFFFFFFFFFFFFFFFFFFFFFFFFFFFFFFFFFFFFFFFFFFFFF0000FFFFFFFFFFFFFFFFFFFFFFFFFFFFFFFFFFFFFFFFFFFFFFFFFFFFFFFFFFFF0000FFFFFFFFFFFFFFFFFFFFFFFFFFFFFFFFFFFFFFFFFFFFFFFFFFFFFFFFFFFF0000FFFFFFFFFFFFFFFFFFFFFFFFFFFFFFFFFFFFFFFFFFFFFFFFFFFF
310
FFFFFFFF0000FFFFFFFFFFFFFFFFFFFFFFFFFFFFFFFFFFFFFFFFFFFFFFFFFFFFFFFFFFFF0000FFFFFFFFFFFFFFFFFFFFFFFFFFFFFFFFFFFFFFFFFFFFFFFFFFFFFFFFFFFF0000FFFFFFFFFFFFFFFFFFFFFFFFFFFFFFFFFFFFFFFFFFFFFFFFFFFFFFFFFFFF0000FFFFFFFFFFFFFFFFFFFFFFFFFFFFFFFFFFFFFFFFFFFFFFFFFF
310
FFFFFFFFFF0000FFFFFFFFFFFFFFFFFFFFFFFFFFFFFFFFFFFFFFFFFFFFFFFFFFFFFFFFFFFF0000FFFFFFFFFFFFFFFFFFFFFFFFFFFFFFFFFFFFFFFFFFFFFFFFFFFFFFFFFFFF0000FFFFFFFFFFFFFFFFFFFFFFFFFFFFFFFFFFFFFFFFFFFFFFFFFFFFFFFFFFFF0000FFFFFFFFFFFFFFFFFFFFFFFFFFFFFFFFFFFFFFFFFFFFFFFF
310
FFFFFFFFFFFF0000FFFFFFFFFFFFFFFFFFFFFFFFFFFFFFFFFFFFFFFFFFFFFFFFFFFFFFFFFFFF0000FFFFFFFFFFFFFFFFFFFFFFFFFFFFFFFFFFFFFFFFFFFFFFFFFFFFFFFFFFFF0000FFFFFFFFFFFFFFFFFFFFFFFFFFFFFFFFFFFFFFFFFFFFFFFFFFFFFFFFFFFF0000FFFFFFFFFFFFFFFFFFFFFFFFFFFFFFFFFFFFFFFFFFFFFF
310
FFFFFFFFFFFFFF0000FFFFFFFFFFFFFFFFFFFFFFFFFFFFFFFFFFFFFFFFFFFFFFFFFFFFFFFFFFFFFFFFFFFFFFFFFFFFFFFFFFFFFFFFFFFFFF
102
{BLKREFS
331
2CE
102
}
  0
BLOCK_RECORD
  5
2A9
330
1
100
AcDbSymbolTableRecord
100
AcDbBlockTableRecord
  2
AI9-BLK6
340
0
310
2800000020000000200000000100080000000000000400000000000000000000000000000000000000000000000080000080000000808000800000008000800080800000C0C0C000C0DCC000F0CAA6000020400000206000002080000020A0000020C0000020E00000400000004020000040400000406000004080000040A0
310
000040C0000040E00000600000006020000060400000606000006080000060A0000060C0000060E00000800000008020000080400000806000008080000080A0000080C0000080E00000A0000000A0200000A0400000A0600000A0800000A0A00000A0C00000A0E00000C0000000C0200000C0400000C0600000C0800000C0
310
A00000C0C00000C0E00000E0000000E0200000E0400000E0600000E0800000E0A00000E0C00000E0E00040000000400020004000400040006000400080004000A0004000C0004000E00040200000402020004020400040206000402080004020A0004020C0004020E000404000004040200040404000404060004040800040
310
40A0004040C0004040E00040600000406020004060400040606000406080004060A0004060C0004060E00040800000408020004080400040806000408080004080A0004080C0004080E00040A0000040A0200040A0400040A0600040A0800040A0A00040A0C00040A0E00040C0000040C0200040C0400040C0600040C08000
310
40C0A00040C0C00040C0E00040E0000040E0200040E0400040E0600040E0800040E0A00040E0C00040E0E00080000000800020008000400080006000800080008000A0008000C0008000E00080200000802020008020400080206000802080008020A0008020C0008020E00080400000804020008040400080406000804080
310
008040A0008040C0008040E00080600000806020008060400080606000806080008060A0008060C0008060E00080800000808020008080400080806000808080008080A0008080C0008080E00080A0000080A0200080A0400080A0600080A0800080A0A00080A0C00080A0E00080C0000080C0200080C0400080C0600080C0
310
800080C0A00080C0C00080C0E00080E0000080E0200080E0400080E0600080E0800080E0A00080E0C00080E0E000C0000000C0002000C0004000C0006000C0008000C000A000C000C000C000E000C0200000C0202000C0204000C0206000C0208000C020A000C020C000C020E000C0400000C0402000C0404000C0406000C0
310
408000C040A000C040C000C040E000C0600000C0602000C0604000C0606000C0608000C060A000C060C000C060E000C0800000C0802000C0804000C0806000C0808000C080A000C080C000C080E000C0A00000C0A02000C0A04000C0A06000C0A08000C0A0A000C0A0C000C0A0E000C0C00000C0C02000C0C04000C0C06000
310
C0C08000C0C0A000F0FBFF00A4A0A000808080000000FF0000FF000000FFFF00FF000000FF00FF00FFFF0000FFFFFF00FFFFFFFFFFFFFFFFFFFFFFFF00FFFFFFFFFFFFFF00FFFFFFFFFFFFFFFFFFFFFFFFFFFFFFFFFFFFFFFFFFFFFF00FFFFFFFFFFFFFF00FFFFFFFFFFFFFFFFFFFFFFFFFFFFFFFFFFFFFFFFFFFFFF00FFFF
310
FFFFFFFFFF00FFFFFFFFFFFFFFFFFFFFFFFFFFFFFFFFFFFFFFFFFFFF00FFFFFFFFFFFFFFFF00FFFFFFFFFFFFFFFFFFFFFFFFFFFFFFFFFFFFFFFFFFFF00FFFFFFFFFFFFFF00FFFFFFFFFFFFFFFFFFFFFFFFFFFFFFFFFFFFFFFFFFFFFF00FFFFFFFFFFFFFF00FFFFFFFFFFFFFFFFFFFFFFFFFFFFFFFFFFFFFFFFFFFF00FFFFFF
310
FFFFFFFFFF00FFFFFFFFFFFFFFFFFFFFFFFFFFFFFFFFFFFFFFFFFFFF00FFFFFFFFFFFFFF00FFFFFFFFFFFFFFFFFFFFFFFFFFFFFFFFFFFFFFFFFFFF00FFFFFFFFFFFFFFFF00FFFFFFFFFFFFFFFFFFFFFFFFFFFFFFFFFFFFFFFFFF00FFFFFFFFFFFFFFFFFF00FFFFFFFFFFFFFFFFFFFFFFFFFFFFFFFFFFFFFFFF00FFFFFFFFFF
310
FFFFFFFFFF00FFFFFFFFFFFFFFFFFFFFFFFFFFFFFFFFFFFFFF00FFFFFFFFFFFFFFFFFFFF00FFFFFFFFFFFFFFFFFFFFFFFFFFFFFFFFFFFF0000FFFFFFFFFFFFFFFFFFFFFF00FFFFFFFFFFFFFFFFFFFFFFFFFFFF00000000FFFFFFFFFFFFFFFFFFFFFFFFFF00FFFFFFFFFFFFFFFFFFFFFFFFFFFFFFFFFFFFFFFFFFFFFFFFFFFF
310
FFFFFFFF00FFFFFFFFFFFFFFFFFFFFFFFFFFFFFFFFFFFFFFFFFFFFFFFFFFFFFFFFFFFFFF00FFFFFFFFFFFFFFFFFFFFFFFFFFFFFFFFFFFFFFFFFFFFFFFFFFFFFFFFFFFFFF00FFFFFFFFFFFFFFFFFFFFFFFFFFFFFFFFFFFFFFFFFFFFFFFFFFFFFFFFFFFF00FFFFFFFFFFFFFFFFFFFFFFFFFFFFFFFFFFFFFFFFFFFFFFFFFFFFFF
310
FFFFFFFF00FFFFFFFFFFFFFFFFFFFFFFFFFFFFFFFFFFFFFFFFFFFFFFFFFFFFFFFFFFFF00FFFFFFFFFFFFFFFFFFFFFFFFFFFFFFFFFFFFFFFFFFFFFFFFFFFFFFFFFFFF00FFFFFFFFFFFFFFFFFFFFFFFFFFFFFFFFFFFFFFFFFFFFFFFFFFFFFFFFFFFF00FFFFFFFFFFFFFFFFFFFFFFFFFFFFFFFFFFFFFFFFFFFFFFFFFFFFFFFFFF
310
FF00FFFFFFFFFFFFFFFFFFFFFFFFFFFFFFFFFFFFFFFFFFFFFFFFFFFFFFFFFFFFFF00FFFFFFFFFFFFFFFFFFFFFFFFFFFFFFFFFFFFFFFFFFFFFFFFFFFFFFFFFFFF00FFFFFFFFFFFFFFFFFFFFFFFFFFFFFFFFFFFFFFFFFFFFFFFFFFFFFFFFFF0000FFFFFFFFFFFFFFFFFFFFFFFFFFFFFFFFFFFFFFFFFFFFFFFFFFFFFFFF0000FF
310
FFFFFFFFFFFFFFFFFFFFFFFFFFFFFFFFFFFFFFFFFFFFFFFFFF00000000FFFFFFFFFFFFFFFFFFFFFFFFFFFFFFFFFFFFFFFFFFFFFFFFFFFF0000FFFFFFFFFFFFFFFFFFFFFFFFFFFFFFFFFFFFFFFFFFFFFFFFFFFFFFFFFFFFFFFFFFFFFFFFFFFFFFFFFFFFFFFFFFFFFFFFFFFFFFFFFFFFFFFFFFFFFFFFFFFFFFFFFFFFFFFFFFFF
310
FFFFFFFFFFFFFFFFFFFFFFFFFFFFFFFFFFFFFFFFFFFFFFFFFFFFFFFFFFFFFFFFFFFFFFFFFFFFFFFFFFFFFFFFFFFFFFFFFFFFFFFFFFFFFFFF
102
{BLKREFS
331
2CF
102
}
  0
BLOCK_RECORD
  5
2AD
330
1
100
AcDbSymbolTableRecord
100
AcDbBlockTableRecord
  2
AI9-BLK5
340
0
310
2800000020000000200000000100080000000000000400000000000000000000000000000000000000000000000080000080000000808000800000008000800080800000C0C0C000C0DCC000F0CAA6000020400000206000002080000020A0000020C0000020E00000400000004020000040400000406000004080000040A0
310
000040C0000040E00000600000006020000060400000606000006080000060A0000060C0000060E00000800000008020000080400000806000008080000080A0000080C0000080E00000A0000000A0200000A0400000A0600000A0800000A0A00000A0C00000A0E00000C0000000C0200000C0400000C0600000C0800000C0
310
A00000C0C00000C0E00000E0000000E0200000E0400000E0600000E0800000E0A00000E0C00000E0E00040000000400020004000400040006000400080004000A0004000C0004000E00040200000402020004020400040206000402080004020A0004020C0004020E000404000004040200040404000404060004040800040
310
40A0004040C0004040E00040600000406020004060400040606000406080004060A0004060C0004060E00040800000408020004080400040806000408080004080A0004080C0004080E00040A0000040A0200040A0400040A0600040A0800040A0A00040A0C00040A0E00040C0000040C0200040C0400040C0600040C08000
310
40C0A00040C0C00040C0E00040E0000040E0200040E0400040E0600040E0800040E0A00040E0C00040E0E00080000000800020008000400080006000800080008000A0008000C0008000E00080200000802020008020400080206000802080008020A0008020C0008020E00080400000804020008040400080406000804080
310
008040A0008040C0008040E00080600000806020008060400080606000806080008060A0008060C0008060E00080800000808020008080400080806000808080008080A0008080C0008080E00080A0000080A0200080A0400080A0600080A0800080A0A00080A0C00080A0E00080C0000080C0200080C0400080C0600080C0
310
800080C0A00080C0C00080C0E00080E0000080E0200080E0400080E0600080E0800080E0A00080E0C00080E0E000C0000000C0002000C0004000C0006000C0008000C000A000C000C000C000E000C0200000C0202000C0204000C0206000C0208000C020A000C020C000C020E000C0400000C0402000C0404000C0406000C0
310
408000C040A000C040C000C040E000C0600000C0602000C0604000C0606000C0608000C060A000C060C000C060E000C0800000C0802000C0804000C0806000C0808000C080A000C080C000C080E000C0A00000C0A02000C0A04000C0A06000C0A08000C0A0A000C0A0C000C0A0E000C0C00000C0C02000C0C04000C0C06000
310
C0C08000C0C0A000F0FBFF00A4A0A000808080000000FF0000FF000000FFFF00FF000000FF00FF00FFFF0000FFFFFF00FFFFFFFFFFFFFFFFFFFFFFFFFFFFFFFFFFFFFFFFFFFFFFFFFFFFFFFFFFFFFFFFFFFFFFFFFFFFFFFF000000000000000000000000000000000000000000000000FFFFFFFFFFFFFFFF00FFFFFFFFFFFF
310
FFFFFFFFFFFFFFFFFFFFFFFFFFFFFFFFFFFFFFFFFFFFFFFFFF00FFFFFFFFFFFFFFFFFFFFFFFFFFFFFFFFFFFFFFFFFFFFFFFFFFFFFFFFFFFFFF00FFFFFFFFFFFFFFFFFFFFFFFFFFFFFFFFFFFFFFFFFFFFFFFFFFFFFFFFFFFFFF00FFFFFFFFFFFFFFFFFFFFFFFFFFFFFFFFFFFFFFFFFFFFFFFFFFFFFFFFFFFFFF00FFFFFFFFFF
310
FFFFFFFFFFFFFFFFFFFFFFFFFFFFFFFFFFFFFFFFFFFFFFFFFFFF00FFFFFFFFFFFFFFFFFFFFFFFFFFFFFFFFFFFFFFFFFFFFFFFFFFFFFFFFFFFFFF00FFFFFFFFFFFFFFFFFFFFFFFFFFFFFFFFFFFFFFFFFFFFFFFFFFFFFFFFFFFFFF00FFFFFFFFFFFFFFFFFFFFFFFFFFFFFFFFFFFFFFFFFFFFFFFFFFFFFFFFFFFFFF00FFFFFFFF
310
FFFFFFFFFFFFFFFFFFFFFFFFFFFFFFFFFFFFFFFFFFFFFFFFFFFFFF00FFFFFFFFFFFFFFFFFFFFFFFFFFFFFFFFFFFFFFFFFFFFFFFFFFFFFFFFFFFFFF00FFFFFFFFFFFFFFFFFFFFFFFFFFFFFFFFFFFFFFFFFFFFFFFFFFFFFFFFFFFFFF00FFFFFFFFFFFFFFFFFFFFFFFFFFFFFFFFFFFFFFFFFFFFFFFFFFFFFFFFFFFFFF00FFFFFF
310
FFFFFFFFFFFFFFFFFFFFFFFFFFFFFFFFFFFFFFFFFFFFFFFFFFFFFFFF00FFFFFFFFFFFFFFFFFFFFFFFFFFFFFFFFFFFFFFFFFFFFFFFFFFFFFFFFFFFFFF00FFFFFFFFFFFFFFFFFFFFFFFFFFFFFFFFFFFFFFFFFFFFFFFFFFFFFFFFFFFFFF00FFFFFFFFFFFFFFFFFFFFFFFFFFFFFFFFFFFFFFFFFFFFFFFFFFFFFFFFFFFFFF00FFFF
310
FFFFFFFFFFFFFFFFFFFFFFFFFFFFFFFFFFFFFFFFFFFFFFFFFFFFFFFFFF00FFFFFFFFFFFFFFFFFFFFFFFFFFFFFFFFFFFFFFFFFFFFFFFFFFFFFFFFFFFFFF00FFFFFFFFFFFFFFFFFFFFFFFFFFFFFFFFFFFFFFFFFFFFFFFFFFFFFFFFFFFFFF00FFFFFFFFFFFFFFFFFFFFFFFFFFFFFFFFFFFFFFFFFFFFFFFFFFFFFFFFFFFFFF00FF
310
FFFFFFFFFFFFFFFFFFFFFFFFFFFFFFFFFFFFFFFFFFFFFFFFFFFFFFFFFFFF00FFFFFFFFFFFFFFFFFFFFFFFFFFFFFFFFFFFFFFFFFFFFFFFFFFFFFFFFFFFFFF00FFFFFFFFFFFFFFFFFFFFFFFFFFFFFFFFFFFFFFFFFFFFFFFFFFFFFFFFFFFFFF00FFFFFFFFFFFFFFFFFFFFFFFFFFFFFFFFFFFFFFFFFFFFFFFFFFFFFFFFFFFFFF00
310
FFFFFFFFFFFFFFFFFFFFFFFFFFFFFFFFFFFFFFFFFFFFFFFFFFFFFFFFFFFFFF00FFFFFFFFFFFFFFFFFFFFFFFFFFFFFFFFFFFFFFFFFFFFFFFFFFFFFFFFFFFFFF00FFFFFFFFFFFFFFFFFFFFFFFFFFFFFFFFFFFFFFFFFFFFFFFFFFFFFFFFFFFFFF00FFFFFFFFFFFFFFFFFFFFFFFFFFFFFFFFFFFFFFFFFFFFFFFFFFFFFFFFFFFFFF
310
00FFFFFFFFFFFFFFFFFFFFFFFFFFFF000000000000000000FFFFFFFFFFFFFFFF00FFFFFFFFFFFFFFFFFFFFFFFFFFFF00FFFFFFFFFFFFFFFF
102
{BLKREFS
331
2D0
102
}
  0
BLOCK_RECORD
  5
2B2
330
1
100
AcDbSymbolTableRecord
100
AcDbBlockTableRecord
  2
AI9-BLK4
340
0
310
2800000020000000200000000100080000000000000400000000000000000000000000000000000000000000000080000080000000808000800000008000800080800000C0C0C000C0DCC000F0CAA6000020400000206000002080000020A0000020C0000020E00000400000004020000040400000406000004080000040A0
310
000040C0000040E00000600000006020000060400000606000006080000060A0000060C0000060E00000800000008020000080400000806000008080000080A0000080C0000080E00000A0000000A0200000A0400000A0600000A0800000A0A00000A0C00000A0E00000C0000000C0200000C0400000C0600000C0800000C0
310
A00000C0C00000C0E00000E0000000E0200000E0400000E0600000E0800000E0A00000E0C00000E0E00040000000400020004000400040006000400080004000A0004000C0004000E00040200000402020004020400040206000402080004020A0004020C0004020E000404000004040200040404000404060004040800040
310
40A0004040C0004040E00040600000406020004060400040606000406080004060A0004060C0004060E00040800000408020004080400040806000408080004080A0004080C0004080E00040A0000040A0200040A0400040A0600040A0800040A0A00040A0C00040A0E00040C0000040C0200040C0400040C0600040C08000
310
40C0A00040C0C00040C0E00040E0000040E0200040E0400040E0600040E0800040E0A00040E0C00040E0E00080000000800020008000400080006000800080008000A0008000C0008000E00080200000802020008020400080206000802080008020A0008020C0008020E00080400000804020008040400080406000804080
310
008040A0008040C0008040E00080600000806020008060400080606000806080008060A0008060C0008060E00080800000808020008080400080806000808080008080A0008080C0008080E00080A0000080A0200080A0400080A0600080A0800080A0A00080A0C00080A0E00080C0000080C0200080C0400080C0600080C0
310
800080C0A00080C0C00080C0E00080E0000080E0200080E0400080E0600080E0800080E0A00080E0C00080E0E000C0000000C0002000C0004000C0006000C0008000C000A000C000C000C000E000C0200000C0202000C0204000C0206000C0208000C020A000C020C000C020E000C0400000C0402000C0404000C0406000C0
310
408000C040A000C040C000C040E000C0600000C0602000C0604000C0606000C0608000C060A000C060C000C060E000C0800000C0802000C0804000C0806000C0808000C080A000C080C000C080E000C0A00000C0A02000C0A04000C0A06000C0A08000C0A0A000C0A0C000C0A0E000C0C00000C0C02000C0C04000C0C06000
310
C0C08000C0C0A000F0FBFF00A4A0A000808080000000FF0000FF000000FFFF00FF000000FF00FF00FFFF0000FFFFFF00FFFFFFFFFFFFFFFFFFFFFFFFFFFFFFFFFFFFFFFFFFFFFFFFFFFFFFFFFFFFFFFFFFFFFFFFFFFFFFFFFFFFFFFFFFFF00000000FFFFFFFFFFFFFFFFFFFFFF000000FFFFFFFFFFFFFFFFFFFFFFFFFFFF00
310
FFFF00FFFFFFFFFFFFFFFFFFFFFF00FFFFFFFFFFFFFFFFFFFFFFFFFFFFFFFF00FFFF00FFFFFFFFFFFFFFFFFFFFFF00FFFFFFFFFFFFFFFFFFFFFFFFFFFFFFFF00FFFF00FFFFFFFFFFFFFFFFFFFFFF00FFFFFFFFFFFFFFFFFFFFFFFFFFFFFFFF00FFFF00FFFFFFFFFFFFFFFFFFFFFF00FFFFFFFFFFFFFFFFFFFFFFFFFFFFFFFF
310
00FFFF00FFFFFFFFFFFFFFFFFFFFFF00FFFFFFFFFFFFFFFFFFFFFFFFFFFFFFFF00FFFF00FFFFFFFFFFFFFFFFFFFFFF00FFFFFFFFFFFFFFFFFFFFFFFFFFFFFFFF00FFFF00FFFFFFFFFFFFFFFFFFFFFF00FFFFFFFFFFFFFFFFFFFFFFFFFFFFFFFF00FFFF00FFFFFFFFFFFFFFFFFFFFFF00FFFFFFFFFFFFFFFFFFFFFFFFFFFFFF
310
FF00FFFF00FFFFFFFFFFFFFFFFFFFFFF00FFFFFFFFFFFFFFFFFFFFFFFFFFFFFFFF00FFFF00FFFFFFFFFFFFFFFFFFFFFF00FFFFFFFFFFFFFFFFFFFFFFFFFFFFFFFF00FFFF00FFFFFFFFFFFFFFFFFFFFFF00FFFFFFFFFFFFFFFFFFFFFFFFFFFFFFFF00FFFF00FFFFFFFFFFFFFFFFFFFFFF00FFFFFFFFFFFFFFFFFFFFFFFFFFFF
310
FFFF00FFFF00FFFFFFFFFFFFFFFFFFFFFF00FFFFFFFFFFFFFFFFFFFFFFFFFFFFFFFF00FFFF00FFFFFFFFFFFFFFFFFFFFFF00FFFFFFFFFFFFFFFFFFFFFFFFFFFFFFFF00FFFF00FFFFFFFFFFFFFFFFFFFFFF00FFFFFFFFFFFFFFFFFFFFFFFFFFFFFFFF00FFFF00FFFFFFFFFFFFFFFFFFFF00FFFFFFFFFFFFFFFFFFFFFFFFFFFF
310
FFFFFF00FFFF00FFFFFFFFFFFFFFFFFFFF00FFFFFFFFFFFFFFFFFFFFFFFFFFFFFFFFFF00FFFF00FFFFFFFFFFFFFFFFFFFF00FFFFFFFFFFFFFFFFFFFFFFFFFFFFFFFFFF00FFFF00FFFFFFFFFFFFFFFFFFFF00FFFFFFFFFFFFFFFFFFFFFFFFFFFFFFFFFF00FFFF00FFFFFFFFFFFFFFFFFFFF00FFFFFFFFFFFFFFFFFFFFFFFFFF
310
FFFFFFFF00FFFF00FFFFFFFFFFFFFFFFFF0000FFFF00FFFFFFFFFFFFFFFFFFFFFFFFFFFF00FFFF00FFFFFFFFFFFFFFFF0000FFFFFF00FFFFFFFFFFFFFFFFFFFFFFFFFFFF00FFFF00000000000000000000FFFFFFFF00FFFFFFFFFFFFFFFFFFFFFFFFFFFF00FFFFFFFFFFFFFFFFFFFFFFFFFFFFFF00FFFFFFFFFFFFFFFFFFFF
310
FFFFFFFFFF00FFFFFFFFFFFFFFFFFFFFFFFFFFFF00FFFFFFFFFFFFFFFFFFFFFFFFFFFFFFFF00FFFFFFFFFFFFFFFFFFFFFFFFFFFF00FFFFFFFFFFFFFFFFFFFFFFFFFFFFFFFF00FFFFFFFFFFFFFFFFFFFFFFFFFFFFFF00FFFFFFFFFFFFFFFFFFFFFFFFFFFFFF00FFFFFFFFFFFFFFFFFFFFFFFFFFFFFF00FFFFFFFFFFFFFFFFFF
310
FFFFFFFFFFFF00FFFF00000000000000000000FFFFFFFF00FFFFFFFFFFFFFFFFFFFFFFFFFFFF00FFFF00FFFFFFFFFFFFFFFFFF0000FFFF00
102
{BLKREFS
331
2D1
102
}
  0
BLOCK_RECORD
  5
2B7
330
1
100
AcDbSymbolTableRecord
100
AcDbBlockTableRecord
  2
AI9-BLK3
340
0
310
2800000020000000200000000100080000000000000400000000000000000000000000000000000000000000000080000080000000808000800000008000800080800000C0C0C000C0DCC000F0CAA6000020400000206000002080000020A0000020C0000020E00000400000004020000040400000406000004080000040A0
310
000040C0000040E00000600000006020000060400000606000006080000060A0000060C0000060E00000800000008020000080400000806000008080000080A0000080C0000080E00000A0000000A0200000A0400000A0600000A0800000A0A00000A0C00000A0E00000C0000000C0200000C0400000C0600000C0800000C0
310
A00000C0C00000C0E00000E0000000E0200000E0400000E0600000E0800000E0A00000E0C00000E0E00040000000400020004000400040006000400080004000A0004000C0004000E00040200000402020004020400040206000402080004020A0004020C0004020E000404000004040200040404000404060004040800040
310
40A0004040C0004040E00040600000406020004060400040606000406080004060A0004060C0004060E00040800000408020004080400040806000408080004080A0004080C0004080E00040A0000040A0200040A0400040A0600040A0800040A0A00040A0C00040A0E00040C0000040C0200040C0400040C0600040C08000
310
40C0A00040C0C00040C0E00040E0000040E0200040E0400040E0600040E0800040E0A00040E0C00040E0E00080000000800020008000400080006000800080008000A0008000C0008000E00080200000802020008020400080206000802080008020A0008020C0008020E00080400000804020008040400080406000804080
310
008040A0008040C0008040E00080600000806020008060400080606000806080008060A0008060C0008060E00080800000808020008080400080806000808080008080A0008080C0008080E00080A0000080A0200080A0400080A0600080A0800080A0A00080A0C00080A0E00080C0000080C0200080C0400080C0600080C0
310
800080C0A00080C0C00080C0E00080E0000080E0200080E0400080E0600080E0800080E0A00080E0C00080E0E000C0000000C0002000C0004000C0006000C0008000C000A000C000C000C000E000C0200000C0202000C0204000C0206000C0208000C020A000C020C000C020E000C0400000C0402000C0404000C0406000C0
310
408000C040A000C040C000C040E000C0600000C0602000C0604000C0606000C0608000C060A000C060C000C060E000C0800000C0802000C0804000C0806000C0808000C080A000C080C000C080E000C0A00000C0A02000C0A04000C0A06000C0A08000C0A0A000C0A0C000C0A0E000C0C00000C0C02000C0C04000C0C06000
310
C0C08000C0C0A000F0FBFF00A4A0A000808080000000FF0000FF000000FFFF00FF000000FF00FF00FFFF0000FFFFFF00FFFFFFFFFFFFFFFFFFFFFFFFFFFFFFFFFFFFFFFFFFFFFFFFFFFFFFFFFFFFFFFFFFFFFFFFFFFFFFFFFFFFFFFFFFFFFF0000FFFFFFFFFFFFFFFFFFFFFFFFFFFFFFFFFFFFFFFFFFFFFFFFFFFFFFFFFFFF
310
0000FFFFFFFFFFFFFFFFFFFFFFFFFFFFFFFFFFFFFFFFFFFFFFFFFFFFFFFFFFFF0000FFFFFFFFFFFFFFFFFFFFFFFFFFFFFFFFFFFFFFFFFFFFFFFFFFFFFFFFFFFF0000FFFFFFFFFFFFFFFFFFFFFFFFFFFFFFFFFFFFFFFFFFFFFFFFFFFFFFFFFFFF0000FFFFFFFFFFFFFFFFFFFFFFFFFFFFFFFFFFFFFFFFFFFFFFFFFFFFFFFFFF
310
FF0000FFFFFFFFFFFFFFFFFFFFFFFFFFFFFFFFFFFFFFFFFFFFFFFFFFFFFFFFFFFF0000FFFFFFFFFFFFFFFFFFFFFFFFFFFFFFFFFFFFFFFFFFFFFFFFFFFFFFFFFFFF0000FFFFFFFFFFFFFFFFFFFFFFFFFFFFFFFFFFFFFFFFFFFFFFFFFFFFFFFFFFFF0000FFFFFFFFFFFFFFFFFFFFFFFFFFFFFFFFFFFFFFFFFFFFFFFFFFFFFFFF
310
FFFF0000FFFFFFFFFFFFFFFFFFFFFFFFFFFFFFFFFFFFFFFFFFFFFFFFFFFFFFFFFFFF0000FFFFFFFFFFFFFFFFFFFFFFFFFFFFFFFFFFFFFFFFFFFFFFFFFFFFFFFFFFFF0000FFFFFFFFFFFFFFFFFFFFFFFFFFFFFFFFFFFFFFFFFFFFFFFFFFFFFFFFFFFF0000FFFFFFFFFFFFFFFFFFFFFFFFFFFFFFFFFFFFFFFFFFFFFFFFFFFFFF
310
FFFFFF0000FFFFFFFFFFFFFFFFFFFFFFFFFFFFFFFFFFFFFFFFFFFFFFFFFFFFFFFFFFFF0000FFFFFFFFFFFFFFFFFFFFFFFFFFFFFFFFFFFFFFFFFFFFFFFFFFFFFFFFFFFF0000FFFFFFFFFFFFFFFFFFFFFFFFFFFFFFFFFFFFFFFFFFFFFFFFFFFFFFFFFFFF0000FFFFFFFFFFFFFFFFFFFFFFFFFFFFFFFFFFFFFFFFFFFFFFFFFFFF
310
FFFFFFFF0000FFFFFFFFFFFFFFFFFFFFFFFFFFFFFFFFFFFFFFFFFFFFFFFFFFFFFFFFFFFF0000FFFFFFFFFFFFFFFFFFFFFFFFFFFFFFFFFFFFFFFFFFFFFFFFFFFFFFFFFFFF0000FFFFFFFFFFFFFFFFFFFFFFFFFFFFFFFFFFFFFFFFFFFFFFFFFFFFFFFFFFFF0000FFFFFFFFFFFFFFFFFFFFFFFFFFFFFFFFFFFFFFFFFFFFFFFFFF
310
FFFFFFFFFF0000FFFFFFFFFFFFFFFFFFFFFFFFFFFFFFFFFFFFFFFFFFFFFFFFFFFFFFFFFFFF0000FFFFFFFFFFFFFFFFFFFFFFFFFFFFFFFFFFFFFFFFFFFFFFFFFFFFFFFFFFFF0000FFFFFFFFFFFFFFFFFFFFFFFFFFFFFFFFFFFFFFFFFFFFFFFFFFFFFFFFFFFF0000FFFFFFFFFFFFFFFFFFFFFFFFFFFFFFFFFFFFFFFFFFFFFFFF
310
FFFFFFFFFFFF0000FFFFFFFFFFFFFFFFFFFFFFFFFFFFFFFFFFFFFFFFFFFFFFFFFFFFFFFFFFFF0000FFFFFFFFFFFFFFFFFFFFFFFFFFFFFFFFFFFFFFFFFFFFFFFFFFFFFFFFFFFF0000FFFFFFFFFFFFFFFFFFFFFFFFFFFFFFFFFFFFFFFFFFFFFFFFFFFFFFFFFFFF0000FFFFFFFFFFFFFFFFFFFFFFFFFFFFFFFFFFFFFFFFFFFFFF
310
FFFFFFFFFFFFFF0000FFFFFFFFFFFFFFFFFFFFFFFFFFFFFFFFFFFFFFFFFFFFFFFFFFFFFFFFFFFFFFFFFFFFFFFFFFFFFFFFFFFFFFFFFFFFFF
102
{BLKREFS
331
2D2
102
}
  0
BLOCK_RECORD
  5
2BC
330
1
100
AcDbSymbolTableRecord
100
AcDbBlockTableRecord
  2
AI9-BLK2
340
0
310
2800000020000000200000000100080000000000000400000000000000000000000000000000000000000000000080000080000000808000800000008000800080800000C0C0C000C0DCC000F0CAA6000020400000206000002080000020A0000020C0000020E00000400000004020000040400000406000004080000040A0
310
000040C0000040E00000600000006020000060400000606000006080000060A0000060C0000060E00000800000008020000080400000806000008080000080A0000080C0000080E00000A0000000A0200000A0400000A0600000A0800000A0A00000A0C00000A0E00000C0000000C0200000C0400000C0600000C0800000C0
310
A00000C0C00000C0E00000E0000000E0200000E0400000E0600000E0800000E0A00000E0C00000E0E00040000000400020004000400040006000400080004000A0004000C0004000E00040200000402020004020400040206000402080004020A0004020C0004020E000404000004040200040404000404060004040800040
310
40A0004040C0004040E00040600000406020004060400040606000406080004060A0004060C0004060E00040800000408020004080400040806000408080004080A0004080C0004080E00040A0000040A0200040A0400040A0600040A0800040A0A00040A0C00040A0E00040C0000040C0200040C0400040C0600040C08000
310
40C0A00040C0C00040C0E00040E0000040E0200040E0400040E0600040E0800040E0A00040E0C00040E0E00080000000800020008000400080006000800080008000A0008000C0008000E00080200000802020008020400080206000802080008020A0008020C0008020E00080400000804020008040400080406000804080
310
008040A0008040C0008040E00080600000806020008060400080606000806080008060A0008060C0008060E00080800000808020008080400080806000808080008080A0008080C0008080E00080A0000080A0200080A0400080A0600080A0800080A0A00080A0C00080A0E00080C0000080C0200080C0400080C0600080C0
310
800080C0A00080C0C00080C0E00080E0000080E0200080E0400080E0600080E0800080E0A00080E0C00080E0E000C0000000C0002000C0004000C0006000C0008000C000A000C000C000C000E000C0200000C0202000C0204000C0206000C0208000C020A000C020C000C020E000C0400000C0402000C0404000C0406000C0
310
408000C040A000C040C000C040E000C0600000C0602000C0604000C0606000C0608000C060A000C060C000C060E000C0800000C0802000C0804000C0806000C0808000C080A000C080C000C080E000C0A00000C0A02000C0A04000C0A06000C0A08000C0A0A000C0A0C000C0A0E000C0C00000C0C02000C0C04000C0C06000
310
C0C08000C0C0A000F0FBFF00A4A0A000808080000000FF0000FF000000FFFF00FF000000FF00FF00FFFF0000FFFFFF00FFFFFFFFFFFFFFFFFFFFFFFFFFFFFFFFFFFFFFFFFFFFFFFFFFFFFFFFFFFFFFFFFFFFFFFFFFFFFFFFFFFFFFFFFFFFFF0000FFFFFFFFFFFFFFFFFFFFFFFFFFFFFFFFFFFFFFFFFFFFFFFFFFFFFFFFFFFF
310
0000FFFFFFFFFFFFFFFFFFFFFFFFFFFFFFFFFFFFFFFFFFFFFFFFFFFFFFFFFFFF0000FFFFFFFFFFFFFFFFFFFFFFFFFFFFFFFFFFFFFFFFFFFFFFFFFFFFFFFFFF00FFFF00FFFFFFFFFFFFFFFFFFFFFFFFFFFFFFFFFFFFFFFFFFFFFFFFFFFFFFFF00FFFF00FFFFFFFFFFFFFFFFFFFFFFFFFFFFFFFFFFFFFFFFFFFFFFFFFFFFFFFF
310
00FF0000FFFFFFFFFFFFFFFFFFFFFFFFFFFFFFFFFFFFFFFFFFFFFFFFFFFFFFFF00FF0000FFFFFFFFFFFFFFFFFFFFFFFFFFFFFFFFFFFFFFFFFFFFFFFFFFFFFFFF00FF0000FFFFFFFFFFFFFFFFFFFFFFFFFFFFFFFFFFFFFFFFFFFFFFFFFFFFFFFF00000000FFFFFFFFFFFFFFFFFFFFFFFFFFFFFFFFFFFFFFFFFFFFFFFFFFFFFF
310
00FF00FF0000FFFFFFFFFFFFFFFFFFFFFFFFFFFFFFFFFFFFFFFFFFFFFFFFFFFF00FF00FF0000FFFFFFFFFFFFFFFFFFFFFFFFFFFFFFFFFFFFFFFFFFFFFFFFFFFF00FF00FF0000FFFFFFFFFFFFFFFFFFFFFFFFFFFFFFFFFFFFFFFFFFFFFFFFFFFF00FF00FF0000FFFFFFFFFFFFFFFFFFFFFFFFFFFFFFFFFFFFFFFFFFFFFFFFFF
310
FF00FF00FF0000FFFFFFFFFFFFFFFFFFFFFFFFFFFFFFFFFFFFFFFFFFFFFFFFFFFF0000FFFF0000FFFFFFFFFFFFFFFFFFFFFFFFFFFFFFFFFFFFFFFFFFFFFFFFFF00FF00FFFF00FF00FFFFFFFFFFFFFFFFFFFFFFFFFFFFFFFFFFFFFFFFFFFFFFFF00FF00FFFF00FF00FFFFFFFFFFFFFFFFFFFFFFFFFFFFFFFFFFFFFFFFFFFFFF
310
FF00FF00FFFFFF0000FFFFFFFFFFFFFFFFFFFFFFFFFFFFFFFFFFFFFFFFFFFFFFFF00FF00FFFFFF0000FFFFFFFFFFFFFFFFFFFFFFFFFFFFFFFFFFFFFFFFFFFFFFFF00FF00FFFFFF0000FFFFFFFFFFFFFFFFFFFFFFFFFFFFFFFFFFFFFFFFFFFFFFFF0000FFFFFFFF0000FFFFFFFFFFFFFFFFFFFFFFFFFFFFFFFFFFFFFFFFFFFF
310
FF00FF00FFFFFFFF00FF00FFFFFFFFFFFFFFFFFFFFFFFFFFFFFFFFFFFFFFFFFFFF00FF00FFFFFFFF00FF00FFFFFFFFFFFFFFFFFFFFFFFFFFFFFFFFFFFFFFFFFFFF00FF00FFFFFFFF00FF00FFFFFFFFFFFFFFFFFFFFFFFFFFFFFFFFFFFFFFFFFFFF00FF00FFFFFFFF00FF00FFFFFFFFFFFFFFFFFFFFFFFFFFFFFFFFFFFFFFFF
310
FFFF00FF00FFFFFFFFFF0000FFFFFFFFFFFFFFFFFFFFFFFFFFFFFFFFFFFFFFFFFFFF0000FFFFFFFFFFFF0000FFFFFFFFFFFFFFFFFFFFFFFFFFFFFFFFFFFFFFFFFF00FF00FFFFFFFFFFFF00FF00FFFFFFFFFFFFFFFFFFFFFFFFFFFFFFFFFFFFFFFF00FF00FFFFFFFFFFFF00FF00FFFFFFFFFFFFFFFFFFFFFFFFFFFFFFFFFFFF
310
FFFF000000FFFFFFFFFFFF000000FFFFFFFFFFFFFFFFFFFFFFFFFFFFFFFFFFFFFFFFFFFFFFFFFFFFFFFFFFFFFFFFFFFFFFFFFFFFFFFFFFFF
102
{BLKREFS
331
2D3
102
}
  0
BLOCK_RECORD
  5
2C1
330
1
100
AcDbSymbolTableRecord
100
AcDbBlockTableRecord
  2
AI9-BLK1
340
0
310
2800000020000000200000000100080000000000000400000000000000000000000000000000000000000000000080000080000000808000800000008000800080800000C0C0C000C0DCC000F0CAA6000020400000206000002080000020A0000020C0000020E00000400000004020000040400000406000004080000040A0
310
000040C0000040E00000600000006020000060400000606000006080000060A0000060C0000060E00000800000008020000080400000806000008080000080A0000080C0000080E00000A0000000A0200000A0400000A0600000A0800000A0A00000A0C00000A0E00000C0000000C0200000C0400000C0600000C0800000C0
310
A00000C0C00000C0E00000E0000000E0200000E0400000E0600000E0800000E0A00000E0C00000E0E00040000000400020004000400040006000400080004000A0004000C0004000E00040200000402020004020400040206000402080004020A0004020C0004020E000404000004040200040404000404060004040800040
310
40A0004040C0004040E00040600000406020004060400040606000406080004060A0004060C0004060E00040800000408020004080400040806000408080004080A0004080C0004080E00040A0000040A0200040A0400040A0600040A0800040A0A00040A0C00040A0E00040C0000040C0200040C0400040C0600040C08000
310
40C0A00040C0C00040C0E00040E0000040E0200040E0400040E0600040E0800040E0A00040E0C00040E0E00080000000800020008000400080006000800080008000A0008000C0008000E00080200000802020008020400080206000802080008020A0008020C0008020E00080400000804020008040400080406000804080
310
008040A0008040C0008040E00080600000806020008060400080606000806080008060A0008060C0008060E00080800000808020008080400080806000808080008080A0008080C0008080E00080A0000080A0200080A0400080A0600080A0800080A0A00080A0C00080A0E00080C0000080C0200080C0400080C0600080C0
310
800080C0A00080C0C00080C0E00080E0000080E0200080E0400080E0600080E0800080E0A00080E0C00080E0E000C0000000C0002000C0004000C0006000C0008000C000A000C000C000C000E000C0200000C0202000C0204000C0206000C0208000C020A000C020C000C020E000C0400000C0402000C0404000C0406000C0
310
408000C040A000C040C000C040E000C0600000C0602000C0604000C0606000C0608000C060A000C060C000C060E000C0800000C0802000C0804000C0806000C0808000C080A000C080C000C080E000C0A00000C0A02000C0A04000C0A06000C0A08000C0A0A000C0A0C000C0A0E000C0C00000C0C02000C0C04000C0C06000
310
C0C08000C0C0A000F0FBFF00A4A0A000808080000000FF0000FF000000FFFF00FF000000FF00FF00FFFF0000FFFFFF00FFFFFFFFFFFFFFFFFFFFFFFFFFFFFFFFFFFFFFFFFFFFFFFFFFFFFFFFFFFFFFFFFFFFFFFFFFFFFFFFFFFFFF00000000000000000000FFFFFFFFFFFFFFFFFFFFFFFFFFFFFFFFFFFFFFFFFFFF00FFFFFF
310
FFFFFFFFFF00FFFFFFFFFFFFFFFFFFFFFFFFFFFFFFFFFFFFFFFFFFFF00FFFFFFFFFFFFFFFF00FFFFFFFFFFFFFFFFFFFFFFFFFFFFFFFFFFFFFFFFFFFF00FFFFFFFFFFFFFFFF00FFFFFFFFFFFFFFFFFFFFFFFFFFFFFFFFFFFFFFFFFFFF00FF0000000000000000FFFFFFFFFFFFFFFFFFFFFFFFFFFFFFFFFFFFFFFFFFFF00FF00
310
FFFFFFFFFFFFFFFFFFFFFFFFFFFFFFFFFFFFFFFFFFFFFFFFFFFFFFFFFF00FF00FFFFFFFFFFFFFFFFFFFFFFFFFFFFFFFFFFFFFFFFFFFFFFFFFFFFFFFFFF00FF00FFFFFFFFFFFFFFFFFFFFFFFFFFFFFFFFFFFFFFFFFFFFFFFFFFFFFFFFFF00FF00FFFFFFFFFFFFFFFFFFFFFFFFFFFFFFFFFFFFFFFFFFFFFFFFFFFFFFFFFF00FF
310
00FFFFFFFFFFFFFFFFFFFFFFFFFFFFFFFFFFFFFFFFFFFFFFFFFFFFFFFFFF00FF00FFFFFFFFFFFFFFFFFFFFFFFFFFFFFFFFFFFFFFFFFFFFFFFFFFFFFFFFFF00FF00FFFFFFFFFFFFFFFFFFFFFFFFFFFFFFFFFFFFFFFFFFFFFFFFFFFFFFFFFF00FF00FFFFFFFFFFFFFFFFFFFFFFFFFFFFFFFFFFFFFFFFFFFFFFFFFFFFFFFFFF00
310
FF00000000000000FFFFFFFFFFFFFFFFFFFFFFFFFFFFFFFFFFFFFFFFFFFFFF00FFFFFFFFFFFFFF00FFFFFFFFFFFFFFFFFFFFFFFFFFFFFFFFFFFFFFFFFFFFFF00FFFFFFFFFFFFFF00FFFFFFFFFFFFFFFFFFFFFFFFFFFFFFFFFFFFFFFFFFFFFF00FFFFFFFFFFFFFF00FFFFFFFFFFFFFFFFFFFFFFFFFFFFFFFFFFFFFFFFFFFFFF
310
00FF00000000000000FFFFFFFFFFFFFFFFFFFFFFFFFFFFFFFFFFFFFFFFFFFFFF00FF00FFFFFFFFFFFFFFFFFFFFFFFFFFFFFFFFFFFFFFFFFFFFFFFFFFFFFFFFFF00FF00FFFFFFFFFFFFFFFFFFFFFFFFFFFFFFFFFFFFFFFFFFFFFFFFFFFFFFFFFF00FF00FFFFFFFFFFFFFFFFFFFFFFFFFFFFFFFFFFFFFFFFFFFFFFFFFFFFFFFF
310
FF00FF00FFFFFFFFFFFFFFFFFFFFFFFFFFFFFFFFFFFFFFFFFFFFFFFFFFFFFFFFFF00FF00FFFFFFFFFFFFFFFFFFFFFFFFFFFFFFFFFFFFFFFFFFFFFFFFFFFFFFFFFF00FF00FFFFFFFFFFFFFFFFFFFFFFFFFFFFFFFFFFFFFFFFFFFFFFFFFFFFFFFFFF00FF00FFFFFFFFFFFFFFFFFFFFFFFFFFFFFFFFFFFFFFFFFFFFFFFFFFFFFF
310
FFFF00FF0000000000000000FFFFFFFFFFFFFFFFFFFFFFFFFFFFFFFFFFFFFFFFFFFF00FFFFFFFFFFFFFFFF00FFFFFFFFFFFFFFFFFFFFFFFFFFFFFFFFFFFFFFFFFFFF00FFFFFFFFFFFFFFFF00FFFFFFFFFFFFFFFFFFFFFFFFFFFFFFFFFFFFFFFFFFFF00FFFFFFFFFFFFFFFF00FFFFFFFFFFFFFFFFFFFFFFFFFFFFFFFFFFFFFF
310
FFFFFF00000000000000000000FFFFFFFFFFFFFFFFFFFFFFFFFFFFFFFFFFFFFFFFFFFFFFFFFFFFFFFFFFFFFFFFFFFFFFFFFFFFFFFFFFFFFF
102
{BLKREFS
331
2D4
102
}
  0
BLOCK_RECORD
  5
2C6
330
1
100
AcDbSymbolTableRecord
100
AcDbBlockTableRecord
  2
HD_LLC_logo_OT5
340
0
310
2800000020000000200000000100080000000000000400000000000000000000000000000000000000000000000080000080000000808000800000008000800080800000C0C0C000C0DCC000F0CAA6000020400000206000002080000020A0000020C0000020E00000400000004020000040400000406000004080000040A0
310
000040C0000040E00000600000006020000060400000606000006080000060A0000060C0000060E00000800000008020000080400000806000008080000080A0000080C0000080E00000A0000000A0200000A0400000A0600000A0800000A0A00000A0C00000A0E00000C0000000C0200000C0400000C0600000C0800000C0
310
A00000C0C00000C0E00000E0000000E0200000E0400000E0600000E0800000E0A00000E0C00000E0E00040000000400020004000400040006000400080004000A0004000C0004000E00040200000402020004020400040206000402080004020A0004020C0004020E000404000004040200040404000404060004040800040
310
40A0004040C0004040E00040600000406020004060400040606000406080004060A0004060C0004060E00040800000408020004080400040806000408080004080A0004080C0004080E00040A0000040A0200040A0400040A0600040A0800040A0A00040A0C00040A0E00040C0000040C0200040C0400040C0600040C08000
310
40C0A00040C0C00040C0E00040E0000040E0200040E0400040E0600040E0800040E0A00040E0C00040E0E00080000000800020008000400080006000800080008000A0008000C0008000E00080200000802020008020400080206000802080008020A0008020C0008020E00080400000804020008040400080406000804080
310
008040A0008040C0008040E00080600000806020008060400080606000806080008060A0008060C0008060E00080800000808020008080400080806000808080008080A0008080C0008080E00080A0000080A0200080A0400080A0600080A0800080A0A00080A0C00080A0E00080C0000080C0200080C0400080C0600080C0
310
800080C0A00080C0C00080C0E00080E0000080E0200080E0400080E0600080E0800080E0A00080E0C00080E0E000C0000000C0002000C0004000C0006000C0008000C000A000C000C000C000E000C0200000C0202000C0204000C0206000C0208000C020A000C020C000C020E000C0400000C0402000C0404000C0406000C0
310
408000C040A000C040C000C040E000C0600000C0602000C0604000C0606000C0608000C060A000C060C000C060E000C0800000C0802000C0804000C0806000C0808000C080A000C080C000C080E000C0A00000C0A02000C0A04000C0A06000C0A08000C0A0A000C0A0C000C0A0E000C0C00000C0C02000C0C04000C0C06000
310
C0C08000C0C0A000F0FBFF00A4A0A000808080000000FF0000FF000000FFFF00FF000000FF00FF00FFFF0000FFFFFF00FFFFFFFFFFFFFFFFFFFFFFFFFFFFFFFFFFFFFFFFFFFFFFFFFFFFFFFFFFFFFFFFFFFFFFFFFFFFFFFFFFFFFFFFFFFFFFFFFFFFFFFFFFFFFFFFFFFFFFFFFFFFFFFFFFFFFFFFFFFFFFFFFFFFFFFFFFFFFF
310
FFFFFFFFFFFFFFFFFFFFFFFFFFFFFFFFFFFFFFFFFFFFFFFFFFFFFFFFFFFFFFFFFFFFFFFFFFFFFFFFFFFFFFFFFFFFFFFFFFFFFFFFFFFFFFFFFFFFFFFFFFFFFFFFFFFFFFFFFFFFFFFFFFFFFFFFFFFFFFFFFFFFFFFFFFFFFFFFFFFFFFFFFFFFFFFFFFFFFFFFFFFFFFFFFFFFFFFFFFFFFFFFFFFFFFFFFFFFFFFFFFFFFFFFFFFFFF
310
FFFFFFFFFFFFFFFFFFFFFFFFFFFFFFFFFFFFFFFFFFFFFFFFFFFFFFFFFFFFFFFFFFFFFFFFFFFFFFFFFFFFFFFFFFFFFFFFFFFFFFFFFFFFFFFFFFFFFFFFFFFFFFFFFFFFFFFFFFFFFFFFFFFFFFFFFFFFFFFFFFFFFFFFFFFFFFFFFFFFFFFFFFFFFFFFFFFFFFFFFFFFFFFFFFFFFFFFFFFFFFFFFFFFFFFFFFFFFFFFFFFFFFFFFFFFFF
310
FFFFFFFFFFFFFFFFFFFFFFFFFFFFFFFFFFFFFFFFFFFFFFFFFFFFFFFFFFFFFFFFFFFFFFFFFFFFFFFFFFFFFFFFFFFFFFFFFFFFFFFF0000000000000000000000000000000000000000000000000000000000FFFFFF0000000000000000000000000000000000FFFFFFFFFFFFFFFFFFFF0000FFFFFF0000000000000000000000
310
00000000000000FFFFFFFFFFFFFFFFFFFF0000FFFF000000000000000000000000000000000000FFFFFF00000000FFFFFF0000FFFF00FFFFFFFFFFFF00FFFFFF00FFFFFFFFFF00FFFFFF0000000000FFFF0000FFFF00FFFFFFFFFFFF00FFFFFF00FFFFFFFFFF00FFFFFF00FFFF0000FFFF0000FFFF00FFFFFFFFFFFF00FFFF
310
00FFFFFFFFFFFF00FFFFFF00FFFF0000FFFF0000FFFF0000000000FFFF00000000FFFFFF00000000FFFFFF00000000FFFFFF0000FFFFFFFFFFFF00FFFFFFFFFFFFFFFFFF00FFFFFFFFFFFFFFFFFFFFFFFFFF0000FFFFFFFFFFFF00FFFFFFFFFFFFFFFFFF00FFFFFFFFFFFFFFFFFFFFFFFFFF0000FFFFFFFFFFFF00FFFFFFFF
310
FFFFFFFFFF00FFFFFFFFFFFFFFFFFFFFFFFF0000FFFFFF0000000000FFFF00000000FFFFFF0000000000000000000000000000FFFFFFFF00FFFFFFFFFFFF00FFFF00FFFFFFFFFFFF00FFFFFFFFFFFFFFFFFFFFFFFFFFFF00FFFFFFFFFFFF00FFFFFF00FFFFFFFFFF00FFFFFFFFFFFFFFFFFFFFFFFFFFFF0000000000000000
310
FFFFFF00000000000000FFFFFFFFFFFFFFFFFFFFFFFFFFFFFFFFFFFFFFFFFFFFFFFFFFFFFFFFFFFFFFFFFFFFFFFFFFFFFFFFFFFFFFFFFFFFFFFFFFFFFFFFFFFFFFFFFFFFFFFFFFFFFFFFFFFFFFFFFFFFFFFFFFFFFFFFFFFFFFFFFFFFFFFFFFFFFFFFFFFFFFFFFFFFFFFFFFFFFFFFFFFFFFFFFFFFFFFFFFFFFFFFFFFFFFFFFF
310
FFFFFFFFFFFFFFFFFFFFFFFFFFFFFFFFFFFFFFFFFFFFFFFFFFFFFFFFFFFFFFFFFFFFFFFFFFFFFFFFFFFFFFFFFFFFFFFFFFFFFFFFFFFFFFFF
102
{BLKREFS
331
2EC
102
}
  0
BLOCK_RECORD
  5
2EB
330
1
100
AcDbSymbolTableRecord
100
AcDbBlockTableRecord
  2
HD logo-new
340
0
310
2800000020000000200000000100080000000000000400000000000000000000000000000000000000000000000080000080000000808000800000008000800080800000C0C0C000C0DCC000F0CAA6000020400000206000002080000020A0000020C0000020E00000400000004020000040400000406000004080000040A0
310
000040C0000040E00000600000006020000060400000606000006080000060A0000060C0000060E00000800000008020000080400000806000008080000080A0000080C0000080E00000A0000000A0200000A0400000A0600000A0800000A0A00000A0C00000A0E00000C0000000C0200000C0400000C0600000C0800000C0
310
A00000C0C00000C0E00000E0000000E0200000E0400000E0600000E0800000E0A00000E0C00000E0E00040000000400020004000400040006000400080004000A0004000C0004000E00040200000402020004020400040206000402080004020A0004020C0004020E000404000004040200040404000404060004040800040
310
40A0004040C0004040E00040600000406020004060400040606000406080004060A0004060C0004060E00040800000408020004080400040806000408080004080A0004080C0004080E00040A0000040A0200040A0400040A0600040A0800040A0A00040A0C00040A0E00040C0000040C0200040C0400040C0600040C08000
310
40C0A00040C0C00040C0E00040E0000040E0200040E0400040E0600040E0800040E0A00040E0C00040E0E00080000000800020008000400080006000800080008000A0008000C0008000E00080200000802020008020400080206000802080008020A0008020C0008020E00080400000804020008040400080406000804080
310
008040A0008040C0008040E00080600000806020008060400080606000806080008060A0008060C0008060E00080800000808020008080400080806000808080008080A0008080C0008080E00080A0000080A0200080A0400080A0600080A0800080A0A00080A0C00080A0E00080C0000080C0200080C0400080C0600080C0
310
800080C0A00080C0C00080C0E00080E0000080E0200080E0400080E0600080E0800080E0A00080E0C00080E0E000C0000000C0002000C0004000C0006000C0008000C000A000C000C000C000E000C0200000C0202000C0204000C0206000C0208000C020A000C020C000C020E000C0400000C0402000C0404000C0406000C0
310
408000C040A000C040C000C040E000C0600000C0602000C0604000C0606000C0608000C060A000C060C000C060E000C0800000C0802000C0804000C0806000C0808000C080A000C080C000C080E000C0A00000C0A02000C0A04000C0A06000C0A08000C0A0A000C0A0C000C0A0E000C0C00000C0C02000C0C04000C0C06000
310
C0C08000C0C0A000F0FBFF00A4A0A000808080000000FF0000FF000000FFFF00FF000000FF00FF00FFFF0000FFFFFF00FFFFFFFFFFFFFFFFFFFFFFFFFFFFFFFFFFFFFFFFFFFFFFFFFFFFFFFFFFFFFFFFFFFFFFFFFFFFFFFFFFFFFFFFFFFFFFFFFFFFFFFFFFFFFFFFFFFFFFFFFFFFFFFFFFFFFFFFFFFFFFFFFFFFFFFFFFFFFF
310
FFFFFFFFFFFFFFFFFFFFFFFFFFFFFFFFFFFFFFFFFFFFFFFFFFFFFFFFFFFFFFFFFFFFFFFFFFFFFFFFFFFFFFFFFFFFFFFFFFFFFFFFFFFFFFFFFFFFFFFFFFFFFFFFFFFFFFFFFFFFFFFFFFFFFFFFFFFFFFFFFFFFFFFFFFFFFFFFFFFFFFFFFFFFFFFFFFFFFFFFFFFFFFFFFFFFFFFFFFFFFFFFFFFFFFFFFFFFFFFFFFFFFFFFFFFFFF
310
FFFFFFFFFFFFFFFFFFFFFFFFFFFFFFFFFFFFFFFFFFFFFFFFFFFFFFFFFFFFFFFFFFFFFFFFFFFFFFFFFFFFFFFFFFFFFFFFFFFFFFFFFFFFFFFFFFFFFFFFFFFFFFFFFFFFFFFFFFFFFFFFFFFFFFFFFFFFFFFFFFFFFFFFFFFFFFFFFFFFFFFFFFFFFFFFFFFFFFFFFFFFFFFFFFFFFFFFFFFFFFFFFFFFFFFFFFFFFFFFFFFFFFFFFFFFFF
310
FFFFFFFFFFFFFFFFFFFFFFFFFFFFFFFFFFFFFFFFFFFFFFFFFFFFFFFFFFFFFFFFFFFFFFFFFFFFFFFFFFFFFFFFFFFFFFFFFFFFFFFF0000000000000000000000000000000000000000000000000000000000FFFFFF0000000000000000000000000000000000FFFFFFFFFFFFFFFFFFFF0000FFFFFF0000000000000000000000
310
00000000000000FFFFFFFFFFFFFFFFFFFF0000FFFF000000000000000000000000000000000000FFFFFF00000000FFFFFF0000FFFF00FFFFFFFFFFFF00FFFFFF00FFFFFFFFFF00FFFFFF0000000000FFFF0000FFFF00FFFFFFFFFFFF00FFFFFF00FFFFFFFFFF00FFFFFF00FFFF0000FFFF0000FFFF00FFFFFFFFFFFF00FFFF
310
00FFFFFFFFFFFF00FFFFFF00FFFF0000FFFF0000FFFF0000000000FFFF00000000FFFFFF00000000FFFFFF00000000FFFFFF0000FFFFFFFFFFFF00FFFFFFFFFFFFFFFFFF00FFFFFFFFFFFFFFFFFFFFFFFFFF0000FFFFFFFFFFFF00FFFFFFFFFFFFFFFFFF00FFFFFFFFFFFFFFFFFFFFFFFFFF0000FFFFFFFFFFFF00FFFFFFFF
310
FFFFFFFFFF00FFFFFFFFFFFFFFFFFFFFFFFF0000FFFFFF0000000000FFFF00000000FFFFFF0000000000000000000000000000FFFFFFFF00FFFFFFFFFFFF00FFFF00FFFFFFFFFFFF00FFFFFFFFFFFFFFFFFFFFFFFFFFFF00FFFFFFFFFFFF00FFFFFF00FFFFFFFFFF00FFFFFFFFFFFFFFFFFFFFFFFFFFFF0000000000000000
310
FFFFFF00000000000000FFFFFFFFFFFFFFFFFFFFFFFFFFFFFFFFFFFFFFFFFFFFFFFFFFFFFFFFFFFFFFFFFFFFFFFFFFFFFFFFFFFFFFFFFFFFFFFFFFFFFFFFFFFFFFFFFFFFFFFFFFFFFFFFFFFFFFFFFFFFFFFFFFFFFFFFFFFFFFFFFFFFFFFFFFFFFFFFFFFFFFFFFFFFFFFFFFFFFFFFFFFFFFFFFFFFFFFFFFFFFFFFFFFFFFFFFF
310
FFFFFFFFFFFFFFFFFFFFFFFFFFFFFFFFFFFFFFFFFFFFFFFFFFFFFFFFFFFFFFFFFFFFFFFFFFFFFFFFFFFFFFFFFFFFFFFFFFFFFFFFFFFFFFFF
102
{BLKREFS
331
2F0
102
}
  0
BLOCK_RECORD
  5
2EF
330
1
100
AcDbSymbolTableRecord
100
AcDbBlockTableRecord
  2
HD Logo
340
0
310
2800000020000000200000000100080000000000000400000000000000000000000000000000000000000000000080000080000000808000800000008000800080800000C0C0C000C0DCC000F0CAA6000020400000206000002080000020A0000020C0000020E00000400000004020000040400000406000004080000040A0
310
000040C0000040E00000600000006020000060400000606000006080000060A0000060C0000060E00000800000008020000080400000806000008080000080A0000080C0000080E00000A0000000A0200000A0400000A0600000A0800000A0A00000A0C00000A0E00000C0000000C0200000C0400000C0600000C0800000C0
310
A00000C0C00000C0E00000E0000000E0200000E0400000E0600000E0800000E0A00000E0C00000E0E00040000000400020004000400040006000400080004000A0004000C0004000E00040200000402020004020400040206000402080004020A0004020C0004020E000404000004040200040404000404060004040800040
310
40A0004040C0004040E00040600000406020004060400040606000406080004060A0004060C0004060E00040800000408020004080400040806000408080004080A0004080C0004080E00040A0000040A0200040A0400040A0600040A0800040A0A00040A0C00040A0E00040C0000040C0200040C0400040C0600040C08000
310
40C0A00040C0C00040C0E00040E0000040E0200040E0400040E0600040E0800040E0A00040E0C00040E0E00080000000800020008000400080006000800080008000A0008000C0008000E00080200000802020008020400080206000802080008020A0008020C0008020E00080400000804020008040400080406000804080
310
008040A0008040C0008040E00080600000806020008060400080606000806080008060A0008060C0008060E00080800000808020008080400080806000808080008080A0008080C0008080E00080A0000080A0200080A0400080A0600080A0800080A0A00080A0C00080A0E00080C0000080C0200080C0400080C0600080C0
310
800080C0A00080C0C00080C0E00080E0000080E0200080E0400080E0600080E0800080E0A00080E0C00080E0E000C0000000C0002000C0004000C0006000C0008000C000A000C000C000C000E000C0200000C0202000C0204000C0206000C0208000C020A000C020C000C020E000C0400000C0402000C0404000C0406000C0
310
408000C040A000C040C000C040E000C0600000C0602000C0604000C0606000C0608000C060A000C060C000C060E000C0800000C0802000C0804000C0806000C0808000C080A000C080C000C080E000C0A00000C0A02000C0A04000C0A06000C0A08000C0A0A000C0A0C000C0A0E000C0C00000C0C02000C0C04000C0C06000
310
C0C08000C0C0A000F0FBFF00A4A0A000808080000000FF0000FF000000FFFF00FF000000FF00FF00FFFF0000FFFFFF00FFFFFFFFFFFFFFFFFFFFFFFFFFFFFFFFFFFFFFFFFFFFFFFFFFFFFFFFFFFFFFFFFFFFFFFFFFFFFFFFFFFFFFFFFFFFFFFFFFFFFFFFFFFFFFFFFFFFFFFFFFFFFFFFFFFFFFFFFFFFFFFFFFFFFFFFFFFFFF
310
FFFFFFFFFFFFFFFFFFFFFFFFFFFFFFFFFFFFFFFFFFFFFFFFFFFFFFFFFFFFFFFFFFFFFFFFFFFFFFFFFFFFFFFFFFFFFFFFFFFFFFFFFFFFFFFFFFFFFFFFFFFFFFFFFFFFFFFFFFFFFFFFFFFFFFFFFFFFFFFFFFFFFFFFFFFFFFFFFFFFFFFFFFFFFFFFFFFFFFFFFFFFFFFFFFFFFFFFFFFFFFFFFFFFFFFFFFFFFFFFFFFFFFFFFFFFFF
310
FFFFFFFFFFFFFFFFFFFFFFFFFFFFFFFFFFFFFFFFFFFFFFFFFFFFFFFFFFFFFFFFFFFFFFFFFFFFFFFFFFFFFFFFFFFFFFFFFFFFFFFFFFFFFFFFFFFFFFFFFFFFFFFFFFFFFFFFFFFFFFFFFFFFFFFFFFFFFFFFFFFFFFFFFFFFFFFFFFFFFFFFFFFFFFFFFFFFFFFFFFFFFFFFFFFFFFFFFFFFFFFFFFFFFFFFFFFFFFFFFFFFFFFFFFFFFF
310
FFFFFFFFFFFFFFFFFFFFFFFFFFFFFFFFFFFFFFFFFFFFFFFFFFFFFFFFFFFFFFFFFFFFFFFFFFFFFFFFFFFFFFFFFFFFFFFFFFFFFFFF0000000000000000000000000000000000000000000000000000000000FFFFFF0000000000000000000000000000000000FFFFFFFFFFFFFFFFFFFF0000FFFFFF0000000000000000000000
310
00000000000000FFFFFFFFFFFFFFFFFFFF0000FFFF000000000000000000000000000000000000FFFFFF00000000FFFFFF0000FFFF00FFFFFFFFFFFF00FFFFFF00FFFFFFFFFF00FFFFFF0000000000FFFF0000FFFF00FFFFFFFFFFFF00FFFFFF00FFFFFFFFFF00FFFFFF00FFFF0000FFFF0000FFFF00FFFFFFFFFFFF00FFFF
310
00FFFFFFFFFFFF00FFFFFF00FFFF0000FFFF0000FFFF0000000000FFFF00000000FFFFFF00000000FFFFFF00000000FFFFFF0000FFFFFFFFFFFF00FFFFFFFFFFFFFFFFFF00FFFFFFFFFFFFFFFFFFFFFFFFFF0000FFFFFFFFFFFF00FFFFFFFFFFFFFFFFFF00FFFFFFFFFFFFFFFFFFFFFFFFFF0000FFFFFFFFFFFF00FFFFFFFF
310
FFFFFFFFFF00FFFFFFFFFFFFFFFFFFFFFFFF0000FFFFFF0000000000FFFF00000000FFFFFF0000000000000000000000000000FFFFFFFF00FFFFFFFFFFFF00FFFF00FFFFFFFFFFFF00FFFFFFFFFFFFFFFFFFFFFFFFFFFF00FFFFFFFFFFFF00FFFFFF00FFFFFFFFFF00FFFFFFFFFFFFFFFFFFFFFFFFFFFF0000000000000000
310
FFFFFF00000000000000FFFFFFFFFFFFFFFFFFFFFFFFFFFFFFFFFFFFFFFFFFFFFFFFFFFFFFFFFFFFFFFFFFFFFFFFFFFFFFFFFFFFFFFFFFFFFFFFFFFFFFFFFFFFFFFFFFFFFFFFFFFFFFFFFFFFFFFFFFFFFFFFFFFFFFFFFFFFFFFFFFFFFFFFFFFFFFFFFFFFFFFFFFFFFFFFFFFFFFFFFFFFFFFFFFFFFFFFFFFFFFFFFFFFFFFFFF
310
FFFFFFFFFFFFFFFFFFFFFFFFFFFFFFFFFFFFFFFFFFFFFFFFFFFFFFFFFFFFFFFFFFFFFFFFFFFFFFFFFFFFFFFFFFFFFFFFFFFFFFFFFFFFFFFF
102
{BLKREFS
331
2F5
331
2F9
102
}
  0
BLOCK_RECORD
  5
30A
330
1
100
AcDbSymbolTableRecord
100
AcDbBlockTableRecord
  2
Notice
340
0
310
2800000020000000200000000100080000000000000400000000000000000000000000000000000000000000000080000080000000808000800000008000800080800000C0C0C000C0DCC000F0CAA6000020400000206000002080000020A0000020C0000020E00000400000004020000040400000406000004080000040A0
310
000040C0000040E00000600000006020000060400000606000006080000060A0000060C0000060E00000800000008020000080400000806000008080000080A0000080C0000080E00000A0000000A0200000A0400000A0600000A0800000A0A00000A0C00000A0E00000C0000000C0200000C0400000C0600000C0800000C0
310
A00000C0C00000C0E00000E0000000E0200000E0400000E0600000E0800000E0A00000E0C00000E0E00040000000400020004000400040006000400080004000A0004000C0004000E00040200000402020004020400040206000402080004020A0004020C0004020E000404000004040200040404000404060004040800040
310
40A0004040C0004040E00040600000406020004060400040606000406080004060A0004060C0004060E00040800000408020004080400040806000408080004080A0004080C0004080E00040A0000040A0200040A0400040A0600040A0800040A0A00040A0C00040A0E00040C0000040C0200040C0400040C0600040C08000
310
40C0A00040C0C00040C0E00040E0000040E0200040E0400040E0600040E0800040E0A00040E0C00040E0E00080000000800020008000400080006000800080008000A0008000C0008000E00080200000802020008020400080206000802080008020A0008020C0008020E00080400000804020008040400080406000804080
310
008040A0008040C0008040E00080600000806020008060400080606000806080008060A0008060C0008060E00080800000808020008080400080806000808080008080A0008080C0008080E00080A0000080A0200080A0400080A0600080A0800080A0A00080A0C00080A0E00080C0000080C0200080C0400080C0600080C0
310
800080C0A00080C0C00080C0E00080E0000080E0200080E0400080E0600080E0800080E0A00080E0C00080E0E000C0000000C0002000C0004000C0006000C0008000C000A000C000C000C000E000C0200000C0202000C0204000C0206000C0208000C020A000C020C000C020E000C0400000C0402000C0404000C0406000C0
310
408000C040A000C040C000C040E000C0600000C0602000C0604000C0606000C0608000C060A000C060C000C060E000C0800000C0802000C0804000C0806000C0808000C080A000C080C000C080E000C0A00000C0A02000C0A04000C0A06000C0A08000C0A0A000C0A0C000C0A0E000C0C00000C0C02000C0C04000C0C06000
310
C0C08000C0C0A000F0FBFF00A4A0A000808080000000FF0000FF000000FFFF00FF000000FF00FF00FFFF0000FFFFFF00FFFFFFFFFFFFFFFFFFFFFFFFFFFFFFFFFFFFFFFFFFFFFFFFFFFFFFFFFFFFFFFFFFFFFFFFFFFFFFFFFFFFFFFFFFFFFFFFFFFFFFFFFFFFFFFFFFFFFFFFFFFFFFFFFFFFFFFFFFFFFFFFFFFFFFFFFFFFFF
310
FFFFFFFFFFFFFFFFFFFFFFFFFFFFFFFFFFFFFFFFFFFFFFFFFFFFFFFFFFFFFFFFFFFFFFFFFFFFFFFFFFFFFFFFFFFFFFFFFFFFFFFFFFFFFFFFFFFFFFFFFFFFFFFFFFFFFFFFFFFFFFFFFFFFFFFFFFFFFFFFFFFFFFFFFFFFFFFFFFFFFFFFFFFFFFFFFFFFFFFFFFFFFFFFFFFFFFFFFFFFFFFFFFFFFFFFFFFFFFFFFFFFFFFFFFFFFF
310
FFFFFFFFFFFFFFFFFFFFFFFFFFFFFFFFFFFFFFFFFFFFFFFFFFFFFFFFFFFFFFFFFFFFFFFFFFFFFFFFFFFFFFFFFFFFFFFFFFFFFFFFFFFFFFFFFFFFFFFFFFFFFFFFFFFFFFFFFFFFFFFFFFFFFFFFFFFFFFFFFFFFFFFFFFFFFFFFFFFFFFFFFFFFFFFFFFFFFFFFFFFFFFFFFFFFFFFFFFFFFFFFFFFFFFFFFFFFFFFFFFFFFFFFFFFFFF
310
FFFFFFFFFFFFFFFFFFFFFFFFFFFFFFFFFFFFFFFF0000000000000000000000000000000000000000000000000000000000FFFFFF000000000000000000FFFFFFFFFFFFFFFFFFFFFFFFFFFFFFFFFFFFFF00FFFFFF0000000000000000FFFFFFFFFFFFFFFFFFFFFFFFFFFFFFFFFFFFFFFF00FFFFFF0000000000000000FFFFFF
310
FFFFFFFFFFFFFFFFFFFFFFFFFFFFFFFFFF00FFFFFF000000000000000000000000FFFFFFFFFFFFFFFFFFFFFFFFFFFFFFFF00FFFFFF0000000000000000000000000000000000000000000000000000FFFF00FFFFFF0000000000000000000000000000000000000000000000000000000000FFFFFF00000000000000000000
310
00000000000000000000000000000000000000FFFFFF000000000000FFFFFFFFFFFFFFFFFFFFFFFFFFFFFFFFFFFFFFFFFFFF00FFFFFF0000000000000000000000000000000000000000000000000000000000FFFFFFFFFFFFFFFFFFFFFFFFFFFFFFFFFFFFFFFFFFFFFFFFFFFFFFFFFFFFFFFFFFFFFFFFFFFFFFFFFFFFFFFF
310
FFFFFFFFFFFFFFFFFFFFFFFFFFFFFFFFFFFFFFFFFFFFFFFFFFFFFFFFFFFFFFFFFFFFFFFFFFFFFFFFFFFFFFFFFFFFFFFFFFFFFFFFFFFFFFFFFFFFFFFFFFFFFFFFFFFFFFFFFFFFFFFFFFFFFFFFFFFFFFFFFFFFFFFFFFFFFFFFFFFFFFFFFFFFFFFFFFFFFFFFFFFFFFFFFFFFFFFFFFFFFFFFFFFFFFFFFFFFFFFFFFFFFFFFFFFFFF
310
FFFFFFFFFFFFFFFFFFFFFFFFFFFFFFFFFFFFFFFFFFFFFFFFFFFFFFFFFFFFFFFFFFFFFFFFFFFFFFFFFFFFFFFFFFFFFFFFFFFFFFFFFFFFFFFFFFFFFFFFFFFFFFFFFFFFFFFFFFFFFFFFFFFFFFFFFFFFFFFFFFFFFFFFFFFFFFFFFFFFFFFFFFFFFFFFFFFFFFFFFFFFFFFFFFFFFFFFFFFFFFFFFFFFFFFFFFFFFFFFFFFFFFFFFFFFFF
310
FFFFFFFFFFFFFFFFFFFFFFFFFFFFFFFFFFFFFFFFFFFFFFFFFFFFFFFFFFFFFFFFFFFFFFFFFFFFFFFFFFFFFFFFFFFFFFFFFFFFFFFFFFFFFFFF
102
{BLKREFS
331
310
331
316
102
}
  0
BLOCK_RECORD
  5
32B
330
1
100
AcDbSymbolTableRecord
100
AcDbBlockTableRecord
  2
NTC
340
0
310
2800000020000000200000000100080000000000000400000000000000000000000000000000000000000000000080000080000000808000800000008000800080800000C0C0C000C0DCC000F0CAA6000020400000206000002080000020A0000020C0000020E00000400000004020000040400000406000004080000040A0
310
000040C0000040E00000600000006020000060400000606000006080000060A0000060C0000060E00000800000008020000080400000806000008080000080A0000080C0000080E00000A0000000A0200000A0400000A0600000A0800000A0A00000A0C00000A0E00000C0000000C0200000C0400000C0600000C0800000C0
310
A00000C0C00000C0E00000E0000000E0200000E0400000E0600000E0800000E0A00000E0C00000E0E00040000000400020004000400040006000400080004000A0004000C0004000E00040200000402020004020400040206000402080004020A0004020C0004020E000404000004040200040404000404060004040800040
310
40A0004040C0004040E00040600000406020004060400040606000406080004060A0004060C0004060E00040800000408020004080400040806000408080004080A0004080C0004080E00040A0000040A0200040A0400040A0600040A0800040A0A00040A0C00040A0E00040C0000040C0200040C0400040C0600040C08000
310
40C0A00040C0C00040C0E00040E0000040E0200040E0400040E0600040E0800040E0A00040E0C00040E0E00080000000800020008000400080006000800080008000A0008000C0008000E00080200000802020008020400080206000802080008020A0008020C0008020E00080400000804020008040400080406000804080
310
008040A0008040C0008040E00080600000806020008060400080606000806080008060A0008060C0008060E00080800000808020008080400080806000808080008080A0008080C0008080E00080A0000080A0200080A0400080A0600080A0800080A0A00080A0C00080A0E00080C0000080C0200080C0400080C0600080C0
310
800080C0A00080C0C00080C0E00080E0000080E0200080E0400080E0600080E0800080E0A00080E0C00080E0E000C0000000C0002000C0004000C0006000C0008000C000A000C000C000C000E000C0200000C0202000C0204000C0206000C0208000C020A000C020C000C020E000C0400000C0402000C0404000C0406000C0
310
408000C040A000C040C000C040E000C0600000C0602000C0604000C0606000C0608000C060A000C060C000C060E000C0800000C0802000C0804000C0806000C0808000C080A000C080C000C080E000C0A00000C0A02000C0A04000C0A06000C0A08000C0A0A000C0A0C000C0A0E000C0C00000C0C02000C0C04000C0C06000
310
C0C08000C0C0A000F0FBFF00A4A0A000808080000000FF0000FF000000FFFF00FF000000FF00FF00FFFF0000FFFFFF00FFFFFFFFFFFFFFFFFFFFFFFFFFFFFFFFFFFFFFFFFFFFFFFFFFFFFFFFFFFFFFFFFFFFFFFFFFFFFFFFFFFFFFFFFFFFFFFFFFFFFFFFFFFFFFFFFFFFFFFFFFFFFFFFFFFFFFFFFFFFFFFFFFFFFFFFFFFFFF
310
FFFFFFFFFFFFFFFFFFFFFFFFFFFFFFFFFFFFFFFFFFFFFFFFFFFFFFFFFFFFFFFFFFFFFFFFFFFFFFFFFFFFFFFFFFFFFFFFFFFFFFFFFFFFFFFFFFFFFFFFFFFFFFFFFFFFFFFFFFFFFFFFFFFFFFFFFFFFFFFFFFFFFFFFFFFFFFFFFFFFFFFFFFFFFFFFFFFFFFFFFFFFFFFFFFFFFFFFFFFFFFFFFFFFFFFFFFFFFFFFFFFFFFFFFFFFFF
310
FFFFFFFFFFFFFFFFFFFFFFFFFFFFFFFFFFFFFFFFFFFFFFFFFFFFFFFFFFFFFFFFFFFFFFFFFFFFFFFFFFFFFFFFFFFFFFFFFFFFFFFFFFFFFFFFFFFFFFFFFFFFFFFFFFFFFFFFFFFFFFFFFFFFFFFFFFFFFFFFFFFFFFFFFFFFFFFFFFFFFFFFFFFFFFFFFFFFFFFFFFFFFFFFFFFFFFFFFFFFFFFFFFFFFFFFFFFFFFFFFFFFFFFFFFFFFF
310
FFFFFFFFFFFFFFFFFFFFFFFFFFFFFFFFFFFFFFFF000000000000000000000000000000000000000000000000000000000000FFFF00FF0000000000000000FFFFFFFFFFFFFFFFFFFFFFFFFFFFFFFFFFFFFF00FFFF00FF0000000000000000FFFFFFFFFFFFFFFFFFFFFFFFFFFFFFFFFFFFFF00FFFF00FF000000000000000000
310
00000000000000000000000000FFFFFFFFFF00FFFF00FF0000000000000000000000000000000000000000000000000000FF00FFFF00FF0000000000000000000000000000000000000000000000000000FF00FFFF00FF0000000000000000000000000000000000000000000000000000FF00FFFF00FF0000000000000000
310
00000000000000000000000000000000FFFFFF00FFFF00FF0000000000FFFFFFFFFFFFFFFFFFFFFFFFFFFFFFFFFFFFFFFFFFFF00FFFF000000000000000000000000000000000000000000000000000000000000FFFFFFFFFFFFFFFFFFFFFFFFFFFFFFFFFFFFFFFFFFFFFFFFFFFFFFFFFFFFFFFFFFFFFFFFFFFFFFFFFFFFFF
310
FFFFFFFFFFFFFFFFFFFFFFFFFFFFFFFFFFFFFFFFFFFFFFFFFFFFFFFFFFFFFFFFFFFFFFFFFFFFFFFFFFFFFFFFFFFFFFFFFFFFFFFFFFFFFFFFFFFFFFFFFFFFFFFFFFFFFFFFFFFFFFFFFFFFFFFFFFFFFFFFFFFFFFFFFFFFFFFFFFFFFFFFFFFFFFFFFFFFFFFFFFFFFFFFFFFFFFFFFFFFFFFFFFFFFFFFFFFFFFFFFFFFFFFFFFFFFF
310
FFFFFFFFFFFFFFFFFFFFFFFFFFFFFFFFFFFFFFFFFFFFFFFFFFFFFFFFFFFFFFFFFFFFFFFFFFFFFFFFFFFFFFFFFFFFFFFFFFFFFFFFFFFFFFFFFFFFFFFFFFFFFFFFFFFFFFFFFFFFFFFFFFFFFFFFFFFFFFFFFFFFFFFFFFFFFFFFFFFFFFFFFFFFFFFFFFFFFFFFFFFFFFFFFFFFFFFFFFFFFFFFFFFFFFFFFFFFFFFFFFFFFFFFFFFFFF
310
FFFFFFFFFFFFFFFFFFFFFFFFFFFFFFFFFFFFFFFFFFFFFFFFFFFFFFFFFFFFFFFFFFFFFFFFFFFFFFFFFFFFFFFFFFFFFFFFFFFFFFFFFFFFFFFF
102
{BLKREFS
331
331
331
336
102
}
  0
ENDTAB
  0
ENDSEC
  0
SECTION
  2
BLOCKS
  0
BLOCK
  5
D
330
A
100
AcDbEntity
  8
0
100
AcDbBlockBegin
  2
*MODEL_SPACE
 70
     0
 10
0.0
 20
0.0
 30
0.0
  3
*MODEL_SPACE
  1

  0
ENDBLK
  5
E
330
A
100
AcDbEntity
  8
0
100
AcDbBlockEnd
  0
BLOCK
  5
F
330
B
100
AcDbEntity
 67
     1
  8
0
100
AcDbBlockBegin
  2
*PAPER_SPACE
 70
     0
 10
0.0
 20
0.0
 30
0.0
  3
*PAPER_SPACE
  1

  0
ENDBLK
  5
10
330
B
100
AcDbEntity
 67
     1
  8
0
100
AcDbBlockEnd
  0
BLOCK
  5
21D
330
21C
100
AcDbEntity
  8
0
100
AcDbBlockBegin
  2
*D0
 70
     1
 10
0.0
 20
0.0
 30
0.0
  3
*D0
  1

  0
LINE
  5
21E
330
21C
100
AcDbEntity
  8
0
  6
Continuous
 62
     2
100
AcDbLine
 10
-182.186862324452
 20
-91.0
 30
0.0
 11
-153.225662479324
 21
-91.0
 31
0.0
  0
LINE
  5
21F
330
21C
100
AcDbEntity
  8
0
  6
Continuous
 62
     2
100
AcDbLine
 10
-184.186862324452
 20
-91.0
 30
0.0
 11
-182.186862324452
 21
-91.0
 31
0.0
  0
LINE
  5
220
330
21C
100
AcDbEntity
  8
0
  6
Continuous
 62
     2
100
AcDbLine
 10
-192.186862324452
 20
-91.0
 30
0.0
 11
-184.186862324452
 21
-91.0
 31
0.0
  0
LINE
  5
221
330
21C
100
AcDbEntity
  8
0
  6
Continuous
 62
     2
100
AcDbLine
 10
-182.186862324452
 20
-44.000000000001
 30
0.0
 11
-182.186862324452
 21
-92.0
 31
0.0
  0
LINE
  5
222
330
21C
100
AcDbEntity
  8
0
  6
Continuous
 62
     2
100
AcDbLine
 10
-184.186862324452
 20
-55.49999917359199
 30
0.0
 11
-184.186862324452
 21
-92.0
 31
0.0
  0
SOLID
  5
223
330
21C
100
AcDbEntity
  8
0
 62
     2
100
AcDbTrace
 10
-188.186862324452
 20
-91.52660999034999
 30
0.0
 11
-188.186862324452
 21
-90.473390009651
 31
0.0
 12
-184.186862324452
 22
-91.0
 32
0.0
 13
-184.186862324452
 23
-91.0
 33
0.0
  0
SOLID
  5
224
330
21C
100
AcDbEntity
  8
0
 62
     2
100
AcDbTrace
 10
-178.186862324452
 20
-90.473390009651
 30
0.0
 11
-178.186862324452
 21
-91.52660999034999
 31
0.0
 12
-182.186862324452
 22
-91.0
 32
0.0
 13
-182.186862324452
 23
-91.0
 33
0.0
  0
MTEXT
  5
226
330
21C
100
AcDbEntity
  8
0
 62
     2
100
AcDbMText
 10
-175.305662479324
 20
-89.90000000000099
 30
0.0
 40
4.0
 41
0.0
 71
     7
 72
     5
  1
\C2;M.H.C \C2;2
  7
CONVERTER_3
 73
     1
 44
1.0
1001
ACAD
1000
MTEXTBEGIN
1070
    73
1070
     1
1070
    44
1040
1.0
1070
    74
1070
     0
1000
MTEXTEND
  0
ENDBLK
  5
227
330
21C
100
AcDbEntity
  8
0
100
AcDbBlockEnd
  0
BLOCK
  5
22B
330
22A
100
AcDbEntity
  8
0
100
AcDbBlockBegin
  2
*D1
 70
     1
 10
0.0
 20
0.0
 30
0.0
  3
*D1
  1

  0
LINE
  5
22C
330
22A
100
AcDbEntity
  8
0
  6
Continuous
 62
     2
100
AcDbLine
 10
-162.186862324452
 20
-43.000000000001
 30
0.0
 11
-162.186862324452
 21
43.0
 31
0.0
  0
LINE
  5
22D
330
22A
100
AcDbEntity
  8
0
  6
Continuous
 62
     2
100
AcDbLine
 10
-181.186862324452
 20
43.0
 30
0.0
 11
-161.186862324452
 21
43.0
 31
0.0
  0
LINE
  5
22E
330
22A
100
AcDbEntity
  8
0
  6
Continuous
 62
     2
100
AcDbLine
 10
-181.186862324452
 20
-43.000000000001
 30
0.0
 11
-161.186862324452
 21
-43.000000000001
 31
0.0
  0
SOLID
  5
22F
330
22A
100
AcDbEntity
  8
0
 62
     2
100
AcDbTrace
 10
-162.713472314801
 20
-39.000000000001
 30
0.0
 11
-161.660252334102
 21
-39.000000000001
 31
0.0
 12
-162.186862324452
 22
-43.000000000001
 32
0.0
 13
-162.186862324452
 23
-43.000000000001
 33
0.0
  0
SOLID
  5
230
330
22A
100
AcDbEntity
  8
0
 62
     2
100
AcDbTrace
 10
-161.660252334102
 20
39.0
 30
0.0
 11
-162.713472314801
 21
39.0
 31
0.0
 12
-162.186862324452
 22
43.0
 32
0.0
 13
-162.186862324452
 23
43.0
 33
0.0
  0
MTEXT
  5
231
330
22A
100
AcDbEntity
  8
0
 62
     2
100
AcDbMText
 10
-163.286862324452
 20
-13.512217543796
 30
0.0
 40
4.0
 41
0.0
 71
     7
 72
     5
  1
\C2;M.H.C \C2;86
  7
CONVERTER_3
 11
0.0
 21
1.0
 31
0.0
 73
     1
 44
1.0
1001
ACAD
1000
MTEXTBEGIN
1070
    73
1070
     1
1070
    44
1040
1.0
1070
    74
1070
     0
1000
MTEXTEND
  0
ENDBLK
  5
232
330
22A
100
AcDbEntity
  8
0
100
AcDbBlockEnd
  0
BLOCK
  5
236
330
235
100
AcDbEntity
  8
0
100
AcDbBlockBegin
  2
*D2
 70
     1
 10
0.0
 20
0.0
 30
0.0
  3
*D2
  1

  0
LINE
  5
237
330
235
100
AcDbEntity
  8
0
  6
Continuous
 62
     2
100
AcDbLine
 10
-232.0868623244269
 20
-36.500000000001
 30
0.0
 11
-232.0868623244269
 21
36.5
 31
0.0
  0
LINE
  5
238
330
235
100
AcDbEntity
  8
0
  6
Continuous
 62
     2
100
AcDbLine
 10
-211.286862324427
 20
-36.500000000001
 30
0.0
 11
-233.086862324427
 21
-36.500000000001
 31
0.0
  0
LINE
  5
239
330
235
100
AcDbEntity
  8
0
  6
Continuous
 62
     2
100
AcDbLine
 10
-211.286862324427
 20
36.5
 30
0.0
 11
-233.086862324427
 21
36.5
 31
0.0
  0
SOLID
  5
23A
330
235
100
AcDbEntity
  8
0
 62
     2
100
AcDbTrace
 10
-232.613472314776
 20
-32.500000000001
 30
0.0
 11
-231.5602523340769
 21
-32.500000000001
 31
0.0
 12
-232.0868623244269
 22
-36.500000000001
 32
0.0
 13
-232.0868623244269
 23
-36.500000000001
 33
0.0
  0
SOLID
  5
23B
330
235
100
AcDbEntity
  8
0
 62
     2
100
AcDbTrace
 10
-231.5602523340769
 20
32.5
 30
0.0
 11
-232.613472314776
 21
32.5
 31
0.0
 12
-232.0868623244269
 22
36.5
 32
0.0
 13
-232.0868623244269
 23
36.5
 33
0.0
  0
MTEXT
  5
23C
330
235
100
AcDbEntity
  8
0
 62
     2
100
AcDbMText
 10
-233.5883906575339
 20
-13.84236906313899
 30
0.0
 40
4.0
 41
0.0
 71
     7
 72
     5
  1
\C2;M.H.C \C2;73
  7
CONVERTER_3
 11
0.0
 21
1.0
 31
0.0
 73
     1
 44
1.0
1001
ACAD
1000
MTEXTBEGIN
1070
    73
1070
     1
1070
    44
1040
1.0
1070
    74
1070
     0
1000
MTEXTEND
  0
ENDBLK
  5
23D
330
235
100
AcDbEntity
  8
0
100
AcDbBlockEnd
  0
BLOCK
  5
241
330
240
100
AcDbEntity
  8
0
100
AcDbBlockBegin
  2
*D3
 70
     1
 10
0.0
 20
0.0
 30
0.0
  3
*D3
  1

  0
LINE
  5
242
330
240
100
AcDbEntity
  8
0
  6
Continuous
 62
     2
100
AcDbLine
 10
-202.286862324427
 20
-91.0
 30
0.0
 11
-210.2868623244269
 21
-91.0
 31
0.0
  0
LINE
  5
243
330
240
100
AcDbEntity
  8
0
  6
Continuous
 62
     2
100
AcDbLine
 10
-212.0868623244269
 20
-91.0
 30
0.0
 11
-210.2868623244269
 21
-91.0
 31
0.0
  0
LINE
  5
244
330
240
100
AcDbEntity
  8
0
  6
Continuous
 62
     2
100
AcDbLine
 10
-212.0868623244269
 20
-91.0
 30
0.0
 11
-243.155966348034
 21
-91.0
 31
0.0
  0
LINE
  5
245
330
240
100
AcDbEntity
  8
0
  6
Continuous
 62
     2
100
AcDbLine
 10
-212.0868623244269
 20
-71.7
 30
0.0
 11
-212.0868623244269
 21
-92.0
 31
0.0
  0
LINE
  5
246
330
240
100
AcDbEntity
  8
0
  6
Continuous
 62
     2
100
AcDbLine
 10
-210.2868623244269
 20
-52.03610383411899
 30
0.0
 11
-210.2868623244269
 21
-92.0
 31
0.0
  0
SOLID
  5
247
330
240
100
AcDbEntity
  8
0
 62
     2
100
AcDbTrace
 10
-216.0868623244269
 20
-91.52660999034999
 30
0.0
 11
-216.0868623244269
 21
-90.473390009651
 31
0.0
 12
-212.0868623244269
 22
-91.0
 32
0.0
 13
-212.0868623244269
 23
-91.0
 33
0.0
  0
SOLID
  5
248
330
240
100
AcDbEntity
  8
0
 62
     2
100
AcDbTrace
 10
-206.2868623244269
 20
-90.473390009651
 30
0.0
 11
-206.2868623244269
 21
-91.52660999034999
 31
0.0
 12
-210.2868623244269
 22
-91.0
 32
0.0
 13
-210.2868623244269
 23
-91.0
 33
0.0
  0
MTEXT
  5
249
330
240
100
AcDbEntity
  8
0
 62
     2
100
AcDbMText
 10
-243.2359663480339
 20
-89.90000000000099
 30
0.0
 40
4.0
 41
0.0
 71
     7
 72
     5
  1
\C2;M.H.C \C2;1.8
  7
CONVERTER_3
 73
     1
 44
1.0
1001
ACAD
1000
MTEXTBEGIN
1070
    73
1070
     1
1070
    44
1040
1.0
1070
    74
1070
     0
1000
MTEXTEND
  0
ENDBLK
  5
24A
330
240
100
AcDbEntity
  8
0
100
AcDbBlockEnd
  0
BLOCK
  5
26F
330
26D
100
AcDbEntity
  8
0
100
AcDbBlockBegin
  2
Harmonic Drive LLC
 70
     0
 10
0.0
 20
0.0
 30
0.0
  3
Harmonic Drive LLC
  1

  0
MTEXT
  5
26E
330
26D
100
AcDbEntity
  8
0
100
AcDbMText
 10
169.3246904371995
 20
-160.2033851733818
 30
0.0
 40
3.5
 41
79.1772
 71
     5
 72
     5
  1
Harmonic Drive LLC\P800-921-3332\Pwww.harmonicdrive.net
 73
     1
 44
1.0
  0
ENDBLK
  5
270
330
26D
100
AcDbEntity
  8
0
100
AcDbBlockEnd
  0
BLOCK
  5
28A
330
287
100
AcDbEntity
  8
0
 62
     7
100
AcDbBlockBegin
  2
AI9-BLK14
 70
     0
 10
0.0
 20
0.0
 30
0.0
  3
AI9-BLK14
  1

  0
SPLINE
  5
288
330
287
100
AcDbEntity
  8
LAYER_1
 62
     7
100
AcDbSpline
210
0.0
220
0.0
230
1.0
 70
    11
 71
     3
 72
    23
 73
    19
 74
     0
 42
0.0000000001
 43
0.0000000001
 40
0.0
 40
0.0
 40
0.0
 40
0.0
 40
1.0
 40
1.0
 40
1.0
 40
2.0
 40
2.0
 40
2.0
 40
3.0
 40
3.0
 40
3.0
 40
4.0
 40
4.0
 40
4.0
 40
5.0
 40
5.0
 40
5.0
 40
6.0
 40
6.0
 40
6.0
 40
6.0
 10
-10.90321044921874
 20
10.88107571072048
 30
0.0
 10
-10.90321044921874
 20
10.88107571072048
 30
0.0
 10
-10.90321044921874
 20
-10.88107571072048
 30
0.0
 10
-10.90321044921874
 20
-10.88107571072048
 30
0.0
 10
-10.90321044921874
 20
-10.88107571072048
 30
0.0
 10
1.752692328559025
 20
-10.88107571072048
 30
0.0
 10
1.752692328559025
 20
-10.88107571072048
 30
0.0
 10
3.280592176649305
 20
-10.88107571072048
 30
0.0
 10
10.90321044921874
 20
-10.32383151584201
 30
0.0
 10
10.90321044921874
 20
0.6792867024739583
 30
0.0
 10
10.90321044921874
 20
10.61700914171006
 30
0.0
 10
2.773129611545138
 20
10.87952541775172
 30
0.0
 10
2.691136338975693
 20
10.88090345594618
 30
0.0
 10
2.691136338975693
 20
10.88090345594618
 30
0.0
 10
-9.903099229600693
 20
10.88107571072048
 30
0.0
 10
-9.903099229600693
 20
10.88107571072048
 30
0.0
 10
-9.903099229600693
 20
10.88107571072048
 30
0.0
 10
-10.90321044921874
 20
10.88107571072048
 30
0.0
 10
-10.90321044921874
 20
10.88107571072048
 30
0.0
  0
SPLINE
  5
289
330
287
100
AcDbEntity
  8
LAYER_1
 62
     7
100
AcDbSpline
210
0.0
220
0.0
230
1.0
 70
    11
 71
     3
 72
    20
 73
    16
 74
     0
 42
0.0000000001
 43
0.0000000001
 40
0.0
 40
0.0
 40
0.0
 40
0.0
 40
1.0
 40
1.0
 40
1.0
 40
2.0
 40
2.0
 40
2.0
 40
3.0
 40
3.0
 40
3.0
 40
4.0
 40
4.0
 40
4.0
 40
5.0
 40
5.0
 40
5.0
 40
5.0
 10
2.672877332899305
 20
8.881197781032986
 30
0.0
 10
2.905421278211805
 20
8.874307590060762
 30
0.0
 10
8.902988009982637
 20
8.616442192925347
 30
0.0
 10
8.902988009982637
 20
0.6792867024739583
 30
0.0
 10
8.902988009982637
 20
-8.191661919487842
 30
0.0
 10
3.430109320746526
 20
-8.881197781032986
 30
0.0
 10
1.752692328559025
 20
-8.881197781032986
 30
0.0
 10
1.752692328559025
 20
-8.881197781032986
 30
0.0
 10
-7.231427680121528
 20
-8.881197781032986
 30
0.0
 10
-8.902988009982637
 20
-8.881197781032986
 30
0.0
 10
-8.902988009982637
 20
-7.174497477213541
 30
0.0
 10
-8.902988009982637
 20
7.174497477213541
 30
0.0
 10
-8.902988009982637
 20
8.881197781032986
 30
0.0
 10
-7.208690049913191
 20
8.881197781032986
 30
0.0
 10
2.672877332899305
 20
8.881197781032986
 30
0.0
 10
2.672877332899305
 20
8.881197781032986
 30
0.0
  0
ENDBLK
  5
28B
330
287
100
AcDbEntity
  8
0
100
AcDbBlockEnd
  0
BLOCK
  5
28F
330
28C
100
AcDbEntity
  8
0
 62
     7
100
AcDbBlockBegin
  2
AI9-BLK13
 70
     0
 10
0.0
 20
0.0
 30
0.0
  3
AI9-BLK13
  1

  0
LWPOLYLINE
  5
28D
330
28C
100
AcDbEntity
  8
LAYER_1
 62
     7
100
AcDbPolyline
 90
       12
 70
     1
 43
0.0
 10
-3.792361111111107
 20
10.7376736111111
 10
-2.469444444444443
 20
10.7376736111111
 10
-2.469444444444443
 20
1.874131944444444
 10
2.469444444444443
 20
1.874131944444444
 10
2.469444444444443
 20
10.7376736111111
 10
3.792361111111107
 20
10.7376736111111
 10
3.792361111111107
 20
-10.7376736111111
 10
2.469444444444443
 20
-10.7376736111111
 10
2.469444444444443
 20
-0.6835069444444444
 10
-2.469444444444443
 20
-0.6835069444444444
 10
-2.469444444444443
 20
-10.7376736111111
 10
-3.792361111111107
 20
-10.7376736111111
  0
HATCH
  5
28E
330
28C
100
AcDbEntity
  8
LAYER_1
 62
     7
100
AcDbHatch
 10
0.0
 20
0.0
 30
0.0
210
0.0
220
0.0
230
1.0
  2
SOLID
 70
     1
 71
     0
 91
        1
 92
        3
 72
     0
 73
     1
 93
       12
 10
-3.792361111111107
 20
10.7376736111111
 10
-2.469444444444443
 20
10.7376736111111
 10
-2.469444444444443
 20
1.874131944444444
 10
2.469444444444443
 20
1.874131944444444
 10
2.469444444444443
 20
10.7376736111111
 10
3.792361111111107
 20
10.7376736111111
 10
3.792361111111107
 20
-10.7376736111111
 10
2.469444444444443
 20
-10.7376736111111
 10
2.469444444444443
 20
-0.6835069444444444
 10
-2.469444444444443
 20
-0.6835069444444444
 10
-2.469444444444443
 20
-10.7376736111111
 10
-3.792361111111107
 20
-10.7376736111111
 97
        0
 75
     2
 76
     1
 98
        1
 10
0.0
 20
0.0
  0
ENDBLK
  5
290
330
28C
100
AcDbEntity
  8
0
100
AcDbBlockEnd
  0
BLOCK
  5
294
330
291
100
AcDbEntity
  8
0
 62
     7
100
AcDbBlockBegin
  2
AI9-BLK11
 70
     0
 10
0.0
 20
0.0
 30
0.0
  3
AI9-BLK11
  1

  0
SPLINE
  5
292
330
291
100
AcDbEntity
  8
LAYER_1
 62
     7
100
AcDbSpline
210
0.0
220
0.0
230
1.0
 70
    11
 71
     3
 72
    26
 73
    22
 74
     0
 42
0.0000000001
 43
0.0000000001
 40
0.0
 40
0.0
 40
0.0
 40
0.0
 40
1.0
 40
1.0
 40
1.0
 40
2.0
 40
2.0
 40
2.0
 40
3.0
 40
3.0
 40
3.0
 40
4.0
 40
4.0
 40
4.0
 40
5.0
 40
5.0
 40
5.0
 40
6.0
 40
6.0
 40
6.0
 40
7.0
 40
7.0
 40
7.0
 40
7.0
 10
-2.645833333333333
 20
0.9039930555555551
 30
0.0
 10
-2.645833333333333
 20
0.9039930555555551
 30
0.0
 10
-2.645833333333333
 20
8.180034722222217
 30
0.0
 10
-2.645833333333333
 20
8.180034722222217
 30
0.0
 10
-2.645833333333333
 20
8.180034722222217
 30
0.0
 10
0.465087890625
 20
8.180034722222217
 30
0.0
 10
0.465087890625
 20
8.180034722222217
 30
0.0
 10
0.9026150173611108
 20
8.180034722222217
 30
0.0
 10
1.24988064236111
 20
8.034651692708331
 30
0.0
 10
1.506884765625
 20
7.745263671874997
 30
0.0
 10
2.001600477430554
 20
7.194048394097221
 30
0.0
 10
2.248958333333332
 20
6.160519748263887
 30
0.0
 10
2.248958333333332
 20
4.643299696180553
 30
0.0
 10
2.248958333333332
 20
3.232188585069443
 30
0.0
 10
2.072569444444444
 20
2.256537543402775
 30
0.0
 10
1.720480685763888
 20
1.715657552083333
 30
0.0
 10
1.368391927083333
 20
1.174088541666665
 30
0.0
 10
0.8929687499999998
 20
0.9039930555555551
 30
0.0
 10
0.2942111545138888
 20
0.9039930555555551
 30
0.0
 10
0.2942111545138888
 20
0.9039930555555551
 30
0.0
 10
-2.645833333333333
 20
0.9039930555555551
 30
0.0
 10
-2.645833333333333
 20
0.9039930555555551
 30
0.0
  0
SPLINE
  5
293
330
291
100
AcDbEntity
  8
LAYER_1
 62
     7
100
AcDbSpline
210
0.0
220
0.0
230
1.0
 70
    11
 71
     3
 72
    68
 73
    64
 74
     0
 42
0.0000000001
 43
0.0000000001
 40
0.0
 40
0.0
 40
0.0
 40
0.0
 40
1.0
 40
1.0
 40
1.0
 40
2.0
 40
2.0
 40
2.0
 40
3.0
 40
3.0
 40
3.0
 40
4.0
 40
4.0
 40
4.0
 40
5.0
 40
5.0
 40
5.0
 40
6.0
 40
6.0
 40
6.0
 40
7.0
 40
7.0
 40
7.0
 40
8.0
 40
8.0
 40
8.0
 40
9.0
 40
9.0
 40
9.0
 40
10.0
 40
10.0
 40
10.0
 40
11.0
 40
11.0
 40
11.0
 40
12.0
 40
12.0
 40
12.0
 40
13.0
 40
13.0
 40
13.0
 40
14.0
 40
14.0
 40
14.0
 40
15.0
 40
15.0
 40
15.0
 40
16.0
 40
16.0
 40
16.0
 40
17.0
 40
17.0
 40
17.0
 40
18.0
 40
18.0
 40
18.0
 40
19.0
 40
19.0
 40
19.0
 40
20.0
 40
20.0
 40
20.0
 40
21.0
 40
21.0
 40
21.0
 40
21.0
 10
-3.968749999999998
 20
-10.7376736111111
 30
0.0
 10
-3.968749999999998
 20
-10.7376736111111
 30
0.0
 10
-2.645833333333333
 20
-10.7376736111111
 30
0.0
 10
-2.645833333333333
 20
-10.7376736111111
 30
0.0
 10
-2.645833333333333
 20
-10.7376736111111
 30
0.0
 10
-2.645833333333333
 20
-1.521354166666665
 30
0.0
 10
-2.645833333333333
 20
-1.521354166666665
 30
0.0
 10
-2.645833333333333
 20
-1.521354166666665
 30
0.0
 10
0.2390896267361111
 20
-1.521354166666665
 30
0.0
 10
0.2390896267361111
 20
-1.521354166666665
 30
0.0
 10
0.7599880642361111
 20
-1.521354166666665
 30
0.0
 10
1.143771701388887
 20
-1.65295681423611
 30
0.0
 10
1.390440538194444
 20
-1.916162109374999
 30
0.0
 10
1.816254340277773
 20
-2.39434136284722
 30
0.0
 10
2.04363064236111
 20
-3.335541449652775
 30
0.0
 10
2.072569444444444
 20
-4.739762369791666
 30
0.0
 10
2.072569444444444
 20
-4.739762369791666
 30
0.0
 10
2.160763888888888
 20
-8.324039713541665
 30
0.0
 10
2.160763888888888
 20
-8.324039713541665
 30
0.0
 10
2.18005642361111
 20
-9.163264973958332
 30
0.0
 10
2.202794053819443
 20
-9.728949652777775
 30
0.0
 10
2.227598741319444
 20
-10.02109374999998
 30
0.0
 10
2.252403428819443
 20
-10.31392686631944
 30
0.0
 10
2.28892144097222
 20
-10.55301649305555
 30
0.0
 10
2.33853081597222
 20
-10.7376736111111
 30
0.0
 10
2.33853081597222
 20
-10.7376736111111
 30
0.0
 10
3.968749999999998
 20
-10.7376736111111
 30
0.0
 10
3.968749999999998
 20
-10.7376736111111
 30
0.0
 10
3.968749999999998
 20
-10.7376736111111
 30
0.0
 10
3.968749999999998
 20
-10.25260416666666
 30
0.0
 10
3.968749999999998
 20
-10.25260416666666
 30
0.0
 10
3.766867404513888
 20
-10.05830078125
 30
0.0
 10
3.625618489583333
 20
-9.621462673611112
 30
0.0
 10
3.545692274305555
 20
-8.942089843749997
 30
0.0
 10
3.49470486111111
 20
-8.543836805555555
 30
0.0
 10
3.459564887152775
 20
-7.937499999999999
 30
0.0
 10
3.439583333333333
 20
-7.121701388888887
 30
0.0
 10
3.439583333333333
 20
-7.121701388888887
 30
0.0
 10
3.395486111111106
 20
-4.232644314236106
 30
0.0
 10
3.395486111111106
 20
-4.232644314236106
 30
0.0
 10
3.375504557291666
 20
-2.981385633680555
 30
0.0
 10
3.26870659722222
 20
-2.077392578125
 30
0.0
 10
3.075781249999999
 20
-1.522043185763888
 30
0.0
 10
2.882166883680555
 20
-0.9666937934027776
 30
0.0
 10
2.592089843749999
 20
-0.5188313802083333
 30
0.0
 10
2.204861111111104
 20
-0.1770779079861111
 30
0.0
 10
2.63618706597222
 20
0.3197048611111111
 30
0.0
 10
2.971739366319443
 20
0.9770290798611107
 30
0.0
 10
3.211518012152775
 20
1.79558376736111
 30
0.0
 10
3.451296657986107
 20
2.613449435763888
 30
0.0
 10
3.571874999999999
 20
3.66558159722222
 30
0.0
 10
3.571874999999999
 20
4.951291232638888
 30
0.0
 10
3.571874999999999
 20
7.415912543402777
 30
0.0
 10
3.124701605902775
 20
9.106076388888887
 30
0.0
 10
2.231043836805555
 20
10.02178276909722
 30
0.0
 10
1.759754774305553
 20
10.498583984375
 30
0.0
 10
1.163753255208332
 20
10.7376736111111
 30
0.0
 10
0.443039279513889
 20
10.7376736111111
 30
0.0
 10
0.443039279513889
 20
10.7376736111111
 30
0.0
 10
-3.968749999999998
 20
10.7376736111111
 30
0.0
 10
-3.968749999999998
 20
10.7376736111111
 30
0.0
 10
-3.968749999999998
 20
10.7376736111111
 30
0.0
 10
-3.968749999999998
 20
-10.7376736111111
 30
0.0
 10
-3.968749999999998
 20
-10.7376736111111
 30
0.0
  0
ENDBLK
  5
295
330
291
100
AcDbEntity
  8
0
100
AcDbBlockEnd
  0
BLOCK
  5
298
330
296
100
AcDbEntity
  8
0
 62
     7
100
AcDbBlockBegin
  2
AI9-BLK10
 70
     0
 10
0.0
 20
0.0
 30
0.0
  3
AI9-BLK10
  1

  0
SPLINE
  5
297
330
296
100
AcDbEntity
  8
LAYER_1
 62
     7
100
AcDbSpline
210
0.0
220
0.0
230
1.0
 70
    11
 71
     3
 72
    59
 73
    55
 74
     0
 42
0.0000000001
 43
0.0000000001
 40
0.0
 40
0.0
 40
0.0
 40
0.0
 40
1.0
 40
1.0
 40
1.0
 40
2.0
 40
2.0
 40
2.0
 40
3.0
 40
3.0
 40
3.0
 40
4.0
 40
4.0
 40
4.0
 40
5.0
 40
5.0
 40
5.0
 40
6.0
 40
6.0
 40
6.0
 40
7.0
 40
7.0
 40
7.0
 40
8.0
 40
8.0
 40
8.0
 40
9.0
 40
9.0
 40
9.0
 40
10.0
 40
10.0
 40
10.0
 40
11.0
 40
11.0
 40
11.0
 40
12.0
 40
12.0
 40
12.0
 40
13.0
 40
13.0
 40
13.0
 40
14.0
 40
14.0
 40
14.0
 40
15.0
 40
15.0
 40
15.0
 40
16.0
 40
16.0
 40
16.0
 40
17.0
 40
17.0
 40
17.0
 40
18.0
 40
18.0
 40
18.0
 40
18.0
 10
-4.652256944444443
 20
10.7376736111111
 30
0.0
 10
-4.652256944444443
 20
10.7376736111111
 30
0.0
 10
-2.798795572916666
 20
10.7376736111111
 30
0.0
 10
-2.798795572916666
 20
10.7376736111111
 30
0.0
 10
-2.798795572916666
 20
10.7376736111111
 30
0.0
 10
0.0
 20
-7.419357638888887
 30
0.0
 10
0.0
 20
-7.419357638888887
 30
0.0
 10
0.0
 20
-7.419357638888887
 30
0.0
 10
2.793283420138888
 20
10.7376736111111
 30
0.0
 10
2.793283420138888
 20
10.7376736111111
 30
0.0
 10
2.793283420138888
 20
10.7376736111111
 30
0.0
 10
4.652256944444443
 20
10.7376736111111
 30
0.0
 10
4.652256944444443
 20
10.7376736111111
 30
0.0
 10
4.652256944444443
 20
10.7376736111111
 30
0.0
 10
4.652256944444443
 20
-10.7376736111111
 30
0.0
 10
4.652256944444443
 20
-10.7376736111111
 30
0.0
 10
4.652256944444443
 20
-10.7376736111111
 30
0.0
 10
3.41753472222222
 20
-10.7376736111111
 30
0.0
 10
3.41753472222222
 20
-10.7376736111111
 30
0.0
 10
3.41753472222222
 20
-10.7376736111111
 30
0.0
 10
3.41753472222222
 20
1.936832682291665
 30
0.0
 10
3.41753472222222
 20
1.936832682291665
 30
0.0
 10
3.41753472222222
 20
2.375048828124999
 30
0.0
 10
3.424424913194443
 20
3.101274956597221
 30
0.0
 10
3.439583333333333
 20
4.11482204861111
 30
0.0
 10
3.454052734374998
 20
5.128369140624998
 30
0.0
 10
3.461631944444443
 20
6.214952256944441
 30
0.0
 10
3.461631944444443
 20
7.375260416666666
 30
0.0
 10
3.461631944444443
 20
7.375260416666666
 30
0.0
 10
0.6538791232638889
 20
-10.7376736111111
 30
0.0
 10
0.6538791232638889
 20
-10.7376736111111
 30
0.0
 10
0.6538791232638889
 20
-10.7376736111111
 30
0.0
 10
-0.6628363715277778
 20
-10.7376736111111
 30
0.0
 10
-0.6628363715277778
 20
-10.7376736111111
 30
0.0
 10
-0.6628363715277778
 20
-10.7376736111111
 30
0.0
 10
-3.461631944444443
 20
7.375260416666666
 30
0.0
 10
-3.461631944444443
 20
7.375260416666666
 30
0.0
 10
-3.461631944444443
 20
7.375260416666666
 30
0.0
 10
-3.461631944444443
 20
6.717247178819441
 30
0.0
 10
-3.461631944444443
 20
6.717247178819441
 30
0.0
 10
-3.461631944444443
 20
6.190836588541666
 30
0.0
 10
-3.45474175347222
 20
5.389507378472222
 30
0.0
 10
-3.439583333333333
 20
4.312570529513888
 30
0.0
 10
-3.425113932291666
 20
3.235633680555555
 30
0.0
 10
-3.41753472222222
 20
2.44395073784722
 30
0.0
 10
-3.41753472222222
 20
1.936832682291665
 30
0.0
 10
-3.41753472222222
 20
1.936832682291665
 30
0.0
 10
-3.41753472222222
 20
-10.7376736111111
 30
0.0
 10
-3.41753472222222
 20
-10.7376736111111
 30
0.0
 10
-3.41753472222222
 20
-10.7376736111111
 30
0.0
 10
-4.652256944444443
 20
-10.7376736111111
 30
0.0
 10
-4.652256944444443
 20
-10.7376736111111
 30
0.0
 10
-4.652256944444443
 20
-10.7376736111111
 30
0.0
 10
-4.652256944444443
 20
10.7376736111111
 30
0.0
 10
-4.652256944444443
 20
10.7376736111111
 30
0.0
  0
ENDBLK
  5
299
330
296
100
AcDbEntity
  8
0
100
AcDbBlockEnd
  0
BLOCK
  5
29D
330
29A
100
AcDbEntity
  8
0
 62
     7
100
AcDbBlockBegin
  2
AI9-BLK9
 70
     0
 10
0.0
 20
0.0
 30
0.0
  3
AI9-BLK9
  1

  0
SPLINE
  5
29B
330
29A
100
AcDbEntity
  8
LAYER_1
 62
     7
100
AcDbSpline
210
0.0
220
0.0
230
1.0
 70
    11
 71
     3
 72
    29
 73
    25
 74
     0
 42
0.0000000001
 43
0.0000000001
 40
0.0
 40
0.0
 40
0.0
 40
0.0
 40
1.0
 40
1.0
 40
1.0
 40
2.0
 40
2.0
 40
2.0
 40
3.0
 40
3.0
 40
3.0
 40
4.0
 40
4.0
 40
4.0
 40
5.0
 40
5.0
 40
5.0
 40
6.0
 40
6.0
 40
6.0
 40
7.0
 40
7.0
 40
7.0
 40
8.0
 40
8.0
 40
8.0
 40
8.0
 10
0.0668348524305556
 20
-8.753298611111111
 30
0.0
 10
-0.9067491319444444
 20
-8.753298611111111
 30
0.0
 10
-1.60954861111111
 20
-7.936810980902778
 30
0.0
 10
-2.041563585069444
 20
-6.30383572048611
 30
0.0
 10
-2.474267578124999
 20
-4.670860460069443
 30
0.0
 10
-2.689930555555555
 20
-2.664436848958333
 30
0.0
 10
-2.689930555555555
 20
-0.28525390625
 30
0.0
 10
-2.689930555555555
 20
2.68855251736111
 30
0.0
 10
-2.439127604166666
 20
4.938199869791666
 30
0.0
 10
-1.937521701388888
 20
6.464377170138886
 30
0.0
 10
-1.43591579861111
 20
7.989865451388887
 30
0.0
 10
-0.7827256944444444
 20
8.753298611111111
 30
0.0
 10
0.0220486111111111
 20
8.753298611111111
 30
0.0
 10
0.8468044704861108
 20
8.753298611111111
 30
0.0
 10
1.49792751736111
 20
7.982975260416663
 30
0.0
 10
1.974728732638888
 20
6.442328559027776
 30
0.0
 10
2.451529947916665
 20
4.901681857638886
 30
0.0
 10
2.689930555555555
 20
2.868386501736111
 30
0.0
 10
2.689930555555555
 20
0.3438205295138888
 30
0.0
 10
2.689930555555555
 20
-2.045697699652774
 30
0.0
 10
2.483224826388884
 20
-4.15891927083333
 30
0.0
 10
2.071191406249999
 20
-5.996533203124998
 30
0.0
 10
1.65915798611111
 20
-7.834836154513887
 30
0.0
 10
0.9908094618055557
 20
-8.753298611111111
 30
0.0
 10
0.0668348524305556
 20
-8.753298611111111
 30
0.0
  0
SPLINE
  5
29C
330
29A
100
AcDbEntity
  8
LAYER_1
 62
     7
100
AcDbSpline
210
0.0
220
0.0
230
1.0
 70
    11
 71
     3
 72
    29
 73
    25
 74
     0
 42
0.0000000001
 43
0.0000000001
 40
0.0
 40
0.0
 40
0.0
 40
0.0
 40
1.0
 40
1.0
 40
1.0
 40
2.0
 40
2.0
 40
2.0
 40
3.0
 40
3.0
 40
3.0
 40
4.0
 40
4.0
 40
4.0
 40
5.0
 40
5.0
 40
5.0
 40
6.0
 40
6.0
 40
6.0
 40
7.0
 40
7.0
 40
7.0
 40
8.0
 40
8.0
 40
8.0
 40
8.0
 10
-0.0289388020833333
 20
11.35503472222222
 30
0.0
 10
-1.317404513888887
 20
11.35503472222222
 30
0.0
 10
-2.28892144097222
 20
10.02798394097222
 30
0.0
 10
-2.94280056423611
 20
7.374571397569441
 30
0.0
 10
-3.450607638888888
 20
5.30613606770833
 30
0.0
 10
-3.704166666666666
 20
2.81877712673611
 30
0.0
 10
-3.704166666666666
 20
-0.0881944444444445
 30
0.0
 10
-3.704166666666666
 20
-3.307291666666666
 30
0.0
 10
-3.406510416666666
 20
-5.97035047743055
 30
0.0
 10
-2.811197916666666
 20
-8.077370876736106
 30
0.0
 10
-2.147672526041664
 20
-10.26293945312499
 30
0.0
 10
-1.229899088541666
 20
-11.35503472222222
 30
0.0
 10
-0.0585666232638889
 20
-11.35503472222222
 30
0.0
 10
1.20027126736111
 20
-11.35503472222222
 30
0.0
 10
2.166276041666665
 20
-10.10653211805555
 30
0.0
 10
2.840136718749998
 20
-7.609526909722221
 30
0.0
 10
3.416156684027776
 20
-5.483213975694441
 30
0.0
 10
3.704166666666666
 20
-2.814643012152775
 30
0.0
 10
3.704166666666666
 20
0.3948079427083333
 30
0.0
 10
3.704166666666666
 20
3.360346137152776
 30
0.0
 10
3.449918619791666
 20
5.793961588541666
 30
0.0
 10
2.94280056423611
 20
7.696343315972222
 30
0.0
 10
2.298567708333333
 20
10.13547092013888
 30
0.0
 10
1.307758246527777
 20
11.35503472222222
 30
0.0
 10
-0.0289388020833333
 20
11.35503472222222
 30
0.0
  0
ENDBLK
  5
29E
330
29A
100
AcDbEntity
  8
0
100
AcDbBlockEnd
  0
BLOCK
  5
2A2
330
29F
100
AcDbEntity
  8
0
 62
     7
100
AcDbBlockBegin
  2
AI9-BLK8
 70
     0
 10
0.0
 20
0.0
 30
0.0
  3
AI9-BLK8
  1

  0
LWPOLYLINE
  5
2A0
330
29F
100
AcDbEntity
  8
LAYER_1
 62
     7
100
AcDbPolyline
 90
       10
 70
     1
 43
0.0
 10
-3.792361111111107
 20
10.7376736111111
 10
-2.268939887152773
 20
10.7376736111111
 10
2.557638888888888
 20
-6.505718315972222
 10
2.557638888888888
 20
10.7376736111111
 10
3.792361111111107
 20
10.7376736111111
 10
3.792361111111107
 20
-10.7376736111111
 10
2.32612847222222
 20
-10.7376736111111
 10
-2.557638888888888
 20
6.549815538194441
 10
-2.557638888888888
 20
-10.7376736111111
 10
-3.792361111111107
 20
-10.7376736111111
  0
HATCH
  5
2A1
330
29F
100
AcDbEntity
  8
LAYER_1
 62
     7
100
AcDbHatch
 10
0.0
 20
0.0
 30
0.0
210
0.0
220
0.0
230
1.0
  2
SOLID
 70
     1
 71
     0
 91
        1
 92
        3
 72
     0
 73
     1
 93
       10
 10
-3.792361111111107
 20
10.7376736111111
 10
-2.268939887152773
 20
10.7376736111111
 10
2.557638888888888
 20
-6.505718315972222
 10
2.557638888888888
 20
10.7376736111111
 10
3.792361111111107
 20
10.7376736111111
 10
3.792361111111107
 20
-10.7376736111111
 10
2.32612847222222
 20
-10.7376736111111
 10
-2.557638888888888
 20
6.549815538194441
 10
-2.557638888888888
 20
-10.7376736111111
 10
-3.792361111111107
 20
-10.7376736111111
 97
        0
 75
     2
 76
     1
 98
        1
 10
0.0
 20
0.0
  0
ENDBLK
  5
2A3
330
29F
100
AcDbEntity
  8
0
100
AcDbBlockEnd
  0
BLOCK
  5
2A7
330
2A4
100
AcDbEntity
  8
0
 62
     7
100
AcDbBlockBegin
  2
AI9-BLK7
 70
     0
 10
0.0
 20
0.0
 30
0.0
  3
AI9-BLK7
  1

  0
LWPOLYLINE
  5
2A5
330
2A4
100
AcDbEntity
  8
LAYER_1
 62
     7
100
AcDbPolyline
 90
        4
 70
     1
 43
0.0
 10
-0.6614583333333333
 20
10.7376736111111
 10
0.6614583333333333
 20
10.7376736111111
 10
0.6614583333333333
 20
-10.7376736111111
 10
-0.6614583333333333
 20
-10.7376736111111
  0
HATCH
  5
2A6
330
2A4
100
AcDbEntity
  8
LAYER_1
 62
     7
100
AcDbHatch
 10
0.0
 20
0.0
 30
0.0
210
0.0
220
0.0
230
1.0
  2
SOLID
 70
     1
 71
     0
 91
        1
 92
        3
 72
     0
 73
     1
 93
        4
 10
-0.6614583333333333
 20
10.7376736111111
 10
0.6614583333333333
 20
10.7376736111111
 10
0.6614583333333333
 20
-10.7376736111111
 10
-0.6614583333333333
 20
-10.7376736111111
 97
        0
 75
     2
 76
     1
 98
        1
 10
0.0
 20
0.0
  0
ENDBLK
  5
2A8
330
2A4
100
AcDbEntity
  8
0
100
AcDbBlockEnd
  0
BLOCK
  5
2AB
330
2A9
100
AcDbEntity
  8
0
 62
     7
100
AcDbBlockBegin
  2
AI9-BLK6
 70
     0
 10
0.0
 20
0.0
 30
0.0
  3
AI9-BLK6
  1

  0
SPLINE
  5
2AA
330
2A9
100
AcDbEntity
  8
LAYER_1
 62
     7
100
AcDbSpline
210
0.0
220
0.0
230
1.0
 70
    11
 71
     3
 72
    59
 73
    55
 74
     0
 42
0.0000000001
 43
0.0000000001
 40
0.0
 40
0.0
 40
0.0
 40
0.0
 40
1.0
 40
1.0
 40
1.0
 40
2.0
 40
2.0
 40
2.0
 40
3.0
 40
3.0
 40
3.0
 40
4.0
 40
4.0
 40
4.0
 40
5.0
 40
5.0
 40
5.0
 40
6.0
 40
6.0
 40
6.0
 40
7.0
 40
7.0
 40
7.0
 40
8.0
 40
8.0
 40
8.0
 40
9.0
 40
9.0
 40
9.0
 40
10.0
 40
10.0
 40
10.0
 40
11.0
 40
11.0
 40
11.0
 40
12.0
 40
12.0
 40
12.0
 40
13.0
 40
13.0
 40
13.0
 40
14.0
 40
14.0
 40
14.0
 40
15.0
 40
15.0
 40
15.0
 40
16.0
 40
16.0
 40
16.0
 40
17.0
 40
17.0
 40
17.0
 40
18.0
 40
18.0
 40
18.0
 40
18.0
 10
3.062689887152775
 20
9.168088107638887
 30
0.0
 10
3.735172526041666
 20
7.739062499999997
 30
0.0
 10
4.110687934027776
 20
6.116422526041666
 30
0.0
 10
4.189236111111108
 20
4.299479166666666
 30
0.0
 10
4.189236111111108
 20
4.299479166666666
 30
0.0
 10
2.866319444444443
 20
4.299479166666666
 30
0.0
 10
2.866319444444443
 20
4.299479166666666
 30
0.0
 10
2.720936414930555
 20
5.667871093749997
 30
0.0
 10
2.435682508680555
 20
6.752387152777776
 30
0.0
 10
2.009868706597218
 20
7.553027343749997
 30
0.0
 10
1.584054904513888
 20
8.352978515624997
 30
0.0
 10
0.9839192708333332
 20
8.753298611111111
 30
0.0
 10
0.2101508246527778
 20
8.753298611111111
 30
0.0
 10
-0.7386284722222222
 20
8.753298611111111
 30
0.0
 10
-1.503439670138888
 20
8.010536024305555
 30
0.0
 10
-2.083593749999999
 20
6.526388888888886
 30
0.0
 10
-2.664436848958333
 20
5.042241753472221
 30
0.0
 10
-2.954513888888888
 20
2.767100694444443
 30
0.0
 10
-2.954513888888888
 20
-0.2990342881944444
 30
0.0
 10
-2.954513888888888
 20
-2.811197916666666
 30
0.0
 10
-2.693375651041666
 20
-4.847938368055555
 30
0.0
 10
-2.17041015625
 20
-6.409944661458332
 30
0.0
 10
-1.648133680555553
 20
-7.972639973958332
 30
0.0
 10
-0.8640299479166666
 20
-8.753298611111111
 30
0.0
 10
0.1812120225694444
 20
-8.753298611111111
 30
0.0
 10
1.138948567708333
 20
-8.753298611111111
 30
0.0
 10
1.865174696180553
 20
-7.927853732638887
 30
0.0
 10
2.359201388888884
 20
-6.275585937499998
 30
0.0
 10
2.62998589409722
 20
-5.406043836805555
 30
0.0
 10
2.828423394097221
 20
-4.262272135416666
 30
0.0
 10
2.954513888888888
 20
-2.844270833333331
 30
0.0
 10
2.954513888888888
 20
-2.844270833333331
 30
0.0
 10
4.277430555555555
 20
-2.844270833333331
 30
0.0
 10
4.277430555555555
 20
-2.844270833333331
 30
0.0
 10
4.169943576388888
 20
-5.109765624999996
 30
0.0
 10
3.795117187499998
 20
-7.009391276041665
 30
0.0
 10
3.151573350694443
 20
-8.542458767361106
 30
0.0
 10
2.381249999999999
 20
-10.38834092881943
 30
0.0
 10
1.347721354166665
 20
-11.3109375
 30
0.0
 10
0.0509874131944445
 20
-11.3109375
 30
0.0
 10
-1.07004665798611
 20
-11.3109375
 30
0.0
 10
-2.010557725694444
 20
-10.55577256944443
 30
0.0
 10
-2.771234809027776
 20
-9.04475368923611
 30
0.0
 10
-3.775824652777775
 20
-7.046598307291666
 30
0.0
 10
-4.277430555555555
 20
-3.961170789930555
 30
0.0
 10
-4.277430555555555
 20
0.2115288628472222
 30
0.0
 10
-4.277430555555555
 20
3.379638671874998
 30
0.0
 10
-3.902604166666666
 20
5.977929687499997
 30
0.0
 10
-3.151573350694443
 20
8.005712890624996
 30
0.0
 10
-2.333018663194443
 20
10.20919596354165
 30
0.0
 10
-1.20647243923611
 20
11.3109375
 30
0.0
 10
0.2266872829861111
 20
11.3109375
 30
0.0
 10
1.444873046875
 20
11.3109375
 30
0.0
 10
2.390207248263884
 20
10.59642469618055
 30
0.0
 10
3.062689887152775
 20
9.168088107638887
 30
0.0
  0
ENDBLK
  5
2AC
330
2A9
100
AcDbEntity
  8
0
100
AcDbBlockEnd
  0
BLOCK
  5
2B0
330
2AD
100
AcDbEntity
  8
0
 62
     7
100
AcDbBlockBegin
  2
AI9-BLK5
 70
     0
 10
0.0
 20
0.0
 30
0.0
  3
AI9-BLK5
  1

  0
SPLINE
  5
2AE
330
2AD
100
AcDbEntity
  8
LAYER_1
 62
     7
100
AcDbSpline
210
0.0
220
0.0
230
1.0
 70
    11
 71
     3
 72
    32
 73
    28
 74
     0
 42
0.0000000001
 43
0.0000000001
 40
0.0
 40
0.0
 40
0.0
 40
0.0
 40
1.0
 40
1.0
 40
1.0
 40
2.0
 40
2.0
 40
2.0
 40
3.0
 40
3.0
 40
3.0
 40
4.0
 40
4.0
 40
4.0
 40
5.0
 40
5.0
 40
5.0
 40
6.0
 40
6.0
 40
6.0
 40
7.0
 40
7.0
 40
7.0
 40
8.0
 40
8.0
 40
8.0
 40
9.0
 40
9.0
 40
9.0
 40
9.0
 10
-2.62378472222222
 20
-8.268229166666666
 30
0.0
 10
-2.62378472222222
 20
-8.268229166666666
 30
0.0
 10
-2.62378472222222
 20
8.180034722222217
 30
0.0
 10
-2.62378472222222
 20
8.180034722222217
 30
0.0
 10
-2.62378472222222
 20
8.180034722222217
 30
0.0
 10
-0.3376193576388888
 20
8.180034722222217
 30
0.0
 10
-0.3376193576388888
 20
8.180034722222217
 30
0.0
 10
0.6972873263888888
 20
8.180034722222217
 30
0.0
 10
1.449007161458333
 20
7.445540364583332
 30
0.0
 10
1.918918185763885
 20
5.977929687499997
 30
0.0
 10
2.388829210069443
 20
4.510319010416666
 30
0.0
 10
2.62378472222222
 20
2.449462890624999
 30
0.0
 10
2.62378472222222
 20
-0.204638671875
 30
0.0
 10
2.62378472222222
 20
-0.8950358072916666
 30
0.0
 10
2.590022786458332
 20
-1.643310546874999
 30
0.0
 10
2.523187934027772
 20
-2.45015190972222
 30
0.0
 10
2.408121744791666
 20
-3.80200737847222
 30
0.0
 10
2.226220703124999
 20
-4.909950086805555
 30
0.0
 10
1.976795789930553
 20
-5.774669053819441
 30
0.0
 10
1.659847005208333
 20
-6.853672960069442
 30
0.0
 10
1.252636718749998
 20
-7.583344184027778
 30
0.0
 10
0.7544759114583333
 20
-7.962304687499997
 30
0.0
 10
0.4664659288194444
 20
-8.166254340277777
 30
0.0
 10
0.1074869791666666
 20
-8.268229166666666
 30
0.0
 10
-0.3231499565972222
 20
-8.268229166666666
 30
0.0
 10
-0.3231499565972222
 20
-8.268229166666666
 30
0.0
 10
-2.62378472222222
 20
-8.268229166666666
 30
0.0
 10
-2.62378472222222
 20
-8.268229166666666
 30
0.0
  0
SPLINE
  5
2AF
330
2AD
100
AcDbEntity
  8
LAYER_1
 62
     7
100
AcDbSpline
210
0.0
220
0.0
230
1.0
 70
    11
 71
     3
 72
    26
 73
    22
 74
     0
 42
0.0000000001
 43
0.0000000001
 40
0.0
 40
0.0
 40
0.0
 40
0.0
 40
1.0
 40
1.0
 40
1.0
 40
2.0
 40
2.0
 40
2.0
 40
3.0
 40
3.0
 40
3.0
 40
4.0
 40
4.0
 40
4.0
 40
5.0
 40
5.0
 40
5.0
 40
6.0
 40
6.0
 40
6.0
 40
7.0
 40
7.0
 40
7.0
 40
7.0
 10
-3.946701388888888
 20
-10.7376736111111
 30
0.0
 10
-3.946701388888888
 20
-10.7376736111111
 30
0.0
 10
-0.0943956163194444
 20
-10.7376736111111
 30
0.0
 10
-0.0943956163194444
 20
-10.7376736111111
 30
0.0
 10
1.546847873263885
 20
-10.7376736111111
 30
0.0
 10
2.705777994791666
 20
-9.11021050347222
 30
0.0
 10
3.381705729166666
 20
-5.854595269097222
 30
0.0
 10
3.757910156249999
 20
-4.01284722222222
 30
0.0
 10
3.946701388888888
 20
-1.951991102430555
 30
0.0
 10
3.946701388888888
 20
0.328662109375
 30
0.0
 10
3.946701388888888
 20
3.281797960069443
 30
0.0
 10
3.622862413194443
 20
5.703700086805552
 30
0.0
 10
2.976562499999998
 20
7.594368489583332
 30
0.0
 10
2.25171440972222
 20
9.689675564236106
 30
0.0
 10
1.233344184027777
 20
10.7376736111111
 30
0.0
 10
-0.0799262152777778
 20
10.7376736111111
 30
0.0
 10
-0.0799262152777778
 20
10.7376736111111
 30
0.0
 10
-3.946701388888888
 20
10.7376736111111
 30
0.0
 10
-3.946701388888888
 20
10.7376736111111
 30
0.0
 10
-3.946701388888888
 20
10.7376736111111
 30
0.0
 10
-3.946701388888888
 20
-10.7376736111111
 30
0.0
 10
-3.946701388888888
 20
-10.7376736111111
 30
0.0
  0
ENDBLK
  5
2B1
330
2AD
100
AcDbEntity
  8
0
100
AcDbBlockEnd
  0
BLOCK
  5
2B5
330
2B2
100
AcDbEntity
  8
0
 62
     7
100
AcDbBlockBegin
  2
AI9-BLK4
 70
     0
 10
0.0
 20
0.0
 30
0.0
  3
AI9-BLK4
  1

  0
SPLINE
  5
2B3
330
2B2
100
AcDbEntity
  8
LAYER_1
 62
     7
100
AcDbSpline
210
0.0
220
0.0
230
1.0
 70
    11
 71
     3
 72
    26
 73
    22
 74
     0
 42
0.0000000001
 43
0.0000000001
 40
0.0
 40
0.0
 40
0.0
 40
0.0
 40
1.0
 40
1.0
 40
1.0
 40
2.0
 40
2.0
 40
2.0
 40
3.0
 40
3.0
 40
3.0
 40
4.0
 40
4.0
 40
4.0
 40
5.0
 40
5.0
 40
5.0
 40
6.0
 40
6.0
 40
6.0
 40
7.0
 40
7.0
 40
7.0
 40
7.0
 10
-2.645833333333333
 20
0.9039930555555551
 30
0.0
 10
-2.645833333333333
 20
0.9039930555555551
 30
0.0
 10
-2.645833333333333
 20
8.180034722222217
 30
0.0
 10
-2.645833333333333
 20
8.180034722222217
 30
0.0
 10
-2.645833333333333
 20
8.180034722222217
 30
0.0
 10
0.465087890625
 20
8.180034722222217
 30
0.0
 10
0.465087890625
 20
8.180034722222217
 30
0.0
 10
0.9026150173611108
 20
8.180034722222217
 30
0.0
 10
1.24988064236111
 20
8.034651692708331
 30
0.0
 10
1.506884765625
 20
7.745263671874997
 30
0.0
 10
2.001600477430554
 20
7.194048394097221
 30
0.0
 10
2.248958333333332
 20
6.160519748263887
 30
0.0
 10
2.248958333333332
 20
4.643299696180553
 30
0.0
 10
2.248958333333332
 20
3.232188585069443
 30
0.0
 10
2.072569444444444
 20
2.256537543402775
 30
0.0
 10
1.720480685763888
 20
1.715657552083333
 30
0.0
 10
1.368391927083333
 20
1.174088541666665
 30
0.0
 10
0.8929687499999998
 20
0.9039930555555551
 30
0.0
 10
0.2942111545138888
 20
0.9039930555555551
 30
0.0
 10
0.2942111545138888
 20
0.9039930555555551
 30
0.0
 10
-2.645833333333333
 20
0.9039930555555551
 30
0.0
 10
-2.645833333333333
 20
0.9039930555555551
 30
0.0
  0
SPLINE
  5
2B4
330
2B2
100
AcDbEntity
  8
LAYER_1
 62
     7
100
AcDbSpline
210
0.0
220
0.0
230
1.0
 70
    11
 71
     3
 72
    68
 73
    64
 74
     0
 42
0.0000000001
 43
0.0000000001
 40
0.0
 40
0.0
 40
0.0
 40
0.0
 40
1.0
 40
1.0
 40
1.0
 40
2.0
 40
2.0
 40
2.0
 40
3.0
 40
3.0
 40
3.0
 40
4.0
 40
4.0
 40
4.0
 40
5.0
 40
5.0
 40
5.0
 40
6.0
 40
6.0
 40
6.0
 40
7.0
 40
7.0
 40
7.0
 40
8.0
 40
8.0
 40
8.0
 40
9.0
 40
9.0
 40
9.0
 40
10.0
 40
10.0
 40
10.0
 40
11.0
 40
11.0
 40
11.0
 40
12.0
 40
12.0
 40
12.0
 40
13.0
 40
13.0
 40
13.0
 40
14.0
 40
14.0
 40
14.0
 40
15.0
 40
15.0
 40
15.0
 40
16.0
 40
16.0
 40
16.0
 40
17.0
 40
17.0
 40
17.0
 40
18.0
 40
18.0
 40
18.0
 40
19.0
 40
19.0
 40
19.0
 40
20.0
 40
20.0
 40
20.0
 40
21.0
 40
21.0
 40
21.0
 40
21.0
 10
-3.968749999999998
 20
-10.7376736111111
 30
0.0
 10
-3.968749999999998
 20
-10.7376736111111
 30
0.0
 10
-2.645833333333333
 20
-10.7376736111111
 30
0.0
 10
-2.645833333333333
 20
-10.7376736111111
 30
0.0
 10
-2.645833333333333
 20
-10.7376736111111
 30
0.0
 10
-2.645833333333333
 20
-1.521354166666665
 30
0.0
 10
-2.645833333333333
 20
-1.521354166666665
 30
0.0
 10
-2.645833333333333
 20
-1.521354166666665
 30
0.0
 10
0.2390896267361111
 20
-1.521354166666665
 30
0.0
 10
0.2390896267361111
 20
-1.521354166666665
 30
0.0
 10
0.7599880642361111
 20
-1.521354166666665
 30
0.0
 10
1.143771701388887
 20
-1.65295681423611
 30
0.0
 10
1.390440538194444
 20
-1.916162109374999
 30
0.0
 10
1.816254340277773
 20
-2.39434136284722
 30
0.0
 10
2.04363064236111
 20
-3.335541449652775
 30
0.0
 10
2.072569444444444
 20
-4.739762369791666
 30
0.0
 10
2.072569444444444
 20
-4.739762369791666
 30
0.0
 10
2.160763888888888
 20
-8.324039713541665
 30
0.0
 10
2.160763888888888
 20
-8.324039713541665
 30
0.0
 10
2.18005642361111
 20
-9.163264973958332
 30
0.0
 10
2.202794053819443
 20
-9.728949652777775
 30
0.0
 10
2.227598741319444
 20
-10.02109374999998
 30
0.0
 10
2.252403428819443
 20
-10.31392686631944
 30
0.0
 10
2.28892144097222
 20
-10.55301649305555
 30
0.0
 10
2.33853081597222
 20
-10.7376736111111
 30
0.0
 10
2.33853081597222
 20
-10.7376736111111
 30
0.0
 10
3.968749999999998
 20
-10.7376736111111
 30
0.0
 10
3.968749999999998
 20
-10.7376736111111
 30
0.0
 10
3.968749999999998
 20
-10.7376736111111
 30
0.0
 10
3.968749999999998
 20
-10.25260416666666
 30
0.0
 10
3.968749999999998
 20
-10.25260416666666
 30
0.0
 10
3.766867404513888
 20
-10.05830078125
 30
0.0
 10
3.625618489583333
 20
-9.621462673611112
 30
0.0
 10
3.545692274305555
 20
-8.942089843749997
 30
0.0
 10
3.49470486111111
 20
-8.543836805555555
 30
0.0
 10
3.459564887152775
 20
-7.937499999999999
 30
0.0
 10
3.439583333333333
 20
-7.121701388888887
 30
0.0
 10
3.439583333333333
 20
-7.121701388888887
 30
0.0
 10
3.395486111111106
 20
-4.232644314236106
 30
0.0
 10
3.395486111111106
 20
-4.232644314236106
 30
0.0
 10
3.375504557291666
 20
-2.981385633680555
 30
0.0
 10
3.26870659722222
 20
-2.077392578125
 30
0.0
 10
3.075781249999999
 20
-1.522043185763888
 30
0.0
 10
2.882166883680555
 20
-0.9666937934027776
 30
0.0
 10
2.592089843749999
 20
-0.5188313802083333
 30
0.0
 10
2.204861111111104
 20
-0.1770779079861111
 30
0.0
 10
2.63618706597222
 20
0.3197048611111111
 30
0.0
 10
2.971739366319443
 20
0.9770290798611107
 30
0.0
 10
3.211518012152775
 20
1.79558376736111
 30
0.0
 10
3.451296657986107
 20
2.613449435763888
 30
0.0
 10
3.571874999999999
 20
3.66558159722222
 30
0.0
 10
3.571874999999999
 20
4.951291232638888
 30
0.0
 10
3.571874999999999
 20
7.415912543402777
 30
0.0
 10
3.124701605902775
 20
9.106076388888887
 30
0.0
 10
2.231043836805555
 20
10.02178276909722
 30
0.0
 10
1.759754774305553
 20
10.498583984375
 30
0.0
 10
1.163753255208332
 20
10.7376736111111
 30
0.0
 10
0.443039279513889
 20
10.7376736111111
 30
0.0
 10
0.443039279513889
 20
10.7376736111111
 30
0.0
 10
-3.968749999999998
 20
10.7376736111111
 30
0.0
 10
-3.968749999999998
 20
10.7376736111111
 30
0.0
 10
-3.968749999999998
 20
10.7376736111111
 30
0.0
 10
-3.968749999999998
 20
-10.7376736111111
 30
0.0
 10
-3.968749999999998
 20
-10.7376736111111
 30
0.0
  0
ENDBLK
  5
2B6
330
2B2
100
AcDbEntity
  8
0
100
AcDbBlockEnd
  0
BLOCK
  5
2BA
330
2B7
100
AcDbEntity
  8
0
 62
     7
100
AcDbBlockBegin
  2
AI9-BLK3
 70
     0
 10
0.0
 20
0.0
 30
0.0
  3
AI9-BLK3
  1

  0
LWPOLYLINE
  5
2B8
330
2B7
100
AcDbEntity
  8
LAYER_1
 62
     7
100
AcDbPolyline
 90
        4
 70
     1
 43
0.0
 10
-0.6613722059461809
 20
10.7376736111111
 10
0.6613722059461809
 20
10.7376736111111
 10
0.6613722059461809
 20
-10.7376736111111
 10
-0.6613722059461809
 20
-10.7376736111111
  0
HATCH
  5
2B9
330
2B7
100
AcDbEntity
  8
LAYER_1
 62
     7
100
AcDbHatch
 10
0.0
 20
0.0
 30
0.0
210
0.0
220
0.0
230
1.0
  2
SOLID
 70
     1
 71
     0
 91
        1
 92
        3
 72
     0
 73
     1
 93
        4
 10
-0.6613722059461809
 20
10.7376736111111
 10
0.6613722059461809
 20
10.7376736111111
 10
0.6613722059461809
 20
-10.7376736111111
 10
-0.6613722059461809
 20
-10.7376736111111
 97
        0
 75
     2
 76
     1
 98
        1
 10
0.0
 20
0.0
  0
ENDBLK
  5
2BB
330
2B7
100
AcDbEntity
  8
0
100
AcDbBlockEnd
  0
BLOCK
  5
2BF
330
2BC
100
AcDbEntity
  8
0
 62
     7
100
AcDbBlockBegin
  2
AI9-BLK2
 70
     0
 10
0.0
 20
0.0
 30
0.0
  3
AI9-BLK2
  1

  0
LWPOLYLINE
  5
2BD
330
2BC
100
AcDbEntity
  8
LAYER_1
 62
     7
100
AcDbPolyline
 90
        7
 70
     1
 43
0.0
 10
-2.785704210069443
 20
10.7376736111111
 10
0.0
 20
-7.550960286458332
 10
2.771234809027776
 20
10.7376736111111
 10
4.233333333333331
 20
10.7376736111111
 10
0.6910861545138888
 20
-10.7376736111111
 10
-0.7055555555555558
 20
-10.7376736111111
 10
-4.233333333333331
 20
10.7376736111111
  0
HATCH
  5
2BE
330
2BC
100
AcDbEntity
  8
LAYER_1
 62
     7
100
AcDbHatch
 10
0.0
 20
0.0
 30
0.0
210
0.0
220
0.0
230
1.0
  2
SOLID
 70
     1
 71
     0
 91
        1
 92
        3
 72
     0
 73
     1
 93
        7
 10
-2.785704210069443
 20
10.7376736111111
 10
0.0
 20
-7.550960286458332
 10
2.771234809027776
 20
10.7376736111111
 10
4.233333333333331
 20
10.7376736111111
 10
0.6910861545138888
 20
-10.7376736111111
 10
-0.7055555555555558
 20
-10.7376736111111
 10
-4.233333333333331
 20
10.7376736111111
 97
        0
 75
     2
 76
     1
 98
        1
 10
0.0
 20
0.0
  0
ENDBLK
  5
2C0
330
2BC
100
AcDbEntity
  8
0
100
AcDbBlockEnd
  0
BLOCK
  5
2C4
330
2C1
100
AcDbEntity
  8
0
 62
     7
100
AcDbBlockBegin
  2
AI9-BLK1
 70
     0
 10
0.0
 20
0.0
 30
0.0
  3
AI9-BLK1
  1

  0
LWPOLYLINE
  5
2C2
330
2C1
100
AcDbEntity
  8
LAYER_1
 62
     7
100
AcDbPolyline
 90
       12
 70
     1
 43
0.0
 10
-3.571874999999999
 20
10.7376736111111
 10
3.483680555555555
 20
10.7376736111111
 10
3.483680555555555
 20
8.091840277777777
 10
-2.248958333333332
 20
8.091840277777777
 10
-2.248958333333332
 20
1.565451388888888
 10
3.042708333333333
 20
1.565451388888888
 10
3.042708333333333
 20
-0.9039930555555551
 10
-2.248958333333332
 20
-0.9039930555555551
 10
-2.248958333333332
 20
-8.180034722222217
 10
3.571874999999999
 20
-8.180034722222217
 10
3.571874999999999
 20
-10.7376736111111
 10
-3.571874999999999
 20
-10.7376736111111
  0
HATCH
  5
2C3
330
2C1
100
AcDbEntity
  8
LAYER_1
 62
     7
100
AcDbHatch
 10
0.0
 20
0.0
 30
0.0
210
0.0
220
0.0
230
1.0
  2
SOLID
 70
     1
 71
     0
 91
        1
 92
        3
 72
     0
 73
     1
 93
       12
 10
-3.571874999999999
 20
10.7376736111111
 10
3.483680555555555
 20
10.7376736111111
 10
3.483680555555555
 20
8.091840277777777
 10
-2.248958333333332
 20
8.091840277777777
 10
-2.248958333333332
 20
1.565451388888888
 10
3.042708333333333
 20
1.565451388888888
 10
3.042708333333333
 20
-0.9039930555555551
 10
-2.248958333333332
 20
-0.9039930555555551
 10
-2.248958333333332
 20
-8.180034722222217
 10
3.571874999999999
 20
-8.180034722222217
 10
3.571874999999999
 20
-10.7376736111111
 10
-3.571874999999999
 20
-10.7376736111111
 97
        0
 75
     2
 76
     1
 98
        1
 10
0.0
 20
0.0
  0
ENDBLK
  5
2C5
330
2C1
100
AcDbEntity
  8
0
100
AcDbBlockEnd
  0
BLOCK
  5
2E9
330
2C6
100
AcDbEntity
  8
0
100
AcDbBlockBegin
  2
HD_LLC_logo_OT5
 70
     0
 10
0.0
 20
0.0
 30
0.0
  3
HD_LLC_logo_OT5
  1

  0
SPLINE
  5
2C7
102
{ACAD_REACTORS
330
2E7
102
}
330
2C6
100
AcDbEntity
  8
LAYER_1
 62
     7
100
AcDbSpline
210
0.0
220
0.0
230
1.0
 70
    11
 71
     3
 72
   113
 73
   109
 74
     0
 42
0.0000000001
 43
0.0000000001
 40
0.0
 40
0.0
 40
0.0
 40
0.0
 40
1.0
 40
1.0
 40
1.0
 40
2.0
 40
2.0
 40
2.0
 40
3.0
 40
3.0
 40
3.0
 40
4.0
 40
4.0
 40
4.0
 40
5.0
 40
5.0
 40
5.0
 40
6.0
 40
6.0
 40
6.0
 40
7.0
 40
7.0
 40
7.0
 40
8.0
 40
8.0
 40
8.0
 40
9.0
 40
9.0
 40
9.0
 40
10.0
 40
10.0
 40
10.0
 40
11.0
 40
11.0
 40
11.0
 40
12.0
 40
12.0
 40
12.0
 40
13.0
 40
13.0
 40
13.0
 40
14.0
 40
14.0
 40
14.0
 40
15.0
 40
15.0
 40
15.0
 40
16.0
 40
16.0
 40
16.0
 40
17.0
 40
17.0
 40
17.0
 40
18.0
 40
18.0
 40
18.0
 40
19.0
 40
19.0
 40
19.0
 40
20.0
 40
20.0
 40
20.0
 40
21.0
 40
21.0
 40
21.0
 40
22.0
 40
22.0
 40
22.0
 40
23.0
 40
23.0
 40
23.0
 40
24.0
 40
24.0
 40
24.0
 40
25.0
 40
25.0
 40
25.0
 40
26.0
 40
26.0
 40
26.0
 40
27.0
 40
27.0
 40
27.0
 40
28.0
 40
28.0
 40
28.0
 40
29.0
 40
29.0
 40
29.0
 40
30.0
 40
30.0
 40
30.0
 40
31.0
 40
31.0
 40
31.0
 40
32.0
 40
32.0
 40
32.0
 40
33.0
 40
33.0
 40
33.0
 40
34.0
 40
34.0
 40
34.0
 40
35.0
 40
35.0
 40
35.0
 40
36.0
 40
36.0
 40
36.0
 40
36.0
 10
193.3039632161458
 20
186.1548733181423
 30
0.0
 10
193.3039632161458
 20
186.1860514322916
 30
0.0
 10
193.3039632161458
 20
219.6932223849826
 30
0.0
 10
193.3039632161458
 20
219.6932223849826
 30
0.0
 10
193.3039632161458
 20
219.6932223849826
 30
0.0
 10
193.2974175347219
 20
219.7488606770833
 30
0.0
 10
193.2974175347219
 20
219.7488606770833
 30
0.0
 10
191.5293945312499
 20
235.455740017361
 30
0.0
 10
175.1458984374999
 20
235.2467949761284
 30
0.0
 10
174.9808783637151
 20
235.2428331163193
 30
0.0
 10
174.9808783637151
 20
235.2428331163193
 30
0.0
 10
125.8827555338541
 20
235.2430053710937
 30
0.0
 10
125.8827555338541
 20
235.2430053710937
 30
0.0
 10
125.8827555338541
 20
235.2430053710937
 30
0.0
 10
125.8827555338541
 20
255.5278998480901
 30
0.0
 10
125.8827555338541
 20
255.5278998480901
 30
0.0
 10
125.8827555338541
 20
255.5278998480901
 30
0.0
 10
84.5626247829861
 20
255.5278998480901
 30
0.0
 10
84.5626247829861
 20
255.5278998480901
 30
0.0
 10
84.5626247829861
 20
255.5278998480901
 30
0.0
 10
84.55711263020829
 20
233.7919311523436
 30
0.0
 10
84.55711263020829
 20
233.7919311523436
 30
0.0
 10
84.55711263020829
 20
233.7919311523436
 30
0.0
 10
64.42052951388888
 20
233.7919311523436
 30
0.0
 10
64.42052951388888
 20
233.7919311523436
 30
0.0
 10
64.42052951388888
 20
233.7919311523436
 30
0.0
 10
64.41501736111111
 20
255.5278998480901
 30
0.0
 10
64.41501736111111
 20
255.5278998480901
 30
0.0
 10
64.41501736111111
 20
255.5278998480901
 30
0.0
 10
23.91757541232637
 20
255.5278998480901
 30
0.0
 10
23.91757541232637
 20
255.5278998480901
 30
0.0
 10
23.91757541232637
 20
255.5278998480901
 30
0.0
 10
23.91757541232637
 20
233.2393378363715
 30
0.0
 10
23.91757541232637
 20
233.2393378363715
 30
0.0
 10
23.91757541232637
 20
233.2393378363715
 30
0.0
 10
43.65624999999999
 20
233.2393378363715
 30
0.0
 10
43.65624999999999
 20
233.2393378363715
 30
0.0
 10
43.65624999999999
 20
233.2393378363715
 30
0.0
 10
43.65624999999999
 20
211.5188720703125
 30
0.0
 10
43.65624999999999
 20
211.5188720703125
 30
0.0
 10
43.65624999999999
 20
211.5188720703125
 30
0.0
 10
23.91757541232637
 20
211.5188720703125
 30
0.0
 10
23.91757541232637
 20
211.5188720703125
 30
0.0
 10
23.91757541232637
 20
211.5188720703125
 30
0.0
 10
23.91757541232637
 20
189.2303100585936
 30
0.0
 10
23.91757541232637
 20
189.2303100585936
 30
0.0
 10
23.91757541232637
 20
189.2303100585936
 30
0.0
 10
64.41501736111111
 20
189.2303100585936
 30
0.0
 10
64.41501736111111
 20
189.2303100585936
 30
0.0
 10
64.41501736111111
 20
189.2303100585936
 30
0.0
 10
64.42052951388888
 20
211.069976128472
 30
0.0
 10
64.42052951388888
 20
211.069976128472
 30
0.0
 10
64.42052951388888
 20
211.069976128472
 30
0.0
 10
84.55711263020829
 20
211.069976128472
 30
0.0
 10
84.55711263020829
 20
211.069976128472
 30
0.0
 10
84.55711263020829
 20
211.069976128472
 30
0.0
 10
84.5626247829861
 20
189.2303100585936
 30
0.0
 10
84.5626247829861
 20
189.2303100585936
 30
0.0
 10
84.5626247829861
 20
189.2303100585936
 30
0.0
 10
125.8827555338541
 20
189.2303100585936
 30
0.0
 10
125.8827555338541
 20
189.2303100585936
 30
0.0
 10
125.8827555338541
 20
189.2303100585936
 30
0.0
 10
125.8827555338541
 20
211.5188720703125
 30
0.0
 10
125.8827555338541
 20
211.5188720703125
 30
0.0
 10
125.8827555338541
 20
211.5188720703125
 30
0.0
 10
105.3213921440971
 20
211.5188720703125
 30
0.0
 10
105.3213921440971
 20
211.5188720703125
 30
0.0
 10
105.3213921440971
 20
211.5188720703125
 30
0.0
 10
105.3213921440971
 20
233.2393378363715
 30
0.0
 10
105.3213921440971
 20
233.2393378363715
 30
0.0
 10
105.3213921440971
 20
233.2393378363715
 30
0.0
 10
175.0046495225693
 20
233.243127441406
 30
0.0
 10
175.0046495225693
 20
233.243127441406
 30
0.0
 10
175.6268337673611
 20
233.2560465494791
 30
0.0
 10
189.7165852864583
 20
233.3962619357638
 30
0.0
 10
191.3037407769094
 20
219.5690266927083
 30
0.0
 10
191.3037407769094
 20
219.4332899305555
 30
0.0
 10
191.3037407769094
 20
186.1142211914062
 30
0.0
 10
191.3037407769094
 20
186.1142211914062
 30
0.0
 10
191.3037407769094
 20
186.1142211914062
 30
0.0
 10
191.3051188151039
 20
186.0880384657115
 30
0.0
 10
191.3051188151039
 20
186.0880384657115
 30
0.0
 10
191.3054633246526
 20
186.0787367078991
 30
0.0
 10
191.3109754774304
 20
185.9566080729166
 30
0.0
 10
191.3109754774304
 20
185.7399115668401
 30
0.0
 10
191.3109754774304
 20
184.2090833875865
 30
0.0
 10
191.0488037109374
 20
177.9643310546874
 30
0.0
 10
186.9866916232638
 20
173.5652886284722
 30
0.0
 10
184.2540418836804
 20
170.6064683702255
 30
0.0
 10
180.3224989149304
 20
169.0308539496526
 30
0.0
 10
175.300927734375
 20
168.8825425889756
 30
0.0
 10
175.300927734375
 20
168.8825425889756
 30
0.0
 10
107.0094889322916
 20
168.8828870985243
 30
0.0
 10
107.0094889322916
 20
168.8828870985243
 30
0.0
 10
107.0094889322916
 20
168.8828870985243
 30
0.0
 10
107.0094889322916
 20
166.8830091688368
 30
0.0
 10
107.0094889322916
 20
166.8830091688368
 30
0.0
 10
107.0094889322916
 20
166.8830091688368
 30
0.0
 10
175.3305555555555
 20
166.8830091688368
 30
0.0
 10
175.3305555555555
 20
166.8830091688368
 30
0.0
 10
180.9467502170138
 20
167.0485460069444
 30
0.0
 10
185.3571614583333
 20
168.8448187934026
 30
0.0
 10
188.4687717013888
 20
172.2223904079861
 30
0.0
 10
192.9649658203124
 20
177.1034016927083
 30
0.0
 10
193.3136094835069
 20
183.7202243381076
 30
0.0
 10
193.3136094835069
 20
185.6520616319443
 30
0.0
 10
193.3136094835069
 20
185.9247409396701
 30
0.0
 10
193.3070638020833
 20
186.0868326822916
 30
0.0
 10
193.3039632161458
 20
186.1548733181423
 30
0.0
  0
INSERT
  5
2C8
102
{ACAD_REACTORS
330
2E8
102
}
330
2C6
100
AcDbEntity
  8
LAYER_1
 62
     7
100
AcDbBlockReference
  2
AI9-BLK14
 10
159.5625257703993
 20
200.5118781195744
 30
0.0
  0
INSERT
  5
2C9
330
2C6
100
AcDbEntity
  8
LAYER_1
 62
     7
100
AcDbBlockReference
  2
AI9-BLK13
 10
27.69615614149305
 20
179.2145562065971
 30
0.0
 42
0.9200000000000001
  0
INSERT
  5
2CA
102
{ACAD_REACTORS
330
2D5
102
}
330
2C6
100
AcDbEntity
  8
LAYER_1
 62
     7
100
AcDbBlockReference
  2
AI9-BLK11
 10
44.76591525607638
 20
179.2145562065971
 30
0.0
 42
0.9200000000000001
  0
INSERT
  5
2CB
102
{ACAD_REACTORS
330
2E3
102
}
330
2C6
100
AcDbEntity
  8
LAYER_1
 62
     7
100
AcDbBlockReference
  2
AI9-BLK10
 10
54.04665798611111
 20
179.2145562065971
 30
0.0
 42
0.9200000000000001
  0
INSERT
  5
2CC
102
{ACAD_REACTORS
330
2E2
102
}
330
2C6
100
AcDbEntity
  8
LAYER_1
 62
     7
100
AcDbBlockReference
  2
AI9-BLK9
 10
62.79013807508679
 20
179.2145562065971
 30
0.0
 42
0.9
  0
INSERT
  5
2CD
330
2C6
100
AcDbEntity
  8
LAYER_1
 62
     7
100
AcDbBlockReference
  2
AI9-BLK8
 10
71.03046196831595
 20
179.2145562065971
 30
0.0
 42
0.9200000000000001
  0
INSERT
  5
2CE
330
2C6
100
AcDbEntity
  8
LAYER_1
 62
     7
100
AcDbBlockReference
  2
AI9-BLK7
 10
76.93793945312498
 20
179.2145562065971
 30
0.0
 42
0.9200000000000001
  0
INSERT
  5
2CF
102
{ACAD_REACTORS
330
2D6
102
}
330
2C6
100
AcDbEntity
  8
LAYER_1
 62
     7
100
AcDbBlockReference
  2
AI9-BLK6
 10
82.55602891710069
 20
179.2145562065971
 30
0.0
 42
0.9
  0
INSERT
  5
2D0
102
{ACAD_REACTORS
330
2E4
102
}
330
2C6
100
AcDbEntity
  8
LAYER_1
 62
     7
100
AcDbBlockReference
  2
AI9-BLK5
 10
94.32430284288193
 20
179.2145562065971
 30
0.0
 42
0.9200000000000001
  0
INSERT
  5
2D1
102
{ACAD_REACTORS
330
2E5
102
}
330
2C6
100
AcDbEntity
  8
LAYER_1
 62
     7
100
AcDbBlockReference
  2
AI9-BLK4
 10
103.2081705729166
 20
179.2145562065971
 30
0.0
 42
0.9200000000000001
  0
INSERT
  5
2D2
330
2C6
100
AcDbEntity
  8
LAYER_1
 62
     7
100
AcDbBlockReference
  2
AI9-BLK3
 10
108.850978597005
 20
179.2145562065971
 30
0.0
 42
0.9200000000000001
  0
INSERT
  5
2D3
330
2C6
100
AcDbEntity
  8
LAYER_1
 62
     7
100
AcDbBlockReference
  2
AI9-BLK2
 10
114.2045708550346
 20
179.2145562065971
 30
0.0
 42
0.9200000000000001
  0
INSERT
  5
2D4
330
2C6
100
AcDbEntity
  8
LAYER_1
 62
     7
100
AcDbBlockReference
  2
AI9-BLK1
 10
122.4125108506944
 20
179.2145562065971
 30
0.0
 42
0.9200000000000001
  0
HATCH
  5
2D5
330
2C6
100
AcDbEntity
  8
0
  6
Continuous
100
AcDbHatch
 10
0.0
 20
0.0
 30
0.0
210
0.0
220
0.0
230
1.0
  2
SOLID
 70
     1
 71
     1
 91
        2
 92
       16
 93
        1
 72
     4
 94
        3
 73
     0
 74
     0
 95
       26
 96
       22
 40
0.0
 40
0.0
 40
0.0
 40
0.0
 40
1.0
 40
1.0
 40
1.0
 40
2.0
 40
2.0
 40
2.0
 40
3.0
 40
3.0
 40
3.0
 40
4.0
 40
4.0
 40
4.0
 40
5.0
 40
5.0
 40
5.0
 40
6.0
 40
6.0
 40
6.0
 40
7.0
 40
7.0
 40
7.0
 40
7.0
 10
42.12008192274304
 20
180.046229817708
 10
42.12008192274304
 20
180.046229817708
 10
42.12008192274304
 20
186.7401881510414
 10
42.12008192274304
 20
186.7401881510414
 10
42.12008192274304
 20
186.7401881510414
 10
45.23100314670138
 20
186.7401881510414
 10
45.23100314670138
 20
186.7401881510414
 10
45.66853027343749
 20
186.7401881510414
 10
46.01579589843749
 20
186.6064357638887
 10
46.27280002170138
 20
186.3401987847215
 10
46.76751573350694
 20
185.8330807291664
 10
47.01487358940972
 20
184.8822343749995
 10
47.01487358940972
 20
183.4863919270832
 10
47.01487358940972
 20
182.188169704861
 10
46.83848470052082
 20
181.2905707465276
 10
46.48639594184028
 20
180.7929611545137
 10
46.13430718315971
 20
180.2947176649304
 10
45.65888400607638
 20
180.046229817708
 10
45.06012641059028
 20
180.046229817708
 10
45.06012641059028
 20
180.046229817708
 10
42.12008192274304
 20
180.046229817708
 10
42.12008192274304
 20
180.046229817708
 97
        1
330
2CA
 92
        1
 93
        1
 72
     4
 94
        3
 73
     0
 74
     0
 95
       68
 96
       64
 40
0.0
 40
0.0
 40
0.0
 40
0.0
 40
1.0
 40
1.0
 40
1.0
 40
2.0
 40
2.0
 40
2.0
 40
3.0
 40
3.0
 40
3.0
 40
4.0
 40
4.0
 40
4.0
 40
5.0
 40
5.0
 40
5.0
 40
6.0
 40
6.0
 40
6.0
 40
7.0
 40
7.0
 40
7.0
 40
8.0
 40
8.0
 40
8.0
 40
9.0
 40
9.0
 40
9.0
 40
10.0
 40
10.0
 40
10.0
 40
11.0
 40
11.0
 40
11.0
 40
12.0
 40
12.0
 40
12.0
 40
13.0
 40
13.0
 40
13.0
 40
14.0
 40
14.0
 40
14.0
 40
15.0
 40
15.0
 40
15.0
 40
16.0
 40
16.0
 40
16.0
 40
17.0
 40
17.0
 40
17.0
 40
18.0
 40
18.0
 40
18.0
 40
19.0
 40
19.0
 40
19.0
 40
20.0
 40
20.0
 40
20.0
 40
21.0
 40
21.0
 40
21.0
 40
21.0
 10
40.79716525607638
 20
169.3358964843748
 10
40.79716525607638
 20
169.3358964843748
 10
42.12008192274304
 20
169.3358964843748
 10
42.12008192274304
 20
169.3358964843748
 10
42.12008192274304
 20
169.3358964843748
 10
42.12008192274304
 20
177.8149103732637
 10
42.12008192274304
 20
177.8149103732637
 10
42.12008192274304
 20
177.8149103732637
 10
45.00500488281249
 20
177.8149103732637
 10
45.00500488281249
 20
177.8149103732637
 10
45.52590332031249
 20
177.8149103732637
 10
45.90968695746528
 20
177.6938359374998
 10
46.15635579427083
 20
177.4516870659716
 10
46.58216959635415
 20
177.0117621527776
 10
46.80954589843749
 20
176.1458580729164
 10
46.83848470052082
 20
174.8539748263887
 10
46.83848470052082
 20
174.8539748263887
 10
46.92667914496527
 20
171.5564396701385
 10
46.92667914496527
 20
171.5564396701385
 10
46.94597167968749
 20
170.7843524305554
 10
46.96870930989581
 20
170.2639225260415
 10
46.99351399739582
 20
169.9951499565971
 10
47.01831868489581
 20
169.725743489583
 10
47.0548366970486
 20
169.5057810329859
 10
47.10444607204859
 20
169.3358964843748
 10
47.10444607204859
 20
169.3358964843748
 10
48.73466525607638
 20
169.3358964843748
 10
48.73466525607638
 20
169.3358964843748
 10
48.73466525607638
 20
169.3358964843748
 10
48.73466525607638
 20
169.7821603732633
 10
48.73466525607638
 20
169.7821603732633
 10
48.53278266059028
 20
169.9609194878471
 10
48.39153374565971
 20
170.3628105468748
 10
48.31160753038194
 20
170.9878335503471
 10
48.26062011718749
 20
171.3542263454858
 10
48.22548014322915
 20
171.9120562065971
 10
48.20549858940971
 20
172.6625909288193
 10
48.20549858940971
 20
172.6625909288193
 10
48.16140136718749
 20
175.3205234374999
 10
48.16140136718749
 20
175.3205234374999
 10
48.14141981336803
 20
176.4716814236109
 10
48.03462185329859
 20
177.3033550347219
 10
47.84169650607638
 20
177.814276475694
 10
47.64808213975693
 20
178.3251979166665
 10
47.35800509982638
 20
178.7372313368054
 10
46.97077636718749
 20
179.0516445312498
 10
47.4021023220486
 20
179.5086846788193
 10
47.73765462239582
 20
180.1134229600693
 10
47.97743326822915
 20
180.866493272569
 10
48.21721191406249
 20
181.6189296874999
 10
48.33779025607638
 20
182.5868912760411
 10
48.33779025607638
 20
183.7697441406248
 10
48.33779025607638
 20
186.0371957465273
 10
47.89061686197913
 20
187.5921464843749
 10
46.99695909288194
 20
188.4345963541665
 10
46.52567003038194
 20
188.8732534722221
 10
45.92966851128472
 20
189.0932159288193
 10
45.20895453559027
 20
189.0932159288193
 10
45.20895453559027
 20
189.0932159288193
 10
40.79716525607638
 20
189.0932159288193
 10
40.79716525607638
 20
189.0932159288193
 10
40.79716525607638
 20
189.0932159288193
 10
40.79716525607638
 20
169.3358964843748
 10
40.79716525607638
 20
169.3358964843748
 97
        0
 75
     0
 76
     1
 98
        0
  0
HATCH
  5
2D6
330
2C6
100
AcDbEntity
  8
0
  6
Continuous
100
AcDbHatch
 10
0.0
 20
0.0
 30
0.0
210
0.0
220
0.0
230
1.0
  2
SOLID
 70
     1
 71
     1
 91
        1
 92
        1
 93
        1
 72
     4
 94
        3
 73
     0
 74
     0
 95
       59
 96
       55
 40
0.0
 40
0.0
 40
0.0
 40
0.0
 40
1.0
 40
1.0
 40
1.0
 40
2.0
 40
2.0
 40
2.0
 40
3.0
 40
3.0
 40
3.0
 40
4.0
 40
4.0
 40
4.0
 40
5.0
 40
5.0
 40
5.0
 40
6.0
 40
6.0
 40
6.0
 40
7.0
 40
7.0
 40
7.0
 40
8.0
 40
8.0
 40
8.0
 40
9.0
 40
9.0
 40
9.0
 40
10.0
 40
10.0
 40
10.0
 40
11.0
 40
11.0
 40
11.0
 40
12.0
 40
12.0
 40
12.0
 40
13.0
 40
13.0
 40
13.0
 40
14.0
 40
14.0
 40
14.0
 40
15.0
 40
15.0
 40
15.0
 40
16.0
 40
16.0
 40
16.0
 40
17.0
 40
17.0
 40
17.0
 40
18.0
 40
18.0
 40
18.0
 40
18.0
 10
85.61871880425345
 20
187.4658355034721
 10
86.29120144314232
 20
186.1797124565971
 10
86.66671685112847
 20
184.7193364800346
 10
86.7452650282118
 20
183.0840874565969
 10
86.7452650282118
 20
183.0840874565969
 10
85.42234836154511
 20
183.0840874565969
 10
85.42234836154511
 20
183.0840874565969
 10
85.27696533203123
 20
184.3156401909719
 10
84.99171142578125
 20
185.2917046440971
 10
84.56589762369791
 20
186.0122808159719
 10
84.14008382161458
 20
186.7322368706594
 10
83.53994818793401
 20
187.0925249565969
 10
82.76617974175342
 20
187.0925249565969
 10
81.81740044487847
 20
187.0925249565969
 10
81.05258924696178
 20
186.4240386284721
 10
80.47243516710068
 20
185.0883062065971
 10
79.89159206814234
 20
183.7525737847219
 10
79.6015150282118
 20
181.7049468315971
 10
79.6015150282118
 20
178.9454253472221
 10
79.6015150282118
 20
176.6844780815969
 10
79.86265326605901
 20
174.8514116753471
 10
80.38561876085069
 20
173.4456060112846
 10
80.90789523654512
 20
172.0391802300344
 10
81.69199896918403
 20
171.3365874565971
 10
82.73724093967013
 20
171.3365874565971
 10
83.69497748480901
 20
171.3365874565971
 10
84.42120361328125
 20
172.0794878472221
 10
84.91523030598958
 20
173.5665288628469
 10
85.18601481119791
 20
174.3491167534719
 10
85.38445231119791
 20
175.3785112847221
 10
85.51054280598959
 20
176.6547124565971
 10
85.51054280598959
 20
176.6547124565971
 10
86.83345947265625
 20
176.6547124565971
 10
86.83345947265625
 20
176.6547124565971
 10
86.72597249348957
 20
174.6157671440971
 10
86.35114610460069
 20
172.9061040581596
 10
85.70760226779514
 20
171.526343315972
 10
84.93727891710069
 20
169.8650493706596
 10
83.90375027126735
 20
169.0347124565971
 10
82.60701633029514
 20
169.0347124565971
 10
81.48598225911458
 20
169.0347124565971
 10
80.54547119140625
 20
169.7143608940971
 10
79.78479410807292
 20
171.0742778862845
 10
78.78020426432292
 20
172.8726177300344
 10
78.27859836154512
 20
175.6495024956596
 10
78.27859836154512
 20
179.4049321831594
 10
78.27859836154512
 20
182.2562310112846
 10
78.65342475043402
 20
184.5946929253469
 10
79.40445556640622
 20
186.4196978081596
 10
80.22301025390625
 20
188.4028325737846
 10
81.34955647786458
 20
189.3943999565971
 10
82.78271620008679
 20
189.3943999565971
 10
84.00090196397568
 20
189.3943999565971
 10
84.94623616536458
 20
188.7513384331594
 10
85.61871880425345
 20
187.4658355034721
 97
        1
330
2CF
 75
     0
 76
     1
 98
        1
 10
0.0
 20
0.0
  0
LINE
  5
2D7
102
{ACAD_REACTORS
330
2E6
102
}
330
2C6
100
AcDbEntity
  8
LAYER_1
 62
     7
100
AcDbLine
 10
34.65766059027778
 20
177.4497853732638
 30
0.0
 11
36.19830729166666
 21
186.1658769531249
 31
0.0
  0
LINE
  5
2D8
102
{ACAD_REACTORS
330
2E6
102
}
330
2C6
100
AcDbEntity
  8
LAYER_1
 62
     7
100
AcDbLine
 10
36.19830729166666
 20
186.1658769531249
 30
0.0
 11
37.67556423611111
 21
177.4497853732638
 31
0.0
  0
LINE
  5
2D9
102
{ACAD_REACTORS
330
2E6
102
}
330
2C6
100
AcDbEntity
  8
LAYER_1
 62
     7
100
AcDbLine
 10
37.67556423611111
 20
177.4497853732638
 30
0.0
 11
34.65766059027778
 21
177.4497853732638
 31
0.0
  0
LINE
  5
2DA
102
{ACAD_REACTORS
330
2E6
102
}
330
2C6
100
AcDbEntity
  8
LAYER_1
 62
     7
100
AcDbLine
 10
31.83957248263888
 20
169.3358964843748
 30
0.0
 11
33.22450086805555
 21
169.3358964843748
 31
0.0
  0
LINE
  5
2DB
102
{ACAD_REACTORS
330
2E6
102
}
330
2C6
100
AcDbEntity
  8
LAYER_1
 62
     7
100
AcDbLine
 10
33.22450086805555
 20
169.3358964843748
 30
0.0
 11
34.27043185763887
 21
175.2590353732638
 31
0.0
  0
LINE
  5
2DC
102
{ACAD_REACTORS
330
2E6
102
}
330
2C6
100
AcDbEntity
  8
LAYER_1
 62
     7
100
AcDbLine
 10
34.27043185763887
 20
175.2590353732638
 30
0.0
 11
38.04694552951389
 21
175.2590353732638
 31
0.0
  0
LINE
  5
2DD
102
{ACAD_REACTORS
330
2E6
102
}
330
2C6
100
AcDbEntity
  8
LAYER_1
 62
     7
100
AcDbLine
 10
38.04694552951389
 20
175.2590353732638
 30
0.0
 11
39.05015733506942
 21
169.3358964843748
 31
0.0
  0
LINE
  5
2DE
102
{ACAD_REACTORS
330
2E6
102
}
330
2C6
100
AcDbEntity
  8
LAYER_1
 62
     7
100
AcDbLine
 10
39.05015733506942
 20
169.3358964843748
 30
0.0
 11
40.43508572048611
 21
169.3358964843748
 31
0.0
  0
LINE
  5
2DF
102
{ACAD_REACTORS
330
2E6
102
}
330
2C6
100
AcDbEntity
  8
LAYER_1
 62
     7
100
AcDbLine
 10
40.43508572048611
 20
169.3358964843748
 30
0.0
 11
36.952783203125
 21
189.0932159288193
 31
0.0
  0
LINE
  5
2E0
102
{ACAD_REACTORS
330
2E6
102
}
330
2C6
100
AcDbEntity
  8
LAYER_1
 62
     7
100
AcDbLine
 10
36.952783203125
 20
189.0932159288193
 30
0.0
 11
35.47828233506943
 21
189.0932159288193
 31
0.0
  0
LINE
  5
2E1
102
{ACAD_REACTORS
330
2E6
102
}
330
2C6
100
AcDbEntity
  8
LAYER_1
 62
     7
100
AcDbLine
 10
35.47828233506943
 20
189.0932159288193
 30
0.0
 11
31.83957248263888
 21
169.3358964843748
 31
0.0
  0
HATCH
  5
2E2
330
2C6
100
AcDbEntity
  8
0
  6
Continuous
100
AcDbHatch
 10
0.0
 20
0.0
 30
0.0
210
0.0
220
0.0
230
1.0
  2
SOLID
 70
     1
 71
     1
 91
        2
 92
       16
 93
        1
 72
     4
 94
        3
 73
     0
 74
     0
 95
       29
 96
       25
 40
0.0
 40
0.0
 40
0.0
 40
0.0
 40
1.0
 40
1.0
 40
1.0
 40
2.0
 40
2.0
 40
2.0
 40
3.0
 40
3.0
 40
3.0
 40
4.0
 40
4.0
 40
4.0
 40
5.0
 40
5.0
 40
5.0
 40
6.0
 40
6.0
 40
6.0
 40
7.0
 40
7.0
 40
7.0
 40
8.0
 40
8.0
 40
8.0
 40
8.0
 10
62.85697292751734
 20
171.3365874565971
 10
61.88338894314235
 20
171.3365874565971
 10
61.18058946397566
 20
172.0714263237844
 10
60.74857449001735
 20
173.5411040581594
 10
60.31587049696178
 20
175.0107817925344
 10
60.10020751953123
 20
176.8165630425341
 10
60.10020751953123
 20
178.9578276909721
 10
60.10020751953123
 20
181.6342534722221
 10
60.35101047092013
 20
183.6589360894094
 10
60.85261637369789
 20
185.0324956597219
 10
61.35422227647566
 20
186.4054351128471
 10
62.00741238064235
 20
187.0925249565969
 10
62.81218668619789
 20
187.0925249565969
 10
63.6369425455729
 20
187.0925249565969
 10
64.28806559244789
 20
186.3992339409721
 10
64.76486680772568
 20
185.0126519097221
 10
65.24166802300347
 20
183.6260698784719
 10
65.48006863064235
 20
181.7961040581594
 10
65.48006863064235
 20
179.5239946831596
 10
65.48006863064235
 20
177.3734282769096
 10
65.27336290147568
 20
175.4715288628466
 10
64.86132948133678
 20
173.8176763237846
 10
64.4492960611979
 20
172.1632036675344
 10
63.78094753689235
 20
171.3365874565971
 10
62.85697292751734
 20
171.3365874565971
 97
        1
330
2CC
 92
        1
 93
        1
 72
     4
 94
        3
 73
     0
 74
     0
 95
       29
 96
       25
 40
0.0
 40
0.0
 40
0.0
 40
0.0
 40
1.0
 40
1.0
 40
1.0
 40
2.0
 40
2.0
 40
2.0
 40
3.0
 40
3.0
 40
3.0
 40
4.0
 40
4.0
 40
4.0
 40
5.0
 40
5.0
 40
5.0
 40
6.0
 40
6.0
 40
6.0
 40
7.0
 40
7.0
 40
7.0
 40
8.0
 40
8.0
 40
8.0
 40
8.0
 10
62.76119927300346
 20
189.4340874565971
 10
61.47273356119789
 20
189.4340874565971
 10
60.50121663411457
 20
188.2397417534719
 10
59.84733751085068
 20
185.8516704644094
 10
59.3395304361979
 20
183.9900786675344
 10
59.08597140842012
 20
181.7514556206596
 10
59.08597140842012
 20
179.1351812065971
 10
59.08597140842012
 20
176.2379937065971
 10
59.3836276584201
 20
173.8412407769094
 10
59.9789401584201
 20
171.9449224175346
 10
60.6424655490451
 20
169.9779106987846
 10
61.5602389865451
 20
168.9950249565971
 10
62.7315714518229
 20
168.9950249565971
 10
63.9904093424479
 20
168.9950249565971
 10
64.95641411675345
 20
170.1186773003469
 10
65.63027479383679
 20
172.3659819878471
 10
66.20629475911457
 20
174.2796636284719
 10
66.49430474175345
 20
176.681377495659
 10
66.49430474175345
 20
179.5698833550344
 10
66.49430474175345
 20
182.2388677300341
 10
66.24005669487845
 20
184.4291216362844
 10
65.73293863932289
 20
186.1412651909719
 10
65.08870578342011
 20
188.3364800347219
 10
64.09789632161457
 20
189.4340874565971
 10
62.76119927300346
 20
189.4340874565971
 97
        0
 75
     0
 76
     1
 98
        0
  0
HATCH
  5
2E3
330
2C6
100
AcDbEntity
  8
0
  6
Continuous
100
AcDbHatch
 10
0.0
 20
0.0
 30
0.0
210
0.0
220
0.0
230
1.0
  2
SOLID
 70
     1
 71
     1
 91
        1
 92
        1
 93
        1
 72
     4
 94
        3
 73
     0
 74
     0
 95
       59
 96
       55
 40
0.0
 40
0.0
 40
0.0
 40
0.0
 40
1.0
 40
1.0
 40
1.0
 40
2.0
 40
2.0
 40
2.0
 40
3.0
 40
3.0
 40
3.0
 40
4.0
 40
4.0
 40
4.0
 40
5.0
 40
5.0
 40
5.0
 40
6.0
 40
6.0
 40
6.0
 40
7.0
 40
7.0
 40
7.0
 40
8.0
 40
8.0
 40
8.0
 40
9.0
 40
9.0
 40
9.0
 40
10.0
 40
10.0
 40
10.0
 40
11.0
 40
11.0
 40
11.0
 40
12.0
 40
12.0
 40
12.0
 40
13.0
 40
13.0
 40
13.0
 40
14.0
 40
14.0
 40
14.0
 40
15.0
 40
15.0
 40
15.0
 40
16.0
 40
16.0
 40
16.0
 40
17.0
 40
17.0
 40
17.0
 40
18.0
 40
18.0
 40
18.0
 40
18.0
 10
49.39440104166666
 20
189.0932159288193
 10
49.39440104166666
 20
189.0932159288193
 10
51.24786241319444
 20
189.0932159288193
 10
51.24786241319444
 20
189.0932159288193
 10
51.24786241319444
 20
189.0932159288193
 10
54.04665798611111
 20
172.3887471788193
 10
54.04665798611111
 20
172.3887471788193
 10
54.04665798611111
 20
172.3887471788193
 10
56.83994140624999
 20
189.0932159288193
 10
56.83994140624999
 20
189.0932159288193
 10
56.83994140624999
 20
189.0932159288193
 10
58.69891493055553
 20
189.0932159288193
 10
58.69891493055553
 20
189.0932159288193
 10
58.69891493055553
 20
189.0932159288193
 10
58.69891493055553
 20
169.3358964843748
 10
58.69891493055553
 20
169.3358964843748
 10
58.69891493055553
 20
169.3358964843748
 10
57.46419270833333
 20
169.3358964843748
 10
57.46419270833333
 20
169.3358964843748
 10
57.46419270833333
 20
169.3358964843748
 10
57.46419270833333
 20
180.9964422743054
 10
57.46419270833333
 20
180.9964422743054
 10
57.46419270833333
 20
181.3996011284721
 10
57.47108289930555
 20
182.0677291666664
 10
57.48624131944444
 20
183.0001924913193
 10
57.50071072048609
 20
183.9326558159721
 10
57.50828993055553
 20
184.932312282986
 10
57.50828993055553
 20
185.9997957899304
 10
57.50828993055553
 20
185.9997957899304
 10
54.700537109375
 20
169.3358964843748
 10
54.700537109375
 20
169.3358964843748
 10
54.700537109375
 20
169.3358964843748
 10
53.38382161458333
 20
169.3358964843748
 10
53.38382161458333
 20
169.3358964843748
 10
53.38382161458333
 20
169.3358964843748
 10
50.58502604166665
 20
185.9997957899304
 10
50.58502604166665
 20
185.9997957899304
 10
50.58502604166665
 20
185.9997957899304
 10
50.58502604166665
 20
185.3944236111109
 10
50.58502604166665
 20
185.3944236111109
 10
50.58502604166665
 20
184.9101258680554
 10
50.59191623263888
 20
184.1729029947915
 10
50.60707465277777
 20
183.1821210937498
 10
50.62154405381942
 20
182.1913391927082
 10
50.62912326388889
 20
181.4629908854165
 10
50.62912326388889
 20
180.9964422743054
 10
50.62912326388889
 20
180.9964422743054
 10
50.62912326388889
 20
169.3358964843748
 10
50.62912326388889
 20
169.3358964843748
 10
50.62912326388889
 20
169.3358964843748
 10
49.39440104166666
 20
169.3358964843748
 10
49.39440104166666
 20
169.3358964843748
 10
49.39440104166666
 20
169.3358964843748
 10
49.39440104166666
 20
189.0932159288193
 10
49.39440104166666
 20
189.0932159288193
 97
        1
330
2CB
 75
     0
 76
     1
 98
        1
 10
0.0
 20
0.0
  0
HATCH
  5
2E4
330
2C6
100
AcDbEntity
  8
0
  6
Continuous
100
AcDbHatch
 10
0.0
 20
0.0
 30
0.0
210
0.0
220
0.0
230
1.0
  2
SOLID
 70
     1
 71
     1
 91
        2
 92
       16
 93
        1
 72
     4
 94
        3
 73
     0
 74
     0
 95
       32
 96
       28
 40
0.0
 40
0.0
 40
0.0
 40
0.0
 40
1.0
 40
1.0
 40
1.0
 40
2.0
 40
2.0
 40
2.0
 40
3.0
 40
3.0
 40
3.0
 40
4.0
 40
4.0
 40
4.0
 40
5.0
 40
5.0
 40
5.0
 40
6.0
 40
6.0
 40
6.0
 40
7.0
 40
7.0
 40
7.0
 40
8.0
 40
8.0
 40
8.0
 40
9.0
 40
9.0
 40
9.0
 40
9.0
 10
91.70051812065969
 20
171.6077853732634
 10
91.70051812065969
 20
171.6077853732634
 10
91.70051812065969
 20
186.7401881510414
 10
91.70051812065969
 20
186.7401881510414
 10
91.70051812065969
 20
186.7401881510414
 10
93.98668348524305
 20
186.7401881510414
 10
93.98668348524305
 20
186.7401881510414
 10
95.02159016927082
 20
186.7401881510414
 10
95.77331000434028
 20
186.0644533420137
 10
96.24322102864582
 20
184.7142515190969
 10
96.71313205295138
 20
183.3640496961804
 10
96.94808756510417
 20
181.4680620659721
 10
96.94808756510417
 20
179.0262886284719
 10
96.94808756510417
 20
178.3911232638887
 10
96.91432562934028
 20
177.7027105034721
 10
96.84749077690971
 20
176.9604164496524
 10
96.7324245876736
 20
175.7167094184024
 10
96.55052354600693
 20
174.6974021267359
 10
96.30109863281248
 20
173.901860677083
 10
95.98414984809028
 20
172.9091770833332
 10
95.57693956163193
 20
172.2378795572914
 10
95.07877875434026
 20
171.8892358940971
 10
94.79076877170138
 20
171.7016022135415
 10
94.43178982204859
 20
171.6077853732634
 10
94.00115288628471
 20
171.6077853732634
 10
94.00115288628471
 20
171.6077853732634
 10
91.70051812065969
 20
171.6077853732634
 10
91.70051812065969
 20
171.6077853732634
 97
        1
330
2D0
 92
        1
 93
        1
 72
     4
 94
        3
 73
     0
 74
     0
 95
       26
 96
       22
 40
0.0
 40
0.0
 40
0.0
 40
0.0
 40
1.0
 40
1.0
 40
1.0
 40
2.0
 40
2.0
 40
2.0
 40
3.0
 40
3.0
 40
3.0
 40
4.0
 40
4.0
 40
4.0
 40
5.0
 40
5.0
 40
5.0
 40
6.0
 40
6.0
 40
6.0
 40
7.0
 40
7.0
 40
7.0
 40
7.0
 10
90.37760145399305
 20
169.3358964843748
 10
90.37760145399305
 20
169.3358964843748
 10
94.22990722656248
 20
169.3358964843748
 10
94.22990722656248
 20
169.3358964843748
 10
95.87115071614581
 20
169.3358964843748
 10
97.03008083767359
 20
170.8331625434026
 10
97.70600857204859
 20
173.8283285590274
 10
98.08221299913194
 20
175.5227367621523
 10
98.27100423177082
 20
177.4187243923609
 10
98.27100423177082
 20
179.5169253472221
 10
98.27100423177082
 20
182.233810329861
 10
97.94716525607638
 20
184.4619602864582
 10
97.30086534288195
 20
186.2013752170135
 10
96.57601725260416
 20
188.1290577256938
 10
95.5576470269097
 20
189.0932159288193
 10
94.24437662760416
 20
189.0932159288193
 10
94.24437662760416
 20
189.0932159288193
 10
90.37760145399305
 20
189.0932159288193
 10
90.37760145399305
 20
189.0932159288193
 10
90.37760145399305
 20
189.0932159288193
 10
90.37760145399305
 20
169.3358964843748
 10
90.37760145399305
 20
169.3358964843748
 97
        0
 75
     0
 76
     1
 98
        0
  0
HATCH
  5
2E5
330
2C6
100
AcDbEntity
  8
0
  6
Continuous
100
AcDbHatch
 10
0.0
 20
0.0
 30
0.0
210
0.0
220
0.0
230
1.0
  2
SOLID
 70
     1
 71
     1
 91
        2
 92
       16
 93
        1
 72
     4
 94
        3
 73
     0
 74
     0
 95
       26
 96
       22
 40
0.0
 40
0.0
 40
0.0
 40
0.0
 40
1.0
 40
1.0
 40
1.0
 40
2.0
 40
2.0
 40
2.0
 40
3.0
 40
3.0
 40
3.0
 40
4.0
 40
4.0
 40
4.0
 40
5.0
 40
5.0
 40
5.0
 40
6.0
 40
6.0
 40
6.0
 40
7.0
 40
7.0
 40
7.0
 40
7.0
 10
100.5623372395832
 20
180.046229817708
 10
100.5623372395832
 20
180.046229817708
 10
100.5623372395832
 20
186.7401881510414
 10
100.5623372395832
 20
186.7401881510414
 10
100.5623372395832
 20
186.7401881510414
 10
103.6732584635416
 20
186.7401881510414
 10
103.6732584635416
 20
186.7401881510414
 10
104.1107855902777
 20
186.7401881510414
 10
104.4580512152777
 20
186.6064357638887
 10
104.7150553385415
 20
186.3401987847215
 10
105.2097710503471
 20
185.8330807291664
 10
105.4571289062495
 20
184.8822343749995
 10
105.4571289062495
 20
183.4863919270832
 10
105.4571289062495
 20
182.188169704861
 10
105.280740017361
 20
181.2905707465276
 10
104.9286512586804
 20
180.7929611545137
 10
104.5765624999999
 20
180.2947176649304
 10
104.1011393229166
 20
180.046229817708
 10
103.5023817274304
 20
180.046229817708
 10
103.5023817274304
 20
180.046229817708
 10
100.5623372395832
 20
180.046229817708
 10
100.5623372395832
 20
180.046229817708
 97
        1
330
2D1
 92
        1
 93
        1
 72
     4
 94
        3
 73
     0
 74
     0
 95
       68
 96
       64
 40
0.0
 40
0.0
 40
0.0
 40
0.0
 40
1.0
 40
1.0
 40
1.0
 40
2.0
 40
2.0
 40
2.0
 40
3.0
 40
3.0
 40
3.0
 40
4.0
 40
4.0
 40
4.0
 40
5.0
 40
5.0
 40
5.0
 40
6.0
 40
6.0
 40
6.0
 40
7.0
 40
7.0
 40
7.0
 40
8.0
 40
8.0
 40
8.0
 40
9.0
 40
9.0
 40
9.0
 40
10.0
 40
10.0
 40
10.0
 40
11.0
 40
11.0
 40
11.0
 40
12.0
 40
12.0
 40
12.0
 40
13.0
 40
13.0
 40
13.0
 40
14.0
 40
14.0
 40
14.0
 40
15.0
 40
15.0
 40
15.0
 40
16.0
 40
16.0
 40
16.0
 40
17.0
 40
17.0
 40
17.0
 40
18.0
 40
18.0
 40
18.0
 40
19.0
 40
19.0
 40
19.0
 40
20.0
 40
20.0
 40
20.0
 40
21.0
 40
21.0
 40
21.0
 40
21.0
 10
99.23942057291661
 20
169.3358964843748
 10
99.23942057291661
 20
169.3358964843748
 10
100.5623372395832
 20
169.3358964843748
 10
100.5623372395832
 20
169.3358964843748
 10
100.5623372395832
 20
169.3358964843748
 10
100.5623372395832
 20
177.8149103732637
 10
100.5623372395832
 20
177.8149103732637
 10
100.5623372395832
 20
177.8149103732637
 10
103.4472601996527
 20
177.8149103732637
 10
103.4472601996527
 20
177.8149103732637
 10
103.9681586371527
 20
177.8149103732637
 10
104.3519422743053
 20
177.6938359374998
 10
104.5986111111109
 20
177.4516870659716
 10
105.0244249131943
 20
177.0117621527776
 10
105.2518012152777
 20
176.1458580729164
 10
105.280740017361
 20
174.8539748263887
 10
105.280740017361
 20
174.8539748263887
 10
105.3689344618053
 20
171.5564396701385
 10
105.3689344618053
 20
171.5564396701385
 10
105.3882269965277
 20
170.7843524305554
 10
105.4109646267359
 20
170.2639225260415
 10
105.4357693142359
 20
169.9951499565971
 10
105.4605740017358
 20
169.725743489583
 10
105.4970920138888
 20
169.5057810329859
 10
105.5467013888887
 20
169.3358964843748
 10
105.5467013888887
 20
169.3358964843748
 10
107.1769205729166
 20
169.3358964843748
 10
107.1769205729166
 20
169.3358964843748
 10
107.1769205729166
 20
169.3358964843748
 10
107.1769205729166
 20
169.7821603732633
 10
107.1769205729166
 20
169.7821603732633
 10
106.9750379774303
 20
169.9609194878471
 10
106.8337890624996
 20
170.3628105468748
 10
106.7538628472221
 20
170.9878335503471
 10
106.7028754340274
 20
171.3542263454858
 10
106.6677354600692
 20
171.9120562065971
 10
106.6477539062496
 20
172.6625909288193
 10
106.6477539062496
 20
172.6625909288193
 10
106.6036566840277
 20
175.3205234374999
 10
106.6036566840277
 20
175.3205234374999
 10
106.5836751302082
 20
176.4716814236109
 10
106.4768771701387
 20
177.3033550347219
 10
106.2839518229166
 20
177.814276475694
 10
106.0903374565971
 20
178.3251979166665
 10
105.8002604166666
 20
178.7372313368054
 10
105.4130316840276
 20
179.0516445312498
 10
105.8443576388885
 20
179.5086846788193
 10
106.179909939236
 20
180.1134229600693
 10
106.4196885850692
 20
180.866493272569
 10
106.6594672309027
 20
181.6189296874999
 10
106.7800455729166
 20
182.5868912760411
 10
106.7800455729166
 20
183.7697441406248
 10
106.7800455729166
 20
186.0371957465273
 10
106.3328721788193
 20
187.5921464843749
 10
105.4392144097221
 20
188.4345963541665
 10
104.9679253472221
 20
188.8732534722221
 10
104.3719238281249
 20
189.0932159288193
 10
103.6512098524303
 20
189.0932159288193
 10
103.6512098524303
 20
189.0932159288193
 10
99.23942057291661
 20
189.0932159288193
 10
99.23942057291661
 20
189.0932159288193
 10
99.23942057291661
 20
189.0932159288193
 10
99.23942057291661
 20
169.3358964843748
 10
99.23942057291661
 20
169.3358964843748
 97
        0
 75
     0
 76
     1
 98
        0
  0
HATCH
  5
2E6
330
2C6
100
AcDbEntity
  8
0
  6
Continuous
100
AcDbHatch
 10
0.0
 20
0.0
 30
0.0
210
0.0
220
0.0
230
1.0
  2
SOLID
 70
     1
 71
     1
 91
        2
 92
        1
 93
        8
 72
     1
 10
35.47828233506943
 20
189.0932159288193
 11
31.83957248263888
 21
169.3358964843748
 72
     1
 10
31.83957248263888
 20
169.3358964843748
 11
33.22450086805555
 21
169.3358964843748
 72
     1
 10
33.22450086805555
 20
169.3358964843748
 11
34.27043185763887
 21
175.2590353732638
 72
     1
 10
34.27043185763887
 20
175.2590353732638
 11
38.04694552951389
 21
175.2590353732638
 72
     1
 10
38.04694552951389
 20
175.2590353732638
 11
39.05015733506942
 21
169.3358964843748
 72
     1
 10
39.05015733506942
 20
169.3358964843748
 11
40.43508572048611
 21
169.3358964843748
 72
     1
 10
40.43508572048611
 20
169.3358964843748
 11
36.952783203125
 21
189.0932159288193
 72
     1
 10
36.952783203125
 20
189.0932159288193
 11
35.47828233506943
 21
189.0932159288193
 97
        8
330
2E1
330
2DA
330
2DB
330
2DC
330
2DD
330
2DE
330
2DF
330
2E0
 92
       16
 93
        3
 72
     1
 10
37.67556423611111
 20
177.4497853732638
 11
34.65766059027778
 21
177.4497853732638
 72
     1
 10
34.65766059027778
 20
177.4497853732638
 11
36.19830729166666
 21
186.1658769531249
 72
     1
 10
36.19830729166666
 20
186.1658769531249
 11
37.67556423611111
 21
177.4497853732638
 97
        3
330
2D9
330
2D7
330
2D8
 75
     0
 76
     1
 98
        1
 10
0.0
 20
0.0
  0
HATCH
  5
2E7
330
2C6
100
AcDbEntity
  8
0
  6
Continuous
100
AcDbHatch
 10
0.0
 20
0.0
 30
0.0
210
0.0
220
0.0
230
1.0
  2
SOLID
 70
     1
 71
     1
 91
        1
 92
        1
 93
        1
 72
     4
 94
        3
 73
     0
 74
     0
 95
      113
 96
      109
 40
0.0
 40
0.0
 40
0.0
 40
0.0
 40
1.0
 40
1.0
 40
1.0
 40
2.0
 40
2.0
 40
2.0
 40
3.0
 40
3.0
 40
3.0
 40
4.0
 40
4.0
 40
4.0
 40
5.0
 40
5.0
 40
5.0
 40
6.0
 40
6.0
 40
6.0
 40
7.0
 40
7.0
 40
7.0
 40
8.0
 40
8.0
 40
8.0
 40
9.0
 40
9.0
 40
9.0
 40
10.0
 40
10.0
 40
10.0
 40
11.0
 40
11.0
 40
11.0
 40
12.0
 40
12.0
 40
12.0
 40
13.0
 40
13.0
 40
13.0
 40
14.0
 40
14.0
 40
14.0
 40
15.0
 40
15.0
 40
15.0
 40
16.0
 40
16.0
 40
16.0
 40
17.0
 40
17.0
 40
17.0
 40
18.0
 40
18.0
 40
18.0
 40
19.0
 40
19.0
 40
19.0
 40
20.0
 40
20.0
 40
20.0
 40
21.0
 40
21.0
 40
21.0
 40
22.0
 40
22.0
 40
22.0
 40
23.0
 40
23.0
 40
23.0
 40
24.0
 40
24.0
 40
24.0
 40
25.0
 40
25.0
 40
25.0
 40
26.0
 40
26.0
 40
26.0
 40
27.0
 40
27.0
 40
27.0
 40
28.0
 40
28.0
 40
28.0
 40
29.0
 40
29.0
 40
29.0
 40
30.0
 40
30.0
 40
30.0
 40
31.0
 40
31.0
 40
31.0
 40
32.0
 40
32.0
 40
32.0
 40
33.0
 40
33.0
 40
33.0
 40
34.0
 40
34.0
 40
34.0
 40
35.0
 40
35.0
 40
35.0
 40
36.0
 40
36.0
 40
36.0
 40
36.0
 10
193.3039632161458
 20
186.1548733181423
 10
193.3039632161458
 20
186.1860514322916
 10
193.3039632161458
 20
219.6932223849826
 10
193.3039632161458
 20
219.6932223849826
 10
193.3039632161458
 20
219.6932223849826
 10
193.2974175347219
 20
219.7488606770833
 10
193.2974175347219
 20
219.7488606770833
 10
191.5293945312499
 20
235.455740017361
 10
175.1458984374999
 20
235.2467949761284
 10
174.9808783637151
 20
235.2428331163193
 10
174.9808783637151
 20
235.2428331163193
 10
125.8827555338541
 20
235.2430053710937
 10
125.8827555338541
 20
235.2430053710937
 10
125.8827555338541
 20
235.2430053710937
 10
125.8827555338541
 20
255.5278998480901
 10
125.8827555338541
 20
255.5278998480901
 10
125.8827555338541
 20
255.5278998480901
 10
84.5626247829861
 20
255.5278998480901
 10
84.5626247829861
 20
255.5278998480901
 10
84.5626247829861
 20
255.5278998480901
 10
84.55711263020829
 20
233.7919311523436
 10
84.55711263020829
 20
233.7919311523436
 10
84.55711263020829
 20
233.7919311523436
 10
64.42052951388888
 20
233.7919311523436
 10
64.42052951388888
 20
233.7919311523436
 10
64.42052951388888
 20
233.7919311523436
 10
64.41501736111111
 20
255.5278998480901
 10
64.41501736111111
 20
255.5278998480901
 10
64.41501736111111
 20
255.5278998480901
 10
23.91757541232637
 20
255.5278998480901
 10
23.91757541232637
 20
255.5278998480901
 10
23.91757541232637
 20
255.5278998480901
 10
23.91757541232637
 20
233.2393378363715
 10
23.91757541232637
 20
233.2393378363715
 10
23.91757541232637
 20
233.2393378363715
 10
43.65624999999999
 20
233.2393378363715
 10
43.65624999999999
 20
233.2393378363715
 10
43.65624999999999
 20
233.2393378363715
 10
43.65624999999999
 20
211.5188720703125
 10
43.65624999999999
 20
211.5188720703125
 10
43.65624999999999
 20
211.5188720703125
 10
23.91757541232637
 20
211.5188720703125
 10
23.91757541232637
 20
211.5188720703125
 10
23.91757541232637
 20
211.5188720703125
 10
23.91757541232637
 20
189.2303100585936
 10
23.91757541232637
 20
189.2303100585936
 10
23.91757541232637
 20
189.2303100585936
 10
64.41501736111111
 20
189.2303100585936
 10
64.41501736111111
 20
189.2303100585936
 10
64.41501736111111
 20
189.2303100585936
 10
64.42052951388888
 20
211.069976128472
 10
64.42052951388888
 20
211.069976128472
 10
64.42052951388888
 20
211.069976128472
 10
84.55711263020829
 20
211.069976128472
 10
84.55711263020829
 20
211.069976128472
 10
84.55711263020829
 20
211.069976128472
 10
84.5626247829861
 20
189.2303100585936
 10
84.5626247829861
 20
189.2303100585936
 10
84.5626247829861
 20
189.2303100585936
 10
125.8827555338541
 20
189.2303100585936
 10
125.8827555338541
 20
189.2303100585936
 10
125.8827555338541
 20
189.2303100585936
 10
125.8827555338541
 20
211.5188720703125
 10
125.8827555338541
 20
211.5188720703125
 10
125.8827555338541
 20
211.5188720703125
 10
105.3213921440971
 20
211.5188720703125
 10
105.3213921440971
 20
211.5188720703125
 10
105.3213921440971
 20
211.5188720703125
 10
105.3213921440971
 20
233.2393378363715
 10
105.3213921440971
 20
233.2393378363715
 10
105.3213921440971
 20
233.2393378363715
 10
175.0046495225693
 20
233.243127441406
 10
175.0046495225693
 20
233.243127441406
 10
175.6268337673611
 20
233.2560465494791
 10
189.7165852864583
 20
233.3962619357638
 10
191.3037407769094
 20
219.5690266927083
 10
191.3037407769094
 20
219.4332899305555
 10
191.3037407769094
 20
186.1142211914062
 10
191.3037407769094
 20
186.1142211914062
 10
191.3037407769094
 20
186.1142211914062
 10
191.3051188151039
 20
186.0880384657115
 10
191.3051188151039
 20
186.0880384657115
 10
191.3054633246526
 20
186.0787367078991
 10
191.3109754774304
 20
185.9566080729166
 10
191.3109754774304
 20
185.7399115668401
 10
191.3109754774304
 20
184.2090833875865
 10
191.0488037109374
 20
177.9643310546874
 10
186.9866916232638
 20
173.5652886284722
 10
184.2540418836804
 20
170.6064683702255
 10
180.3224989149304
 20
169.0308539496526
 10
175.300927734375
 20
168.8825425889756
 10
175.300927734375
 20
168.8825425889756
 10
107.0094889322916
 20
168.8828870985243
 10
107.0094889322916
 20
168.8828870985243
 10
107.0094889322916
 20
168.8828870985243
 10
107.0094889322916
 20
166.8830091688368
 10
107.0094889322916
 20
166.8830091688368
 10
107.0094889322916
 20
166.8830091688368
 10
175.3305555555555
 20
166.8830091688368
 10
175.3305555555555
 20
166.8830091688368
 10
180.9467502170138
 20
167.0485460069444
 10
185.3571614583333
 20
168.8448187934026
 10
188.4687717013888
 20
172.2223904079861
 10
192.9649658203124
 20
177.1034016927083
 10
193.3136094835069
 20
183.7202243381076
 10
193.3136094835069
 20
185.6520616319443
 10
193.3136094835069
 20
185.9247409396701
 10
193.3070638020833
 20
186.0868326822916
 10
193.3039632161458
 20
186.1548733181423
 97
        1
330
2C7
 75
     0
 76
     1
 98
        1
 10
0.0
 20
0.0
  0
HATCH
  5
2E8
330
2C6
100
AcDbEntity
  8
0
  6
Continuous
100
AcDbHatch
 10
0.0
 20
0.0
 30
0.0
210
0.0
220
0.0
230
1.0
  2
SOLID
 70
     1
 71
     1
 91
        2
 92
        1
 93
        1
 72
     4
 94
        3
 73
     0
 74
     0
 95
       23
 96
       19
 40
0.0
 40
0.0
 40
0.0
 40
0.0
 40
1.0
 40
1.0
 40
1.0
 40
2.0
 40
2.0
 40
2.0
 40
3.0
 40
3.0
 40
3.0
 40
4.0
 40
4.0
 40
4.0
 40
5.0
 40
5.0
 40
5.0
 40
6.0
 40
6.0
 40
6.0
 40
6.0
 10
148.6593153211804
 20
211.3929538302948
 10
148.6593153211804
 20
211.3929538302948
 10
148.6593153211804
 20
189.6308024088539
 10
148.6593153211804
 20
189.6308024088539
 10
148.6593153211804
 20
189.6308024088539
 10
161.3152180989583
 20
189.6308024088539
 10
161.3152180989583
 20
189.6308024088539
 10
162.8431179470483
 20
189.6308024088539
 10
170.4657362196178
 20
190.1880466037321
 10
170.4657362196178
 20
201.1911648220483
 10
170.4657362196178
 20
211.1288872612844
 10
162.3356553819444
 20
211.3914035373261
 10
162.2536621093749
 20
211.3927815755205
 10
162.2536621093749
 20
211.3927815755205
 10
149.6594265407986
 20
211.3929538302948
 10
149.6594265407986
 20
211.3929538302948
 10
149.6594265407986
 20
211.3929538302948
 10
148.6593153211804
 20
211.3929538302948
 10
148.6593153211804
 20
211.3929538302948
 97
        1
330
2C8
 92
       16
 93
        1
 72
     4
 94
        3
 73
     0
 74
     0
 95
       20
 96
       16
 40
0.0
 40
0.0
 40
0.0
 40
0.0
 40
1.0
 40
1.0
 40
1.0
 40
2.0
 40
2.0
 40
2.0
 40
3.0
 40
3.0
 40
3.0
 40
4.0
 40
4.0
 40
4.0
 40
5.0
 40
5.0
 40
5.0
 40
5.0
 10
162.2354031032983
 20
209.3930759006072
 10
162.467947048611
 20
209.3861857096351
 10
168.4655137803819
 20
209.1283203124997
 10
168.4655137803819
 20
201.1911648220483
 10
168.4655137803819
 20
192.3202162000865
 10
162.9926350911458
 20
191.6306803385413
 10
161.3152180989583
 20
191.6306803385413
 10
161.3152180989583
 20
191.6306803385413
 10
152.3310980902776
 20
191.6306803385413
 10
150.6595377604166
 20
191.6306803385413
 10
150.6595377604166
 20
193.3373806423608
 10
150.6595377604166
 20
207.6863755967879
 10
150.6595377604166
 20
209.3930759006072
 10
152.3538357204859
 20
209.3930759006072
 10
162.2354031032983
 20
209.3930759006072
 10
162.2354031032983
 20
209.3930759006072
 97
        0
 75
     0
 76
     1
 98
        0
  0
ENDBLK
  5
2EA
330
2C6
100
AcDbEntity
  8
0
100
AcDbBlockEnd
  0
BLOCK
  5
2ED
330
2EB
100
AcDbEntity
  8
0
100
AcDbBlockBegin
  2
HD logo-new
 70
     0
 10
0.0
 20
0.0
 30
0.0
  3
HD logo-new
  1

  0
INSERT
  5
2EC
330
2EB
100
AcDbEntity
  8
0
 62
     3
100
AcDbBlockReference
  2
HD_LLC_logo_OT5
 10
-27.1607188578505
 20
-68.37367811463031
 30
0.0
 41
0.2999999999999971
 42
0.3000000000000007
 43
0.3
  0
ENDBLK
  5
2EE
330
2EB
100
AcDbEntity
  8
0
100
AcDbBlockEnd
  0
BLOCK
  5
2F1
330
2EF
100
AcDbEntity
  8
0
100
AcDbBlockBegin
  2
HD Logo
 70
     0
 10
0.0
 20
0.0
 30
0.0
  3
HD Logo
  1

  0
INSERT
  5
2F0
330
2EF
100
AcDbEntity
  8
0
100
AcDbBlockReference
  2
HD logo-new
 10
0.9700256734946606
 20
7.273795608420527
 30
0.0
  0
ENDBLK
  5
2F2
330
2EF
100
AcDbEntity
  8
0
100
AcDbBlockEnd
  0
BLOCK
  5
30D
330
30A
100
AcDbEntity
  8
0
100
AcDbBlockBegin
  2
Notice
 70
     0
 10
0.0
 20
0.0
 30
0.0
  3
Notice
  1

  0
LWPOLYLINE
  5
30B
330
30A
100
AcDbEntity
  8
0
100
AcDbPolyline
 90
        8
 70
     1
 43
0.0
 10
-22.76688241418626
 20
22.0252409919858
 10
91.45032196416307
 20
22.0252409919858
 42
-0.4142135623730951
 10
93.4503219641631
 20
20.0252409919858
 10
93.4503219641631
 20
-16.65735233494911
 42
-0.4142135623730951
 10
91.45032196416307
 20
-18.65735233494911
 10
-22.7668824141863
 20
-18.65735233494911
 42
-0.4142135623730951
 10
-24.76688241418631
 20
-16.65735233494911
 10
-24.76688241418628
 20
20.0252409919858
 42
-0.4142135623730951
  0
MTEXT
  5
30C
330
30A
100
AcDbEntity
  8
0
  6
Continuous
370
    30
100
AcDbMText
 10
-23.02803999797196
 20
20.91357196996034
 30
0.0
 40
3.5
 41
117.8173
 71
     1
 72
     5
  3
{\fArial|b1|i0|c0|p34;Notice:\P\fArial|b0|i0|c0|p34;\H0.5714x;All specifications and dimensions shown in the drawing are subject to change without notice. This drawing is the property of Harmonic Drive LLC.   This data is believed to be accurate, how
  1
ever, Harmonic Drive LLC assumes no liability for any errors or omissions in the specifications, models, or drawings.\P\PHarmonic Drive LLC\PTel: 800-921-3332\Pwww.harmonicdrive.net}
 73
     1
 44
1.0
  0
ENDBLK
  5
30E
330
30A
100
AcDbEntity
  8
0
100
AcDbBlockEnd
  0
BLOCK
  5
32E
330
32B
100
AcDbEntity
  8
0
100
AcDbBlockBegin
  2
NTC
 70
     0
 10
0.0
 20
0.0
 30
0.0
  3
NTC
  1

  0
LWPOLYLINE
  5
32C
330
32B
100
AcDbEntity
  8
0
100
AcDbPolyline
 90
        8
 70
     1
 43
0.0
 10
4.581008201925953
 20
-10.78862239032818
 10
319.3921777697513
 20
-10.78862239032818
 42
-0.4142135623730951
 10
324.9046777697513
 20
-16.30112239032816
 10
324.9046777697513
 20
-117.4075202476924
 42
-0.4142135623730951
 10
319.3921777697513
 20
-122.9200202476925
 10
4.581008201925839
 20
-122.9200202476925
 42
-0.4142135623730951
 10
-0.9314917980741483
 20
-117.4075202476924
 10
-0.9314917980740915
 20
-16.30112239032816
 42
-0.4142135623730951
  0
MTEXT
  5
32D
330
32B
100
AcDbEntity
  8
0
  6
Continuous
370
    30
100
AcDbMText
 10
21.65307678143926
 20
-17.4535155144544
 30
0.0
 40
8.75
 41
294.5432999999998
 71
     1
 72
     5
  3
{\fTxt|b1|i0|c0|p2;Notice:\P\Ftxt.shx;\H0.5714x;All specifications and dimensions shown in the drawing are subject to change without notice. This drawing is the property of Harmonic Drive LLC.   This data is believed to be accurate, however, Harmonic
  1
 Drive LLC assumes no liability for any errors or omissions in the specifications, models, or drawings.\P\PHarmonic Drive LLC\PTel: 800-921-3332\Pwww.harmonicdrive.net}
 73
     1
 44
1.0
  0
ENDBLK
  5
32F
330
32B
100
AcDbEntity
  8
0
100
AcDbBlockEnd
  0
ENDSEC
  0
SECTION
  2
ENTITIES
  0
DIMENSION
  5
24C
330
A
100
AcDbEntity
  8
0
100
AcDbDimension
  2
*D3
 10
-212.0868623244269
 20
-91.0
 30
0.0
 11
-230.255966348034
 21
-87.95000000000099
 31
0.0
  1
<>
 71
     5
 42
-1.0
  3
ME10_DIM_3
100
AcDbAlignedDimension
 13
-210.2868623244269
 23
-51.036103834119
 33
0.0
 14
-212.0868623244269
 24
-70.7
 34
0.0
100
AcDbRotatedDimension
  0
DIMENSION
  5
23F
330
A
100
AcDbEntity
  8
0
100
AcDbDimension
  2
*D2
 10
-232.0868623244269
 20
-36.500000000001
 30
0.0
 11
-235.5383906575339
 21
-0.9623690631389999
 31
0.0
  1
<>
 71
     5
 42
-1.0
 53
90.0
  3
ME10_DIM_2
100
AcDbAlignedDimension
 13
-210.2868623244269
 23
36.49999999999899
 33
0.0
 14
-210.2868623244269
 24
-36.500000000001
 34
0.0
 50
90.0
100
AcDbRotatedDimension
  0
DIMENSION
  5
234
330
A
100
AcDbEntity
  8
0
100
AcDbDimension
  2
*D1
 10
-162.186862324452
 20
-43.000000000001
 30
0.0
 11
-165.236862324452
 21
-0.6322175437960002
 31
0.0
  1
<>
 71
     5
 42
-1.0
 53
90.0
  3
ME10_DIM_1
100
AcDbAlignedDimension
 13
-182.186862324452
 23
43.0
 33
0.0
 14
-182.186862324452
 24
-43.000000000001
 34
0.0
 50
90.0
100
AcDbRotatedDimension
  0
DIMENSION
  5
229
330
A
100
AcDbEntity
  8
0
100
AcDbDimension
  2
*D0
 10
-184.186862324452
 20
-91.0
 30
0.0
 11
-164.2256624793239
 21
-87.95000000000099
 31
0.0
  1
<>
 71
     5
 42
-1.0
  3
ME10_DIM_0
100
AcDbAlignedDimension
 13
-182.186862324452
 23
-43.000000000001
 33
0.0
 14
-184.186862324452
 24
-54.499999173592
 34
0.0
100
AcDbRotatedDimension
  0
TEXT
  5
212
330
A
100
AcDbEntity
  8
1
 62
     0
100
AcDbText
 10
-276.5510255566332
 20
-138.6707721074023
 30
0.0
 40
6.713980611614191
  1
REMARKS:  M.H.C = MINIMUM HOUSING CLEARANCE
 41
0.6885
  7
CONVERTER_2
100
AcDbText
  0
TEXT
  5
210
330
A
100
AcDbEntity
  8
1
 62
     0
100
AcDbText
 10
-60.33770603317575
 20
-139.2436237531979
 30
0.0
 40
9.606799360918103
  1
SHD-32-XXX-2SH.dxf
 41
0.8100000000000001
  7
CONVERTER_1
100
AcDbText
  0
ARC
  5
20E
330
A
100
AcDbEntity
  8
1
  6
Continuous
 62
     7
100
AcDbCircle
 10
-206.5908623244279
 20
-42.124224997906
 30
0.0
 40
2.355999999999998
100
AcDbArc
 50
90.0
 51
180.0
  0
ARC
  5
20D
330
A
100
AcDbEntity
  8
1
  6
Continuous
 62
     7
100
AcDbCircle
 10
-209.271862324427
 20
-56.67500000000099
 30
0.0
 40
0.325
100
AcDbArc
 50
-90.0
 51
0.0
  0
ARC
  5
20C
330
A
100
AcDbEntity
  8
1
  6
Continuous
 62
     7
100
AcDbCircle
 10
-206.4868623245029
 20
-42.457224997907
 30
0.0
 40
2.0
100
AcDbArc
 50
90.0
 51
180.0
  0
ARC
  5
20B
330
A
100
AcDbEntity
  8
1
  6
Continuous
 62
     7
100
AcDbCircle
 10
-206.5908623244279
 20
42.13577500209299
 30
0.0
 40
2.355999999999
100
AcDbArc
 50
180.0
 51
-90.0
  0
ARC
  5
20A
330
A
100
AcDbEntity
  8
1
  6
Continuous
 62
     7
100
AcDbCircle
 10
-209.271862324427
 20
56.675
 30
0.0
 40
0.325
100
AcDbArc
 50
0.0
 51
90.0
  0
ARC
  5
209
330
A
100
AcDbEntity
  8
1
  6
Continuous
 62
     7
100
AcDbCircle
 10
-206.4868623245029
 20
42.468775002093
 30
0.0
 40
2.0
100
AcDbArc
 50
180.0
 51
-90.0
  0
ARC
  5
208
330
A
100
AcDbEntity
  8
1
  6
Continuous
 62
     7
100
AcDbCircle
 10
-205.305238942835
 20
55.749999173591
 30
0.0
 40
0.3
100
AcDbArc
 50
135.0000000000499
 51
-135.000000000081
  0
ARC
  5
207
330
A
100
AcDbEntity
  8
1
  6
Continuous
 62
     7
100
AcDbCircle
 10
-201.486862324428
 20
59.56837579199799
 30
0.0
 40
0.3
100
AcDbArc
 50
44.99999999986399
 51
134.999999999948
  0
ARC
  5
206
330
A
100
AcDbEntity
  8
1
  6
Continuous
 62
     7
100
AcDbCircle
 10
-197.6684857060219
 20
55.749999173591
 30
0.0
 40
0.300000000001
100
AcDbArc
 50
-44.99999999981301
 51
44.999999999825
  0
ARC
  5
205
330
A
100
AcDbEntity
  8
1
  6
Continuous
 62
     7
100
AcDbCircle
 10
-201.486862324428
 20
51.931622555185
 30
0.0
 40
0.2999999999989999
100
AcDbArc
 50
-134.9999999999539
 51
-44.99999999985798
  0
ARC
  5
204
330
A
100
AcDbEntity
  8
1
  6
Continuous
 62
     7
100
AcDbCircle
 10
-201.486862324428
 20
51.931622555185
 30
0.0
 40
0.2999999999989999
100
AcDbArc
 50
-134.9999999999539
 51
-44.99999999985798
  0
ARC
  5
203
330
A
100
AcDbEntity
  8
1
  6
Continuous
 62
     7
100
AcDbCircle
 10
-201.486862324428
 20
59.56837579199799
 30
0.0
 40
0.300000000013
100
AcDbArc
 50
44.999999999808
 51
134.999999999948
  0
ARC
  5
202
330
A
100
AcDbEntity
  8
1
  6
Continuous
 62
     7
100
AcDbCircle
 10
-201.486862324428
 20
51.931622555185
 30
0.0
 40
0.300000000001
100
AcDbArc
 50
-135.0000000000899
 51
-44.99999999985798
  0
ARC
  5
201
330
A
100
AcDbEntity
  8
1
  6
Continuous
 62
     7
100
AcDbCircle
 10
-201.486862324428
 20
-59.568377444816
 30
0.0
 40
0.2999999999989999
100
AcDbArc
 50
-134.999999999946
 51
-44.999999999866
  0
ARC
  5
200
330
A
100
AcDbEntity
  8
1
  6
Continuous
 62
     7
100
AcDbCircle
 10
-205.305238942835
 20
-55.750000826409
 30
0.0
 40
0.3
100
AcDbArc
 50
135.000000000065
 51
-135.000000000053
  0
ARC
  5
1FF
330
A
100
AcDbEntity
  8
1
  6
Continuous
 62
     7
100
AcDbCircle
 10
-201.486862324428
 20
-51.93162420800299
 30
0.0
 40
0.3
100
AcDbArc
 50
44.999999999866
 51
135.000000000081
  0
ARC
  5
1FE
330
A
100
AcDbEntity
  8
1
  6
Continuous
 62
     7
100
AcDbCircle
 10
-197.6684857060219
 20
-55.750000826409
 30
0.0
 40
0.300000000001
100
AcDbArc
 50
-44.999999999828
 51
45.00000000012
  0
ARC
  5
1FD
330
A
100
AcDbEntity
  8
1
  6
Continuous
 62
     7
100
AcDbCircle
 10
-204.0868623245029
 20
-45.89999999999998
 30
0.0
 40
0.1
100
AcDbArc
 50
180.0
 51
-90.0
  0
ARC
  5
1FC
330
A
100
AcDbEntity
  8
1
  6
Continuous
 62
     7
100
AcDbCircle
 10
-204.0868623245029
 20
-49.1
 30
0.0
 40
0.1
100
AcDbArc
 50
90.0
 51
180.0
  0
ARC
  5
1FB
330
A
100
AcDbEntity
  8
1
  6
Continuous
 62
     7
100
AcDbCircle
 10
-211.8868623244269
 20
-63.800000000001
 30
0.0
 40
0.2
100
AcDbArc
 50
180.0
 51
-90.0
  0
ARC
  5
1FA
330
A
100
AcDbEntity
  8
1
  6
Continuous
 62
     7
100
AcDbCircle
 10
-211.8868623244269
 20
-68.2
 30
0.0
 40
0.2
100
AcDbArc
 50
90.0
 51
180.0
  0
SPLINE
  5
1F9
330
A
100
AcDbEntity
  8
1
  6
Continuous
 62
     7
100
AcDbSpline
210
0.0
220
0.0
230
1.0
 70
    11
 71
     3
 72
    83
 73
    79
 74
    77
 42
0.0000000001
 43
0.0000000001
 44
0.00000000001
 40
0.0
 40
0.0
 40
0.0
 40
0.0
 40
0.050357138808188
 40
0.1007528585556904
 40
0.1533331924322329
 40
0.205976097636317
 40
0.2618228355714922
 40
0.3177369018560992
 40
0.3773725926277274
 40
0.4370667144433219
 40
0.5005028030507505
 40
0.5639832980879499
 40
0.6308023166841926
 40
0.6976519812461126
 40
0.7671111218720041
 40
0.8365891465183443
 40
0.9077212034329322
 40
0.9788622072311687
 40
1.050569110477881
 40
1.122276013724616
 40
1.193417017522848
 40
1.264549074437352
 40
1.334027099083699
 40
1.403486239709638
 40
1.470335904271667
 40
1.537154922868023
 40
1.600635417905147
 40
1.664071506512594
 40
1.723765628328239
 40
1.783401319099878
 40
1.839315385384654
 40
1.895162123319646
 40
1.947805028523708
 40
2.000385362399967
 40
2.05078108214692
 40
2.101138220955483
 40
2.150717731223199
 40
2.200297241491282
 40
2.250654380299791
 40
2.30105010004786
 40
2.353630433924015
 40
2.406273339128323
 40
2.462120077063057
 40
2.518034143347505
 40
2.577669834118822
 40
2.637363955933681
 40
2.700800044541278
 40
2.764280539578912
 40
2.831099558175685
 40
2.897949222737855
 40
2.967408363363606
 40
3.036886388009664
 40
3.108018444924082
 40
3.179159448722383
 40
3.250866351969149
 40
3.322573255215885
 40
3.393714259014116
 40
3.464846315928562
 40
3.53432434057469
 40
3.603783481200441
 40
3.670633145762565
 40
3.737452164359337
 40
3.800932659396909
 40
3.864368748004386
 40
3.924062869819176
 40
3.983698560590573
 40
4.039612626875147
 40
4.09545936480992
 40
4.148102270014209
 40
4.200682603890344
 40
4.251078323638587
 40
4.301435462447082
 40
4.35110600018787
 40
4.400963187197389
 40
4.42609262501215
 40
4.451222062827025
 40
4.476444248410655
 40
4.501295442919571
 40
4.501295442919571
 40
4.501295442919571
 40
4.501295442919571
 10
-184.801338616206
 20
45.99680012652436
 30
0.0
 10
-184.81792283193
 20
45.99406052137569
 30
0.0
 10
-184.8511039693149
 20
45.98857921213983
 30
0.0
 10
-184.8997397713153
 20
45.97224641602348
 30
0.0
 10
-184.9469281319567
 20
45.95049314888494
 30
0.0
 10
-184.9928341575596
 20
45.92242634304244
 30
0.0
 10
-185.0364320622311
 20
45.88906763985117
 30
0.0
 10
-185.0781786556995
 20
45.84993819492058
 30
0.0
 10
-185.1169881095573
 20
45.80617180949638
 30
0.0
 10
-185.153360041798
 20
45.75721361220659
 30
0.0
 10
-185.1863192916535
 20
45.70438139285953
 30
0.0
 10
-185.2162708948155
 20
45.64710464330937
 30
0.0
 10
-185.2424537908108
 20
45.58676837165648
 30
0.0
 10
-185.2651242602476
 20
45.52291492483631
 30
0.0
 10
-185.2837696645055
 20
45.45685117582019
 30
0.0
 10
-185.29850968388
 20
45.38835138775312
 30
0.0
 10
-185.3090574307862
 20
45.31851518589519
 30
0.0
 10
-185.3154516198525
 20
45.24743300776747
 30
0.0
 10
-185.3175707563027
 20
45.17590361303288
 30
0.0
 10
-185.3154516198526
 20
45.10437421829627
 30
0.0
 10
-185.3090574307858
 20
45.03329204017453
 30
0.0
 10
-185.2985096838827
 20
44.96345583829493
 30
0.0
 10
-185.283769664498
 20
44.89495605030676
 30
0.0
 10
-185.2651242602776
 20
44.82889230100145
 30
0.0
 10
-185.2424537907061
 20
44.76503885522112
 30
0.0
 10
-185.2162708952
 20
44.70470257978456
 30
0.0
 10
-185.1863192902983
 20
44.64742584367716
 30
0.0
 10
-185.1533600467345
 20
44.59459357571609
 30
0.0
 10
-185.1169880923445
 20
44.5456355495673
 30
0.0
 10
-185.0781787183046
 20
44.50186854741389
 30
0.0
 10
-185.0364318448293
 20
44.46274126600902
 30
0.0
 10
-184.9928349499004
 20
44.42937476084906
 30
0.0
 10
-184.9469253639667
 20
44.40133546458914
 30
0.0
 10
-184.8997499269762
 20
44.37948234037285
 30
0.0
 10
-184.8510678218585
 20
44.36350731421936
 30
0.0
 10
-184.8017288151902
 20
44.35401324769524
 30
0.0
 10
-184.7518623244829
 20
44.35071625788554
 30
0.0
 10
-184.7019958337755
 20
44.35401324769518
 30
0.0
 10
-184.652656827107
 20
44.36350731421957
 30
0.0
 10
-184.6039747219887
 20
44.37948234037257
 30
0.0
 10
-184.556799284998
 20
44.40133546458928
 30
0.0
 10
-184.5108896990644
 20
44.42937476084908
 30
0.0
 10
-184.4672928041355
 20
44.46274126600896
 30
0.0
 10
-184.4255459306606
 20
44.50186854741389
 30
0.0
 10
-184.3867365566208
 20
44.54563554956675
 30
0.0
 10
-184.3503646022322
 20
44.59459357571615
 30
0.0
 10
-184.3174053586686
 20
44.64742584367726
 30
0.0
 10
-184.2874537537658
 20
44.70470257978448
 30
0.0
 10
-184.2612708582588
 20
44.76503885522109
 30
0.0
 10
-184.2386003886874
 20
44.82889230100158
 30
0.0
 10
-184.2199549844668
 20
44.89495605030671
 30
0.0
 10
-184.2052149650836
 20
44.96345583829507
 30
0.0
 10
-184.1946672181814
 20
45.03329204017458
 30
0.0
 10
-184.1882730291125
 20
45.10437421829631
 30
0.0
 10
-184.1861538926633
 20
45.17590361303251
 30
0.0
 10
-184.1882730291118
 20
45.24743300776886
 30
0.0
 10
-184.1946672181845
 20
45.31851518589012
 30
0.0
 10
-184.2052149650722
 20
45.38835138777113
 30
0.0
 10
-184.219954984508
 20
45.45685117575422
 30
0.0
 10
-184.2386003885363
 20
45.52291492507878
 30
0.0
 10
-184.2612708587993
 20
45.58676837078936
 30
0.0
 10
-184.2874537517899
 20
45.64710464648014
 30
0.0
 10
-184.3174053656323
 20
45.70438138168423
 30
0.0
 10
-184.350364576867
 20
45.75721365291103
 30
0.0
 10
-184.386736645067
 20
45.80617166756339
 30
0.0
 10
-184.4255456089728
 20
45.84993871114714
 30
0.0
 10
-184.4672939212236
 20
45.88906584721034
 30
0.0
 10
-184.5108856277293
 20
45.92243287649316
 30
0.0
 10
-184.5568135079384
 20
45.95047032470625
 30
0.0
 10
-184.603922538509
 20
45.97233015715054
 30
0.0
 10
-184.6528425658963
 20
45.98828114892964
 30
0.0
 10
-184.7013361192795
 20
45.99786938790507
 30
0.0
 10
-184.7545547887767
 20
46.00084276248979
 30
0.0
 10
-184.7860720089276
 20
45.99902480212276
 30
0.0
 10
-184.8397215346514
 20
45.99179134186499
 30
0.0
 10
-184.8015159111222
 20
45.99678994888535
 30
0.0
 10
-184.7643127293364
 20
46.00158282027851
 30
0.0
 10
-184.789057765479
 20
45.99838646389622
 30
0.0
 10
-184.801338616206
 20
45.99680012652436
 30
0.0
 11
-184.801338616206
 21
45.99680012652436
 31
0.0
 11
-184.8507856706772
 21
45.98726963686902
 31
0.0
 11
-184.8987025295806
 21
45.97165864069009
 31
0.0
 11
-184.9464303462148
 21
45.94959629652863
 31
0.0
 11
-184.9914147935734
 21
45.92225265075546
 31
0.0
 11
-185.0358108480818
 21
45.88837273809192
 31
0.0
 11
-185.0766740307173
 21
45.85020752993874
 31
0.0
 11
-185.1163060455288
 21
45.80564612269222
 31
0.0
 11
-185.1519674521964
 21
45.75777491784186
 31
0.0
 11
-185.1856132631549
 21
45.70399669973496
 31
0.0
 11
-185.2150807694329
 21
45.64777002169043
 31
0.0
 11
-185.2417415808879
 21
45.58650027076286
 31
0.0
 11
-185.2641444920594
 21
45.5235162472086
 31
0.0
 11
-185.2830582473379
 21
45.45668180939581
 31
0.0
 11
-185.2976948152424
 21
45.38876298440057
 31
0.0
 11
-185.3083482050545
 21
45.31843322678395
 31
0.0
 11
-185.3147259305194
 21
45.24757867831094
 31
0.0
 11
-185.3168625143752
 21
45.17590361303255
 31
0.0
 11
-185.3147259305194
 21
45.10422854775415
 31
0.0
 11
-185.3083482050547
 21
45.03337399928112
 31
0.0
 11
-185.2976948152429
 21
44.96304424166454
 31
0.0
 11
-185.2830582473384
 21
44.89512541666929
 31
0.0
 11
-185.2641444920599
 21
44.82829097885645
 31
0.0
 11
-185.2417415808883
 21
44.7653069553021
 31
0.0
 11
-185.2150807694329
 21
44.70403720437459
 31
0.0
 11
-185.1856132631549
 21
44.64781052633013
 31
0.0
 11
-185.1519674521964
 21
44.59403230822322
 31
0.0
 11
-185.1163060455288
 21
44.54616110337279
 31
0.0
 11
-185.0766740307173
 21
44.50159969612626
 31
0.0
 11
-185.0358108480815
 21
44.46343448797313
 31
0.0
 11
-184.9914147935734
 21
44.42955457530953
 31
0.0
 11
-184.9464303462148
 21
44.4022109295364
 31
0.0
 11
-184.8987025295809
 21
44.38014858537494
 31
0.0
 11
-184.8507856706781
 21
44.36453758919595
 31
0.0
 11
-184.8013386162065
 21
44.35500709954069
 31
0.0
 11
-184.7518623244831
 21
44.35180953864422
 31
0.0
 11
-184.7023860327593
 21
44.35500709954069
 31
0.0
 11
-184.6529389782878
 21
44.36453758919595
 31
0.0
 11
-184.6050221193838
 21
44.38014858537496
 31
0.0
 11
-184.55729430275
 21
44.40221092953643
 31
0.0
 11
-184.5123098553912
 21
44.42955457530966
 31
0.0
 11
-184.4679138008833
 21
44.46343448797313
 31
0.0
 11
-184.4270506182479
 21
44.50159969612617
 31
0.0
 11
-184.3874186034366
 21
44.54616110337253
 31
0.0
 11
-184.3517571967703
 21
44.59403230822288
 31
0.0
 11
-184.3181113858119
 21
44.64781052633005
 31
0.0
 11
-184.288643879533
 21
44.70403720437459
 31
0.0
 11
-184.2619830680768
 21
44.76530695530223
 31
0.0
 11
-184.2395801569051
 21
44.82829097885667
 31
0.0
 11
-184.2206664016267
 21
44.89512541666935
 31
0.0
 11
-184.2060298337233
 21
44.96304424166454
 31
0.0
 11
-184.1953764439121
 21
45.03337399928112
 31
0.0
 11
-184.1889987184462
 21
45.10422854775412
 31
0.0
 11
-184.1868621345904
 21
45.17590361303255
 31
0.0
 11
-184.1889987184462
 21
45.24757867831096
 31
0.0
 11
-184.1953764439121
 21
45.31843322678389
 31
0.0
 11
-184.2060298337233
 21
45.38876298440049
 31
0.0
 11
-184.2206664016267
 21
45.45668180939575
 31
0.0
 11
-184.2395801569051
 21
45.52351624720843
 31
0.0
 11
-184.2619830680768
 21
45.58650027076282
 31
0.0
 11
-184.288643879533
 21
45.64777002169046
 31
0.0
 11
-184.3181113858119
 21
45.70399669973492
 31
0.0
 11
-184.3517571967703
 21
45.75777491784196
 31
0.0
 11
-184.3874186034366
 21
45.80564612269222
 31
0.0
 11
-184.4270506182479
 21
45.85020752993869
 31
0.0
 11
-184.4679138008833
 21
45.88837273809191
 31
0.0
 11
-184.5123098553912
 21
45.92225265075545
 31
0.0
 11
-184.55729430275
 21
45.94959629652865
 31
0.0
 11
-184.6050221193838
 21
45.97165864069006
 31
0.0
 11
-184.652938978288
 21
45.98726963686902
 31
0.0
 11
-184.7023860327595
 21
45.99680012652436
 31
0.0
 11
-184.7519543070496
 21
45.99998579809578
 31
0.0
 11
-184.8017065464722
 21
45.99675256922407
 31
0.0
 11
-184.8266286574665
 21
45.99353122967746
 31
0.0
 11
-184.8017065464721
 21
45.99675256922409
 31
0.0
 11
-184.7766924529111
 21
45.99998579809578
 31
0.0
 11
-184.801338616206
 21
45.99680012652436
 31
0.0
  0
SPLINE
  5
1F8
330
A
100
AcDbEntity
  8
1
  6
Continuous
 62
     7
100
AcDbSpline
210
0.0
220
0.0
230
1.0
 70
    11
 71
     3
 72
    83
 73
    79
 74
    77
 42
0.0000000001
 43
0.0000000001
 44
0.00000000001
 40
0.0
 40
0.0
 40
0.0
 40
0.0
 40
0.050357138808184
 40
0.1007528585556731
 40
0.1533331924322097
 40
0.2059760976363123
 40
0.2618228355712788
 40
0.3177369018560935
 40
0.3773725926277111
 40
0.437066714443334
 40
0.5005028030507626
 40
0.5639832980879369
 40
0.630802316684186
 40
0.6976519812461061
 40
0.7671111218720182
 40
0.8365891465183443
 40
0.9077212034329745
 40
0.9788622072312605
 40
1.050569110477938
 40
1.122276013724594
 40
1.193417017522792
 40
1.264549074437295
 40
1.334027099083677
 40
1.403486239709589
 40
1.470335904271537
 40
1.537154922867945
 40
1.600635417905164
 40
1.664071506512622
 40
1.723765628328257
 40
1.783401319099858
 40
1.839315385384639
 40
1.895162123319623
 40
1.947805028523703
 40
2.00038536239995
 40
2.050781082147079
 40
2.101138220955449
 40
2.150717731223164
 40
2.200297241491246
 40
2.250654380299562
 40
2.301050100047798
 40
2.353630433923957
 40
2.406273339128276
 40
2.46212007706301
 40
2.518034143347492
 40
2.577669834118777
 40
2.637363955933601
 40
2.700800044541186
 40
2.764280539578853
 40
2.831099558175651
 40
2.897949222737762
 40
2.96740836336354
 40
3.036886388009716
 40
3.108018444924169
 40
3.179159448722364
 40
3.250866351969023
 40
3.322573255215703
 40
3.393714259013997
 40
3.464846315928479
 40
3.534324340574585
 40
3.603783481200391
 40
3.670633145762508
 40
3.737452164359334
 40
3.800932659396826
 40
3.864368748004315
 40
3.924062869819111
 40
3.983698560590492
 40
4.039612626875065
 40
4.095459364809821
 40
4.14810227001414
 40
4.200682603890277
 40
4.251078323638513
 40
4.301435462447004
 40
4.35110600018768
 40
4.400963187197313
 40
4.426092625012072
 40
4.451222062826948
 40
4.476444248410577
 40
4.501295442919494
 40
4.501295442919494
 40
4.501295442919494
 40
4.501295442919494
 10
-184.801338616206
 20
-45.99680012652529
 30
0.0
 10
-184.8179228319301
 20
-45.99406052137662
 30
0.0
 10
-184.8511039693149
 20
-45.98857921214075
 30
0.0
 10
-184.8997397713153
 20
-45.97224641602448
 30
0.0
 10
-184.9469281319568
 20
-45.95049314888593
 30
0.0
 10
-184.9928341575595
 20
-45.9224263430435
 30
0.0
 10
-185.0364320622309
 20
-45.88906763985192
 30
0.0
 10
-185.0781786556995
 20
-45.84993819492162
 30
0.0
 10
-185.1169881095573
 20
-45.80617180949731
 30
0.0
 10
-185.153360041798
 20
-45.75721361220753
 30
0.0
 10
-185.1863192916535
 20
-45.70438139286046
 30
0.0
 10
-185.2162708948155
 20
-45.64710464331031
 30
0.0
 10
-185.2424537908107
 20
-45.58676837165741
 30
0.0
 10
-185.2651242602477
 20
-45.52291492483725
 30
0.0
 10
-185.2837696645054
 20
-45.4568511758211
 30
0.0
 10
-185.2985096838801
 20
-45.38835138775403
 30
0.0
 10
-185.3090574307862
 20
-45.31851518589609
 30
0.0
 10
-185.3154516198525
 20
-45.24743300776833
 30
0.0
 10
-185.3175707563027
 20
-45.17590361303378
 30
0.0
 10
-185.3154516198527
 20
-45.10437421829722
 30
0.0
 10
-185.3090574307858
 20
-45.03329204017551
 30
0.0
 10
-185.2985096838827
 20
-44.96345583829591
 30
0.0
 10
-185.283769664498
 20
-44.89495605030772
 30
0.0
 10
-185.2651242602775
 20
-44.82889230100243
 30
0.0
 10
-185.2424537907061
 20
-44.76503885522214
 30
0.0
 10
-185.2162708952
 20
-44.70470257978557
 30
0.0
 10
-185.1863192902983
 20
-44.64742584367807
 30
0.0
 10
-185.1533600467344
 20
-44.59459357571697
 30
0.0
 10
-185.1169880923445
 20
-44.54563554956822
 30
0.0
 10
-185.0781787183046
 20
-44.50186854741484
 30
0.0
 10
-185.0364318448293
 20
-44.46274126600995
 30
0.0
 10
-184.9928349499003
 20
-44.42937476085004
 30
0.0
 10
-184.9469253639667
 20
-44.40133546459006
 30
0.0
 10
-184.8997499269762
 20
-44.37948234037373
 30
0.0
 10
-184.8510678218584
 20
-44.36350731422044
 30
0.0
 10
-184.8017288151902
 20
-44.35401324769619
 30
0.0
 10
-184.7518623244829
 20
-44.35071625788657
 30
0.0
 10
-184.7019958337756
 20
-44.3540132476961
 30
0.0
 10
-184.6526568271071
 20
-44.36350731422068
 30
0.0
 10
-184.6039747219887
 20
-44.37948234037341
 30
0.0
 10
-184.556799284998
 20
-44.40133546459022
 30
0.0
 10
-184.5108896990644
 20
-44.42937476085004
 30
0.0
 10
-184.4672928041354
 20
-44.46274126600989
 30
0.0
 10
-184.4255459306607
 20
-44.50186854741491
 30
0.0
 10
-184.3867365566208
 20
-44.54563554956772
 30
0.0
 10
-184.3503646022323
 20
-44.59459357571708
 30
0.0
 10
-184.3174053586686
 20
-44.64742584367818
 30
0.0
 10
-184.2874537537658
 20
-44.70470257978543
 30
0.0
 10
-184.2612708582589
 20
-44.76503885522205
 30
0.0
 10
-184.2386003886875
 20
-44.82889230100252
 30
0.0
 10
-184.2199549844668
 20
-44.89495605030766
 30
0.0
 10
-184.2052149650834
 20
-44.96345583829608
 30
0.0
 10
-184.1946672181814
 20
-45.03329204017563
 30
0.0
 10
-184.1882730291126
 20
-45.10437421829729
 30
0.0
 10
-184.1861538926633
 20
-45.1759036130334
 30
0.0
 10
-184.1882730291118
 20
-45.24743300776971
 30
0.0
 10
-184.1946672181845
 20
-45.318515185891
 30
0.0
 10
-184.2052149650722
 20
-45.38835138777202
 30
0.0
 10
-184.219954984508
 20
-45.45685117575514
 30
0.0
 10
-184.2386003885363
 20
-45.52291492507968
 30
0.0
 10
-184.2612708587993
 20
-45.58676837079038
 30
0.0
 10
-184.2874537517902
 20
-45.64710464648095
 30
0.0
 10
-184.3174053656323
 20
-45.70438138168523
 30
0.0
 10
-184.350364576867
 20
-45.75721365291197
 30
0.0
 10
-184.3867366450669
 20
-45.80617166756434
 30
0.0
 10
-184.4255456089729
 20
-45.84993871114808
 30
0.0
 10
-184.4672939212235
 20
-45.88906584721127
 30
0.0
 10
-184.5108856277294
 20
-45.92243287649406
 30
0.0
 10
-184.5568135079384
 20
-45.95047032470723
 30
0.0
 10
-184.603922538509
 20
-45.9723301571515
 30
0.0
 10
-184.6528425658963
 20
-45.98828114893061
 30
0.0
 10
-184.7013361192794
 20
-45.99786938790595
 30
0.0
 10
-184.7545547887766
 20
-46.00084276249075
 30
0.0
 10
-184.7860720089276
 20
-45.9990248021237
 30
0.0
 10
-184.8397215346514
 20
-45.99179134186593
 30
0.0
 10
-184.8015159111223
 20
-45.99678994888631
 30
0.0
 10
-184.7643127293363
 20
-46.00158282027943
 30
0.0
 10
-184.789057765479
 20
-45.99838646389715
 30
0.0
 10
-184.801338616206
 20
-45.99680012652529
 30
0.0
 11
-184.801338616206
 21
-45.99680012652529
 31
0.0
 11
-184.8507856706772
 21
-45.98726963686996
 31
0.0
 11
-184.8987025295806
 21
-45.97165864069108
 31
0.0
 11
-184.9464303462148
 21
-45.94959629652963
 31
0.0
 11
-184.9914147935734
 21
-45.92225265075643
 31
0.0
 11
-185.0358108480815
 21
-45.88837273809286
 31
0.0
 11
-185.0766740307173
 21
-45.85020752993968
 31
0.0
 11
-185.1163060455288
 21
-45.80564612269317
 31
0.0
 11
-185.1519674521964
 21
-45.75777491784278
 31
0.0
 11
-185.1856132631549
 21
-45.70399669973588
 31
0.0
 11
-185.2150807694329
 21
-45.64777002169137
 31
0.0
 11
-185.2417415808879
 21
-45.5865002707638
 31
0.0
 11
-185.2641444920594
 21
-45.52351624720954
 31
0.0
 11
-185.2830582473379
 21
-45.45668180939673
 31
0.0
 11
-185.2976948152424
 21
-45.3887629844015
 31
0.0
 11
-185.3083482050545
 21
-45.31843322678484
 31
0.0
 11
-185.3147259305194
 21
-45.24757867831177
 31
0.0
 11
-185.3168625143752
 21
-45.17590361303343
 31
0.0
 11
-185.3147259305194
 21
-45.1042285477551
 31
0.0
 11
-185.3083482050547
 21
-45.0333739992821
 31
0.0
 11
-185.2976948152429
 21
-44.96304424166552
 31
0.0
 11
-185.2830582473384
 21
-44.89512541667024
 31
0.0
 11
-185.2641444920599
 21
-44.82829097885743
 31
0.0
 11
-185.2417415808883
 21
-44.76530695530317
 31
0.0
 11
-185.2150807694329
 21
-44.7040372043756
 31
0.0
 11
-185.1856132631549
 21
-44.64781052633104
 31
0.0
 11
-185.1519674521964
 21
-44.5940323082241
 31
0.0
 11
-185.1163060455288
 21
-44.5461611033737
 31
0.0
 11
-185.0766740307173
 21
-44.50159969612721
 31
0.0
 11
-185.0358108480815
 21
-44.46343448797408
 31
0.0
 11
-184.9914147935734
 21
-44.42955457531049
 31
0.0
 11
-184.9464303462148
 21
-44.40221092953732
 31
0.0
 11
-184.8987025295809
 21
-44.38014858537589
 31
0.0
 11
-184.8507856706779
 21
-44.36453758919695
 31
0.0
 11
-184.8013386162065
 21
-44.35500709954168
 31
0.0
 11
-184.7518623244831
 21
-44.35180953864521
 31
0.0
 11
-184.7023860327593
 21
-44.35500709954167
 31
0.0
 11
-184.652938978288
 21
-44.36453758919695
 31
0.0
 11
-184.6050221193838
 21
-44.38014858537589
 31
0.0
 11
-184.55729430275
 21
-44.40221092953736
 31
0.0
 11
-184.5123098553912
 21
-44.42955457531061
 31
0.0
 11
-184.4679138008833
 21
-44.46343448797409
 31
0.0
 11
-184.4270506182479
 21
-44.50159969612718
 31
0.0
 11
-184.3874186034366
 21
-44.54616110337349
 31
0.0
 11
-184.3517571967703
 21
-44.5940323082238
 31
0.0
 11
-184.3181113858119
 21
-44.64781052633095
 31
0.0
 11
-184.288643879533
 21
-44.70403720437553
 31
0.0
 11
-184.2619830680768
 21
-44.76530695530319
 31
0.0
 11
-184.2395801569051
 21
-44.82829097885757
 31
0.0
 11
-184.2206664016267
 21
-44.89512541667028
 31
0.0
 11
-184.2060298337233
 21
-44.96304424166559
 31
0.0
 11
-184.1953764439121
 21
-45.0333739992822
 31
0.0
 11
-184.1889987184462
 21
-45.1042285477551
 31
0.0
 11
-184.1868621345904
 21
-45.17590361303343
 31
0.0
 11
-184.1889987184462
 21
-45.24757867831177
 31
0.0
 11
-184.1953764439121
 21
-45.31843322678477
 31
0.0
 11
-184.2060298337233
 21
-45.38876298440141
 31
0.0
 11
-184.2206664016267
 21
-45.45668180939665
 31
0.0
 11
-184.2395801569051
 21
-45.52351624720938
 31
0.0
 11
-184.2619830680768
 21
-45.58650027076377
 31
0.0
 11
-184.2886438795332
 21
-45.64777002169138
 31
0.0
 11
-184.3181113858119
 21
-45.70399669973586
 31
0.0
 11
-184.3517571967703
 21
-45.7577749178429
 31
0.0
 11
-184.3874186034366
 21
-45.80564612269317
 31
0.0
 11
-184.4270506182479
 21
-45.85020752993961
 31
0.0
 11
-184.4679138008833
 21
-45.88837273809284
 31
0.0
 11
-184.5123098553912
 21
-45.92225265075636
 31
0.0
 11
-184.55729430275
 21
-45.94959629652961
 31
0.0
 11
-184.6050221193838
 21
-45.97165864069102
 31
0.0
 11
-184.652938978288
 21
-45.98726963686996
 31
0.0
 11
-184.7023860327595
 21
-45.99680012652529
 31
0.0
 11
-184.7519543070495
 21
-45.99998579809671
 31
0.0
 11
-184.8017065464722
 21
-45.99675256922501
 31
0.0
 11
-184.8266286574665
 21
-45.9935312296784
 31
0.0
 11
-184.8017065464721
 21
-45.99675256922504
 31
0.0
 11
-184.7766924529111
 21
-45.99998579809671
 31
0.0
 11
-184.801338616206
 21
-45.99680012652529
 31
0.0
  0
SPLINE
  5
1F7
330
A
100
AcDbEntity
  8
1
  6
Continuous
 62
     7
100
AcDbSpline
210
0.0
220
0.0
230
1.0
 70
    11
 71
     3
 72
    83
 73
    79
 74
    77
 42
0.0000000001
 43
0.0000000001
 44
0.00000000001
 40
0.0
 40
0.0
 40
0.0
 40
0.0
 40
0.0681942241707945
 40
0.1365123484840842
 40
0.210291286202269
 40
0.2842550938829258
 40
0.3659900278812151
 40
0.4478989584330798
 40
0.5385414845247674
 40
0.6293117142416668
 40
0.7286006464097874
 40
0.8279728421186222
 40
0.934764574138529
 40
1.041607436743306
 40
1.154151324026272
 40
1.266724320003536
 40
1.382872277694728
 40
1.499033418368895
 40
1.616411370889618
 40
1.733789323410328
 40
1.849950464084502
 40
1.966098421775665
 40
2.078671417752977
 40
2.19121530503606
 40
2.298058167640856
 40
2.404849899660731
 40
2.504222095369365
 40
2.603511027537454
 40
2.694281257254252
 40
2.784923783345816
 40
2.866832713897328
 40
2.94856764789545
 40
3.022531455576368
 40
3.096310393295624
 40
3.164628517609099
 40
3.232822741779908
 40
3.299035092143346
 40
3.365247442507181
 40
3.433441666678094
 40
3.501759790991637
 40
3.575538728710481
 40
3.649502536391999
 40
3.731237470390061
 40
3.813146400941615
 40
3.903788927032736
 40
3.994559156749526
 40
4.093848088917922
 40
4.193220284626776
 40
4.300012016646689
 40
4.406854879251541
 40
4.519398766534598
 40
4.631971762511947
 40
4.748119720203051
 40
4.864280860877194
 40
4.981658813397922
 40
5.099036765918651
 40
5.215197906592793
 40
5.331345864283846
 40
5.443918860261158
 40
5.556462747544304
 40
5.663305610149256
 40
5.770097342169251
 40
5.869469537877974
 40
5.968758470045948
 40
6.059528699762736
 40
6.150171225854177
 40
6.232080156406104
 40
6.313815090404499
 40
6.387778898085455
 40
6.461557835803316
 40
6.529875960116682
 40
6.598070184287863
 40
6.664507432547661
 40
6.731412253958658
 40
6.765301600337715
 40
6.799190946717085
 40
6.833311841113601
 40
6.866506543441728
 40
6.866506543441728
 40
6.866506543441728
 40
6.866506543441728
 10
-207.8028599115794
 20
61.49466095039596
 30
0.0
 10
-207.8251758570062
 20
61.49009128054325
 30
0.0
 10
-207.8698482930652
 20
61.48094363833491
 30
0.0
 10
-207.9348456823093
 20
61.4537019195438
 30
0.0
 10
-207.9974593100721
 20
61.41781572675152
 30
0.0
 10
-208.0585285941133
 20
61.37143189214448
 30
0.0
 10
-208.1160394527802
 20
61.31676289151979
 30
0.0
 10
-208.1714232778979
 20
61.25243712187857
 30
0.0
 10
-208.2225355837238
 20
61.18094281890297
 30
0.0
 10
-208.2707423653853
 20
61.10064952067045
 30
0.0
 10
-208.3141746959588
 20
61.01440706666896
 30
0.0
 10
-208.3538612556383
 20
60.92057053658542
 30
0.0
 10
-208.3884032746185
 20
60.8220484434295
 30
0.0
 10
-208.4184394294323
 20
60.71749641409802
 30
0.0
 10
-208.4430625823207
 20
60.60956111945197
 30
0.0
 10
-208.4625910462921
 20
60.49744580013002
 30
0.0
 10
-208.4765286605795
 20
60.3832841707932
 30
0.0
 10
-208.4850029347133
 20
60.26698459518319
 30
0.0
 10
-208.4877971925026
 20
60.15000000000014
 30
0.0
 10
-208.4850029347137
 20
60.0330154048127
 30
0.0
 10
-208.476528660578
 20
59.91671582921567
 30
0.0
 10
-208.462591046298
 20
59.80255419983192
 30
0.0
 10
-208.4430625822991
 20
59.69043888067964
 30
0.0
 10
-208.4184394295107
 20
59.58250358541532
 30
0.0
 10
-208.38840327434
 20
59.47795155827917
 30
0.0
 10
-208.3538612566453
 20
59.37942945721218
 30
0.0
 10
-208.3141746924895
 20
59.28559295468591
 30
0.0
 10
-208.2707423778827
 20
59.19935040240108
 30
0.0
 10
-208.2225355415313
 20
59.11905744081028
 30
0.0
 10
-208.1714234291727
 20
59.04756194695805
 30
0.0
 10
-208.1160389487429
 20
58.98324021106277
 30
0.0
 10
-208.058530401544
 20
58.92855698230793
 30
0.0
 10
-207.9974532790141
 20
58.88222139713899
 30
0.0
 10
-207.9348674993622
 20
58.84616378663142
 30
0.0
 10
-207.8697735836151
 20
58.81951623209686
 30
0.0
 10
-207.803784014465
 20
58.80377570379939
 30
0.0
 10
-207.7368623244658
 20
58.79815560241679
 30
0.0
 10
-207.6699406344666
 20
58.80377570379937
 30
0.0
 10
-207.6039510653164
 20
58.81951623209687
 30
0.0
 10
-207.5388571495692
 20
58.84616378663118
 30
0.0
 10
-207.4762713699175
 20
58.88222139713934
 30
0.0
 10
-207.4151942473872
 20
58.92855698230765
 30
0.0
 10
-207.3576857001884
 20
58.98324021106308
 30
0.0
 10
-207.3023012197584
 20
59.0475619469579
 30
0.0
 10
-207.2511891074005
 20
59.11905744081042
 30
0.0
 10
-207.2029822710488
 20
59.19935040240101
 30
0.0
 10
-207.1595499564419
 20
59.28559295468589
 30
0.0
 10
-207.1198633922855
 20
59.37942945721219
 30
0.0
 10
-207.0853213745907
 20
59.47795155827918
 30
0.0
 10
-207.0552852194196
 20
59.58250358541529
 30
0.0
 10
-207.0306620666314
 20
59.69043888067968
 30
0.0
 10
-207.0111336026321
 20
59.80255419983194
 30
0.0
 10
-206.9971959883527
 20
59.91671582921561
 30
0.0
 10
-206.9887217142168
 20
60.03301540481292
 30
0.0
 10
-206.9859274564288
 20
60.14999999999934
 30
0.0
 10
-206.9887217142154
 20
60.26698459518612
 30
0.0
 10
-206.9971959883583
 20
60.38328417078242
 30
0.0
 10
-207.0111336026115
 20
60.49744580016962
 30
0.0
 10
-207.0306620667032
 20
60.60956111930932
 30
0.0
 10
-207.0552852191538
 20
60.71749641461971
 30
0.0
 10
-207.0853213755258
 20
60.82204844159228
 30
0.0
 10
-207.1198633888942
 20
60.92057054324858
 30
0.0
 10
-207.1595499681211
 20
61.01440704372193
 30
0.0
 10
-207.2029822289777
 20
61.10064960332831
 30
0.0
 10
-207.2511892494335
 20
61.18094253984181
 30
0.0
 10
-207.3023007105197
 20
61.25243812240506
 30
0.0
 10
-207.3576873969436
 20
61.31675955781826
 30
0.0
 10
-207.415188162998
 20
61.37144384645527
 30
0.0
 10
-207.4762916724
 20
61.41777583742669
 30
0.0
 10
-207.5387837063518
 20
61.45384621718185
 30
0.0
 10
-207.6042025613463
 20
61.48044951123833
 30
0.0
 10
-207.6690849351885
 20
61.49636828615625
 30
0.0
 10
-207.7406225149308
 20
61.50141066507824
 30
0.0
 10
-207.7829800738249
 20
61.49828785603019
 30
0.0
 10
-207.8547960476127
 20
61.48619533492415
 30
0.0
 10
-207.8034960084688
 20
61.49457949767097
 30
0.0
 10
-207.7535146458093
 20
61.50262397402503
 30
0.0
 10
-207.7865630601723
 20
61.49729083212441
 30
0.0
 10
-207.8028599115794
 20
61.49466095039596
 30
0.0
 11
-207.8028599115794
 21
61.49466095039596
 31
0.0
 11
-207.8691891630517
 21
61.47882167612657
 31
0.0
 11
-207.9325243517553
 21
61.45320878910528
 31
0.0
 11
-207.9965335342206
 21
61.41651878759332
 31
0.0
 11
-208.0556143810808
 21
61.37202049121134
 31
0.0
 11
-208.1150077532023
 21
61.31586867215138
 31
0.0
 11
-208.1685997920304
 21
61.25392542168454
 31
0.0
 11
-208.2214977067413
 21
61.18031918447925
 31
0.0
 11
-208.2683397262965
 21
61.10256920179853
 31
0.0
 11
-208.3131630811913
 21
61.01397372275442
 31
0.0
 11
-208.3519598247149
 21
60.92248795352247
 31
0.0
 11
-208.3874222982393
 21
60.82175619587206
 31
0.0
 11
-208.4169825401708
 21
60.71908395334014
 31
0.0
 11
-208.4421066618241
 21
60.60938023838065
 31
0.0
 11
-208.4614550262129
 21
60.49848244661375
 31
0.0
 11
-208.4755886130968
 21
60.38319762628761
 31
0.0
 11
-208.4840333329105
 21
60.26734385073415
 31
0.0
 11
-208.4868625435248
 21
60.14999999999941
 31
0.0
 11
-208.4840333329105
 21
60.03265614926468
 31
0.0
 11
-208.4755886130968
 21
59.91680237371121
 31
0.0
 11
-208.4614550262129
 21
59.80151755338511
 31
0.0
 11
-208.442106661824
 21
59.69061976161817
 31
0.0
 11
-208.4169825401703
 21
59.58091604665866
 31
0.0
 11
-208.3874222982387
 21
59.47824380412676
 31
0.0
 11
-208.3519598247145
 21
59.37751204647629
 31
0.0
 11
-208.3131630811913
 21
59.28602627724439
 31
0.0
 11
-208.2683397262965
 21
59.19743079820031
 31
0.0
 11
-208.2214977067414
 21
59.11968081551965
 31
0.0
 11
-208.1685997920309
 21
59.04607457831424
 31
0.0
 11
-208.1150077532034
 21
58.98413132784735
 31
0.0
 11
-208.0556143810819
 21
58.9279795087876
 31
0.0
 11
-207.9965335342214
 21
58.88348121240557
 31
0.0
 11
-207.9325243517549
 21
58.84679121089353
 31
0.0
 11
-207.8691891630511
 21
58.82117832387225
 31
0.0
 11
-207.8028599115788
 21
58.80533904960278
 31
0.0
 11
-207.736862324466
 21
58.80001046292914
 31
0.0
 11
-207.6708647373528
 21
58.80533904960278
 31
0.0
 11
-207.6045354858804
 21
58.82117832387223
 31
0.0
 11
-207.5412002971765
 21
58.84679121089348
 31
0.0
 11
-207.4771911147105
 21
58.88348121240553
 31
0.0
 11
-207.4181102678493
 21
58.92797950878765
 31
0.0
 11
-207.358716895728
 21
58.98413132784749
 31
0.0
 11
-207.3051248569004
 21
59.04607457831434
 31
0.0
 11
-207.2522269421904
 21
59.11968081551957
 31
0.0
 11
-207.2053849226352
 21
59.19743079820015
 31
0.0
 11
-207.16056156774
 21
59.28602627724439
 31
0.0
 11
-207.1217648242164
 21
59.37751204647636
 31
0.0
 11
-207.086302350692
 21
59.47824380412678
 31
0.0
 11
-207.0567421087601
 21
59.58091604665867
 31
0.0
 11
-207.0316179871065
 21
59.69061976161817
 31
0.0
 11
-207.0122696227175
 21
59.80151755338513
 31
0.0
 11
-206.9981360358339
 21
59.91680237371121
 31
0.0
 11
-206.9896913160203
 21
60.03265614926466
 31
0.0
 11
-206.9868621054061
 21
60.14999999999941
 31
0.0
 11
-206.9896913160203
 21
60.26734385073416
 31
0.0
 11
-206.9981360358339
 21
60.3831976262876
 31
0.0
 11
-207.0122696227171
 21
60.49848244661369
 31
0.0
 11
-207.0316179871058
 21
60.60938023838065
 31
0.0
 11
-207.0567421087598
 21
60.71908395334016
 31
0.0
 11
-207.086302350692
 21
60.82175619587207
 31
0.0
 11
-207.1217648242165
 21
60.92248795352254
 31
0.0
 11
-207.1605615677399
 21
61.01397372275444
 31
0.0
 11
-207.2053849226345
 21
61.10256920179852
 31
0.0
 11
-207.2522269421896
 21
61.18031918447915
 31
0.0
 11
-207.3051248569
 21
61.25392542168449
 31
0.0
 11
-207.358716895728
 21
61.31586867215149
 31
0.0
 11
-207.4181102678497
 21
61.37202049121139
 31
0.0
 11
-207.4771911147104
 21
61.41651878759326
 31
0.0
 11
-207.5412002971753
 21
61.45320878910522
 31
0.0
 11
-207.604535485879
 21
61.47882167612657
 31
0.0
 11
-207.6708647373517
 21
61.49466095039596
 31
0.0
 11
-207.7370909114338
 21
61.49995262525135
 31
0.0
 11
-207.8037742594513
 21
61.49451330312286
 31
0.0
 11
-207.8372302269435
 21
61.48911089281269
 31
0.0
 11
-207.803774259451
 21
61.49451330312289
 31
0.0
 11
-207.7700897049905
 21
61.49995262525136
 31
0.0
 11
-207.8028599115794
 21
61.49466095039596
 31
0.0
  0
SPLINE
  5
1F6
330
A
100
AcDbEntity
  8
1
  6
Continuous
 62
     7
100
AcDbSpline
210
0.0
220
0.0
230
1.0
 70
    11
 71
     3
 72
    83
 73
    79
 74
    77
 42
0.0000000001
 43
0.0000000001
 44
0.00000000001
 40
0.0
 40
0.0
 40
0.0
 40
0.0
 40
0.0681942241708011
 40
0.136512348484299
 40
0.2102912862029206
 40
0.2842550938839067
 40
0.3659900278822809
 40
0.4478989584339973
 40
0.5385414845257274
 40
0.6293117142423166
 40
0.7286006464101997
 40
0.827972842119097
 40
0.9347645741390413
 40
1.041607436743801
 40
1.154151324026742
 40
1.266724320003999
 40
1.382872277695222
 40
1.499033418369432
 40
1.616411370890141
 40
1.733789323410851
 40
1.849950464085031
 40
1.966098421776198
 40
2.07867141775349
 40
2.191215305036425
 40
2.298058167641218
 40
2.40484989966118
 40
2.504222095369804
 40
2.603511027537887
 40
2.694281257254703
 40
2.784923783346589
 40
2.866832713898473
 40
2.948567647896536
 40
3.022531455577552
 40
3.09631039329666
 40
3.164628517610197
 40
3.232822741781221
 40
3.299035092144548
 40
3.365247442507678
 40
3.433441666678398
 40
3.501759790992335
 40
3.575538728711408
 40
3.649502536392522
 40
3.73123747039059
 40
3.813146400942082
 40
3.903788927033498
 40
3.994559156750452
 40
4.093848088918687
 40
4.193220284627558
 40
4.300012016647396
 40
4.406854879252263
 40
4.519398766535376
 40
4.631971762512643
 40
4.748119720203681
 40
4.864280860877798
 40
4.981658813398544
 40
5.099036765919304
 40
5.215197906593421
 40
5.331345864284459
 40
5.443918860261772
 40
5.556462747544984
 40
5.663305610149899
 40
5.770097342169788
 40
5.869469537878192
 40
5.968758470046083
 40
6.059528699763049
 40
6.15017122585474
 40
6.232080156406755
 40
6.313815090405435
 40
6.387778898086014
 40
6.461557835803835
 40
6.529875960116596
 40
6.598070184287612
 40
6.664507432547522
 40
6.731412253958548
 40
6.765301600337775
 40
6.799190946717287
 40
6.83331184111355
 40
6.866506543441505
 40
6.866506543441505
 40
6.866506543441505
 40
6.866506543441505
 10
-212.7708647373516
 20
61.49466095039599
 30
0.0
 10
-212.7485487919247
 20
61.49009128054326
 30
0.0
 10
-212.7038763558656
 20
61.48094363833486
 30
0.0
 10
-212.6388789666214
 20
61.45370191954377
 30
0.0
 10
-212.5762653388582
 20
61.41781572675151
 30
0.0
 10
-212.5151960548165
 20
61.37143189214444
 30
0.0
 10
-212.4576851961494
 20
61.31676289151993
 30
0.0
 10
-212.4023013710321
 20
61.2524371218783
 30
0.0
 10
-212.351189065206
 20
61.18094281890313
 30
0.0
 10
-212.3029822835449
 20
61.10064952067045
 30
0.0
 10
-212.2595499529722
 20
61.01440706666881
 30
0.0
 10
-212.2198633932922
 20
60.92057053658553
 30
0.0
 10
-212.1853213743122
 20
60.82204844342949
 30
0.0
 10
-212.1552852194984
 20
60.71749641409802
 30
0.0
 10
-212.1306620666101
 20
60.60956111945194
 30
0.0
 10
-212.1111336026387
 20
60.49744580013001
 30
0.0
 10
-212.0971959883512
 20
60.38328417079323
 30
0.0
 10
-212.0887217142167
 20
60.26698459518319
 30
0.0
 10
-212.0859274564276
 20
60.15000000000013
 30
0.0
 10
-212.0887217142164
 20
60.0330154048127
 30
0.0
 10
-212.0971959883523
 20
59.91671582921565
 30
0.0
 10
-212.1111336026322
 20
59.80255419983194
 30
0.0
 10
-212.1306620666312
 20
59.69043888067972
 30
0.0
 10
-212.1552852194189
 20
59.58250358541526
 30
0.0
 10
-212.1853213745895
 20
59.47795155827908
 30
0.0
 10
-212.2198633922847
 20
59.37942945721229
 30
0.0
 10
-212.2595499564404
 20
59.28559295468589
 30
0.0
 10
-212.3029822710472
 20
59.19935040240118
 30
0.0
 10
-212.3511891073986
 20
59.11905744081016
 30
0.0
 10
-212.4023012197576
 20
59.04756194695797
 30
0.0
 10
-212.4576857001881
 20
58.98324021106302
 30
0.0
 10
-212.5151942473868
 20
58.92855698230771
 30
0.0
 10
-212.5762713699169
 20
58.88222139713914
 30
0.0
 10
-212.6388571495687
 20
58.84616378663135
 30
0.0
 10
-212.7039510653158
 20
58.8195162320968
 30
0.0
 10
-212.769940634466
 20
58.80377570379946
 30
0.0
 10
-212.836862324465
 20
58.79815560241674
 30
0.0
 10
-212.9037840144639
 20
58.80377570379939
 30
0.0
 10
-212.9697735836139
 20
58.81951623209697
 30
0.0
 10
-213.0348674993613
 20
58.84616378663116
 30
0.0
 10
-213.0974532790131
 20
58.88222139713913
 30
0.0
 10
-213.1585304015432
 20
58.92855698230787
 30
0.0
 10
-213.2160389487419
 20
58.98324021106301
 30
0.0
 10
-213.2714234291719
 20
59.04756194695799
 30
0.0
 10
-213.3225355415302
 20
59.11905744081034
 30
0.0
 10
-213.3707423778822
 20
59.19935040240095
 30
0.0
 10
-213.4141746924887
 20
59.28559295468598
 30
0.0
 10
-213.4538612566454
 20
59.37942945721212
 30
0.0
 10
-213.4884032743398
 20
59.47795155827924
 30
0.0
 10
-213.5184394295109
 20
59.58250358541531
 30
0.0
 10
-213.5430625822996
 20
59.6904388806796
 30
0.0
 10
-213.5625910462982
 20
59.80255419983194
 30
0.0
 10
-213.576528660577
 20
59.91671582921566
 30
0.0
 10
-213.5850029347129
 20
60.0330154048129
 30
0.0
 10
-213.5877971925012
 20
60.14999999999935
 30
0.0
 10
-213.5850029347143
 20
60.26698459518613
 30
0.0
 10
-213.5765286605715
 20
60.38328417078241
 30
0.0
 10
-213.5625910463185
 20
60.49744580016965
 30
0.0
 10
-213.5430625822268
 20
60.60956111930934
 30
0.0
 10
-213.5184394297759
 20
60.71749641461972
 30
0.0
 10
-213.4884032734041
 20
60.82204844159225
 30
0.0
 10
-213.4538612600359
 20
60.92057054324851
 30
0.0
 10
-213.4141746808098
 20
61.01440704372206
 30
0.0
 10
-213.3707424199532
 20
61.10064960332826
 30
0.0
 10
-213.3225353994972
 20
61.18094253984183
 30
0.0
 10
-213.2714239384105
 20
61.25243812240498
 30
0.0
 10
-213.2160372519866
 20
61.31675955781841
 30
0.0
 10
-213.1585364859321
 20
61.37144384645515
 30
0.0
 10
-213.0974329765303
 20
61.41777583742687
 30
0.0
 10
-213.0349409425785
 20
61.45384621718164
 30
0.0
 10
-212.9695220875845
 20
61.48044951123845
 30
0.0
 10
-212.9046397137425
 20
61.49636828615626
 30
0.0
 10
-212.8331021340002
 20
61.50141066507823
 30
0.0
 10
-212.7907445751061
 20
61.49828785603016
 30
0.0
 10
-212.7189286013181
 20
61.48619533492418
 30
0.0
 10
-212.7702286404619
 20
61.49457949767091
 30
0.0
 10
-212.8202100031213
 20
61.50262397402504
 30
0.0
 10
-212.7871615887585
 20
61.49729083212442
 30
0.0
 10
-212.7708647373516
 20
61.49466095039599
 30
0.0
 11
-212.7708647373516
 21
61.49466095039599
 31
0.0
 11
-212.7045354858793
 21
61.47882167612657
 31
0.0
 11
-212.6412002971755
 21
61.45320878910529
 31
0.0
 11
-212.5771911147097
 21
61.41651878759329
 31
0.0
 11
-212.5181102678491
 21
61.37202049121126
 31
0.0
 11
-212.4587168957274
 21
61.31586867215135
 31
0.0
 11
-212.4051248568996
 21
61.25392542168446
 31
0.0
 11
-212.3522269421886
 21
61.18031918447922
 31
0.0
 11
-212.3053849226339
 21
61.10256920179858
 31
0.0
 11
-212.2605615677396
 21
61.01397372275444
 31
0.0
 11
-212.2217648242158
 21
60.92248795352252
 31
0.0
 11
-212.1863023506914
 21
60.82175619587206
 31
0.0
 11
-212.15674210876
 21
60.71908395334013
 31
0.0
 11
-212.1316179871068
 21
60.60938023838065
 31
0.0
 11
-212.112269622718
 21
60.49848244661376
 31
0.0
 11
-212.0981360358339
 21
60.38319762628761
 31
0.0
 11
-212.0896913160198
 21
60.26734385073414
 31
0.0
 11
-212.0868621054055
 21
60.14999999999941
 31
0.0
 11
-212.0896913160198
 21
60.03265614926468
 31
0.0
 11
-212.0981360358336
 21
59.91680237371121
 31
0.0
 11
-212.1122696227175
 21
59.80151755338511
 31
0.0
 11
-212.1316179871063
 21
59.69061976161817
 31
0.0
 11
-212.1567421087594
 21
59.58091604665868
 31
0.0
 11
-212.186302350691
 21
59.47824380412676
 31
0.0
 11
-212.2217648242155
 21
59.37751204647632
 31
0.0
 11
-212.2605615677386
 21
59.28602627724441
 31
0.0
 11
-212.3053849226335
 21
59.19743079820036
 31
0.0
 11
-212.3522269421886
 21
59.11968081551968
 31
0.0
 11
-212.4051248568996
 21
59.04607457831424
 31
0.0
 11
-212.4587168957277
 21
58.98413132784735
 31
0.0
 11
-212.518110267849
 21
58.92797950878754
 31
0.0
 11
-212.5771911147097
 21
58.88348121240557
 31
0.0
 11
-212.641200297176
 21
58.84679121089353
 31
0.0
 11
-212.7045354858799
 21
58.82117832387223
 31
0.0
 11
-212.7708647373524
 21
58.80533904960278
 31
0.0
 11
-212.8368623244651
 21
58.8000104629291
 31
0.0
 11
-212.9028599115776
 21
58.80533904960278
 31
0.0
 11
-212.9691891630498
 21
58.82117832387223
 31
0.0
 11
-213.0325243517541
 21
58.84679121089348
 31
0.0
 11
-213.0965335342204
 21
58.88348121240554
 31
0.0
 11
-213.1556143810811
 21
58.92797950878767
 31
0.0
 11
-213.2150077532024
 21
58.98413132784749
 31
0.0
 11
-213.26859979203
 21
59.04607457831428
 31
0.0
 11
-213.3214977067404
 21
59.11968081551957
 31
0.0
 11
-213.3683397262958
 21
59.19743079820023
 31
0.0
 11
-213.4131630811908
 21
59.2860262772444
 31
0.0
 11
-213.4519598247144
 21
59.37751204647636
 31
0.0
 11
-213.4874222982386
 21
59.47824380412678
 31
0.0
 11
-213.5169825401705
 21
59.58091604665868
 31
0.0
 11
-213.5421066618244
 21
59.69061976161817
 31
0.0
 11
-213.5614550262129
 21
59.80151755338513
 31
0.0
 11
-213.575588613096
 21
59.91680237371121
 31
0.0
 11
-213.5840333329095
 21
60.03265614926464
 31
0.0
 11
-213.5868625435238
 21
60.1499999999994
 31
0.0
 11
-213.5840333329095
 21
60.26734385073417
 31
0.0
 11
-213.575588613096
 21
60.3831976262876
 31
0.0
 11
-213.5614550262129
 21
60.49848244661369
 31
0.0
 11
-213.5421066618242
 21
60.60938023838065
 31
0.0
 11
-213.5169825401701
 21
60.7190839533402
 31
0.0
 11
-213.487422298238
 21
60.8217561958721
 31
0.0
 11
-213.4519598247138
 21
60.92248795352258
 31
0.0
 11
-213.4131630811911
 21
61.01397372275442
 31
0.0
 11
-213.3683397262965
 21
61.10256920179841
 31
0.0
 11
-213.3214977067412
 21
61.18031918447911
 31
0.0
 11
-213.2685997920304
 21
61.25392542168449
 31
0.0
 11
-213.2150077532023
 21
61.31586867215153
 31
0.0
 11
-213.1556143810803
 21
61.37202049121152
 31
0.0
 11
-213.09653353422
 21
61.41651878759329
 31
0.0
 11
-213.0325243517551
 21
61.45320878910522
 31
0.0
 11
-212.9691891630521
 21
61.47882167612657
 31
0.0
 11
-212.9028599115796
 21
61.49466095039596
 31
0.0
 11
-212.8366337374973
 21
61.49995262525135
 31
0.0
 11
-212.7699503894798
 21
61.49451330312286
 31
0.0
 11
-212.7364944219874
 21
61.48911089281268
 31
0.0
 11
-212.7699503894801
 21
61.49451330312289
 31
0.0
 11
-212.8036349439403
 21
61.49995262525136
 31
0.0
 11
-212.7708647373516
 21
61.49466095039599
 31
0.0
  0
SPLINE
  5
1F5
330
A
100
AcDbEntity
  8
1
  6
Continuous
 62
     7
100
AcDbSpline
210
0.0
220
0.0
230
1.0
 70
    11
 71
     3
 72
    83
 73
    79
 74
    77
 42
0.0000000001
 43
0.0000000001
 44
0.00000000001
 40
0.0
 40
0.0
 40
0.0
 40
0.0
 40
0.0681942241707912
 40
0.136512348484297
 40
0.2102912862029151
 40
0.2842550938839055
 40
0.3659900278822943
 40
0.4478989584339892
 40
0.5385414845257194
 40
0.6293117142422905
 40
0.7286006464102116
 40
0.8279728421190958
 40
0.9347645741390468
 40
1.041607436743793
 40
1.154151324026689
 40
1.266724320003967
 40
1.38287227769519
 40
1.499033418369421
 40
1.616411370890147
 40
1.73378932341086
 40
1.849950464085047
 40
1.966098421776221
 40
2.078671417753464
 40
2.191215305036427
 40
2.298058167641206
 40
2.404849899661161
 40
2.504222095369799
 40
2.603511027537881
 40
2.694281257254692
 40
2.784923783346543
 40
2.866832713898286
 40
2.948567647896535
 40
3.022531455577659
 40
3.096310393296668
 40
3.164628517610195
 40
3.23282274178123
 40
3.299035092144554
 40
3.365247442507679
 40
3.43344166667841
 40
3.501759790992343
 40
3.575538728711412
 40
3.649502536392534
 40
3.731237470390587
 40
3.813146400942069
 40
3.903788927033497
 40
3.994559156750463
 40
4.093848088918704
 40
4.193220284627575
 40
4.300012016647393
 40
4.406854879252266
 40
4.519398766535407
 40
4.631971762512645
 40
4.74811972020367
 40
4.8642808608778
 40
4.981658813398561
 40
5.099036765919321
 40
5.215197906593445
 40
5.331345864284483
 40
5.443918860261789
 40
5.556462747544975
 40
5.66330561014991
 40
5.770097342169798
 40
5.869469537878209
 40
5.968758470046093
 40
6.05952869976306
 40
6.150171225854733
 40
6.232080156406738
 40
6.313815090405433
 40
6.387778898086024
 40
6.461557835803835
 40
6.529875960116608
 40
6.598070184287616
 40
6.664507432547526
 40
6.731412253958552
 40
6.765301600337777
 40
6.799190946717292
 40
6.833311841113555
 40
6.866506543441515
 40
6.866506543441515
 40
6.866506543441515
 40
6.866506543441515
 10
-212.7708647373516
 20
-61.49466095039699
 30
0.0
 10
-212.7485487919246
 20
-61.49009128054427
 30
0.0
 10
-212.7038763558656
 20
-61.48094363833591
 30
0.0
 10
-212.6388789666214
 20
-61.45370191954476
 30
0.0
 10
-212.5762653388581
 20
-61.41781572675256
 30
0.0
 10
-212.5151960548165
 20
-61.37143189214544
 30
0.0
 10
-212.4576851961494
 20
-61.31676289152093
 30
0.0
 10
-212.4023013710321
 20
-61.25243712187935
 30
0.0
 10
-212.351189065206
 20
-61.18094281890416
 30
0.0
 10
-212.3029822835449
 20
-61.10064952067148
 30
0.0
 10
-212.2595499529722
 20
-61.01440706666982
 30
0.0
 10
-212.2198633932923
 20
-60.92057053658657
 30
0.0
 10
-212.1853213743122
 20
-60.8220484434305
 30
0.0
 10
-212.1552852194983
 20
-60.71749641409909
 30
0.0
 10
-212.1306620666104
 20
-60.60956111945292
 30
0.0
 10
-212.1111336026387
 20
-60.49744580013108
 30
0.0
 10
-212.097195988351
 20
-60.38328417079425
 30
0.0
 10
-212.0887217142169
 20
-60.26698459518424
 30
0.0
 10
-212.0859274564274
 20
-60.15000000000114
 30
0.0
 10
-212.0887217142165
 20
-60.03301540481372
 30
0.0
 10
-212.0971959883523
 20
-59.91671582921668
 30
0.0
 10
-212.1111336026322
 20
-59.80255419983294
 30
0.0
 10
-212.1306620666312
 20
-59.69043888068076
 30
0.0
 10
-212.1552852194189
 20
-59.5825035854163
 30
0.0
 10
-212.1853213745895
 20
-59.47795155828011
 30
0.0
 10
-212.2198633922847
 20
-59.37942945721331
 30
0.0
 10
-212.2595499564403
 20
-59.28559295468691
 30
0.0
 10
-212.3029822710473
 20
-59.1993504024022
 30
0.0
 10
-212.3511891073986
 20
-59.11905744081117
 30
0.0
 10
-212.4023012197577
 20
-59.04756194695915
 30
0.0
 10
-212.4576857001879
 20
-58.98324021106388
 30
0.0
 10
-212.5151942473868
 20
-58.92855698230879
 30
0.0
 10
-212.5762713699169
 20
-58.88222139714021
 30
0.0
 10
-212.6388571495687
 20
-58.84616378663233
 30
0.0
 10
-212.7039510653159
 20
-58.81951623209787
 30
0.0
 10
-212.769940634466
 20
-58.80377570380038
 30
0.0
 10
-212.836862324465
 20
-58.79815560241782
 30
0.0
 10
-212.9037840144638
 20
-58.80377570380034
 30
0.0
 10
-212.969773583614
 20
-58.81951623209804
 30
0.0
 10
-213.0348674993612
 20
-58.84616378663217
 30
0.0
 10
-213.0974532790132
 20
-58.88222139714015
 30
0.0
 10
-213.158530401543
 20
-58.92855698230889
 30
0.0
 10
-213.2160389487419
 20
-58.983240211064
 30
0.0
 10
-213.2714234291719
 20
-59.047561946959
 30
0.0
 10
-213.3225355415302
 20
-59.11905744081136
 30
0.0
 10
-213.3707423778822
 20
-59.19935040240196
 30
0.0
 10
-213.4141746924888
 20
-59.28559295468701
 30
0.0
 10
-213.4538612566454
 20
-59.37942945721315
 30
0.0
 10
-213.4884032743398
 20
-59.47795155828025
 30
0.0
 10
-213.5184394295109
 20
-59.58250358541633
 30
0.0
 10
-213.5430625822996
 20
-59.69043888068063
 30
0.0
 10
-213.5625910462982
 20
-59.80255419983296
 30
0.0
 10
-213.576528660577
 20
-59.91671582921668
 30
0.0
 10
-213.5850029347129
 20
-60.03301540481391
 30
0.0
 10
-213.5877971925012
 20
-60.15000000000039
 30
0.0
 10
-213.5850029347142
 20
-60.26698459518716
 30
0.0
 10
-213.5765286605716
 20
-60.38328417078344
 30
0.0
 10
-213.5625910463184
 20
-60.49744580017069
 30
0.0
 10
-213.5430625822268
 20
-60.60956111931037
 30
0.0
 10
-213.5184394297759
 20
-60.71749641462073
 30
0.0
 10
-213.4884032734041
 20
-60.82204844159329
 30
0.0
 10
-213.4538612600359
 20
-60.92057054324953
 30
0.0
 10
-213.4141746808099
 20
-61.0144070437231
 30
0.0
 10
-213.3707424199531
 20
-61.10064960332927
 30
0.0
 10
-213.3225353994973
 20
-61.18094253984285
 30
0.0
 10
-213.2714239384105
 20
-61.252438122406
 30
0.0
 10
-213.2160372519866
 20
-61.31675955781941
 30
0.0
 10
-213.158536485932
 20
-61.37144384645615
 30
0.0
 10
-213.0974329765303
 20
-61.41777583742791
 30
0.0
 10
-213.0349409425786
 20
-61.45384621718264
 30
0.0
 10
-212.9695220875845
 20
-61.48044951123953
 30
0.0
 10
-212.9046397137425
 20
-61.49636828615725
 30
0.0
 10
-212.8331021340002
 20
-61.50141066507925
 30
0.0
 10
-212.790744575106
 20
-61.49828785603115
 30
0.0
 10
-212.7189286013181
 20
-61.48619533492518
 30
0.0
 10
-212.770228640462
 20
-61.49457949767193
 30
0.0
 10
-212.8202100031213
 20
-61.50262397402608
 30
0.0
 10
-212.7871615887585
 20
-61.49729083212545
 30
0.0
 10
-212.7708647373516
 20
-61.49466095039699
 30
0.0
 11
-212.7708647373516
 21
-61.49466095039699
 31
0.0
 11
-212.7045354858793
 21
-61.47882167612761
 31
0.0
 11
-212.6412002971755
 21
-61.45320878910631
 31
0.0
 11
-212.5771911147097
 21
-61.41651878759432
 31
0.0
 11
-212.5181102678491
 21
-61.37202049121228
 31
0.0
 11
-212.4587168957274
 21
-61.31586867215236
 31
0.0
 11
-212.4051248568996
 21
-61.25392542168549
 31
0.0
 11
-212.3522269421886
 21
-61.18031918448025
 31
0.0
 11
-212.3053849226339
 21
-61.10256920179963
 31
0.0
 11
-212.2605615677396
 21
-61.01397372275545
 31
0.0
 11
-212.2217648242158
 21
-60.92248795352354
 31
0.0
 11
-212.1863023506914
 21
-60.82175619587308
 31
0.0
 11
-212.15674210876
 21
-60.71908395334116
 31
0.0
 11
-212.131617987107
 21
-60.60938023838168
 31
0.0
 11
-212.112269622718
 21
-60.4984824466148
 31
0.0
 11
-212.0981360358339
 21
-60.38319762628866
 31
0.0
 11
-212.0896913160198
 21
-60.26734385073516
 31
0.0
 11
-212.0868621054054
 21
-60.15000000000042
 31
0.0
 11
-212.0896913160198
 21
-60.03265614926569
 31
0.0
 11
-212.0981360358336
 21
-59.91680237371221
 31
0.0
 11
-212.1122696227175
 21
-59.8015175533861
 31
0.0
 11
-212.1316179871063
 21
-59.69061976161921
 31
0.0
 11
-212.1567421087594
 21
-59.5809160466597
 31
0.0
 11
-212.186302350691
 21
-59.47824380412779
 31
0.0
 11
-212.2217648242155
 21
-59.37751204647735
 31
0.0
 11
-212.2605615677386
 21
-59.28602627724543
 31
0.0
 11
-212.3053849226335
 21
-59.19743079820138
 31
0.0
 11
-212.3522269421886
 21
-59.11968081552071
 31
0.0
 11
-212.4051248568996
 21
-59.04607457831531
 31
0.0
 11
-212.4587168957274
 21
-58.98413132784838
 31
0.0
 11
-212.518110267849
 21
-58.92797950878858
 31
0.0
 11
-212.5771911147098
 21
-58.88348121240658
 31
0.0
 11
-212.641200297176
 21
-58.84679121089455
 31
0.0
 11
-212.7045354858799
 21
-58.82117832387326
 31
0.0
 11
-212.7708647373524
 21
-58.80533904960377
 31
0.0
 11
-212.8368623244651
 21
-58.80001046293014
 31
0.0
 11
-212.9028599115776
 21
-58.80533904960377
 31
0.0
 11
-212.9691891630498
 21
-58.82117832387326
 31
0.0
 11
-213.0325243517541
 21
-58.8467912108945
 31
0.0
 11
-213.0965335342204
 21
-58.88348121240656
 31
0.0
 11
-213.1556143810811
 21
-58.9279795087887
 31
0.0
 11
-213.2150077532024
 21
-58.9841313278485
 31
0.0
 11
-213.26859979203
 21
-59.04607457831527
 31
0.0
 11
-213.3214977067404
 21
-59.11968081552058
 31
0.0
 11
-213.3683397262958
 21
-59.19743079820125
 31
0.0
 11
-213.4131630811908
 21
-59.28602627724543
 31
0.0
 11
-213.4519598247144
 21
-59.37751204647739
 31
0.0
 11
-213.4874222982386
 21
-59.47824380412779
 31
0.0
 11
-213.5169825401705
 21
-59.5809160466597
 31
0.0
 11
-213.5421066618244
 21
-59.69061976161921
 31
0.0
 11
-213.5614550262129
 21
-59.80151755338614
 31
0.0
 11
-213.575588613096
 21
-59.91680237371221
 31
0.0
 11
-213.5840333329095
 21
-60.03265614926565
 31
0.0
 11
-213.5868625435238
 21
-60.15000000000043
 31
0.0
 11
-213.5840333329095
 21
-60.2673438507352
 31
0.0
 11
-213.575588613096
 21
-60.38319762628864
 31
0.0
 11
-213.5614550262129
 21
-60.49848244661472
 31
0.0
 11
-213.5421066618242
 21
-60.60938023838168
 31
0.0
 11
-213.5169825401701
 21
-60.7190839533412
 31
0.0
 11
-213.487422298238
 21
-60.82175619587312
 31
0.0
 11
-213.4519598247138
 21
-60.9224879535236
 31
0.0
 11
-213.4131630811911
 21
-61.01397372275545
 31
0.0
 11
-213.3683397262965
 21
-61.10256920179943
 31
0.0
 11
-213.3214977067412
 21
-61.18031918448013
 31
0.0
 11
-213.2685997920304
 21
-61.25392542168549
 31
0.0
 11
-213.2150077532023
 21
-61.31586867215252
 31
0.0
 11
-213.1556143810803
 21
-61.37202049121253
 31
0.0
 11
-213.09653353422
 21
-61.41651878759432
 31
0.0
 11
-213.0325243517551
 21
-61.45320878910623
 31
0.0
 11
-212.9691891630521
 21
-61.47882167612761
 31
0.0
 11
-212.9028599115796
 21
-61.49466095039698
 31
0.0
 11
-212.8366337374973
 21
-61.49995262525236
 31
0.0
 11
-212.7699503894798
 21
-61.49451330312387
 31
0.0
 11
-212.7364944219874
 21
-61.48911089281369
 31
0.0
 11
-212.7699503894801
 21
-61.49451330312392
 31
0.0
 11
-212.8036349439403
 21
-61.49995262525239
 31
0.0
 11
-212.7708647373516
 21
-61.49466095039699
 31
0.0
  0
SPLINE
  5
1F4
330
A
100
AcDbEntity
  8
1
  6
Continuous
 62
     7
100
AcDbSpline
210
0.0
220
0.0
230
1.0
 70
    11
 71
     3
 72
    83
 73
    79
 74
    77
 42
0.0000000001
 43
0.0000000001
 44
0.00000000001
 40
0.0
 40
0.0
 40
0.0
 40
0.0
 40
0.0681942241707912
 40
0.1365123484840943
 40
0.2102912862022684
 40
0.2842550938829294
 40
0.3659900278809138
 40
0.4478989584330467
 40
0.5385414845247575
 40
0.6293117142416265
 40
0.7286006464097535
 40
0.8279728421185883
 40
0.9347645741385152
 40
1.041607436743271
 40
1.154151324026265
 40
1.266724320003509
 40
1.382872277694693
 40
1.499033418368874
 40
1.616411370889605
 40
1.733789323410315
 40
1.849950464084495
 40
1.966098421775666
 40
2.078671417752943
 40
2.191215305036028
 40
2.298058167640847
 40
2.404849899660688
 40
2.504222095369315
 40
2.60351102753741
 40
2.694281257254208
 40
2.78492378334575
 40
2.866832713897277
 40
2.948567647895424
 40
3.022531455576325
 40
3.096310393295581
 40
3.16462851760906
 40
3.232822741779866
 40
3.299035092143307
 40
3.365247442507143
 40
3.433441666678058
 40
3.501759790991606
 40
3.575538728710439
 40
3.649502536391953
 40
3.731237470390025
 40
3.813146400941568
 40
3.903788927032678
 40
3.994559156749577
 40
4.093848088917876
 40
4.193220284626749
 40
4.300012016646657
 40
4.406854879251508
 40
4.519398766534585
 40
4.631971762511858
 40
4.748119720202997
 40
4.864280860877168
 40
4.98165881339789
 40
5.099036765918626
 40
5.215197906592768
 40
5.331345864283828
 40
5.443918860261134
 40
5.556462747544259
 40
5.663305610149231
 40
5.770097342169226
 40
5.869469537877896
 40
5.968758470045908
 40
6.05952869976269
 40
6.150171225854131
 40
6.232080156406074
 40
6.313815090404474
 40
6.387778898085361
 40
6.461557835803285
 40
6.529875960116646
 40
6.598070184287836
 40
6.664507432547631
 40
6.731412253958629
 40
6.765301600337687
 40
6.799190946717062
 40
6.833311841113577
 40
6.866506543441703
 40
6.866506543441703
 40
6.866506543441703
 40
6.866506543441703
 10
-207.8028599115794
 20
-61.49466095039699
 30
0.0
 10
-207.8251758570062
 20
-61.4900912805443
 30
0.0
 10
-207.8698482930652
 20
-61.48094363833599
 30
0.0
 10
-207.9348456823092
 20
-61.45370191954477
 30
0.0
 10
-207.997459310072
 20
-61.41781572675252
 30
0.0
 10
-208.0585285941134
 20
-61.37143189214565
 30
0.0
 10
-208.1160394527798
 20
-61.31676289152053
 30
0.0
 10
-208.171423277898
 20
-61.25243712187977
 30
0.0
 10
-208.2225355837236
 20
-61.18094281890392
 30
0.0
 10
-208.2707423653854
 20
-61.10064952067149
 30
0.0
 10
-208.3141746959588
 20
-61.01440706667
 30
0.0
 10
-208.3538612556382
 20
-60.92057053658643
 30
0.0
 10
-208.3884032746184
 20
-60.8220484434305
 30
0.0
 10
-208.4184394294324
 20
-60.71749641409905
 30
0.0
 10
-208.4430625823207
 20
-60.60956111945298
 30
0.0
 10
-208.4625910462921
 20
-60.49744580013104
 30
0.0
 10
-208.4765286605796
 20
-60.38328417079424
 30
0.0
 10
-208.4850029347133
 20
-60.26698459518422
 30
0.0
 10
-208.4877971925026
 20
-60.15000000000114
 30
0.0
 10
-208.4850029347138
 20
-60.03301540481372
 30
0.0
 10
-208.476528660578
 20
-59.91671582921668
 30
0.0
 10
-208.4625910462981
 20
-59.80255419983293
 30
0.0
 10
-208.4430625822989
 20
-59.69043888068071
 30
0.0
 10
-208.4184394295108
 20
-59.58250358541631
 30
0.0
 10
-208.3884032743398
 20
-59.47795155828022
 30
0.0
 10
-208.3538612566453
 20
-59.37942945721321
 30
0.0
 10
-208.3141746924894
 20
-59.28559295468693
 30
0.0
 10
-208.2707423778828
 20
-59.19935040240213
 30
0.0
 10
-208.2225355415313
 20
-59.1190574408113
 30
0.0
 10
-208.1714234291728
 20
-59.04756194695909
 30
0.0
 10
-208.116038948743
 20
-58.98324021106382
 30
0.0
 10
-208.058530401544
 20
-58.92855698230891
 30
0.0
 10
-207.9974532790141
 20
-58.88222139714006
 30
0.0
 10
-207.9348674993622
 20
-58.84616378663245
 30
0.0
 10
-207.8697735836151
 20
-58.81951623209789
 30
0.0
 10
-207.803784014465
 20
-58.80377570380044
 30
0.0
 10
-207.7368623244658
 20
-58.79815560241778
 30
0.0
 10
-207.6699406344666
 20
-58.8037757038004
 30
0.0
 10
-207.6039510653163
 20
-58.8195162320979
 30
0.0
 10
-207.5388571495693
 20
-58.84616378663224
 30
0.0
 10
-207.4762713699175
 20
-58.88222139714036
 30
0.0
 10
-207.4151942473872
 20
-58.92855698230866
 30
0.0
 10
-207.3576857001884
 20
-58.9832402110641
 30
0.0
 10
-207.3023012197585
 20
-59.04756194695891
 30
0.0
 10
-207.2511891074005
 20
-59.1190574408115
 30
0.0
 10
-207.2029822710484
 20
-59.19935040240189
 30
0.0
 10
-207.159549956442
 20
-59.28559295468698
 30
0.0
 10
-207.1198633922854
 20
-59.37942945721317
 30
0.0
 10
-207.0853213745907
 20
-59.47795155828022
 30
0.0
 10
-207.0552852194195
 20
-59.58250358541629
 30
0.0
 10
-207.0306620666315
 20
-59.69043888068071
 30
0.0
 10
-207.0111336026321
 20
-59.80255419983294
 30
0.0
 10
-206.9971959883527
 20
-59.91671582921662
 30
0.0
 10
-206.9887217142169
 20
-60.03301540481394
 30
0.0
 10
-206.9859274564287
 20
-60.15000000000037
 30
0.0
 10
-206.9887217142154
 20
-60.26698459518714
 30
0.0
 10
-206.9971959883582
 20
-60.38328417078344
 30
0.0
 10
-207.0111336026115
 20
-60.49744580017068
 30
0.0
 10
-207.0306620667032
 20
-60.60956111931034
 30
0.0
 10
-207.0552852191538
 20
-60.71749641462074
 30
0.0
 10
-207.0853213755257
 20
-60.8220484415933
 30
0.0
 10
-207.1198633888942
 20
-60.92057054324958
 30
0.0
 10
-207.159549968121
 20
-61.014407043723
 30
0.0
 10
-207.2029822289777
 20
-61.10064960332928
 30
0.0
 10
-207.2511892494334
 20
-61.18094253984281
 30
0.0
 10
-207.3023007105198
 20
-61.25243812240608
 30
0.0
 10
-207.3576873969436
 20
-61.31675955781928
 30
0.0
 10
-207.4151881629979
 20
-61.37144384645625
 30
0.0
 10
-207.4762916724
 20
-61.41777583742778
 30
0.0
 10
-207.5387837063518
 20
-61.45384621718284
 30
0.0
 10
-207.6042025613463
 20
-61.48044951123932
 30
0.0
 10
-207.6690849351885
 20
-61.49636828615729
 30
0.0
 10
-207.7406225149308
 20
-61.50141066507925
 30
0.0
 10
-207.7829800738249
 20
-61.49828785603118
 30
0.0
 10
-207.8547960476127
 20
-61.48619533492517
 30
0.0
 10
-207.8034960084687
 20
-61.49457949767199
 30
0.0
 10
-207.7535146458094
 20
-61.50262397402608
 30
0.0
 10
-207.7865630601723
 20
-61.49729083212545
 30
0.0
 10
-207.8028599115794
 20
-61.49466095039699
 30
0.0
 11
-207.8028599115794
 21
-61.49466095039699
 31
0.0
 11
-207.8691891630517
 21
-61.47882167612761
 31
0.0
 11
-207.9325243517553
 21
-61.45320878910629
 31
0.0
 11
-207.9965335342206
 21
-61.41651878759435
 31
0.0
 11
-208.0556143810808
 21
-61.37202049121237
 31
0.0
 11
-208.1150077532019
 21
-61.3158686721524
 31
0.0
 11
-208.1685997920304
 21
-61.25392542168557
 31
0.0
 11
-208.2214977067413
 21
-61.18031918448025
 31
0.0
 11
-208.2683397262965
 21
-61.10256920179957
 31
0.0
 11
-208.3131630811913
 21
-61.01397372275545
 31
0.0
 11
-208.3519598247149
 21
-60.9224879535235
 31
0.0
 11
-208.3874222982393
 21
-60.82175619587307
 31
0.0
 11
-208.4169825401708
 21
-60.71908395334117
 31
0.0
 11
-208.4421066618241
 21
-60.60938023838165
 31
0.0
 11
-208.4614550262129
 21
-60.49848244661477
 31
0.0
 11
-208.4755886130968
 21
-60.38319762628864
 31
0.0
 11
-208.4840333329105
 21
-60.26734385073517
 31
0.0
 11
-208.4868625435248
 21
-60.15000000000042
 31
0.0
 11
-208.4840333329105
 21
-60.03265614926569
 31
0.0
 11
-208.4755886130968
 21
-59.91680237371221
 31
0.0
 11
-208.4614550262129
 21
-59.8015175533861
 31
0.0
 11
-208.4421066618239
 21
-59.69061976161921
 31
0.0
 11
-208.4169825401703
 21
-59.58091604665968
 31
0.0
 11
-208.3874222982386
 21
-59.47824380412778
 31
0.0
 11
-208.3519598247145
 21
-59.37751204647732
 31
0.0
 11
-208.3131630811913
 21
-59.28602627724543
 31
0.0
 11
-208.2683397262965
 21
-59.19743079820134
 31
0.0
 11
-208.2214977067414
 21
-59.11968081552068
 31
0.0
 11
-208.1685997920309
 21
-59.0460745783153
 31
0.0
 11
-208.1150077532034
 21
-58.98413132784838
 31
0.0
 11
-208.0556143810819
 21
-58.9279795087886
 31
0.0
 11
-207.9965335342214
 21
-58.8834812124066
 31
0.0
 11
-207.9325243517549
 21
-58.84679121089456
 31
0.0
 11
-207.8691891630511
 21
-58.82117832387327
 31
0.0
 11
-207.8028599115788
 21
-58.80533904960381
 31
0.0
 11
-207.736862324466
 21
-58.80001046293014
 31
0.0
 11
-207.6708647373528
 21
-58.80533904960381
 31
0.0
 11
-207.6045354858804
 21
-58.82117832387326
 31
0.0
 11
-207.5412002971765
 21
-58.84679121089453
 31
0.0
 11
-207.4771911147105
 21
-58.88348121240656
 31
0.0
 11
-207.4181102678493
 21
-58.92797950878867
 31
0.0
 11
-207.358716895728
 21
-58.98413132784853
 31
0.0
 11
-207.3051248569004
 21
-59.04607457831536
 31
0.0
 11
-207.2522269421904
 21
-59.11968081552058
 31
0.0
 11
-207.205384922635
 21
-59.19743079820117
 31
0.0
 11
-207.16056156774
 21
-59.2860262772454
 31
0.0
 11
-207.1217648242164
 21
-59.37751204647739
 31
0.0
 11
-207.086302350692
 21
-59.4782438041278
 31
0.0
 11
-207.0567421087601
 21
-59.5809160466597
 31
0.0
 11
-207.0316179871065
 21
-59.69061976161921
 31
0.0
 11
-207.0122696227175
 21
-59.8015175533861
 31
0.0
 11
-206.9981360358339
 21
-59.91680237371221
 31
0.0
 11
-206.9896913160203
 21
-60.03265614926569
 31
0.0
 11
-206.9868621054061
 21
-60.15000000000043
 31
0.0
 11
-206.9896913160203
 21
-60.26734385073519
 31
0.0
 11
-206.9981360358339
 21
-60.38319762628863
 31
0.0
 11
-207.0122696227171
 21
-60.49848244661472
 31
0.0
 11
-207.0316179871058
 21
-60.60938023838168
 31
0.0
 11
-207.0567421087598
 21
-60.71908395334117
 31
0.0
 11
-207.086302350692
 21
-60.8217561958731
 31
0.0
 11
-207.1217648242165
 21
-60.92248795352357
 31
0.0
 11
-207.1605615677398
 21
-61.01397372275545
 31
0.0
 11
-207.2053849226345
 21
-61.10256920179953
 31
0.0
 11
-207.2522269421896
 21
-61.18031918448015
 31
0.0
 11
-207.3051248569
 21
-61.25392542168549
 31
0.0
 11
-207.358716895728
 21
-61.31586867215251
 31
0.0
 11
-207.4181102678497
 21
-61.37202049121242
 31
0.0
 11
-207.4771911147103
 21
-61.41651878759429
 31
0.0
 11
-207.5412002971753
 21
-61.45320878910623
 31
0.0
 11
-207.604535485879
 21
-61.47882167612756
 31
0.0
 11
-207.6708647373517
 21
-61.49466095039699
 31
0.0
 11
-207.7370909114338
 21
-61.49995262525236
 31
0.0
 11
-207.8037742594513
 21
-61.49451330312387
 31
0.0
 11
-207.8372302269435
 21
-61.48911089281369
 31
0.0
 11
-207.803774259451
 21
-61.49451330312392
 31
0.0
 11
-207.7700897049905
 21
-61.49995262525238
 31
0.0
 11
-207.8028599115794
 21
-61.49466095039699
 31
0.0
  0
CIRCLE
  5
1F3
330
A
100
AcDbEntity
  8
1
  6
Continuous
 62
     7
100
AcDbCircle
 10
0.0
 20
0.0
 30
0.0
 40
45.99680475168299
  0
CIRCLE
  5
1F2
330
A
100
AcDbEntity
  8
1
  6
Continuous
 62
     7
100
AcDbCircle
 10
0.0
 20
0.0
 30
0.0
 40
52.999999173593
  0
CIRCLE
  5
1F1
330
A
100
AcDbEntity
  8
1
  6
Continuous
 62
     7
100
AcDbCircle
 10
0.0
 20
0.0
 30
0.0
 40
61.000000000001
  0
CIRCLE
  5
1F0
330
A
100
AcDbEntity
  8
1
  6
Continuous
 62
     3
100
AcDbCircle
 10
24.750000000001
 20
42.86825748733
 30
0.0
 40
2.5
  0
CIRCLE
  5
1EF
330
A
100
AcDbEntity
  8
1
  6
Continuous
 62
     7
100
AcDbCircle
 10
24.750000000001
 20
42.86825748733
 30
0.0
 40
2.000000000001
  0
CIRCLE
  5
1EE
330
A
100
AcDbEntity
  8
1
  6
Continuous
 62
     3
100
AcDbCircle
 10
42.868257487332
 20
24.749999999999
 30
0.0
 40
2.5
  0
CIRCLE
  5
1ED
330
A
100
AcDbEntity
  8
1
  6
Continuous
 62
     7
100
AcDbCircle
 10
42.868257487332
 20
24.749999999999
 30
0.0
 40
2.0
  0
CIRCLE
  5
1EC
330
A
100
AcDbEntity
  8
1
  6
Continuous
 62
     3
100
AcDbCircle
 10
49.5
 20
0.0
 30
0.0
 40
2.500000000001
  0
CIRCLE
  5
1EB
330
A
100
AcDbEntity
  8
1
  6
Continuous
 62
     7
100
AcDbCircle
 10
49.5
 20
0.0
 30
0.0
 40
2.000000000001
  0
CIRCLE
  5
1EA
330
A
100
AcDbEntity
  8
1
  6
Continuous
 62
     3
100
AcDbCircle
 10
42.868257487329
 20
-24.750000000001
 30
0.0
 40
2.5
  0
CIRCLE
  5
1E9
330
A
100
AcDbEntity
  8
1
  6
Continuous
 62
     7
100
AcDbCircle
 10
42.868257487329
 20
-24.750000000001
 30
0.0
 40
2.0
  0
CIRCLE
  5
1E8
330
A
100
AcDbEntity
  8
1
  6
Continuous
 62
     3
100
AcDbCircle
 10
24.75
 20
-42.86825748733
 30
0.0
 40
2.5
  0
CIRCLE
  5
1E7
330
A
100
AcDbEntity
  8
1
  6
Continuous
 62
     7
100
AcDbCircle
 10
24.75
 20
-42.86825748733
 30
0.0
 40
2.0
  0
CIRCLE
  5
1E6
330
A
100
AcDbEntity
  8
1
  6
Continuous
 62
     3
100
AcDbCircle
 10
0.0
 20
-49.5
 30
0.0
 40
2.5
  0
CIRCLE
  5
1E5
330
A
100
AcDbEntity
  8
1
  6
Continuous
 62
     7
100
AcDbCircle
 10
0.0
 20
-49.5
 30
0.0
 40
2.0
  0
CIRCLE
  5
1E4
330
A
100
AcDbEntity
  8
1
  6
Continuous
 62
     3
100
AcDbCircle
 10
-24.750000000001
 20
-42.868257487329
 30
0.0
 40
2.499999999998999
  0
CIRCLE
  5
1E3
330
A
100
AcDbEntity
  8
1
  6
Continuous
 62
     7
100
AcDbCircle
 10
-24.750000000001
 20
-42.868257487329
 30
0.0
 40
1.999999999999
  0
CIRCLE
  5
1E2
330
A
100
AcDbEntity
  8
1
  6
Continuous
 62
     3
100
AcDbCircle
 10
-42.868257487329
 20
-24.75
 30
0.0
 40
2.5
  0
CIRCLE
  5
1E1
330
A
100
AcDbEntity
  8
1
  6
Continuous
 62
     7
100
AcDbCircle
 10
-42.868257487329
 20
-24.75
 30
0.0
 40
2.0
  0
CIRCLE
  5
1E0
330
A
100
AcDbEntity
  8
1
  6
Continuous
 62
     3
100
AcDbCircle
 10
-49.5
 20
0.0
 30
0.0
 40
2.5
  0
CIRCLE
  5
1DF
330
A
100
AcDbEntity
  8
1
  6
Continuous
 62
     7
100
AcDbCircle
 10
-49.5
 20
0.0
 30
0.0
 40
2.0
  0
CIRCLE
  5
1DE
330
A
100
AcDbEntity
  8
1
  6
Continuous
 62
     3
100
AcDbCircle
 10
-42.868257487329
 20
24.75
 30
0.0
 40
2.5
  0
CIRCLE
  5
1DD
330
A
100
AcDbEntity
  8
1
  6
Continuous
 62
     7
100
AcDbCircle
 10
-42.868257487329
 20
24.75
 30
0.0
 40
2.0
  0
CIRCLE
  5
1DC
330
A
100
AcDbEntity
  8
1
  6
Continuous
 62
     3
100
AcDbCircle
 10
-24.75
 20
42.86825748733
 30
0.0
 40
2.499999999998999
  0
CIRCLE
  5
1DB
330
A
100
AcDbEntity
  8
1
  6
Continuous
 62
     7
100
AcDbCircle
 10
-24.75
 20
42.86825748733
 30
0.0
 40
2.0
  0
CIRCLE
  5
1DA
330
A
100
AcDbEntity
  8
1
  6
Continuous
 62
     7
100
AcDbCircle
 10
0.0
 20
49.5
 30
0.0
 40
2.0
  0
CIRCLE
  5
1D9
330
A
100
AcDbEntity
  8
1
  6
Continuous
 62
     3
100
AcDbCircle
 10
0.0
 20
49.5
 30
0.0
 40
2.5
  0
CIRCLE
  5
1D8
330
A
100
AcDbEntity
  8
1
  6
DASH_CENTER
 62
     3
100
AcDbCircle
 10
0.0
 20
0.0
 30
0.0
 40
49.5
  0
CIRCLE
  5
1D7
330
A
100
AcDbEntity
  8
1
  6
Continuous
 62
     7
100
AcDbCircle
 10
0.0
 20
0.0
 30
0.0
 40
44.0
  0
CIRCLE
  5
1D6
330
A
100
AcDbEntity
  8
1
  6
Continuous
 62
     7
100
AcDbCircle
 10
-389.8510381286209
 20
0.0
 30
0.0
 40
39.873999999999
  0
CIRCLE
  5
1D5
330
A
100
AcDbEntity
  8
1
  6
DASH_CENTER
 62
     3
100
AcDbCircle
 10
-389.8510381286209
 20
0.0
 30
0.0
 40
65.99999999999901
  0
CIRCLE
  5
1D4
330
A
100
AcDbEntity
  8
1
  6
Continuous
 62
     7
100
AcDbCircle
 10
-389.8510381286209
 20
0.0
 30
0.0
 40
55.12499999999899
  0
CIRCLE
  5
1D3
330
A
100
AcDbEntity
  8
1
  6
Continuous
 62
     7
100
AcDbCircle
 10
-389.8510381286209
 20
0.0
 30
0.0
 40
56.37499999999899
  0
CIRCLE
  5
1D2
330
A
100
AcDbEntity
  8
1
  6
Continuous
 62
     7
100
AcDbCircle
 10
-389.8510381286209
 20
0.0
 30
0.0
 40
70.99999999999901
  0
CIRCLE
  5
1D1
330
A
100
AcDbEntity
  8
1
  6
Continuous
 62
     7
100
AcDbCircle
 10
0.0
 20
0.0
 30
0.0
 40
54.999999173592
  0
CIRCLE
  5
1D0
330
A
100
AcDbEntity
  8
1
  6
DASH_CENTER
 62
     3
100
AcDbCircle
 10
0.0
 20
0.0
 30
0.0
 40
66.0
  0
CIRCLE
  5
1CF
330
A
100
AcDbEntity
  8
1
  6
Continuous
 62
     7
100
AcDbCircle
 10
0.0
 20
0.0
 30
0.0
 40
71.0
  0
CIRCLE
  5
1CE
330
A
100
AcDbEntity
  8
1
  6
Continuous
 62
     7
100
AcDbCircle
 10
-389.8510381286209
 20
65.99999999999901
 30
0.0
 40
2.75
  0
CIRCLE
  5
1CD
330
A
100
AcDbEntity
  8
1
  6
Continuous
 62
     7
100
AcDbCircle
 10
-422.8510381286209
 20
57.157676649772
 30
0.0
 40
2.75
  0
CIRCLE
  5
1CC
330
A
100
AcDbEntity
  8
1
  6
Continuous
 62
     7
100
AcDbCircle
 10
-447.008714778393
 20
32.99999999999899
 30
0.0
 40
2.75
  0
CIRCLE
  5
1CB
330
A
100
AcDbEntity
  8
1
  6
Continuous
 62
     7
100
AcDbCircle
 10
-455.85103812862
 20
-0.000000000001
 30
0.0
 40
2.75
  0
CIRCLE
  5
1CA
330
A
100
AcDbEntity
  8
1
  6
Continuous
 62
     7
100
AcDbCircle
 10
-447.008714778394
 20
-33.0
 30
0.0
 40
2.75
  0
CIRCLE
  5
1C9
330
A
100
AcDbEntity
  8
1
  6
Continuous
 62
     7
100
AcDbCircle
 10
-422.8510381286198
 20
-57.157676649772
 30
0.0
 40
2.75
  0
CIRCLE
  5
1C8
330
A
100
AcDbEntity
  8
1
  6
Continuous
 62
     7
100
AcDbCircle
 10
-389.85103812862
 20
-65.99999999999901
 30
0.0
 40
2.75
  0
CIRCLE
  5
1C7
330
A
100
AcDbEntity
  8
1
  6
Continuous
 62
     7
100
AcDbCircle
 10
-356.85103812862
 20
-57.157676649771
 30
0.0
 40
2.75
  0
CIRCLE
  5
1C6
330
A
100
AcDbEntity
  8
1
  6
Continuous
 62
     7
100
AcDbCircle
 10
-332.693361478848
 20
-32.999999999998
 30
0.0
 40
2.75
  0
CIRCLE
  5
1C5
330
A
100
AcDbEntity
  8
1
  6
Continuous
 62
     7
100
AcDbCircle
 10
-323.851038128623
 20
0.000000000001
 30
0.0
 40
2.75
  0
CIRCLE
  5
1C4
330
A
100
AcDbEntity
  8
1
  6
Continuous
 62
     7
100
AcDbCircle
 10
-332.6933614788498
 20
33.0
 30
0.0
 40
2.75
  0
CIRCLE
  5
1C3
330
A
100
AcDbEntity
  8
1
  6
Continuous
 62
     7
100
AcDbCircle
 10
-356.8510381286229
 20
57.157676649772
 30
0.0
 40
2.75
  0
CIRCLE
  5
1C2
330
A
100
AcDbEntity
  8
1
  6
Continuous
 62
     7
100
AcDbCircle
 10
-0.000000000001
 20
66.0
 30
0.0
 40
2.75
  0
CIRCLE
  5
1C1
330
A
100
AcDbEntity
  8
1
  6
Continuous
 62
     7
100
AcDbCircle
 10
-33.000000000001
 20
57.15767664977299
 30
0.0
 40
2.75
  0
CIRCLE
  5
1C0
330
A
100
AcDbEntity
  8
1
  6
Continuous
 62
     7
100
AcDbCircle
 10
-57.15767664977299
 20
33.0
 30
0.0
 40
2.75
  0
CIRCLE
  5
1BF
330
A
100
AcDbEntity
  8
1
  6
Continuous
 62
     7
100
AcDbCircle
 10
-66.000000000001
 20
0.0
 30
0.0
 40
2.75
  0
CIRCLE
  5
1BE
330
A
100
AcDbEntity
  8
1
  6
Continuous
 62
     7
100
AcDbCircle
 10
-57.15767664977398
 20
-33.0
 30
0.0
 40
2.75
  0
CIRCLE
  5
1BD
330
A
100
AcDbEntity
  8
1
  6
Continuous
 62
     7
100
AcDbCircle
 10
-33.000000000001
 20
-57.15767664977299
 30
0.0
 40
2.749999999998999
  0
CIRCLE
  5
1BC
330
A
100
AcDbEntity
  8
1
  6
Continuous
 62
     7
100
AcDbCircle
 10
0.0
 20
-66.0
 30
0.0
 40
2.75
  0
CIRCLE
  5
1BB
330
A
100
AcDbEntity
  8
1
  6
Continuous
 62
     7
100
AcDbCircle
 10
33.000000000001
 20
-57.157676649772
 30
0.0
 40
2.75
  0
CIRCLE
  5
1BA
330
A
100
AcDbEntity
  8
1
  6
Continuous
 62
     7
100
AcDbCircle
 10
57.15767664977299
 20
-33.0
 30
0.0
 40
2.75
  0
CIRCLE
  5
1B9
330
A
100
AcDbEntity
  8
1
  6
Continuous
 62
     7
100
AcDbCircle
 10
66.0
 20
0.0
 30
0.0
 40
2.749999999998999
  0
CIRCLE
  5
1B8
330
A
100
AcDbEntity
  8
1
  6
Continuous
 62
     7
100
AcDbCircle
 10
57.15767664977299
 20
33.000000000001
 30
0.0
 40
2.75
  0
CIRCLE
  5
1B7
330
A
100
AcDbEntity
  8
1
  6
Continuous
 62
     7
100
AcDbCircle
 10
32.99999999999899
 20
57.157676649775
 30
0.0
 40
2.75
  0
CIRCLE
  5
1B6
330
A
100
AcDbEntity
  8
1
  6
Continuous
 62
     7
100
AcDbCircle
 10
0.0
 20
0.0
 30
0.0
 40
39.874000000001
  0
CIRCLE
  5
1B5
330
A
100
AcDbEntity
  8
1
  6
DASH_CENTER
 62
     3
100
AcDbCircle
 10
0.0
 20
0.0
 30
0.0
 40
20.0
  0
CIRCLE
  5
1B4
330
A
100
AcDbEntity
  8
1
  6
Continuous
 62
     7
100
AcDbCircle
 10
0.0
 20
0.0
 30
0.0
 40
29.465775002095
  0
CIRCLE
  5
1B3
330
A
100
AcDbEntity
  8
1
  6
Continuous
 62
     7
100
AcDbCircle
 10
0.0
 20
0.0
 30
0.0
 40
16.000000000001
  0
CIRCLE
  5
1B2
330
A
100
AcDbEntity
  8
1
  6
Continuous
 62
     3
100
AcDbCircle
 10
-17.082056976764
 20
63.75110453508
 30
0.0
 40
2.0
  0
CIRCLE
  5
1B1
330
A
100
AcDbEntity
  8
1
  6
Continuous
 62
     7
100
AcDbCircle
 10
-17.082056976764
 20
63.75110453508
 30
0.0
 40
1.6
  0
CIRCLE
  5
1B0
330
A
100
AcDbEntity
  8
1
  6
Continuous
 62
     3
100
AcDbCircle
 10
17.082056976764
 20
-63.75110453507598
 30
0.0
 40
2.0
  0
CIRCLE
  5
1AF
330
A
100
AcDbEntity
  8
1
  6
Continuous
 62
     7
100
AcDbCircle
 10
17.082056976764
 20
-63.75110453507598
 30
0.0
 40
1.6
  0
CIRCLE
  5
1AE
330
A
100
AcDbEntity
  8
1
  6
Continuous
 62
     7
100
AcDbCircle
 10
63.751104535079
 20
17.082056976766
 30
0.0
 40
1.6
  0
CIRCLE
  5
1AD
330
A
100
AcDbEntity
  8
1
  6
Continuous
 62
     3
100
AcDbCircle
 10
63.751104535079
 20
17.082056976766
 30
0.0
 40
2.0
  0
CIRCLE
  5
1AC
330
A
100
AcDbEntity
  8
1
  6
Continuous
 62
     3
100
AcDbCircle
 10
-63.751104535078
 20
-17.082056976762
 30
0.0
 40
2.0
  0
CIRCLE
  5
1AB
330
A
100
AcDbEntity
  8
1
  6
Continuous
 62
     7
100
AcDbCircle
 10
-63.751104535078
 20
-17.082056976762
 30
0.0
 40
1.6
  0
CIRCLE
  5
1AA
330
A
100
AcDbEntity
  8
1
  6
Continuous
 62
     7
100
AcDbCircle
 10
-189.1068623244488
 20
34.675224997906
 30
0.0
 40
3.471874999999998
  0
CIRCLE
  5
1A9
330
A
100
AcDbEntity
  8
1
  6
Continuous
 62
     7
100
AcDbCircle
 10
-189.1068623244488
 20
-34.675224997907
 30
0.0
 40
3.471874999999998
  0
CIRCLE
  5
1A8
330
A
100
AcDbEntity
  8
1
  6
Continuous
 62
     7
100
AcDbCircle
 10
-372.768981151857
 20
63.751104535078
 30
0.0
 40
3.5
  0
CIRCLE
  5
1A7
330
A
100
AcDbEntity
  8
1
  6
Continuous
 62
     7
100
AcDbCircle
 10
-372.768981151857
 20
63.751104535078
 30
0.0
 40
2.98038475773
  0
CIRCLE
  5
1A6
330
A
100
AcDbEntity
  8
1
  6
Continuous
 62
     7
100
AcDbCircle
 10
-326.099933593543
 20
-17.082056976765
 30
0.0
 40
3.5
  0
CIRCLE
  5
1A5
330
A
100
AcDbEntity
  8
1
  6
Continuous
 62
     7
100
AcDbCircle
 10
-326.099933593543
 20
-17.082056976765
 30
0.0
 40
2.98038475773
  0
CIRCLE
  5
1A4
330
A
100
AcDbEntity
  8
1
  6
Continuous
 62
     7
100
AcDbCircle
 10
-406.9330951053879
 20
-63.751104535078
 30
0.0
 40
3.5
  0
CIRCLE
  5
1A3
330
A
100
AcDbEntity
  8
1
  6
Continuous
 62
     7
100
AcDbCircle
 10
-406.9330951053879
 20
-63.751104535078
 30
0.0
 40
2.98038475773
  0
CIRCLE
  5
1A2
330
A
100
AcDbEntity
  8
1
  6
Continuous
 62
     7
100
AcDbCircle
 10
-453.602142663699
 20
17.082056976766
 30
0.0
 40
3.5
  0
CIRCLE
  5
1A1
330
A
100
AcDbEntity
  8
1
  6
Continuous
 62
     7
100
AcDbCircle
 10
-453.602142663699
 20
17.082056976766
 30
0.0
 40
2.98038475773
  0
CIRCLE
  5
1A0
330
A
100
AcDbEntity
  8
1
  6
Continuous
 62
     7
100
AcDbCircle
 10
0.0
 20
0.0
 30
0.0
 40
40.588164256145
  0
CIRCLE
  5
19F
330
A
100
AcDbEntity
  8
1
  6
Continuous
 62
     7
100
AcDbCircle
 10
0.0
 20
20.0
 30
0.0
 40
1.6
  0
CIRCLE
  5
19E
330
A
100
AcDbEntity
  8
1
  6
Continuous
 62
     3
100
AcDbCircle
 10
0.0
 20
20.0
 30
0.0
 40
2.0
  0
CIRCLE
  5
19D
330
A
100
AcDbEntity
  8
1
  6
Continuous
 62
     3
100
AcDbCircle
 10
-20.0
 20
0.0
 30
0.0
 40
2.0
  0
CIRCLE
  5
19C
330
A
100
AcDbEntity
  8
1
  6
Continuous
 62
     3
100
AcDbCircle
 10
0.0
 20
-20.00000000000099
 30
0.0
 40
2.0
  0
CIRCLE
  5
19B
330
A
100
AcDbEntity
  8
1
  6
Continuous
 62
     3
100
AcDbCircle
 10
20.0
 20
0.0
 30
0.0
 40
2.0
  0
CIRCLE
  5
19A
330
A
100
AcDbEntity
  8
1
  6
Continuous
 62
     7
100
AcDbCircle
 10
-20.0
 20
0.0
 30
0.0
 40
1.6
  0
CIRCLE
  5
199
330
A
100
AcDbEntity
  8
1
  6
Continuous
 62
     7
100
AcDbCircle
 10
0.0
 20
-20.00000000000099
 30
0.0
 40
1.6
  0
CIRCLE
  5
198
330
A
100
AcDbEntity
  8
1
  6
Continuous
 62
     7
100
AcDbCircle
 10
20.0
 20
0.0
 30
0.0
 40
1.6
  0
ARC
  5
193
330
A
100
AcDbEntity
  8
1
  6
Continuous
 62
     7
100
AcDbCircle
 10
-189.7676387281689
 20
69.719223591971
 30
0.0
 40
1.5
100
AcDbArc
 50
31.366977970176
 51
58.63302234456599
  0
ARC
  5
192
330
A
100
AcDbEntity
  8
1
  6
Continuous
 62
     7
100
AcDbCircle
 10
-189.7676387281689
 20
-69.719223591972
 30
0.0
 40
1.5
100
AcDbArc
 50
-58.63302234456599
 51
-31.366977970176
  0
ARC
  5
191
330
A
100
AcDbEntity
  8
1
  6
Continuous
 62
     7
100
AcDbCircle
 10
-199.4970459896
 20
-45.656571075614
 30
0.0
 40
5.2
100
AcDbArc
 50
51.214938599124
 51
90.90866454204499
  0
ARC
  5
190
330
A
100
AcDbEntity
  8
1
  6
Continuous
 62
     7
100
AcDbCircle
 10
-199.4970459896
 20
45.66812107979999
 30
0.0
 40
5.2
100
AcDbArc
 50
-89.091335457954
 51
-51.418554434062
  0
ARC
  5
18F
330
A
100
AcDbEntity
  8
1
  6
Continuous
 62
     7
100
AcDbCircle
 10
-201.486862324428
 20
60.413335357207
 30
0.0
 40
0.2
100
AcDbArc
 50
17.50000000012299
 51
162.499999999911
  0
ARC
  5
18E
330
A
100
AcDbEntity
  8
1
  6
Continuous
 62
     7
100
AcDbCircle
 10
-201.486862324428
 20
60.413335357207
 30
0.0
 40
0.2
100
AcDbArc
 50
17.50000000012299
 51
162.499999999911
  0
ARC
  5
18D
330
A
100
AcDbEntity
  8
1
  6
Continuous
 62
     7
100
AcDbCircle
 10
-201.486862324428
 20
51.086662989975
 30
0.0
 40
0.2
100
AcDbArc
 50
-162.5000000000119
 51
-17.500000000022
  0
ARC
  5
18C
330
A
100
AcDbEntity
  8
1
  6
Continuous
 62
     7
100
AcDbCircle
 10
-201.486862324428
 20
-60.413337010025
 30
0.0
 40
0.2
100
AcDbArc
 50
-162.500000000019
 51
-17.500000000015
  0
ARC
  5
18B
330
A
100
AcDbEntity
  8
1
  6
Continuous
 62
     7
100
AcDbCircle
 10
-201.486862324428
 20
-51.08666464279298
 30
0.0
 40
0.2
100
AcDbArc
 50
17.500000000018
 51
162.5000000000149
  0
LINE
  5
18A
330
A
100
AcDbEntity
  8
1
  6
DASH_CENTER
 62
     3
100
AcDbLine
 10
26.625000000001
 20
46.115852751522
 30
0.0
 11
22.875000000001
 21
39.62066222313799
 31
0.0
  0
LINE
  5
189
330
A
100
AcDbEntity
  8
1
  6
DASH_CENTER
 62
     3
100
AcDbLine
 10
46.115852751522
 20
26.624999999999
 30
0.0
 11
39.620662223139
 21
22.87499999999897
 31
0.0
  0
LINE
  5
188
330
A
100
AcDbEntity
  8
1
  6
DASH_CENTER
 62
     3
100
AcDbLine
 10
46.115852751521
 20
-26.625000000001
 30
0.0
 11
39.620662223139
 21
-22.875000000001
 31
0.0
  0
LINE
  5
187
330
A
100
AcDbEntity
  8
1
  6
DASH_CENTER
 62
     3
100
AcDbLine
 10
26.625
 20
-46.115852751521
 30
0.0
 11
22.875
 21
-39.62066222313799
 31
0.0
  0
LINE
  5
186
330
A
100
AcDbEntity
  8
1
  6
DASH_CENTER
 62
     3
100
AcDbLine
 10
-26.625000000001
 20
-46.115852751521
 30
0.0
 11
-22.875000000001
 21
-39.62066222313799
 31
0.0
  0
LINE
  5
185
330
A
100
AcDbEntity
  8
1
  6
DASH_CENTER
 62
     3
100
AcDbLine
 10
-46.115852751521
 20
-26.625
 30
0.0
 11
-39.62066222313799
 21
-22.875
 31
0.0
  0
LINE
  5
184
330
A
100
AcDbEntity
  8
1
  6
DASH_CENTER
 62
     3
100
AcDbLine
 10
-46.115852751521
 20
26.625
 30
0.0
 11
-39.62066222313799
 21
22.875
 31
0.0
  0
LINE
  5
183
330
A
100
AcDbEntity
  8
1
  6
DASH_CENTER
 62
     3
100
AcDbLine
 10
-26.625
 20
46.115852751522
 30
0.0
 11
-22.875
 21
39.62066222313799
 31
0.0
  0
LINE
  5
182
330
A
100
AcDbEntity
  8
1
  6
DASH_CENTER
 62
     3
100
AcDbLine
 10
-424.9135381286209
 20
60.73003144038299
 30
0.0
 11
-420.7885381286208
 21
53.585321859161
 31
0.0
  0
LINE
  5
181
330
A
100
AcDbEntity
  8
1
  6
DASH_CENTER
 62
     3
100
AcDbLine
 10
-450.581069569004
 20
35.062499999999
 30
0.0
 11
-443.4363599877818
 21
30.937499999999
 31
0.0
  0
LINE
  5
180
330
A
100
AcDbEntity
  8
1
  6
DASH_CENTER
 62
     3
100
AcDbLine
 10
-459.97603812862
 20
-0.000000000001
 30
0.0
 11
-451.72603812862
 21
-0.000000000001
 31
0.0
  0
LINE
  5
17F
330
A
100
AcDbEntity
  8
1
  6
DASH_CENTER
 62
     3
100
AcDbLine
 10
-450.581069569004
 20
-35.0625
 30
0.0
 11
-443.4363599877829
 21
-30.9375
 31
0.0
  0
LINE
  5
17E
330
A
100
AcDbEntity
  8
1
  6
DASH_CENTER
 62
     3
100
AcDbLine
 10
-424.9135381286198
 20
-60.73003144038299
 30
0.0
 11
-420.78853812862
 21
-53.585321859162
 31
0.0
  0
LINE
  5
17D
330
A
100
AcDbEntity
  8
1
  6
DASH_CENTER
 62
     3
100
AcDbLine
 10
-354.78853812862
 20
-60.730031440382
 30
0.0
 11
-358.91353812862
 21
-53.58532185916
 31
0.0
  0
LINE
  5
17C
330
A
100
AcDbEntity
  8
1
  6
DASH_CENTER
 62
     3
100
AcDbLine
 10
-329.1210066882378
 20
-35.062499999998
 30
0.0
 11
-336.265716269459
 21
-30.937499999998
 31
0.0
  0
LINE
  5
17B
330
A
100
AcDbEntity
  8
1
  6
DASH_CENTER
 62
     3
100
AcDbLine
 10
-329.1210066882388
 20
35.0625
 30
0.0
 11
-336.265716269461
 21
30.9375
 31
0.0
  0
LINE
  5
17A
330
A
100
AcDbEntity
  8
1
  6
DASH_CENTER
 62
     3
100
AcDbLine
 10
-354.7885381286229
 20
60.73003144038299
 30
0.0
 11
-358.9135381286229
 21
53.585321859161
 31
0.0
  0
LINE
  5
179
330
A
100
AcDbEntity
  8
1
  6
DASH_CENTER
 62
     3
100
AcDbLine
 10
-35.0625
 20
60.73003144038398
 30
0.0
 11
-30.9375
 21
53.585321859162
 31
0.0
  0
LINE
  5
178
330
A
100
AcDbEntity
  8
1
  6
DASH_CENTER
 62
     3
100
AcDbLine
 10
-60.73003144038398
 20
35.062500000001
 30
0.0
 11
-53.585321859162
 21
30.937500000001
 31
0.0
  0
LINE
  5
177
330
A
100
AcDbEntity
  8
1
  6
DASH_CENTER
 62
     3
100
AcDbLine
 10
-60.730031440385
 20
-35.0625
 30
0.0
 11
-53.58532185916299
 21
-30.9375
 31
0.0
  0
LINE
  5
176
330
A
100
AcDbEntity
  8
1
  6
DASH_CENTER
 62
     3
100
AcDbLine
 10
-35.062500000001
 20
-60.73003144038398
 30
0.0
 11
-30.937500000001
 21
-53.585321859162
 31
0.0
  0
LINE
  5
175
330
A
100
AcDbEntity
  8
1
  6
DASH_CENTER
 62
     3
100
AcDbLine
 10
35.0625
 20
-60.73003144038398
 30
0.0
 11
30.9375
 21
-53.585321859162
 31
0.0
  0
LINE
  5
174
330
A
100
AcDbEntity
  8
1
  6
DASH_CENTER
 62
     3
100
AcDbLine
 10
60.73003144038398
 20
-35.0625
 30
0.0
 11
53.585321859162
 21
-30.9375
 31
0.0
  0
LINE
  5
173
330
A
100
AcDbEntity
  8
1
  6
DASH_CENTER
 62
     3
100
AcDbLine
 10
60.73003144038398
 20
35.062500000001
 30
0.0
 11
53.585321859162
 21
30.937500000001
 31
0.0
  0
LINE
  5
172
330
A
100
AcDbEntity
  8
1
  6
DASH_CENTER
 62
     3
100
AcDbLine
 10
35.062499999999
 20
60.730031440385
 30
0.0
 11
30.937499999999
 21
53.58532185916399
 31
0.0
  0
LINE
  5
171
330
A
100
AcDbEntity
  8
1
  6
DASH_CENTER
 62
     3
100
AcDbLine
 10
-468.89489605564
 20
0.0
 30
0.0
 11
-309.59489605564
 21
0.0
 31
0.0
  0
LINE
  5
170
330
A
100
AcDbEntity
  8
1
  6
DASH_CENTER
 62
     3
100
AcDbLine
 10
-389.8510381286209
 20
80.991724956645
 30
0.0
 11
-389.8510381286209
 21
-82.708275043355
 31
0.0
  0
LINE
  5
16F
330
A
100
AcDbEntity
  8
1
  6
DASH_CENTER
 62
     3
100
AcDbLine
 10
-81.21545799447
 20
0.000000000001
 30
0.0
 11
83.68454200553001
 21
0.000000000001
 31
0.0
  0
LINE
  5
16E
330
A
100
AcDbEntity
  8
1
  6
DASH_CENTER
 62
     3
100
AcDbLine
 10
0.0
 20
85.533323249228
 30
0.0
 11
0.0
 21
-83.36667675077199
 31
0.0
  0
LINE
  5
16D
330
A
100
AcDbEntity
  8
1
  6
DASH_CENTER
 62
     3
100
AcDbLine
 10
-16.29969943223199
 20
60.83130642920299
 30
0.0
 11
-17.80559218485398
 21
66.45137469273899
 31
0.0
  0
LINE
  5
16C
330
A
100
AcDbEntity
  8
1
  6
DASH_CENTER
 62
     3
100
AcDbLine
 10
16.29969943223199
 20
-60.831306429199
 30
0.0
 11
17.80559218485398
 21
-66.451374692735
 31
0.0
  0
LINE
  5
16B
330
A
100
AcDbEntity
  8
1
  6
DASH_CENTER
 62
     3
100
AcDbLine
 10
60.83130642920099
 20
16.299699432234
 30
0.0
 11
66.45137469273699
 21
17.805592184856
 31
0.0
  0
LINE
  5
16A
330
A
100
AcDbEntity
  8
1
  6
DASH_CENTER
 62
     3
100
AcDbLine
 10
-60.83130642920099
 20
-16.29969943223
 30
0.0
 11
-66.45137469273699
 21
-17.80559218485199
 31
0.0
  0
LINE
  5
165
330
A
100
AcDbEntity
  8
1
  6
Continuous
 62
     7
100
AcDbLine
 10
-212.0868623244269
 20
-70.7
 30
0.0
 11
-212.0868623244269
 21
70.69999999999899
 31
0.0
  0
LINE
  5
164
330
A
100
AcDbEntity
  8
1
  6
Continuous
 62
     7
100
AcDbLine
 10
-207.486862324503
 20
55.124999173591
 30
0.0
 11
-207.486862324503
 21
43.99999999999899
 31
0.0
  0
LINE
  5
163
330
A
100
AcDbEntity
  8
1
  6
Continuous
 62
     7
100
AcDbLine
 10
-206.4868623245029
 20
42.999999999999
 30
0.0
 11
-207.486862324503
 21
43.99999999999899
 31
0.0
  0
LINE
  5
162
330
A
100
AcDbEntity
  8
1
  6
Continuous
 62
     7
100
AcDbLine
 10
-188.986862324429
 20
70.99999999999901
 30
0.0
 11
-208.186862324427
 21
71.0
 31
0.0
  0
LINE
  5
161
330
A
100
AcDbEntity
  8
1
  6
Continuous
 62
     7
100
AcDbLine
 10
-201.274730290062
 20
59.78050782636199
 30
0.0
 11
-197.4563536716649
 21
55.962131207947
 31
0.0
  0
LINE
  5
160
330
A
100
AcDbEntity
  8
1
  6
Continuous
 62
     7
100
AcDbLine
 10
-188.4868623244279
 20
-64.600000000001
 30
0.0
 11
-202.086862324427
 21
-64.600000000001
 31
0.0
  0
LINE
  5
15F
330
A
100
AcDbEntity
  8
1
  6
DASH_CENTER
 62
     3
100
AcDbLine
 10
-217.286862324427
 20
-66.000000000001
 30
0.0
 11
-186.496042218255
 21
-66.000000000001
 31
0.0
  0
LINE
  5
15E
330
A
100
AcDbEntity
  8
1
  6
Continuous
 62
     3
100
AcDbLine
 10
-188.4868623244279
 20
-64.00000000000099
 30
0.0
 11
-202.6868623244269
 21
-64.00000000000099
 31
0.0
  0
LINE
  5
15D
330
A
100
AcDbEntity
  8
1
  6
Continuous
 62
     3
100
AcDbLine
 10
-202.6868623244269
 20
-68.0
 30
0.0
 11
-188.4868623244279
 21
-68.0
 31
0.0
  0
LINE
  5
15C
330
A
100
AcDbEntity
  8
1
  6
Continuous
 62
     7
100
AcDbLine
 10
-188.486862324429
 20
-70.500000002747
 30
0.0
 11
-188.486862324429
 21
-61.29999999999999
 31
0.0
  0
LINE
  5
15B
330
A
100
AcDbEntity
  8
1
  6
Continuous
 62
     7
100
AcDbLine
 10
-188.4868623244279
 20
-68.0
 30
0.0
 11
-188.4868623244279
 21
-64.00000000000099
 31
0.0
  0
LINE
  5
15A
330
A
100
AcDbEntity
  8
1
  6
Continuous
 62
     7
100
AcDbLine
 10
-202.086862324427
 20
-67.400000000001
 30
0.0
 11
-188.4868623244279
 21
-67.400000000001
 31
0.0
  0
LINE
  5
159
330
A
100
AcDbEntity
  8
1
  6
PHANTOM
 62
     7
100
AcDbLine
 10
-182.186862324452
 20
43.0
 30
0.0
 11
-182.186862324452
 21
29.923314997458
 31
0.0
  0
LINE
  5
158
330
A
100
AcDbEntity
  8
1
  6
PHANTOM
 62
     7
100
AcDbLine
 10
-183.5124493447
 20
43.0
 30
0.0
 11
-182.186862324452
 21
43.0
 31
0.0
  0
LINE
  5
157
330
A
100
AcDbEntity
  8
1
  6
DASH_CENTER
 62
     3
100
AcDbLine
 10
-182.086862369532
 20
-0.000000000001
 30
0.0
 11
-214.0868623244269
 21
-0.000000000001
 31
0.0
  0
LINE
  5
156
330
A
100
AcDbEntity
  8
1
  6
Continuous
 62
     7
100
AcDbLine
 10
-193.3868623244499
 20
-29.46577500209599
 30
0.0
 11
-184.7868623244499
 21
-29.465775002095
 31
0.0
  0
LINE
  5
155
330
A
100
AcDbEntity
  8
1
  6
Continuous
 62
     7
100
AcDbLine
 10
-193.3868623244499
 20
16.0
 30
0.0
 11
-184.786862324448
 21
16.0
 31
0.0
  0
LINE
  5
154
330
A
100
AcDbEntity
  8
1
  6
Continuous
 62
     7
100
AcDbLine
 10
-184.786862324448
 20
-16.000000000001
 30
0.0
 11
-193.3868623244499
 21
-16.000000000001
 31
0.0
  0
LINE
  5
153
330
A
100
AcDbEntity
  8
1
  6
Continuous
 62
     7
100
AcDbLine
 10
-208.4868623244279
 20
-67.50000000000099
 30
0.0
 11
-208.4868623244279
 21
-70.7
 31
0.0
  0
LINE
  5
152
330
A
100
AcDbEntity
  8
1
  6
Continuous
 62
     7
100
AcDbLine
 10
-212.0868623244269
 20
-69.50000000000099
 30
0.0
 11
-212.0868623244269
 21
-63.000000000001
 31
0.0
  0
LINE
  5
151
330
A
100
AcDbEntity
  8
1
  6
Continuous
 62
     7
100
AcDbLine
 10
-208.4868623244279
 20
-68.25000000000099
 30
0.0
 11
-208.486862324438
 21
-70.7
 31
0.0
  0
LINE
  5
150
330
A
100
AcDbEntity
  8
1
  6
Continuous
 62
     7
100
AcDbLine
 10
-208.4868623244279
 20
-68.25000000000099
 30
0.0
 11
-212.0868623244269
 21
-68.25000000000099
 31
0.0
  0
LINE
  5
14F
330
A
100
AcDbEntity
  8
1
  6
Continuous
 62
     7
100
AcDbLine
 10
-208.4868623244588
 20
-63.750000000001
 30
0.0
 11
-212.0868623244269
 21
-63.750000000001
 31
0.0
  0
LINE
  5
14E
330
A
100
AcDbEntity
  8
1
  6
Continuous
 62
     7
100
AcDbLine
 10
-207.486862324503
 20
-55.124999173592
 30
0.0
 11
-205.1045013587279
 21
-55.124999173592
 31
0.0
  0
LINE
  5
14D
330
A
100
AcDbEntity
  8
1
  6
Continuous
 62
     7
100
AcDbLine
 10
-207.986862324428
 20
-56.374999173592
 30
0.0
 11
-205.1045046643618
 21
-56.374999173592
 31
0.0
  0
LINE
  5
14C
330
A
100
AcDbEntity
  8
1
  6
Continuous
 62
     7
100
AcDbLine
 10
-199.5795103105638
 20
-40.45722499790699
 30
0.0
 11
-206.4868623245029
 21
-40.45722499790699
 31
0.0
  0
LINE
  5
14B
330
A
100
AcDbEntity
  8
1
  6
Continuous
 62
     7
100
AcDbLine
 10
-206.5908623244279
 20
-39.76822499790699
 30
0.0
 11
-184.265862324504
 21
-39.76822499790699
 31
0.0
  0
LINE
  5
14A
330
A
100
AcDbEntity
  8
1
  6
Continuous
 62
     7
100
AcDbLine
 10
-197.7732123695339
 20
-43.000000000001
 30
0.0
 11
-206.4868623245029
 21
-43.000000000001
 31
0.0
  0
LINE
  5
149
330
A
100
AcDbEntity
  8
1
  6
Continuous
 62
     7
100
AcDbLine
 10
-197.8692199844898
 20
-55.124999173592
 30
0.0
 11
-194.9868623244274
 21
-55.124999173592
 31
0.0
  0
LINE
  5
148
330
A
100
AcDbEntity
  8
1
  6
Continuous
 62
     7
100
AcDbLine
 10
-197.0582123695328
 20
-40.888164256145
 30
0.0
 11
-197.7732123695339
 21
-41.603164256146
 31
0.0
  0
LINE
  5
147
330
A
100
AcDbEntity
  8
1
  6
Continuous
 62
     7
100
AcDbLine
 10
-184.265862324504
 20
-39.76822499790699
 30
0.0
 11
-184.2658623245029
 21
-40.628164256143
 31
0.0
  0
LINE
  5
146
330
A
100
AcDbEntity
  8
1
  6
Continuous
 62
     7
100
AcDbLine
 10
-184.2658623245029
 20
-40.628164256143
 30
0.0
 11
-185.2408623245029
 21
-41.60316425614499
 31
0.0
  0
LINE
  5
145
330
A
100
AcDbEntity
  8
1
  6
Continuous
 62
     7
100
AcDbLine
 10
-184.2005123244509
 20
-41.60316425614499
 30
0.0
 11
-184.915512324449
 21
-40.888164256145
 31
0.0
  0
LINE
  5
144
330
A
100
AcDbEntity
  8
1
  6
Continuous
 62
     7
100
AcDbLine
 10
-197.0582123695328
 20
-40.888164256145
 30
0.0
 11
-184.915512324449
 21
-40.888164256145
 31
0.0
  0
LINE
  5
143
330
A
100
AcDbEntity
  8
1
  6
Continuous
 62
     7
100
AcDbLine
 10
-197.7732123695339
 20
-43.000000000001
 30
0.0
 11
-197.7732123695339
 21
-41.603164256146
 31
0.0
  0
LINE
  5
142
330
A
100
AcDbEntity
  8
1
  6
Continuous
 62
     7
100
AcDbLine
 10
-197.773212369533
 20
41.60316425614399
 30
0.0
 11
-197.7732123695339
 21
42.999999999999
 31
0.0
  0
LINE
  5
141
330
A
100
AcDbEntity
  8
1
  6
Continuous
 62
     7
100
AcDbLine
 10
-206.4868623245029
 20
40.468775002093
 30
0.0
 11
-199.414581668636
 21
40.468775002093
 31
0.0
  0
LINE
  5
140
330
A
100
AcDbEntity
  8
1
  6
Continuous
 62
     7
100
AcDbLine
 10
-184.915512324452
 20
40.888164256144
 30
0.0
 11
-197.0582123695328
 21
40.888164256144
 31
0.0
  0
LINE
  5
13F
330
A
100
AcDbEntity
  8
1
  6
Continuous
 62
     7
100
AcDbLine
 10
-184.915512324452
 20
40.888164256144
 30
0.0
 11
-184.186862324514
 21
41.61681425608398
 31
0.0
  0
LINE
  5
13E
330
A
100
AcDbEntity
  8
1
  6
Continuous
 62
     7
100
AcDbLine
 10
-184.266862324505
 20
39.779775002093
 30
0.0
 11
-206.5908623244279
 21
39.779775002093
 31
0.0
  0
LINE
  5
13D
330
A
100
AcDbEntity
  8
1
  6
Continuous
 62
     7
100
AcDbLine
 10
-185.241862324504
 20
41.60316425614499
 30
0.0
 11
-184.266862324504
 21
40.628164256142
 31
0.0
  0
LINE
  5
13C
330
A
100
AcDbEntity
  8
1
  6
Continuous
 62
     7
100
AcDbLine
 10
-184.266862324504
 20
40.628164256142
 30
0.0
 11
-184.266862324505
 21
39.779775002093
 31
0.0
  0
LINE
  5
13B
330
A
100
AcDbEntity
  8
1
  6
Continuous
 62
     7
100
AcDbLine
 10
-197.773212369533
 20
41.60316425614399
 30
0.0
 11
-197.0582123695328
 21
40.888164256144
 31
0.0
  0
LINE
  5
13A
330
A
100
AcDbEntity
  8
1
  6
Continuous
 62
     7
100
AcDbLine
 10
-207.486862324503
 20
-44.000000000001
 30
0.0
 11
-206.4868623245029
 21
-43.000000000001
 31
0.0
  0
LINE
  5
139
330
A
100
AcDbEntity
  8
1
  6
Continuous
 62
     7
100
AcDbLine
 10
-207.486862324503
 20
-44.000000000001
 30
0.0
 11
-207.486862324503
 21
-44.300000000001
 31
0.0
  0
LINE
  5
138
330
A
100
AcDbEntity
  8
1
  6
Continuous
 62
     7
100
AcDbLine
 10
-207.486862324503
 20
-44.300000000001
 30
0.0
 11
-207.486862324503
 21
-45.000000000001
 31
0.0
  0
LINE
  5
137
330
A
100
AcDbEntity
  8
1
  6
Continuous
 62
     7
100
AcDbLine
 10
-207.486862324503
 20
-45.000000000001
 30
0.0
 11
-207.486862324503
 21
-55.124999173592
 31
0.0
  0
LINE
  5
136
330
A
100
AcDbEntity
  8
1
  6
Continuous
 62
     7
100
AcDbLine
 10
-205.1045030115449
 20
56.374999173591
 30
0.0
 11
-207.986862324428
 21
56.374999173591
 31
0.0
  0
LINE
  5
135
330
A
100
AcDbEntity
  8
1
  6
Continuous
 62
     7
100
AcDbLine
 10
-205.1045030115449
 20
55.124999173591
 30
0.0
 11
-207.486862324503
 21
55.124999173591
 31
0.0
  0
LINE
  5
134
330
A
100
AcDbEntity
  8
1
  6
Continuous
 62
     3
100
AcDbLine
 10
-184.186862324452
 20
46.99999999999898
 30
0.0
 11
-192.186862324486
 21
46.99999999999898
 31
0.0
  0
LINE
  5
133
330
A
100
AcDbEntity
  8
1
  6
Continuous
 62
     7
100
AcDbLine
 10
-184.186862324452
 20
47.49999999999899
 30
0.0
 11
-194.1868623243429
 21
47.49999999999899
 31
0.0
  0
LINE
  5
132
330
A
100
AcDbEntity
  8
1
  6
DASH_CENTER
 62
     3
100
AcDbLine
 10
-182.086862369533
 20
49.49999999999899
 30
0.0
 11
-196.2347130164
 21
49.49999999999899
 31
0.0
  0
LINE
  5
131
330
A
100
AcDbEntity
  8
1
  6
Continuous
 62
     7
100
AcDbLine
 10
-194.1868623243429
 20
51.49999999999899
 30
0.0
 11
-184.186862324452
 21
51.49999999999899
 31
0.0
  0
LINE
  5
130
330
A
100
AcDbEntity
  8
1
  6
Continuous
 62
     3
100
AcDbLine
 10
-192.186862324486
 20
51.99999999999899
 30
0.0
 11
-184.186862324452
 21
51.99999999999899
 31
0.0
  0
LINE
  5
12F
330
A
100
AcDbEntity
  8
1
  6
Continuous
 62
     7
100
AcDbLine
 10
-195.341562862722
 20
49.49999999999899
 30
0.0
 11
-194.1868623243429
 21
51.49999999999899
 31
0.0
  0
LINE
  5
12E
330
A
100
AcDbEntity
  8
1
  6
Continuous
 62
     7
100
AcDbLine
 10
-194.1868623243429
 20
47.49999999999899
 30
0.0
 11
-195.341562862722
 21
49.49999999999899
 31
0.0
  0
LINE
  5
12D
330
A
100
AcDbEntity
  8
1
  6
Continuous
 62
     7
100
AcDbLine
 10
-192.186862324486
 20
46.99999999999898
 30
0.0
 11
-192.186862324486
 21
51.99999999999899
 31
0.0
  0
LINE
  5
12C
330
A
100
AcDbEntity
  8
1
  6
Continuous
 62
     7
100
AcDbLine
 10
-194.1868623243429
 20
47.49999999999899
 30
0.0
 11
-194.1868623243429
 21
51.49999999999899
 31
0.0
  0
LINE
  5
12B
330
A
100
AcDbEntity
  8
1
  6
Continuous
 62
     3
100
AcDbLine
 10
-193.0528877282709
 20
51.49999999999899
 30
0.0
 11
-192.186862324486
 21
51.99999999999899
 31
0.0
  0
LINE
  5
12A
330
A
100
AcDbEntity
  8
1
  6
Continuous
 62
     3
100
AcDbLine
 10
-192.186862324486
 20
46.99999999999898
 30
0.0
 11
-193.0528877282709
 21
47.49999999999899
 31
0.0
  0
LINE
  5
129
330
A
100
AcDbEntity
  8
1
  6
Continuous
 62
     7
100
AcDbLine
 10
-184.186862324514
 20
41.61681425608398
 30
0.0
 11
-184.186862324457
 21
52.69999917359101
 31
0.0
  0
LINE
  5
128
330
A
100
AcDbEntity
  8
1
  6
Continuous
 62
     7
100
AcDbLine
 10
-184.686862324452
 20
54.999999173591
 30
0.0
 11
-194.9868623244274
 21
54.999999173591
 31
0.0
  0
LINE
  5
127
330
A
100
AcDbEntity
  8
1
  6
Continuous
 62
     7
100
AcDbLine
 10
-184.686862324452
 20
54.999999173591
 30
0.0
 11
-184.186862324452
 21
54.499999173591
 31
0.0
  0
LINE
  5
126
330
A
100
AcDbEntity
  8
1
  6
Continuous
 62
     7
100
AcDbLine
 10
-208.1868623244369
 20
-71.000000000001
 30
0.0
 11
-208.486862324438
 21
-70.7
 31
0.0
  0
LINE
  5
125
330
A
100
AcDbEntity
  8
1
  6
Continuous
 62
     7
100
AcDbLine
 10
-208.4868623244279
 20
70.69999999999899
 30
0.0
 11
-208.186862324427
 21
71.0
 31
0.0
  0
LINE
  5
124
330
A
100
AcDbEntity
  8
1
  6
Continuous
 62
     7
100
AcDbLine
 10
-188.4868623244279
 20
63.25
 30
0.0
 11
-212.0868623244269
 21
63.24999999999899
 31
0.0
  0
LINE
  5
123
330
A
100
AcDbEntity
  8
1
  6
Continuous
 62
     7
100
AcDbLine
 10
-188.4868623244279
 20
68.75
 30
0.0
 11
-212.0868623244269
 21
68.75
 31
0.0
  0
LINE
  5
122
330
A
100
AcDbEntity
  8
1
  6
DASH_CENTER
 62
     3
100
AcDbLine
 10
-187.486862324428
 20
66.0
 30
0.0
 11
-213.0868623244269
 21
66.0
 31
0.0
  0
LINE
  5
121
330
A
100
AcDbEntity
  8
1
  6
Continuous
 62
     7
100
AcDbLine
 10
-206.4868623245029
 20
42.999999999999
 30
0.0
 11
-197.7732123695339
 21
42.999999999999
 31
0.0
  0
LINE
  5
120
330
A
100
AcDbEntity
  8
1
  6
Continuous
 62
     7
100
AcDbLine
 10
-208.4868623244279
 20
61.49999999999899
 30
0.0
 11
-208.4868623244279
 21
70.69999999999899
 31
0.0
  0
LINE
  5
11F
330
A
100
AcDbEntity
  8
1
  6
Continuous
 62
     7
100
AcDbLine
 10
-212.0868623244269
 20
-57.30000000000099
 30
0.0
 11
-211.786862324427
 21
-57.000000000001
 31
0.0
  0
LINE
  5
11E
330
A
100
AcDbEntity
  8
1
  6
Continuous
 62
     7
100
AcDbLine
 10
-209.271862324427
 20
-57.000000000001
 30
0.0
 11
-211.786862324427
 21
-57.000000000001
 31
0.0
  0
LINE
  5
11D
330
A
100
AcDbEntity
  8
1
  6
Continuous
 62
     7
100
AcDbLine
 10
-211.786862324427
 20
-71.0
 30
0.0
 11
-212.0868623244269
 21
-70.7
 31
0.0
  0
LINE
  5
11C
330
A
100
AcDbEntity
  8
1
  6
Continuous
 62
     7
100
AcDbLine
 10
-208.786862324427
 20
-71.0
 30
0.0
 11
-208.4868623244279
 21
-70.7
 31
0.0
  0
LINE
  5
11B
330
A
100
AcDbEntity
  8
1
  6
Continuous
 62
     7
100
AcDbLine
 10
-208.786862324427
 20
-71.0
 30
0.0
 11
-211.786862324427
 21
-71.0
 31
0.0
  0
LINE
  5
11A
330
A
100
AcDbEntity
  8
1
  6
Continuous
 62
     7
100
AcDbLine
 10
-211.786862324427
 20
56.99999999999899
 30
0.0
 11
-212.0868623244269
 21
57.299999999999
 31
0.0
  0
LINE
  5
119
330
A
100
AcDbEntity
  8
1
  6
Continuous
 62
     7
100
AcDbLine
 10
-212.0868623244269
 20
70.69999999999899
 30
0.0
 11
-211.786862324427
 21
70.99999999999901
 31
0.0
  0
LINE
  5
118
330
A
100
AcDbEntity
  8
1
  6
Continuous
 62
     7
100
AcDbLine
 10
-208.4868623244279
 20
70.69999999999899
 30
0.0
 11
-208.786862324427
 21
70.99999999999901
 31
0.0
  0
LINE
  5
117
330
A
100
AcDbEntity
  8
1
  6
Continuous
 62
     7
100
AcDbLine
 10
-208.946862324427
 20
56.675
 30
0.0
 11
-208.946862324427
 21
-56.67500000000099
 31
0.0
  0
LINE
  5
116
330
A
100
AcDbEntity
  8
1
  6
Continuous
 62
     7
100
AcDbLine
 10
-211.786862324427
 20
70.99999999999901
 30
0.0
 11
-208.786862324427
 21
70.99999999999901
 31
0.0
  0
LINE
  5
115
330
A
100
AcDbEntity
  8
1
  6
Continuous
 62
     7
100
AcDbLine
 10
-201.677605714578
 20
60.47347651710801
 30
0.0
 11
-201.9868623244279
 21
59.49263986071
 31
0.0
  0
LINE
  5
114
330
A
100
AcDbEntity
  8
1
  6
Continuous
 62
     7
100
AcDbLine
 10
-201.2961189342779
 20
60.47347651710801
 30
0.0
 11
-200.9868623244279
 21
59.49263986071
 31
0.0
  0
LINE
  5
113
330
A
100
AcDbEntity
  8
1
  6
Continuous
 62
     7
100
AcDbLine
 10
-201.2961189342779
 20
51.026521830074
 30
0.0
 11
-200.9868623244279
 21
52.00735848647199
 31
0.0
  0
LINE
  5
112
330
A
100
AcDbEntity
  8
1
  6
Continuous
 62
     7
100
AcDbLine
 10
-201.677605714578
 20
51.026521830074
 30
0.0
 11
-201.9868623244279
 21
52.00735848647199
 31
0.0
  0
LINE
  5
111
330
A
100
AcDbEntity
  8
1
  6
Continuous
 62
     7
100
AcDbLine
 10
-201.698994358785
 20
51.71949052082799
 30
0.0
 11
-205.2295030115449
 21
55.249999173591
 31
0.0
  0
LINE
  5
110
330
A
100
AcDbEntity
  8
1
  6
Continuous
 62
     7
100
AcDbLine
 10
-205.2295030115449
 20
55.249999173591
 30
0.0
 11
-205.517370977191
 21
55.53786713923599
 31
0.0
  0
LINE
  5
10F
330
A
100
AcDbEntity
  8
1
  6
Continuous
 62
     7
100
AcDbLine
 10
-200.9868623244279
 20
-59.492641513528
 30
0.0
 11
-201.2961189342779
 21
-60.473478169926
 31
0.0
  0
LINE
  5
10E
330
A
100
AcDbEntity
  8
1
  6
Continuous
 62
     7
100
AcDbLine
 10
-201.9868623244279
 20
-59.492641513528
 30
0.0
 11
-201.677605714578
 21
-60.473478169926
 31
0.0
  0
LINE
  5
10D
330
A
100
AcDbEntity
  8
1
  6
Continuous
 62
     7
100
AcDbLine
 10
-201.9868623244279
 20
-52.00736013929
 30
0.0
 11
-201.677605714578
 21
-51.026523482892
 31
0.0
  0
LINE
  5
10C
330
A
100
AcDbEntity
  8
1
  6
Continuous
 62
     7
100
AcDbLine
 10
-200.9868623244279
 20
-52.00736013929
 30
0.0
 11
-201.2961189342779
 21
-51.026523482892
 31
0.0
  0
LINE
  5
10B
330
A
100
AcDbEntity
  8
1
  6
Continuous
 62
     7
100
AcDbLine
 10
-194.9868623244274
 20
55.124999173591
 30
0.0
 11
-197.869221637307
 21
55.124999173591
 31
0.0
  0
LINE
  5
10A
330
A
100
AcDbEntity
  8
1
  6
Continuous
 62
     7
100
AcDbLine
 10
-211.786862324427
 20
56.99999999999899
 30
0.0
 11
-209.271862324427
 21
56.99999999999899
 31
0.0
  0
LINE
  5
109
330
A
100
AcDbEntity
  8
1
  6
Continuous
 62
     7
100
AcDbLine
 10
-207.986862324428
 20
-56.374999173592
 30
0.0
 11
-208.4868623245029
 21
-56.874999173592
 31
0.0
  0
LINE
  5
108
330
A
100
AcDbEntity
  8
1
  6
Continuous
 62
     7
100
AcDbLine
 10
-207.986862324428
 20
56.374999173591
 30
0.0
 11
-208.4868623245029
 21
56.874999173591
 31
0.0
  0
LINE
  5
107
330
A
100
AcDbEntity
  8
1
  6
Continuous
 62
     7
100
AcDbLine
 10
-194.9868623244274
 20
52.999999173591
 30
0.0
 11
-194.9868623244274
 21
55.124999173591
 31
0.0
  0
LINE
  5
106
330
A
100
AcDbEntity
  8
1
  6
Continuous
 62
     7
100
AcDbLine
 10
-207.486862324503
 20
-45.49999999999999
 30
0.0
 11
-207.486862324503
 21
-49.5
 31
0.0
  0
LINE
  5
105
330
A
100
AcDbEntity
  8
1
  6
Continuous
 62
     7
100
AcDbLine
 10
-207.486862324503
 20
-49.5
 30
0.0
 11
-207.486862324503
 21
-45.49999999999999
 31
0.0
  0
LINE
  5
104
330
A
100
AcDbEntity
  8
1
  6
Continuous
 62
     7
100
AcDbLine
 10
-207.486862324503
 20
-45.49999999999999
 30
0.0
 11
-207.486862324503
 21
-49.5
 31
0.0
  0
LINE
  5
103
330
A
100
AcDbEntity
  8
1
  6
Continuous
 62
     7
100
AcDbLine
 10
-207.486862324503
 20
-46.0
 30
0.0
 11
-207.486862324503
 21
-49.0
 31
0.0
  0
LINE
  5
102
330
A
100
AcDbEntity
  8
1
  6
Continuous
 62
     7
100
AcDbLine
 10
-201.486862324428
 20
-43.0
 30
0.0
 11
-201.486862324428
 21
-46.39999999999999
 31
0.0
  0
LINE
  5
101
330
A
100
AcDbEntity
  8
1
  6
Continuous
 62
     7
100
AcDbLine
 10
-194.4868623244279
 20
60.999999999999
 30
0.0
 11
-194.4868623244279
 21
54.999999173591
 31
0.0
  0
LINE
  5
100
330
A
100
AcDbEntity
  8
1
  6
Continuous
 62
     7
100
AcDbLine
 10
-188.4868623244279
 20
54.999999173591
 30
0.0
 11
-194.4868623244279
 21
54.999999173591
 31
0.0
  0
LINE
  5
FF
330
A
100
AcDbEntity
  8
1
  6
Continuous
 62
     7
100
AcDbLine
 10
-188.486862324429
 20
60.999999999999
 30
0.0
 11
-188.4868623244279
 21
54.999999173591
 31
0.0
  0
LINE
  5
FE
330
A
100
AcDbEntity
  8
1
  6
Continuous
 62
     7
100
AcDbLine
 10
-206.9868623244278
 20
61.49999999999899
 30
0.0
 11
-208.4868623244279
 21
61.49999999999899
 31
0.0
  0
LINE
  5
FD
330
A
100
AcDbEntity
  8
1
  6
Continuous
 62
     7
100
AcDbLine
 10
-206.9868623244278
 20
58.79999999999899
 30
0.0
 11
-206.9868623244278
 21
61.49999999999899
 31
0.0
  0
LINE
  5
FC
330
A
100
AcDbEntity
  8
1
  6
Continuous
 62
     7
100
AcDbLine
 10
-208.4868623244279
 20
58.79999999999899
 30
0.0
 11
-206.9868623244278
 21
58.79999999999899
 31
0.0
  0
LINE
  5
FB
330
A
100
AcDbEntity
  8
1
  6
Continuous
 62
     7
100
AcDbLine
 10
-188.486862324429
 20
60.999999999999
 30
0.0
 11
-194.9868623244274
 21
60.999999999999
 31
0.0
  0
LINE
  5
FA
330
A
100
AcDbEntity
  8
1
  6
Continuous
 62
     7
100
AcDbLine
 10
-194.9868623244274
 20
60.999999999999
 30
0.0
 11
-194.9868623244274
 21
56.374999173591
 31
0.0
  0
LINE
  5
F9
330
A
100
AcDbEntity
  8
1
  6
Continuous
 62
     7
100
AcDbLine
 10
-194.9868623244274
 20
56.374999173591
 30
0.0
 11
-197.869221637308
 21
56.374999173591
 31
0.0
  0
LINE
  5
F8
330
A
100
AcDbEntity
  8
1
  6
Continuous
 62
     7
100
AcDbLine
 10
-188.7868623244269
 20
60.999999999999
 30
0.0
 11
-188.486862324429
 21
61.29999999999899
 31
0.0
  0
LINE
  5
F7
330
A
100
AcDbEntity
  8
1
  6
Continuous
 62
     7
100
AcDbLine
 10
-185.316862324494
 20
43.99999999999899
 30
0.0
 11
-184.1868623245259
 21
43.99999999999899
 31
0.0
  0
LINE
  5
F6
330
A
100
AcDbEntity
  8
1
  6
Continuous
 62
     7
100
AcDbLine
 10
-184.186862324452
 20
45.999999999999
 30
0.0
 11
-185.316862324494
 21
45.999999999999
 31
0.0
  0
LINE
  5
F5
330
A
100
AcDbEntity
  8
1
  6
Continuous
 62
     7
100
AcDbLine
 10
-185.316862324494
 20
43.99999999999899
 30
0.0
 11
-185.316862324494
 21
45.999999999999
 31
0.0
  0
LINE
  5
F4
330
A
100
AcDbEntity
  8
1
  6
Continuous
 62
     7
100
AcDbLine
 10
-194.9868623244274
 20
52.999999173591
 30
0.0
 11
-184.4868623244549
 21
52.999999173591
 31
0.0
  0
LINE
  5
F3
330
A
100
AcDbEntity
  8
1
  6
Continuous
 62
     7
100
AcDbLine
 10
-184.4868623244549
 20
52.999999173591
 30
0.0
 11
-184.186862324457
 21
53.299999173591
 31
0.0
  0
LINE
  5
F2
330
A
100
AcDbEntity
  8
1
  6
Continuous
 62
     7
100
AcDbLine
 10
-184.186862324457
 20
53.299999173591
 30
0.0
 11
-184.186862324452
 21
54.499999173591
 31
0.0
  0
LINE
  5
F1
330
A
100
AcDbEntity
  8
1
  6
Continuous
 62
     7
100
AcDbLine
 10
-184.4868623244549
 20
52.999999173591
 30
0.0
 11
-184.186862324457
 21
52.69999917359101
 31
0.0
  0
LINE
  5
F0
330
A
100
AcDbEntity
  8
1
  6
Continuous
 62
     7
100
AcDbLine
 10
-184.18686232445
 20
-41.60316425614499
 30
0.0
 11
-184.18686232445
 21
-52.69999917358499
 31
0.0
  0
LINE
  5
EF
330
A
100
AcDbEntity
  8
1
  6
Continuous
 62
     7
100
AcDbLine
 10
-196.1868623245029
 20
-48.6
 30
0.0
 11
-193.935395276643
 21
-48.6
 31
0.0
  0
LINE
  5
EE
330
A
100
AcDbEntity
  8
1
  6
Continuous
 62
     7
100
AcDbLine
 10
-193.935395276643
 20
-48.6
 30
0.0
 11
-193.935395276643
 21
-46.39999999999999
 31
0.0
  0
LINE
  5
ED
330
A
100
AcDbEntity
  8
1
  6
Continuous
 62
     7
100
AcDbLine
 10
-193.935395276643
 20
-46.39999999999999
 30
0.0
 11
-196.1868623245029
 21
-46.39999999999999
 31
0.0
  0
LINE
  5
EC
330
A
100
AcDbEntity
  8
1
  6
Continuous
 62
     7
100
AcDbLine
 10
-193.935395276643
 20
-48.6
 30
0.0
 11
-193.3003099805329
 21
-47.5
 31
0.0
  0
LINE
  5
EB
330
A
100
AcDbEntity
  8
1
  6
Continuous
 62
     7
100
AcDbLine
 10
-193.3003099805329
 20
-47.5
 30
0.0
 11
-193.935395276643
 21
-46.39999999999999
 31
0.0
  0
LINE
  5
EA
330
A
100
AcDbEntity
  8
1
  6
Continuous
 62
     7
100
AcDbLine
 10
-194.9877080859828
 20
-49.0
 30
0.0
 11
-194.9877080859828
 21
-46.0
 31
0.0
  0
LINE
  5
E9
330
A
100
AcDbEntity
  8
1
  6
Continuous
 62
     3
100
AcDbLine
 10
-196.586862324503
 20
-49.0
 30
0.0
 11
-194.9877080859828
 21
-49.0
 31
0.0
  0
LINE
  5
E8
330
A
100
AcDbEntity
  8
1
  6
Continuous
 62
     3
100
AcDbLine
 10
-194.9877080859828
 20
-46.0
 30
0.0
 11
-196.586862324503
 21
-46.0
 31
0.0
  0
LINE
  5
E7
330
A
100
AcDbEntity
  8
1
  6
DASH_CENTER
 62
     3
100
AcDbLine
 10
-208.0868623245029
 20
-47.5
 30
0.0
 11
-192.4003099805329
 21
-47.5
 31
0.0
  0
LINE
  5
E6
330
A
100
AcDbEntity
  8
1
  6
Continuous
 62
     7
100
AcDbLine
 10
-204.1868623245028
 20
-44.24999999999999
 30
0.0
 11
-204.1868623245028
 21
-50.75
 31
0.0
  0
LINE
  5
E5
330
A
100
AcDbEntity
  8
1
  6
Continuous
 62
     7
100
AcDbLine
 10
-204.1868623245028
 20
-50.75
 30
0.0
 11
-207.486862324503
 21
-50.75
 31
0.0
  0
LINE
  5
E4
330
A
100
AcDbEntity
  8
1
  6
Continuous
 62
     7
100
AcDbLine
 10
-204.1868623245028
 20
-44.24999999999999
 30
0.0
 11
-207.486862324503
 21
-44.24999999999999
 31
0.0
  0
LINE
  5
E3
330
A
100
AcDbEntity
  8
1
  6
Continuous
 62
     7
100
AcDbLine
 10
-184.18686232445
 20
-52.69999917358499
 30
0.0
 11
-184.4868623244549
 21
-52.99999917359199
 31
0.0
  0
LINE
  5
E2
330
A
100
AcDbEntity
  8
1
  6
Continuous
 62
     7
100
AcDbLine
 10
-184.186862324452
 20
-54.499999173592
 30
0.0
 11
-184.186862324457
 21
-53.29999917359199
 31
0.0
  0
LINE
  5
E1
330
A
100
AcDbEntity
  8
1
  6
Continuous
 62
     7
100
AcDbLine
 10
-184.186862324457
 20
-53.29999917359199
 30
0.0
 11
-184.4868623244549
 21
-52.99999917359199
 31
0.0
  0
LINE
  5
E0
330
A
100
AcDbEntity
  8
1
  6
Continuous
 62
     7
100
AcDbLine
 10
-184.4868623244549
 20
-52.99999917359199
 30
0.0
 11
-194.9868623244274
 21
-52.99999917359199
 31
0.0
  0
LINE
  5
DF
330
A
100
AcDbEntity
  8
1
  6
Continuous
 62
     7
100
AcDbLine
 10
-194.9868623244274
 20
-52.99999917359199
 30
0.0
 11
-194.9868623244274
 21
-55.124999173592
 31
0.0
  0
LINE
  5
DE
330
A
100
AcDbEntity
  8
1
  6
Continuous
 62
     7
100
AcDbLine
 10
-188.486862324429
 20
-61.29999999999999
 30
0.0
 11
-188.7868623244269
 21
-61.0
 31
0.0
  0
LINE
  5
DD
330
A
100
AcDbEntity
  8
1
  6
Continuous
 62
     7
100
AcDbLine
 10
-194.9868623244274
 20
-56.374999173592
 30
0.0
 11
-194.9868623244274
 21
-61.0
 31
0.0
  0
LINE
  5
DC
330
A
100
AcDbEntity
  8
1
  6
Continuous
 62
     7
100
AcDbLine
 10
-194.9868623244274
 20
-61.0
 30
0.0
 11
-194.4868623244279
 21
-61.0
 31
0.0
  0
LINE
  5
DB
330
A
100
AcDbEntity
  8
1
  6
Continuous
 62
     7
100
AcDbLine
 10
-188.7868623244269
 20
-61.0
 30
0.0
 11
-188.486862324429
 21
-61.0
 31
0.0
  0
LINE
  5
DA
330
A
100
AcDbEntity
  8
1
  6
Continuous
 62
     7
100
AcDbLine
 10
-194.4868623244279
 20
-61.0
 30
0.0
 11
-188.7868623244269
 21
-61.0
 31
0.0
  0
LINE
  5
D9
330
A
100
AcDbEntity
  8
1
  6
Continuous
 62
     7
100
AcDbLine
 10
-188.4868623244279
 20
-54.999999173592
 30
0.0
 11
-188.486862324429
 21
-61.0
 31
0.0
  0
LINE
  5
D8
330
A
100
AcDbEntity
  8
1
  6
Continuous
 62
     7
100
AcDbLine
 10
-194.4868623244279
 20
-54.999999173592
 30
0.0
 11
-194.4868623244279
 21
-61.0
 31
0.0
  0
LINE
  5
D7
330
A
100
AcDbEntity
  8
1
  6
Continuous
 62
     7
100
AcDbLine
 10
-184.186862324452
 20
-54.499999173592
 30
0.0
 11
-184.686862324452
 21
-54.999999173592
 31
0.0
  0
LINE
  5
D6
330
A
100
AcDbEntity
  8
1
  6
Continuous
 62
     7
100
AcDbLine
 10
-194.9868623244274
 20
-54.999999173592
 30
0.0
 11
-184.686862324452
 21
-54.999999173592
 31
0.0
  0
LINE
  5
D5
330
A
100
AcDbEntity
  8
1
  6
Continuous
 62
     7
100
AcDbLine
 10
-185.316862324494
 20
-46.000000000001
 30
0.0
 11
-185.316862324494
 21
-44.000000000001
 31
0.0
  0
LINE
  5
D4
330
A
100
AcDbEntity
  8
1
  6
Continuous
 62
     7
100
AcDbLine
 10
-185.316862324494
 20
-46.000000000001
 30
0.0
 11
-184.186862324452
 21
-46.000000000001
 31
0.0
  0
LINE
  5
D3
330
A
100
AcDbEntity
  8
1
  6
Continuous
 62
     7
100
AcDbLine
 10
-184.1868623245259
 20
-44.000000000001
 30
0.0
 11
-185.316862324494
 21
-44.000000000001
 31
0.0
  0
LINE
  5
D2
330
A
100
AcDbEntity
  8
1
  6
Continuous
 62
     7
100
AcDbLine
 10
-208.1868623244369
 20
-71.000000000001
 30
0.0
 11
-188.986862324429
 21
-71.000000000001
 31
0.0
  0
LINE
  5
D1
330
A
100
AcDbEntity
  8
1
  6
Continuous
 62
     7
100
AcDbLine
 10
-194.9868623244274
 20
-56.374999173592
 30
0.0
 11
-197.869219984491
 21
-56.374999173592
 31
0.0
  0
LINE
  5
D0
330
A
100
AcDbEntity
  8
1
  6
Continuous
 62
     7
100
AcDbLine
 10
-188.4868623244279
 20
63.25
 30
0.0
 11
-188.486862324429
 21
70.500000002746
 31
0.0
  0
LINE
  5
CF
330
A
100
AcDbEntity
  8
1
  6
Continuous
 62
     7
100
AcDbLine
 10
-188.7868623244269
 20
60.999999999999
 30
0.0
 11
-194.4868623244279
 21
60.999999999999
 31
0.0
  0
LINE
  5
CE
330
A
100
AcDbEntity
  8
1
  6
Continuous
 62
     7
100
AcDbLine
 10
-188.4868623244279
 20
63.25
 30
0.0
 11
-188.486862324429
 21
61.29999999999899
 31
0.0
  0
LINE
  5
CD
330
A
100
AcDbEntity
  8
1
  6
Continuous
 62
     7
100
AcDbLine
 10
-201.486862324428
 20
-45.8
 30
0.0
 11
-204.1868623245028
 21
-45.8
 31
0.0
  0
LINE
  5
CC
330
A
100
AcDbEntity
  8
1
  6
Continuous
 62
     7
100
AcDbLine
 10
-201.486862324428
 20
-49.2
 30
0.0
 11
-204.1868623245028
 21
-49.2
 31
0.0
  0
LINE
  5
CB
330
A
100
AcDbEntity
  8
1
  6
Continuous
 62
     7
100
AcDbLine
 10
-201.486862324428
 20
-48.6
 30
0.0
 11
-201.486862324428
 21
-50.886664642793
 31
0.0
  0
LINE
  5
CA
330
A
100
AcDbEntity
  8
1
  6
Continuous
 62
     7
100
AcDbLine
 10
-184.186862324452
 20
-41.616814256146
 30
0.0
 11
-184.2005123244509
 21
-41.60316425614499
 31
0.0
  0
LINE
  5
C9
330
A
100
AcDbEntity
  8
1
  6
PHANTOM
 62
     7
100
AcDbLine
 10
-182.186862324452
 20
-43.000000000001
 30
0.0
 11
-183.5124493447
 21
-43.000000000001
 31
0.0
  0
LINE
  5
C8
330
A
100
AcDbEntity
  8
1
  6
PHANTOM
 62
     7
100
AcDbLine
 10
-210.2868623244269
 20
36.49999999999899
 30
0.0
 11
-204.2758623245028
 21
36.49999999999899
 31
0.0
  0
LINE
  5
C7
330
A
100
AcDbEntity
  8
1
  6
PHANTOM
 62
     7
100
AcDbLine
 10
-210.2868623244269
 20
51.036103834118
 30
0.0
 11
-210.2868623244269
 21
36.49999999999899
 31
0.0
  0
LINE
  5
C6
330
A
100
AcDbEntity
  8
1
  6
PHANTOM
 62
     7
100
AcDbLine
 10
-210.2868623244269
 20
-36.500000000001
 30
0.0
 11
-210.2868623244269
 21
-51.036103834119
 31
0.0
  0
LINE
  5
C5
330
A
100
AcDbEntity
  8
1
  6
PHANTOM
 62
     7
100
AcDbLine
 10
-204.2758623245028
 20
-36.500000000001
 30
0.0
 11
-210.2868623244269
 21
-36.500000000001
 31
0.0
  0
LINE
  5
C4
330
A
100
AcDbEntity
  8
1
  6
PHANTOM
 62
     7
100
AcDbLine
 10
-182.186862324452
 20
-29.923314997459
 30
0.0
 11
-182.186862324452
 21
-43.000000000001
 31
0.0
  0
LINE
  5
C3
330
A
100
AcDbEntity
  8
1
  6
Continuous
 62
     7
100
AcDbLine
 10
-185.2408623245029
 20
-41.60316425614499
 30
0.0
 11
-196.23976289538
 21
-41.60316425614499
 31
0.0
  0
LINE
  5
C2
330
A
100
AcDbEntity
  8
1
  6
Continuous
 62
     7
100
AcDbLine
 10
-196.254188295866
 20
41.60316425614499
 30
0.0
 11
-185.241862324504
 21
41.60316425614499
 31
0.0
  0
LINE
  5
C1
330
A
100
AcDbEntity
  8
1
  6
Continuous
 62
     7
100
AcDbLine
 10
-188.486862324429
 20
60.999999999999
 30
0.0
 11
-191.486861911223
 21
58.0
 31
0.0
  0
LINE
  5
C0
330
A
100
AcDbEntity
  8
1
  6
Continuous
 62
     7
100
AcDbLine
 10
-191.0652390802889
 20
57.57837722713801
 30
0.0
 11
-191.9084847421578
 21
58.42162277286199
 31
0.0
  0
LINE
  5
BF
330
A
100
AcDbEntity
  8
1
  6
Continuous
 62
     7
100
AcDbLine
 10
-191.9084847421578
 20
58.42162277286199
 30
0.0
 11
-194.4868623244279
 21
54.999999173591
 31
0.0
  0
LINE
  5
BE
330
A
100
AcDbEntity
  8
1
  6
Continuous
 62
     7
100
AcDbLine
 10
-194.4868623244279
 20
54.999999173591
 30
0.0
 11
-191.0652390802889
 21
57.57837722713801
 31
0.0
  0
LINE
  5
BD
330
A
100
AcDbEntity
  8
1
  6
Continuous
 62
     7
100
AcDbLine
 10
-191.0652390802889
 20
-57.57837722713899
 30
0.0
 11
-194.4868623244279
 21
-54.999999173592
 31
0.0
  0
LINE
  5
BC
330
A
100
AcDbEntity
  8
1
  6
Continuous
 62
     7
100
AcDbLine
 10
-194.4868623244279
 20
-54.999999173592
 30
0.0
 11
-191.9084847421578
 21
-58.42162277286297
 31
0.0
  0
LINE
  5
BB
330
A
100
AcDbEntity
  8
1
  6
Continuous
 62
     7
100
AcDbLine
 10
-194.4868623244279
 20
-54.999999173592
 30
0.0
 11
-191.9084847421578
 21
-58.42162277286297
 31
0.0
  0
LINE
  5
BA
330
A
100
AcDbEntity
  8
1
  6
Continuous
 62
     7
100
AcDbLine
 10
-191.9084847421578
 20
-58.42162277286297
 30
0.0
 11
-191.0652390802889
 21
-57.57837722713899
 31
0.0
  0
LINE
  5
B9
330
A
100
AcDbEntity
  8
1
  6
Continuous
 62
     7
100
AcDbLine
 10
-191.486861911223
 20
-58.000000000001
 30
0.0
 11
-188.486862324429
 21
-61.0
 31
0.0
  0
LINE
  5
B8
330
A
100
AcDbEntity
  8
1
  6
Continuous
 62
     7
100
AcDbLine
 10
-208.4868623245029
 20
-42.457224997907
 30
0.0
 11
-208.4868623245029
 21
-64.600000000001
 31
0.0
  0
LINE
  5
B7
330
A
100
AcDbEntity
  8
1
  6
Continuous
 62
     7
100
AcDbLine
 10
-184.786862324448
 20
-16.000000000001
 30
0.0
 11
-193.3868623244499
 21
-16.000000000001
 31
0.0
  0
LINE
  5
B6
330
A
100
AcDbEntity
  8
1
  6
Continuous
 62
     7
100
AcDbLine
 10
-208.4868623245029
 20
61.49999999999899
 30
0.0
 11
-208.4868623245029
 21
42.468775002093
 31
0.0
  0
LINE
  5
B5
330
A
100
AcDbEntity
  8
1
  6
Continuous
 62
     7
100
AcDbLine
 10
-193.3868623244499
 20
29.465775002093
 30
0.0
 11
-184.796458115774
 21
29.465775002093
 31
0.0
  0
LINE
  5
B4
330
A
100
AcDbEntity
  8
1
  6
DASH_CENTER
 62
     3
100
AcDbLine
 10
-201.486862324428
 20
-50.350293311851
 30
0.0
 11
-201.486862324428
 21
-61.908648934806
 31
0.0
  0
LINE
  5
B3
330
A
100
AcDbEntity
  8
1
  6
DASH_CENTER
 62
     3
100
AcDbLine
 10
-194.8282125632149
 20
-55.749999173592
 30
0.0
 11
-206.645512085642
 21
-55.749999173592
 31
0.0
  0
LINE
  5
B2
330
A
100
AcDbEntity
  8
1
  6
DASH_CENTER
 62
     3
100
AcDbLine
 10
-206.645512085642
 20
55.749999173591
 30
0.0
 11
-194.8282125632149
 21
55.749999173591
 31
0.0
  0
LINE
  5
B1
330
A
100
AcDbEntity
  8
1
  6
DASH_CENTER
 62
     3
100
AcDbLine
 10
-201.486862324428
 20
61.908648934805
 30
0.0
 11
-201.486862324428
 21
50.35029331185
 31
0.0
  0
LINE
  5
B0
330
A
100
AcDbEntity
  8
1
  6
Continuous
 62
     7
100
AcDbLine
 10
-197.4563536716649
 20
55.537867139234
 30
0.0
 11
-201.2747302900709
 21
51.719490520829
 31
0.0
  0
LINE
  5
AF
330
A
100
AcDbEntity
  8
1
  6
Continuous
 62
     7
100
AcDbLine
 10
-205.5173709771898
 20
55.96213120794599
 30
0.0
 11
-201.698994358783
 21
59.78050782635399
 31
0.0
  0
LINE
  5
AE
330
A
100
AcDbEntity
  8
1
  6
Continuous
 62
     7
100
AcDbLine
 10
-201.2747302900709
 20
-51.71949217364701
 30
0.0
 11
-197.4563536716649
 21
-55.537868792051
 31
0.0
  0
LINE
  5
AD
330
A
100
AcDbEntity
  8
1
  6
Continuous
 62
     7
100
AcDbLine
 10
-205.517370977191
 20
-55.537868792054
 30
0.0
 11
-201.698994358785
 21
-51.719492173646
 31
0.0
  0
LINE
  5
AC
330
A
100
AcDbEntity
  8
1
  6
Continuous
 62
     7
100
AcDbLine
 10
-201.2747302900709
 20
-59.780509479172
 30
0.0
 11
-197.4563536716649
 21
-55.962132860766
 31
0.0
  0
LINE
  5
AB
330
A
100
AcDbEntity
  8
1
  6
Continuous
 62
     7
100
AcDbLine
 10
-201.698994358783
 20
-59.780509479172
 30
0.0
 11
-205.5173709771898
 21
-55.962132860764
 31
0.0
  0
LINE
  5
AA
330
A
100
AcDbEntity
  8
1
  6
Continuous
 62
     7
100
AcDbLine
 10
-206.9868623244278
 20
-58.79999999999999
 30
0.0
 11
-208.4868623244279
 21
-58.79999999999999
 31
0.0
  0
LINE
  5
A9
330
A
100
AcDbEntity
  8
1
  6
Continuous
 62
     7
100
AcDbLine
 10
-206.9868623244278
 20
-61.5
 30
0.0
 11
-206.9868623244278
 21
-58.79999999999999
 31
0.0
  0
LINE
  5
A8
330
A
100
AcDbEntity
  8
1
  6
Continuous
 62
     7
100
AcDbLine
 10
-208.4868623244279
 20
-61.5
 30
0.0
 11
-206.9868623244278
 21
-61.5
 31
0.0
  0
LINE
  5
A7
330
A
100
AcDbEntity
  8
1
  6
Continuous
 62
     7
100
AcDbLine
 10
-192.67873732445
 20
36.936775002093
 30
0.0
 11
-192.67873732445
 21
32.356775002094
 31
0.0
  0
LINE
  5
A6
330
A
100
AcDbEntity
  8
1
  6
Continuous
 62
     7
100
AcDbLine
 10
-183.17873732445
 20
34.001775002094
 30
0.0
 11
-183.435516551898
 21
36.936775002093
 31
0.0
  0
LINE
  5
A5
330
A
100
AcDbEntity
  8
1
  6
Continuous
 62
     7
100
AcDbLine
 10
-183.17873732445
 20
34.001775002094
 30
0.0
 11
-183.17873732445
 21
32.356775002094
 31
0.0
  0
LINE
  5
A4
330
A
100
AcDbEntity
  8
1
  6
Continuous
 62
     7
100
AcDbLine
 10
-183.17873732445
 20
32.356775002094
 30
0.0
 11
-186.3995775194049
 21
32.356775002094
 31
0.0
  0
LINE
  5
A3
330
A
100
AcDbEntity
  8
1
  6
Continuous
 62
     7
100
AcDbLine
 10
-183.435516551898
 20
36.936775002093
 30
0.0
 11
-186.3327334493565
 21
36.936775002093
 31
0.0
  0
LINE
  5
A2
330
A
100
AcDbEntity
  8
1
  6
Continuous
 62
     7
100
AcDbLine
 10
-185.068737324449
 20
36.936775002093
 30
0.0
 11
-185.068737324449
 21
32.356775002094
 31
0.0
  0
LINE
  5
A1
330
A
100
AcDbEntity
  8
1
  6
Continuous
 62
     7
100
AcDbLine
 10
-194.8787373244499
 20
36.936775002093
 30
0.0
 11
-191.880991199542
 21
36.936775002093
 31
0.0
  0
LINE
  5
A0
330
A
100
AcDbEntity
  8
1
  6
Continuous
 62
     7
100
AcDbLine
 10
-192.67873732445
 20
36.936775002093
 30
0.0
 11
-192.67873732445
 21
32.356775002094
 31
0.0
  0
LINE
  5
9F
330
A
100
AcDbEntity
  8
1
  6
Continuous
 62
     7
100
AcDbLine
 10
-194.8787373244499
 20
32.356775002094
 30
0.0
 11
-191.814147129495
 21
32.356775002094
 31
0.0
  0
LINE
  5
9E
330
A
100
AcDbEntity
  8
1
  6
Continuous
 62
     7
100
AcDbLine
 10
-194.8787373244499
 20
32.356775002094
 30
0.0
 11
-194.8787373244499
 21
36.936775002093
 31
0.0
  0
LINE
  5
9D
330
A
100
AcDbEntity
  8
1
  6
Continuous
 62
     7
100
AcDbLine
 10
-193.426862324449
 20
37.900224997906
 30
0.0
 11
-193.22686232445
 21
37.700224997906
 31
0.0
  0
LINE
  5
9C
330
A
100
AcDbEntity
  8
1
  6
Continuous
 62
     7
100
AcDbLine
 10
-193.426862324449
 20
39.421814836392
 30
0.0
 11
-193.426862324449
 21
37.900224997906
 31
0.0
  0
LINE
  5
9B
330
A
100
AcDbEntity
  8
1
  6
Continuous
 62
     7
100
AcDbLine
 10
-184.7868623244499
 20
37.900224997906
 30
0.0
 11
-184.9868623244499
 21
37.700224997906
 31
0.0
  0
LINE
  5
9A
330
A
100
AcDbEntity
  8
1
  6
Continuous
 62
     7
100
AcDbLine
 10
-184.7868623244499
 20
39.421814836392
 30
0.0
 11
-184.7868623244499
 21
37.900224997906
 31
0.0
  0
LINE
  5
99
330
A
100
AcDbEntity
  8
1
  6
Continuous
 62
     7
100
AcDbLine
 10
-184.7868623244499
 20
29.965775002093
 30
0.0
 11
-184.786862324449
 21
31.110224997906
 31
0.0
  0
LINE
  5
98
330
A
100
AcDbEntity
  8
1
  6
Continuous
 62
     7
100
AcDbLine
 10
-185.28686232445
 20
29.465775002093
 30
0.0
 11
-184.7868623244499
 21
29.965775002093
 31
0.0
  0
LINE
  5
97
330
A
100
AcDbEntity
  8
1
  6
Continuous
 62
     7
100
AcDbLine
 10
-193.426862324449
 20
29.965775002093
 30
0.0
 11
-193.426862324449
 21
31.110224997906
 31
0.0
  0
LINE
  5
96
330
A
100
AcDbEntity
  8
1
  6
Continuous
 62
     7
100
AcDbLine
 10
-192.926862324449
 20
29.465775002093
 30
0.0
 11
-193.426862324449
 21
29.965775002093
 31
0.0
  0
LINE
  5
95
330
A
100
AcDbEntity
  8
1
  6
Continuous
 62
     7
100
AcDbLine
 10
-185.3868623244499
 20
39.76822499790599
 30
0.0
 11
-184.7868623244499
 21
39.421814836392
 31
0.0
  0
LINE
  5
94
330
A
100
AcDbEntity
  8
1
  6
Continuous
 62
     7
100
AcDbLine
 10
-192.8268623244499
 20
39.76822499790599
 30
0.0
 11
-193.426862324449
 21
39.421814836392
 31
0.0
  0
LINE
  5
93
330
A
100
AcDbEntity
  8
1
  6
Continuous
 62
     7
100
AcDbLine
 10
-193.22686232445
 20
37.700224997906
 30
0.0
 11
-190.810766962515
 21
37.700224997906
 31
0.0
  0
LINE
  5
92
330
A
100
AcDbEntity
  8
1
  6
Continuous
 62
     7
100
AcDbLine
 10
-187.4029576863819
 20
37.700224997906
 30
0.0
 11
-184.9868623244499
 21
37.700224997906
 31
0.0
  0
LINE
  5
91
330
A
100
AcDbEntity
  8
1
  6
Continuous
 62
     7
100
AcDbLine
 10
-192.926862324449
 20
31.610224997906
 30
0.0
 11
-190.7377182394899
 21
31.610224997906
 31
0.0
  0
LINE
  5
90
330
A
100
AcDbEntity
  8
1
  6
Continuous
 62
     7
100
AcDbLine
 10
-192.926862324449
 20
31.610224997906
 30
0.0
 11
-193.426862324449
 21
31.110224997906
 31
0.0
  0
LINE
  5
8F
330
A
100
AcDbEntity
  8
1
  6
Continuous
 62
     7
100
AcDbLine
 10
-187.4760064094068
 20
31.610224997906
 30
0.0
 11
-185.2868623244485
 21
31.610224997906
 31
0.0
  0
LINE
  5
8E
330
A
100
AcDbEntity
  8
1
  6
Continuous
 62
     7
100
AcDbLine
 10
-184.786862324449
 20
31.110224997906
 30
0.0
 11
-185.2868623244485
 21
31.610224997906
 31
0.0
  0
LINE
  5
8D
330
A
100
AcDbEntity
  8
1
  6
Continuous
 62
     7
100
AcDbLine
 10
-185.2868623244485
 20
-31.610224997907
 30
0.0
 11
-184.786862324449
 21
-31.110224997907
 31
0.0
  0
LINE
  5
8C
330
A
100
AcDbEntity
  8
1
  6
Continuous
 62
     7
100
AcDbLine
 10
-185.2868623244485
 20
-31.610224997907
 30
0.0
 11
-187.4760064094068
 21
-31.610224997907
 31
0.0
  0
LINE
  5
8B
330
A
100
AcDbEntity
  8
1
  6
Continuous
 62
     7
100
AcDbLine
 10
-193.426862324449
 20
-31.110224997907
 30
0.0
 11
-192.926862324449
 21
-31.610224997907
 31
0.0
  0
LINE
  5
8A
330
A
100
AcDbEntity
  8
1
  6
Continuous
 62
     7
100
AcDbLine
 10
-190.7377182394899
 20
-31.610224997907
 30
0.0
 11
-192.926862324449
 21
-31.610224997907
 31
0.0
  0
LINE
  5
89
330
A
100
AcDbEntity
  8
1
  6
Continuous
 62
     7
100
AcDbLine
 10
-184.9868623244499
 20
-37.700224997907
 30
0.0
 11
-187.4029576863819
 21
-37.700224997907
 31
0.0
  0
LINE
  5
88
330
A
100
AcDbEntity
  8
1
  6
Continuous
 62
     7
100
AcDbLine
 10
-190.810766962515
 20
-37.700224997907
 30
0.0
 11
-193.22686232445
 21
-37.700224997907
 31
0.0
  0
LINE
  5
87
330
A
100
AcDbEntity
  8
1
  6
Continuous
 62
     7
100
AcDbLine
 10
-193.426862324449
 20
-39.42181483639299
 30
0.0
 11
-192.8268623244499
 21
-39.76822499790699
 31
0.0
  0
LINE
  5
86
330
A
100
AcDbEntity
  8
1
  6
Continuous
 62
     7
100
AcDbLine
 10
-184.7868623244499
 20
-39.42181483639299
 30
0.0
 11
-185.3868623244499
 21
-39.76822499790699
 31
0.0
  0
LINE
  5
85
330
A
100
AcDbEntity
  8
1
  6
Continuous
 62
     7
100
AcDbLine
 10
-193.426862324449
 20
-29.965775002094
 30
0.0
 11
-192.926862324449
 21
-29.465775002094
 31
0.0
  0
LINE
  5
84
330
A
100
AcDbEntity
  8
1
  6
Continuous
 62
     7
100
AcDbLine
 10
-193.426862324449
 20
-31.110224997907
 30
0.0
 11
-193.426862324449
 21
-29.965775002094
 31
0.0
  0
LINE
  5
83
330
A
100
AcDbEntity
  8
1
  6
Continuous
 62
     7
100
AcDbLine
 10
-184.7868623244499
 20
-29.965775002094
 30
0.0
 11
-185.28686232445
 21
-29.465775002094
 31
0.0
  0
LINE
  5
82
330
A
100
AcDbEntity
  8
1
  6
Continuous
 62
     7
100
AcDbLine
 10
-184.786862324449
 20
-31.110224997907
 30
0.0
 11
-184.7868623244499
 21
-29.965775002094
 31
0.0
  0
LINE
  5
81
330
A
100
AcDbEntity
  8
1
  6
Continuous
 62
     7
100
AcDbLine
 10
-184.7868623244499
 20
-37.900224997907
 30
0.0
 11
-184.7868623244499
 21
-39.42181483639299
 31
0.0
  0
LINE
  5
80
330
A
100
AcDbEntity
  8
1
  6
Continuous
 62
     7
100
AcDbLine
 10
-184.9868623244499
 20
-37.700224997907
 30
0.0
 11
-184.7868623244499
 21
-37.900224997907
 31
0.0
  0
LINE
  5
7F
330
A
100
AcDbEntity
  8
1
  6
Continuous
 62
     7
100
AcDbLine
 10
-193.426862324449
 20
-37.900224997907
 30
0.0
 11
-193.426862324449
 21
-39.42181483639299
 31
0.0
  0
LINE
  5
7E
330
A
100
AcDbEntity
  8
1
  6
Continuous
 62
     7
100
AcDbLine
 10
-193.22686232445
 20
-37.700224997907
 30
0.0
 11
-193.426862324449
 21
-37.900224997907
 31
0.0
  0
LINE
  5
7D
330
A
100
AcDbEntity
  8
1
  6
Continuous
 62
     7
100
AcDbLine
 10
-194.8787373244499
 20
-32.35677500209499
 30
0.0
 11
-191.814147129495
 21
-32.35677500209499
 31
0.0
  0
LINE
  5
7C
330
A
100
AcDbEntity
  8
1
  6
Continuous
 62
     7
100
AcDbLine
 10
-194.8787373244499
 20
-36.936775002094
 30
0.0
 11
-191.880991199542
 21
-36.936775002094
 31
0.0
  0
LINE
  5
7B
330
A
100
AcDbEntity
  8
1
  6
Continuous
 62
     7
100
AcDbLine
 10
-194.8787373244499
 20
-36.936775002094
 30
0.0
 11
-194.8787373244499
 21
-32.35677500209499
 31
0.0
  0
LINE
  5
7A
330
A
100
AcDbEntity
  8
1
  6
Continuous
 62
     7
100
AcDbLine
 10
-192.67873732445
 20
-32.35677500209499
 30
0.0
 11
-192.67873732445
 21
-36.936775002094
 31
0.0
  0
LINE
  5
79
330
A
100
AcDbEntity
  8
1
  6
Continuous
 62
     7
100
AcDbLine
 10
-186.3327334493565
 20
-36.936775002094
 30
0.0
 11
-183.435516551898
 21
-36.936775002094
 31
0.0
  0
LINE
  5
78
330
A
100
AcDbEntity
  8
1
  6
Continuous
 62
     7
100
AcDbLine
 10
-186.3995775194049
 20
-32.35677500209499
 30
0.0
 11
-183.17873732445
 21
-32.35677500209499
 31
0.0
  0
LINE
  5
77
330
A
100
AcDbEntity
  8
1
  6
Continuous
 62
     7
100
AcDbLine
 10
-185.068737324449
 20
-32.35677500209499
 30
0.0
 11
-185.068737324449
 21
-36.936775002094
 31
0.0
  0
LINE
  5
76
330
A
100
AcDbEntity
  8
1
  6
Continuous
 62
     7
100
AcDbLine
 10
-183.17873732445
 20
-32.35677500209499
 30
0.0
 11
-183.17873732445
 21
-34.001775002095
 31
0.0
  0
LINE
  5
75
330
A
100
AcDbEntity
  8
1
  6
Continuous
 62
     7
100
AcDbLine
 10
-183.435516551898
 20
-36.936775002094
 30
0.0
 11
-183.17873732445
 21
-34.001775002095
 31
0.0
  0
LINE
  5
74
330
A
100
AcDbEntity
  8
1
  6
Continuous
 62
     7
100
AcDbLine
 10
-192.67873732445
 20
-32.35677500209499
 30
0.0
 11
-192.67873732445
 21
-36.936775002094
 31
0.0
  0
LINE
  5
73
330
A
100
AcDbEntity
  8
1
  6
Continuous
 62
     3
100
AcDbLine
 10
-203.186862324503
 20
-46.39999999999999
 30
0.0
 11
-196.1868623245029
 21
-46.39999999999999
 31
0.0
  0
LINE
  5
72
330
A
100
AcDbEntity
  8
1
  6
Continuous
 62
     3
100
AcDbLine
 10
-203.186862324503
 20
-48.6
 30
0.0
 11
-196.1868623245029
 21
-48.6
 31
0.0
  0
LINE
  5
71
330
A
100
AcDbEntity
  8
1
  6
Continuous
 62
     3
100
AcDbLine
 10
-203.186862324503
 20
-46.39999999999999
 30
0.0
 11
-203.87968264753
 21
-46.0
 31
0.0
  0
LINE
  5
70
330
A
100
AcDbEntity
  8
1
  6
Continuous
 62
     3
100
AcDbLine
 10
-203.186862324503
 20
-48.6
 30
0.0
 11
-203.87968264753
 21
-49.0
 31
0.0
  0
LINE
  5
6F
330
A
100
AcDbEntity
  8
1
  6
Continuous
 62
     7
100
AcDbLine
 10
-204.1868623245028
 20
-50.25
 30
0.0
 11
-204.1868623245028
 21
-44.75
 31
0.0
  0
LINE
  5
6E
330
A
100
AcDbEntity
  8
1
  6
Continuous
 62
     7
100
AcDbLine
 10
-204.1868623245028
 20
-44.75
 30
0.0
 11
-206.9868623245028
 21
-44.75
 31
0.0
  0
LINE
  5
6D
330
A
100
AcDbEntity
  8
1
  6
Continuous
 62
     7
100
AcDbLine
 10
-206.9868623245028
 20
-44.75
 30
0.0
 11
-207.186862324503
 21
-44.95
 31
0.0
  0
LINE
  5
6C
330
A
100
AcDbEntity
  8
1
  6
Continuous
 62
     7
100
AcDbLine
 10
-207.186862324503
 20
-44.95
 30
0.0
 11
-207.186862324503
 21
-50.04999999999999
 31
0.0
  0
LINE
  5
6B
330
A
100
AcDbEntity
  8
1
  6
Continuous
 62
     7
100
AcDbLine
 10
-207.186862324503
 20
-50.04999999999999
 30
0.0
 11
-206.9868623245028
 21
-50.25
 31
0.0
  0
LINE
  5
6A
330
A
100
AcDbEntity
  8
1
  6
Continuous
 62
     7
100
AcDbLine
 10
-206.9868623245028
 20
-50.25
 30
0.0
 11
-204.1868623245028
 21
-50.25
 31
0.0
  0
LINE
  5
69
330
A
100
AcDbEntity
  8
1
  6
Continuous
 62
     7
100
AcDbLine
 10
-204.0868623245029
 20
-49.0
 30
0.0
 11
-196.586862324503
 21
-49.0
 31
0.0
  0
LINE
  5
68
330
A
100
AcDbEntity
  8
1
  6
Continuous
 62
     7
100
AcDbLine
 10
-196.586862324503
 20
-49.0
 30
0.0
 11
-196.1868623245029
 21
-48.6
 31
0.0
  0
LINE
  5
67
330
A
100
AcDbEntity
  8
1
  6
Continuous
 62
     7
100
AcDbLine
 10
-196.1868623245029
 20
-48.6
 30
0.0
 11
-196.1868623245029
 21
-46.39999999999999
 31
0.0
  0
LINE
  5
66
330
A
100
AcDbEntity
  8
1
  6
Continuous
 62
     7
100
AcDbLine
 10
-196.1868623245029
 20
-46.39999999999999
 30
0.0
 11
-196.586862324503
 21
-46.0
 31
0.0
  0
LINE
  5
65
330
A
100
AcDbEntity
  8
1
  6
Continuous
 62
     7
100
AcDbLine
 10
-196.586862324503
 20
-46.0
 30
0.0
 11
-204.0868623245029
 21
-46.0
 31
0.0
  0
LINE
  5
64
330
A
100
AcDbEntity
  8
1
  6
Continuous
 62
     7
100
AcDbLine
 10
-203.186862324503
 20
-46.0
 30
0.0
 11
-203.186862324503
 21
-49.0
 31
0.0
  0
LINE
  5
63
330
A
100
AcDbEntity
  8
1
  6
Continuous
 62
     7
100
AcDbLine
 10
-196.586862324503
 20
-49.0
 30
0.0
 11
-196.586862324503
 21
-46.0
 31
0.0
  0
LINE
  5
62
330
A
100
AcDbEntity
  8
1
  6
Continuous
 62
     7
100
AcDbLine
 10
-206.9868623245028
 20
-44.75
 30
0.0
 11
-206.9868623245028
 21
-50.25
 31
0.0
  0
LINE
  5
61
330
A
100
AcDbEntity
  8
1
  6
Continuous
 62
     3
100
AcDbLine
 10
-210.6868623244269
 20
-64.600000000001
 30
0.0
 11
-202.086862324427
 21
-64.600000000001
 31
0.0
  0
LINE
  5
60
330
A
100
AcDbEntity
  8
1
  6
Continuous
 62
     3
100
AcDbLine
 10
-210.6868623244269
 20
-67.400000000001
 30
0.0
 11
-202.086862324427
 21
-67.400000000001
 31
0.0
  0
LINE
  5
5F
330
A
100
AcDbEntity
  8
1
  6
Continuous
 62
     3
100
AcDbLine
 10
-210.6868623244269
 20
-64.600000000001
 30
0.0
 11
-211.726092808968
 21
-64.00000000000099
 31
0.0
  0
LINE
  5
5E
330
A
100
AcDbEntity
  8
1
  6
Continuous
 62
     3
100
AcDbLine
 10
-210.6868623244269
 20
-67.400000000001
 30
0.0
 11
-211.726092808968
 21
-68.0
 31
0.0
  0
LINE
  5
5D
330
A
100
AcDbEntity
  8
1
  6
Continuous
 62
     7
100
AcDbLine
 10
-212.0868623244269
 20
-62.500000000001
 30
0.0
 11
-215.786862324427
 21
-62.500000000001
 31
0.0
  0
LINE
  5
5C
330
A
100
AcDbEntity
  8
1
  6
Continuous
 62
     7
100
AcDbLine
 10
-215.786862324427
 20
-62.500000000001
 30
0.0
 11
-216.0868623244269
 21
-62.800000000001
 31
0.0
  0
LINE
  5
5B
330
A
100
AcDbEntity
  8
1
  6
Continuous
 62
     7
100
AcDbLine
 10
-216.0868623244269
 20
-62.800000000001
 30
0.0
 11
-216.0868623244269
 21
-69.200000000001
 31
0.0
  0
LINE
  5
5A
330
A
100
AcDbEntity
  8
1
  6
Continuous
 62
     7
100
AcDbLine
 10
-216.0868623244269
 20
-69.200000000001
 30
0.0
 11
-215.786862324427
 21
-69.5
 31
0.0
  0
LINE
  5
59
330
A
100
AcDbEntity
  8
1
  6
Continuous
 62
     7
100
AcDbLine
 10
-215.786862324427
 20
-69.5
 30
0.0
 11
-212.0868623244269
 21
-69.50000000000099
 31
0.0
  0
LINE
  5
58
330
A
100
AcDbEntity
  8
1
  6
Continuous
 62
     7
100
AcDbLine
 10
-202.6868623244269
 20
-68.0
 30
0.0
 11
-202.086862324427
 21
-67.400000000001
 31
0.0
  0
LINE
  5
57
330
A
100
AcDbEntity
  8
1
  6
Continuous
 62
     7
100
AcDbLine
 10
-202.086862324427
 20
-67.400000000001
 30
0.0
 11
-202.086862324427
 21
-64.600000000001
 31
0.0
  0
LINE
  5
56
330
A
100
AcDbEntity
  8
1
  6
Continuous
 62
     7
100
AcDbLine
 10
-202.086862324427
 20
-64.600000000001
 30
0.0
 11
-202.6868623244269
 21
-64.00000000000099
 31
0.0
  0
LINE
  5
55
330
A
100
AcDbEntity
  8
1
  6
Continuous
 62
     7
100
AcDbLine
 10
-210.6868623244269
 20
-64.00000000000099
 30
0.0
 11
-210.6868623244269
 21
-68.0
 31
0.0
  0
LINE
  5
54
330
A
100
AcDbEntity
  8
1
  6
Continuous
 62
     7
100
AcDbLine
 10
-211.8868623244269
 20
-68.0
 30
0.0
 11
-202.6868623244269
 21
-68.0
 31
0.0
  0
LINE
  5
53
330
A
100
AcDbEntity
  8
1
  6
Continuous
 62
     7
100
AcDbLine
 10
-202.6868623244269
 20
-64.00000000000099
 30
0.0
 11
-211.8868623244269
 21
-64.00000000000099
 31
0.0
  0
LINE
  5
52
330
A
100
AcDbEntity
  8
1
  6
Continuous
 62
     7
100
AcDbLine
 10
-202.6868623244269
 20
-68.0
 30
0.0
 11
-202.6868623244269
 21
-64.00000000000099
 31
0.0
  0
LINE
  5
51
330
A
100
AcDbEntity
  8
1
  6
Continuous
 62
     7
100
AcDbLine
 10
-215.786862324427
 20
-62.500000000001
 30
0.0
 11
-215.786862324427
 21
-69.5
 31
0.0
  0
LINE
  5
50
330
A
100
AcDbEntity
  8
1
  6
Continuous
 62
     7
100
AcDbLine
 10
-212.0868623244269
 20
-62.500000000001
 30
0.0
 11
-212.0868623244269
 21
-69.50000000000099
 31
0.0
  0
LINE
  5
4F
330
A
100
AcDbEntity
  8
1
  6
Continuous
 62
     7
100
AcDbLine
 10
-184.7868623244499
 20
29.465775002093
 30
0.0
 11
-184.7868623244499
 21
-29.465775002095
 31
0.0
  0
LINE
  5
4E
330
A
100
AcDbEntity
  8
1
  6
Continuous
 62
     7
100
AcDbLine
 10
-193.3868623244499
 20
29.465775002093
 30
0.0
 11
-193.3868623244499
 21
-29.46577500209599
 31
0.0
  0
LINE
  5
4D
330
A
100
AcDbEntity
  8
1
  6
DASH_CENTER
 62
     3
100
AcDbLine
 10
-371.701352590809
 20
67.73554856851998
 30
0.0
 11
-373.8366097129048
 21
59.76666050163498
 31
0.0
  0
LINE
  5
4C
330
A
100
AcDbEntity
  8
1
  6
Continuous
 62
     7
100
AcDbLine
 10
-371.268981151857
 20
64.617129938863
 30
0.0
 11
-372.768981151857
 21
65.48315534264699
 31
0.0
  0
LINE
  5
4B
330
A
100
AcDbEntity
  8
1
  6
Continuous
 62
     7
100
AcDbLine
 10
-372.768981151857
 20
65.48315534264699
 30
0.0
 11
-374.268981151857
 21
64.617129938863
 31
0.0
  0
LINE
  5
4A
330
A
100
AcDbEntity
  8
1
  6
Continuous
 62
     7
100
AcDbLine
 10
-374.268981151857
 20
64.617129938863
 30
0.0
 11
-374.268981151857
 21
62.885079131294
 31
0.0
  0
LINE
  5
49
330
A
100
AcDbEntity
  8
1
  6
Continuous
 62
     7
100
AcDbLine
 10
-374.268981151857
 20
62.885079131294
 30
0.0
 11
-372.768981151857
 21
62.019053727509
 31
0.0
  0
LINE
  5
48
330
A
100
AcDbEntity
  8
1
  6
Continuous
 62
     7
100
AcDbLine
 10
-372.768981151857
 20
62.019053727509
 30
0.0
 11
-371.268981151857
 21
62.885079131294
 31
0.0
  0
LINE
  5
47
330
A
100
AcDbEntity
  8
1
  6
Continuous
 62
     7
100
AcDbLine
 10
-371.268981151857
 20
62.885079131294
 30
0.0
 11
-371.268981151857
 21
64.617129938863
 31
0.0
  0
LINE
  5
46
330
A
100
AcDbEntity
  8
1
  6
DASH_CENTER
 62
     3
100
AcDbLine
 10
-322.1154895601018
 20
-18.149685537813
 30
0.0
 11
-330.0843776269859
 21
-16.014428415717
 31
0.0
  0
LINE
  5
45
330
A
100
AcDbEntity
  8
1
  6
Continuous
 62
     7
100
AcDbLine
 10
-324.599933593543
 20
-16.21603157297998
 30
0.0
 11
-326.099933593543
 21
-15.35000616919599
 31
0.0
  0
LINE
  5
44
330
A
100
AcDbEntity
  8
1
  6
Continuous
 62
     7
100
AcDbLine
 10
-326.099933593543
 20
-15.35000616919599
 30
0.0
 11
-327.599933593543
 21
-16.21603157297998
 31
0.0
  0
LINE
  5
43
330
A
100
AcDbEntity
  8
1
  6
Continuous
 62
     7
100
AcDbLine
 10
-327.599933593543
 20
-16.21603157297998
 30
0.0
 11
-327.599933593543
 21
-17.94808238054899
 31
0.0
  0
LINE
  5
42
330
A
100
AcDbEntity
  8
1
  6
Continuous
 62
     7
100
AcDbLine
 10
-327.599933593543
 20
-17.94808238054899
 30
0.0
 11
-326.099933593543
 21
-18.814107784334
 31
0.0
  0
LINE
  5
41
330
A
100
AcDbEntity
  8
1
  6
Continuous
 62
     7
100
AcDbLine
 10
-326.099933593543
 20
-18.814107784334
 30
0.0
 11
-324.599933593543
 21
-17.94808238054899
 31
0.0
  0
LINE
  5
40
330
A
100
AcDbEntity
  8
1
  6
Continuous
 62
     7
100
AcDbLine
 10
-324.599933593543
 20
-17.94808238054899
 30
0.0
 11
-324.599933593543
 21
-16.21603157297998
 31
0.0
  0
LINE
  5
3F
330
A
100
AcDbEntity
  8
1
  6
DASH_CENTER
 62
     3
100
AcDbLine
 10
-408.000723666436
 20
-67.735548568521
 30
0.0
 11
-405.8654665443397
 21
-59.76666050163498
 31
0.0
  0
LINE
  5
3E
330
A
100
AcDbEntity
  8
1
  6
Continuous
 62
     7
100
AcDbLine
 10
-405.433095105388
 20
-62.88507913129301
 30
0.0
 11
-406.9330951053879
 21
-62.019053727509
 31
0.0
  0
LINE
  5
3D
330
A
100
AcDbEntity
  8
1
  6
Continuous
 62
     7
100
AcDbLine
 10
-406.9330951053879
 20
-62.019053727509
 30
0.0
 11
-408.433095105388
 21
-62.88507913129301
 31
0.0
  0
LINE
  5
3C
330
A
100
AcDbEntity
  8
1
  6
Continuous
 62
     7
100
AcDbLine
 10
-408.433095105388
 20
-62.88507913129301
 30
0.0
 11
-408.433095105388
 21
-64.61712993886199
 31
0.0
  0
LINE
  5
3B
330
A
100
AcDbEntity
  8
1
  6
Continuous
 62
     7
100
AcDbLine
 10
-408.433095105388
 20
-64.61712993886199
 30
0.0
 11
-406.9330951053879
 21
-65.483155342646
 31
0.0
  0
LINE
  5
3A
330
A
100
AcDbEntity
  8
1
  6
Continuous
 62
     7
100
AcDbLine
 10
-406.9330951053879
 20
-65.483155342646
 30
0.0
 11
-405.433095105388
 21
-64.61712993886199
 31
0.0
  0
LINE
  5
39
330
A
100
AcDbEntity
  8
1
  6
Continuous
 62
     7
100
AcDbLine
 10
-405.433095105388
 20
-64.61712993886199
 30
0.0
 11
-405.433095105388
 21
-62.88507913129301
 31
0.0
  0
LINE
  5
38
330
A
100
AcDbEntity
  8
1
  6
DASH_CENTER
 62
     3
100
AcDbLine
 10
-457.586586697143
 20
18.149685537814
 30
0.0
 11
-449.617698630258
 21
16.014428415718
 31
0.0
  0
LINE
  5
37
330
A
100
AcDbEntity
  8
1
  6
Continuous
 62
     7
100
AcDbLine
 10
-452.102142663699
 20
17.94808238055
 30
0.0
 11
-453.602142663699
 21
18.814107784334
 31
0.0
  0
LINE
  5
36
330
A
100
AcDbEntity
  8
1
  6
Continuous
 62
     7
100
AcDbLine
 10
-453.602142663699
 20
18.814107784334
 30
0.0
 11
-455.1021426636991
 21
17.94808238055
 31
0.0
  0
LINE
  5
35
330
A
100
AcDbEntity
  8
1
  6
Continuous
 62
     7
100
AcDbLine
 10
-455.1021426636991
 20
17.94808238055
 30
0.0
 11
-455.1021426636991
 21
16.216031572981
 31
0.0
  0
LINE
  5
34
330
A
100
AcDbEntity
  8
1
  6
Continuous
 62
     7
100
AcDbLine
 10
-455.1021426636991
 20
16.216031572981
 30
0.0
 11
-453.602142663699
 21
15.35000616919699
 31
0.0
  0
LINE
  5
33
330
A
100
AcDbEntity
  8
1
  6
Continuous
 62
     7
100
AcDbLine
 10
-453.602142663699
 20
15.35000616919699
 30
0.0
 11
-452.102142663699
 21
16.216031572981
 31
0.0
  0
LINE
  5
32
330
A
100
AcDbEntity
  8
1
  6
Continuous
 62
     7
100
AcDbLine
 10
-452.102142663699
 20
16.216031572981
 30
0.0
 11
-452.102142663699
 21
17.94808238055
 31
0.0
  0
LINE
  5
31
330
A
100
AcDbEntity
  8
1
  6
Continuous
 62
     3
100
AcDbLine
 10
-193.3868623244499
 20
17.999999999999
 30
0.0
 11
-184.7868623244499
 21
17.999999999999
 31
0.0
  0
LINE
  5
30
330
A
100
AcDbEntity
  8
1
  6
Continuous
 62
     3
100
AcDbLine
 10
-193.3868623244499
 20
21.99999999999898
 30
0.0
 11
-184.7868623244499
 21
21.99999999999898
 31
0.0
  0
LINE
  5
2F
330
A
100
AcDbEntity
  8
1
  6
DASH_CENTER
 62
     3
100
AcDbLine
 10
-195.1068623244509
 20
19.999999999999
 30
0.0
 11
-183.0668623244499
 21
19.999999999999
 31
0.0
  0
LINE
  5
2E
330
A
100
AcDbEntity
  8
1
  6
Continuous
 62
     7
100
AcDbLine
 10
-193.3868623244499
 20
18.399999999999
 30
0.0
 11
-184.7868623244499
 21
18.399999999999
 31
0.0
  0
LINE
  5
2D
330
A
100
AcDbEntity
  8
1
  6
Continuous
 62
     7
100
AcDbLine
 10
-193.3868623244499
 20
21.599999999999
 30
0.0
 11
-184.7868623244499
 21
21.599999999999
 31
0.0
  0
LINE
  5
2C
330
A
100
AcDbEntity
  8
1
  6
Continuous
 62
     3
100
AcDbLine
 10
-193.3868623244499
 20
-22.000000000001
 30
0.0
 11
-184.7868623244499
 21
-22.000000000001
 31
0.0
  0
LINE
  5
2B
330
A
100
AcDbEntity
  8
1
  6
Continuous
 62
     3
100
AcDbLine
 10
-193.3868623244499
 20
-18.000000000001
 30
0.0
 11
-184.7868623244499
 21
-18.000000000001
 31
0.0
  0
LINE
  5
2A
330
A
100
AcDbEntity
  8
1
  6
DASH_CENTER
 62
     3
100
AcDbLine
 10
-195.1068623244499
 20
-20.00000000000099
 30
0.0
 11
-183.0668623244499
 21
-20.00000000000099
 31
0.0
  0
LINE
  5
29
330
A
100
AcDbEntity
  8
1
  6
Continuous
 62
     7
100
AcDbLine
 10
-193.3868623244499
 20
-21.600000000001
 30
0.0
 11
-184.7868623244499
 21
-21.600000000001
 31
0.0
  0
LINE
  5
28
330
A
100
AcDbEntity
  8
1
  6
Continuous
 62
     7
100
AcDbLine
 10
-193.3868623244499
 20
-18.400000000001
 30
0.0
 11
-184.7868623244499
 21
-18.400000000001
 31
0.0
  0
INSERT
  5
27C
330
A
100
AcDbEntity
  8
0
  6
Continuous
100
AcDbBlockReference
  2
Harmonic Drive LLC
 10
-340.7586105749846
 20
128.5109040239156
 30
0.0
 41
2.309324358028013
 42
2.309324358028013
 43
2.309324358028013
  0
INSERT
  5
2F9
330
A
100
AcDbEntity
  8
0
  6
Continuous
100
AcDbBlockReference
  2
HD Logo
 10
-101.7662039768894
 20
-247.5061822918132
 30
0.0
 41
1.521660522672469
 42
1.521660522672469
 43
1.521660522672469
  0
INSERT
  5
336
330
A
100
AcDbEntity
  8
0
  6
Continuous
100
AcDbBlockReference
  2
NTC
 10
-538.7069621414947
 20
-172.5759138712736
 30
0.0
 41
1.032499999999999
 42
1.032499999999999
 43
1.032499999999999
  0
VIEWPORT
  5
25B
330
B
100
AcDbEntity
 67
     1
  8
0
  6
Continuous
100
AcDbViewport
 10
5.613749947134903
 20
5.322618575369418
 30
0.0
 40
13.70575969898804
 41
11.58720378337158
 68
     1
 69
     1
 12
5.613749947134903
 22
5.322618575369418
 13
0.0
 23
0.0
 14
10.0
 24
10.0
 15
10.0
 25
10.0
 16
0.0
 26
0.0
 36
1.0
 17
0.0
 27
0.0
 37
0.0
 42
50.0
 43
0.0
 44
0.0
 45
11.58720378337158
 50
0.0
 51
0.0
 72
   100
 90
    32800
  1

281
     0
 71
     1
 74
     0
110
0.0
120
0.0
130
0.0
111
1.0
121
0.0
131
0.0
112
0.0
122
1.0
132
0.0
 79
     0
146
0.0
  0
VIEWPORT
  5
25D
330
B
100
AcDbEntity
 67
     1
  8
0
  6
Continuous
100
AcDbViewport
 10
5.613749965908018
 20
3.902083250481312
 30
0.0
 40
8.981999945452834
 41
6.243333200770099
 68
     2
 69
     2
 12
-192.605177025055
 22
-76.04675920796687
 13
0.0
 23
0.0
 14
1.0
 24
1.0
 15
0.0
 25
0.0
 16
0.0
 26
0.0
 36
1.0
 17
0.0
 27
0.0
 37
0.0
 42
50.0
 43
0.0
 44
0.0
 45
387.0759153931373
 50
0.0
 51
0.0
 72
   100
 90
    32800
  1

281
     0
 71
     1
 74
     0
110
0.0
120
0.0
130
0.0
111
1.0
121
0.0
131
0.0
112
0.0
122
1.0
132
0.0
 79
     0
146
0.0
  0
ENDSEC
  0
SECTION
  2
OBJECTS
  0
DICTIONARY
  5
19
330
0
100
AcDbDictionary
281
     1
  3
ACAD_GROUP
350
1A
  3
ACAD_LAYOUT
350
253
  3
ACAD_MLINESTYLE
350
1B
  3
ACAD_PLOTSETTINGS
350
254
  3
ACAD_PLOTSTYLENAME
350
268
  3
AcDbVariableDictionary
350
27D
1001
ACAD
1000
TREAT_AS_HARD
1070
     0
  0
DICTIONARY
  5
25E
330
A
100
AcDbDictionary
281
     1
  3
ACAD_LAYOUTSELFREF
350
25F
  0
DICTIONARY
  5
260
330
B
100
AcDbDictionary
281
     1
  3
ACAD_LAYOUTSELFREF
350
261
  0
DICTIONARY
  5
1A
102
{ACAD_REACTORS
330
19
102
}
330
19
100
AcDbDictionary
281
     1
1001
ACAD
1000
TREAT_AS_HARD
1070
     0
  0
DICTIONARY
  5
253
102
{ACAD_REACTORS
330
19
102
}
330
19
100
AcDbDictionary
281
     1
  3
Layout1
350
26B
  3
Model
350
26A
1001
ACAD
1000
TREAT_AS_HARD
1070
     0
  0
DICTIONARY
  5
1B
102
{ACAD_REACTORS
330
19
102
}
330
19
100
AcDbDictionary
281
     1
  3
STANDARD
350
1C
1001
ACAD
1000
TREAT_AS_HARD
1070
     0
  0
DICTIONARY
  5
254
102
{ACAD_REACTORS
330
19
102
}
330
19
100
AcDbDictionary
281
     1
1001
ACAD
1000
TREAT_AS_HARD
1070
     0
  0
ACDBDICTIONARYWDFLT
  5
268
102
{ACAD_REACTORS
330
19
102
}
330
19
100
AcDbDictionary
281
     1
  3
Normal
350
269
100
AcDbDictionaryWithDefault
340
269
  0
DICTIONARY
  5
27D
102
{ACAD_REACTORS
330
19
102
}
330
19
100
AcDbDictionary
281
     1
  3
DIMASSOC
350
27E
  0
XRECORD
  5
25F
102
{ACAD_REACTORS
330
25E
102
}
330
25E
100
AcDbXrecord
280
     1
340
A
  0
XRECORD
  5
261
102
{ACAD_REACTORS
330
260
102
}
330
260
100
AcDbXrecord
280
     1
340
B
  0
LAYOUT
  5
26B
102
{ACAD_REACTORS
330
253
102
}
330
253
100
AcDbPlotSettings
  1

  2
\\SERVER9\HP LaserJet 5100 PCL 5e
  4
Letter
  6

 40
6.349999904632567
 41
4.233341693878172
 42
6.349990844726562
 43
4.23333740234375
 44
215.8999938964841
 45
279.3999938964843
 46
0.0
 47
0.0
 48
0.0
 49
0.0
140
0.0
141
0.0
142
1.0
143
0.8421541641693707
 70
   688
 72
     0
 73
     1
 74
     1
  7

 75
     0
147
1.187431045937194
148
-28.50543971293511
149
-19.81543140396921
100
AcDbLayout
  1
Layout1
 70
     0
 71
     1
 10
0.9819022437487156
 20
0.5695965567640861
 11
10.24559784724557
 21
7.727906749837551
 12
0.0
 22
0.0
 32
0.0
 14
1.122261406021067
 24
0.7801350946444572
 34
-0.0000000349181948
 15
10.10523854268452
 25
7.024031407266601
 35
0.0000000814935747
146
0.0
 13
0.0
 23
0.0
 33
0.0
 16
1.0
 26
0.0
 36
0.0
 17
0.0
 27
1.0
 37
0.0
 76
     0
330
B
331
25B
  0
LAYOUT
  5
26A
102
{ACAD_REACTORS
330
253
102
}
330
253
100
AcDbPlotSettings
  1

  2
\\SERVER9\HP LaserJet 5100 PCL 5e
  4

  6

 40
0.0
 41
0.0
 42
0.0
 43
0.0
 44
0.0
 45
0.0
 46
0.0
 47
0.0
 48
0.0
 49
0.0
140
0.0
141
0.0
142
1.0
143
1.0
 70
  1712
 72
     0
 73
     0
 74
     0
  7

 75
     0
147
1.0
148
0.0
149
0.0
100
AcDbLayout
  1
Model
 70
     1
 71
     0
 10
0.0
 20
0.0
 11
12.0
 21
9.0
 12
0.0
 22
0.0
 32
0.0
 14
0.0
 24
0.0
 34
0.0
 15
0.0
 25
0.0
 35
0.0
146
0.0
 13
0.0
 23
0.0
 33
0.0
 16
1.0
 26
0.0
 36
0.0
 17
0.0
 27
1.0
 37
0.0
 76
     0
330
A
  0
MLINESTYLE
  5
1C
102
{ACAD_REACTORS
330
1B
102
}
330
1B
100
AcDbMlineStyle
  2
STANDARD
 70
     0
  3

 62
     0
 51
90.0
 52
90.0
 71
     2
 49
0.5
 62
   256
  6
BYLAYER
 49
-0.5
 62
   256
  6
BYLAYER
  0
ACDBPLACEHOLDER
  5
269
102
{ACAD_REACTORS
330
268
102
}
330
268
  0
DICTIONARYVAR
  5
27E
102
{ACAD_REACTORS
330
27D
102
}
330
27D
100
DictionaryVariables
280
     0
  1
1
  0
ENDSEC
  0
EOF
