  0
SECTION
  2
HEADER
  9
$ACADVER
  1
AC1015
  9
$ACADMAINTVER
 70
    13
  9
$DWGCODEPAGE
  3
ANSI_1252
  9
$INSBASE
 10
0.0
 20
0.0
 30
0.0
  9
$EXTMIN
 10
-5668.242332387804
 20
-3421.911069463652
 30
-0.0015258207003583
  9
$EXTMAX
 10
10738.45366340159
 20
2299.077465995695
 30
0.0000000349246037
  9
$LIMMIN
 10
-138.1839807127716
 20
-129.4807136525425
  9
$LIMMAX
 10
134.8901637351203
 20
48.07569987624169
  9
$ORTHOMODE
 70
     0
  9
$REGENMODE
 70
     1
  9
$FILLMODE
 70
     1
  9
$QTEXTMODE
 70
     0
  9
$MIRRTEXT
 70
     1
  9
$LTSCALE
 40
1.0
  9
$ATTMODE
 70
     1
  9
$TEXTSIZE
 40
3.5
  9
$TRACEWID
 40
0.5
  9
$TEXTSTYLE
  7
STANDARD
  9
$CLAYER
  8
0
  9
$CELTYPE
  6
ByLayer
  9
$CECOLOR
 62
   256
  9
$CELTSCALE
 40
1.0
  9
$DISPSILH
 70
     0
  9
$DIMSCALE
 40
1.0
  9
$DIMASZ
 40
0.18
  9
$DIMEXO
 40
0.0625
  9
$DIMDLI
 40
0.38
  9
$DIMRND
 40
0.0
  9
$DIMDLE
 40
0.0
  9
$DIMEXE
 40
0.18
  9
$DIMTP
 40
0.0
  9
$DIMTM
 40
0.0
  9
$DIMTXT
 40
0.18
  9
$DIMCEN
 40
0.09
  9
$DIMTSZ
 40
0.0
  9
$DIMTOL
 70
     0
  9
$DIMLIM
 70
     0
  9
$DIMTIH
 70
     1
  9
$DIMTOH
 70
     1
  9
$DIMSE1
 70
     0
  9
$DIMSE2
 70
     0
  9
$DIMTAD
 70
     0
  9
$DIMZIN
 70
     0
  9
$DIMBLK
  1

  9
$DIMASO
 70
     1
  9
$DIMSHO
 70
     1
  9
$DIMPOST
  1

  9
$DIMAPOST
  1

  9
$DIMALT
 70
     0
  9
$DIMALTD
 70
     2
  9
$DIMALTF
 40
25.4
  9
$DIMLFAC
 40
1.0
  9
$DIMTOFL
 70
     0
  9
$DIMTVP
 40
0.0
  9
$DIMTIX
 70
     0
  9
$DIMSOXD
 70
     0
  9
$DIMSAH
 70
     0
  9
$DIMBLK1
  1

  9
$DIMBLK2
  1

  9
$DIMSTYLE
  2
DMST_1
  9
$DIMCLRD
 70
     0
  9
$DIMCLRE
 70
     0
  9
$DIMCLRT
 70
     0
  9
$DIMTFAC
 40
1.0
  9
$DIMGAP
 40
0.09
  9
$DIMJUST
 70
     0
  9
$DIMSD1
 70
     0
  9
$DIMSD2
 70
     0
  9
$DIMTOLJ
 70
     1
  9
$DIMTZIN
 70
     0
  9
$DIMALTZ
 70
     0
  9
$DIMALTTZ
 70
     0
  9
$DIMUPT
 70
     0
  9
$DIMDEC
 70
     4
  9
$DIMTDEC
 70
     4
  9
$DIMALTU
 70
     2
  9
$DIMALTTD
 70
     2
  9
$DIMTXSTY
  7
STANDARD
  9
$DIMAUNIT
 70
     0
  9
$DIMADEC
 70
     0
  9
$DIMALTRND
 40
0.0
  9
$DIMAZIN
 70
     0
  9
$DIMDSEP
 70
    46
  9
$DIMATFIT
 70
     3
  9
$DIMFRAC
 70
     0
  9
$DIMLDRBLK
  1

  9
$DIMLUNIT
 70
     2
  9
$DIMLWD
 70
    -2
  9
$DIMLWE
 70
    -2
  9
$DIMTMOVE
 70
     0
  9
$LUNITS
 70
     2
  9
$LUPREC
 70
     4
  9
$SKETCHINC
 40
0.1
  9
$FILLETRAD
 40
2.0
  9
$AUNITS
 70
     0
  9
$AUPREC
 70
     0
  9
$MENU
  1
ACAD
  9
$ELEVATION
 40
0.0
  9
$PELEVATION
 40
0.0
  9
$THICKNESS
 40
0.0
  9
$LIMCHECK
 70
     0
  9
$CHAMFERA
 40
0.0
  9
$CHAMFERB
 40
0.0
  9
$CHAMFERC
 40
0.0
  9
$CHAMFERD
 40
0.0
  9
$SKPOLY
 70
     0
  9
$TDCREATE
 40
2453872.618317951
  9
$TDUCREATE
 40
2453872.784984617
  9
$TDUPDATE
 40
2453872.620916331
  9
$TDUUPDATE
 40
2453872.787582997
  9
$TDINDWG
 40
0.0025983796
  9
$TDUSRTIMER
 40
0.0025983796
  9
$USRTIMER
 70
     1
  9
$ANGBASE
 50
0.0
  9
$ANGDIR
 70
     0
  9
$PDMODE
 70
     0
  9
$PDSIZE
 40
0.0
  9
$PLINEWID
 40
0.0
  9
$SPLFRAME
 70
     0
  9
$SPLINETYPE
 70
     6
  9
$SPLINESEGS
 70
     8
  9
$HANDSEED
  5
4D3
  9
$SURFTAB1
 70
     6
  9
$SURFTAB2
 70
     6
  9
$SURFTYPE
 70
     6
  9
$SURFU
 70
     6
  9
$SURFV
 70
     6
  9
$UCSBASE
  2

  9
$UCSNAME
  2

  9
$UCSORG
 10
0.0
 20
0.0
 30
0.0
  9
$UCSXDIR
 10
1.0
 20
0.0
 30
0.0
  9
$UCSYDIR
 10
0.0
 20
1.0
 30
0.0
  9
$UCSORTHOREF
  2

  9
$UCSORTHOVIEW
 70
     0
  9
$UCSORGTOP
 10
0.0
 20
0.0
 30
0.0
  9
$UCSORGBOTTOM
 10
0.0
 20
0.0
 30
0.0
  9
$UCSORGLEFT
 10
0.0
 20
0.0
 30
0.0
  9
$UCSORGRIGHT
 10
0.0
 20
0.0
 30
0.0
  9
$UCSORGFRONT
 10
0.0
 20
0.0
 30
0.0
  9
$UCSORGBACK
 10
0.0
 20
0.0
 30
0.0
  9
$PUCSBASE
  2

  9
$PUCSNAME
  2

  9
$PUCSORG
 10
0.0
 20
0.0
 30
0.0
  9
$PUCSXDIR
 10
1.0
 20
0.0
 30
0.0
  9
$PUCSYDIR
 10
0.0
 20
1.0
 30
0.0
  9
$PUCSORTHOREF
  2

  9
$PUCSORTHOVIEW
 70
     0
  9
$PUCSORGTOP
 10
0.0
 20
0.0
 30
0.0
  9
$PUCSORGBOTTOM
 10
0.0
 20
0.0
 30
0.0
  9
$PUCSORGLEFT
 10
0.0
 20
0.0
 30
0.0
  9
$PUCSORGRIGHT
 10
0.0
 20
0.0
 30
0.0
  9
$PUCSORGFRONT
 10
0.0
 20
0.0
 30
0.0
  9
$PUCSORGBACK
 10
0.0
 20
0.0
 30
0.0
  9
$USERI1
 70
     0
  9
$USERI2
 70
     0
  9
$USERI3
 70
     0
  9
$USERI4
 70
     0
  9
$USERI5
 70
     0
  9
$USERR1
 40
0.0
  9
$USERR2
 40
0.0
  9
$USERR3
 40
0.0
  9
$USERR4
 40
0.0
  9
$USERR5
 40
0.0
  9
$WORLDVIEW
 70
     1
  9
$SHADEDGE
 70
     3
  9
$SHADEDIF
 70
    70
  9
$TILEMODE
 70
     1
  9
$MAXACTVP
 70
    64
  9
$PINSBASE
 10
0.0
 20
0.0
 30
0.0
  9
$PLIMCHECK
 70
     0
  9
$PEXTMIN
 10
1.000000000000000E+20
 20
1.000000000000000E+20
 30
1.000000000000000E+20
  9
$PEXTMAX
 10
-1.000000000000000E+20
 20
-1.000000000000000E+20
 30
-1.000000000000000E+20
  9
$PLIMMIN
 10
0.0
 20
0.0
  9
$PLIMMAX
 10
12.0
 20
9.0
  9
$UNITMODE
 70
     0
  9
$VISRETAIN
 70
     1
  9
$PLINEGEN
 70
     0
  9
$PSLTSCALE
 70
     1
  9
$TREEDEPTH
 70
  3020
  9
$CMLSTYLE
  2
Standard
  9
$CMLJUST
 70
     0
  9
$CMLSCALE
 40
1.0
  9
$PROXYGRAPHICS
 70
     1
  9
$MEASUREMENT
 70
     0
  9
$CELWEIGHT
370
    -1
  9
$ENDCAPS
280
     0
  9
$JOINSTYLE
280
     0
  9
$LWDISPLAY
290
     0
  9
$INSUNITS
 70
     0
  9
$HYPERLINKBASE
  1

  9
$STYLESHEET
  1

  9
$XEDIT
290
     1
  9
$CEPSNTYPE
380
     0
  9
$PSTYLEMODE
290
     1
  9
$FINGERPRINTGUID
  2
{81DE45D2-D336-439C-88EF-53DFCD968275}
  9
$VERSIONGUID
  2
{39DFDFE8-4D82-4E80-B378-2E1C4F1254CA}
  9
$EXTNAMES
290
     1
  9
$PSVPSCALE
 40
0.0
  9
$OLESTARTUP
290
     0
  0
ENDSEC
  0
SECTION
  2
CLASSES
  0
CLASS
  1
ACDBDICTIONARYWDFLT
  2
AcDbDictionaryWithDefault
  3
AutoCAD 2000
 90
        0
280
     0
281
     0
  0
CLASS
  1
ACDBPLACEHOLDER
  2
AcDbPlaceHolder
  3
AutoCAD 2000
 90
        0
280
     0
281
     0
  0
CLASS
  1
LAYOUT
  2
AcDbLayout
  3
AutoCAD 2000
 90
        0
280
     0
281
     0
  0
CLASS
  1
DICTIONARYVAR
  2
AcDbDictionaryVar
  3
AutoCAD 2000
 90
        0
280
     0
281
     0
  0
ENDSEC
  0
SECTION
  2
TABLES
  0
TABLE
  2
VPORT
  5
8
330
0
100
AcDbSymbolTable
 70
     2
  0
VPORT
  5
4D2
330
8
100
AcDbSymbolTableRecord
100
AcDbViewportTableRecord
  2
*Active
 70
     0
 10
0.0
 20
0.0
 11
1.0
 21
1.0
 12
-1.646908170925627
 22
-41.22404648813435
 13
0.0
 23
0.0
 14
1.0
 24
1.0
 15
0.0
 25
0.0
 16
0.0
 26
0.0
 36
1.0
 17
0.0
 27
0.0
 37
0.0
 40
261.8972298334717
 41
1.182835820895522
 42
50.0
 43
0.0
 44
0.0
 50
0.0
 51
0.0
 71
     0
 72
   100
 73
     1
 74
     1
 75
     0
 76
     0
 77
     0
 78
     0
281
     0
 65
     1
110
0.0
120
0.0
130
0.0
111
1.0
121
0.0
131
0.0
112
0.0
122
1.0
132
0.0
 79
     0
146
0.0
  0
ENDTAB
  0
TABLE
  2
LTYPE
  5
5
330
0
100
AcDbSymbolTable
 70
     9
  0
LTYPE
  5
13
330
5
100
AcDbSymbolTableRecord
100
AcDbLinetypeTableRecord
  2
ByBlock
 70
     0
  3

 72
    65
 73
     0
 40
0.0
  0
LTYPE
  5
14
330
5
100
AcDbSymbolTableRecord
100
AcDbLinetypeTableRecord
  2
ByLayer
 70
     0
  3

 72
    65
 73
     0
 40
0.0
  0
LTYPE
  5
15
330
5
100
AcDbSymbolTableRecord
100
AcDbLinetypeTableRecord
  2
CONTINUOUS
 70
     0
  3
Solid line
 72
    65
 73
     0
 40
0.0
  0
LTYPE
  5
23
330
5
100
AcDbSymbolTableRecord
100
AcDbLinetypeTableRecord
  2
BORDER
 70
     0
  3
__ __ . __ __ .
 72
    65
 73
     6
 40
12.57578296799501
 49
3.593080847998578
 74
     0
 49
-1.796540423999289
 74
     0
 49
3.593080847998578
 74
     0
 49
-1.796540423999289
 74
     0
 49
0.0
 74
     0
 49
-1.796540423999289
 74
     0
  0
LTYPE
  5
24
330
5
100
AcDbSymbolTableRecord
100
AcDbLinetypeTableRecord
  2
CENTER
 70
     0
  3
____ _ ____ _
 72
    65
 73
     4
 40
14.37232339199431
 49
8.982702119996444
 74
     0
 49
-1.796540423999289
 74
     0
 49
1.796540423999289
 74
     0
 49
-1.796540423999289
 74
     0
  0
LTYPE
  5
25
330
5
100
AcDbSymbolTableRecord
100
AcDbLinetypeTableRecord
  2
DASHDOT
 70
     0
  3
__ . __ . __ .
 72
    65
 73
     4
 40
7.186161695997157
 49
3.593080847998578
 74
     0
 49
-1.796540423999289
 74
     0
 49
0.0
 74
     0
 49
-1.796540423999289
 74
     0
  0
LTYPE
  5
26
330
5
100
AcDbSymbolTableRecord
100
AcDbLinetypeTableRecord
  2
DASHED
 70
     0
  3
__ __ __ __ __
 72
    65
 73
     2
 40
5.389621271997867
 49
3.593080847998578
 74
     0
 49
-1.796540423999289
 74
     0
  0
LTYPE
  5
27
330
5
100
AcDbSymbolTableRecord
100
AcDbLinetypeTableRecord
  2
DIVIDE
 70
     0
  3
__ . . __ . . 
 72
    65
 73
     6
 40
8.982702119996444
 49
3.593080847998578
 74
     0
 49
-1.796540423999289
 74
     0
 49
0.0
 74
     0
 49
-1.796540423999289
 74
     0
 49
0.0
 74
     0
 49
-1.796540423999289
 74
     0
  0
LTYPE
  5
28
330
5
100
AcDbSymbolTableRecord
100
AcDbLinetypeTableRecord
  2
DOT
 70
     0
  3
..............
 72
    65
 73
     4
 40
3.593080847998578
 49
0.0
 74
     0
 49
-1.796540423999289
 74
     0
 49
0.0
 74
     0
 49
-1.796540423999289
 74
     0
  0
LTYPE
  5
29
330
5
100
AcDbSymbolTableRecord
100
AcDbLinetypeTableRecord
  2
HIDDEN
 70
     0
  3
_ _ _ _ _ _ _
 72
    65
 73
     2
 40
2.694810635998933
 49
1.796540423999289
 74
     0
 49
-0.8982702119996446
 74
     0
  0
LTYPE
  5
2A
330
5
100
AcDbSymbolTableRecord
100
AcDbLinetypeTableRecord
  2
PHANTOM
 70
     0
  3
_____ _ _ _____ _ _ 
 72
    65
 73
     6
 40
17.96540423999289
 49
8.982702119996444
 74
     0
 49
-1.796540423999289
 74
     0
 49
1.796540423999289
 74
     0
 49
-1.796540423999289
 74
     0
 49
1.796540423999289
 74
     0
 49
-1.796540423999289
 74
     0
  0
ENDTAB
  0
TABLE
  2
LAYER
  5
2
330
0
100
AcDbSymbolTable
 70
     3
  0
LAYER
  5
10
330
2
100
AcDbSymbolTableRecord
100
AcDbLayerTableRecord
  2
0
 70
     0
 62
     7
  6
CONTINUOUS
370
    -3
390
F
  0
LAYER
  5
2B
330
2
100
AcDbSymbolTableRecord
100
AcDbLayerTableRecord
  2
1
 70
     0
 62
     7
  6
CONTINUOUS
370
    -3
390
F
  0
LAYER
  5
4BF
330
2
100
AcDbSymbolTableRecord
100
AcDbLayerTableRecord
  2
LAYER_1
 70
     0
 62
     5
  6
CONTINUOUS
370
    -3
390
F
  0
ENDTAB
  0
TABLE
  2
STYLE
  5
3
330
0
100
AcDbSymbolTable
 70
     4
  0
STYLE
  5
11
330
3
100
AcDbSymbolTableRecord
100
AcDbTextStyleTableRecord
  2
STANDARD
 70
     0
 40
0.0
 41
1.0
 50
0.0
 71
     0
 42
3.5
  3
txt
  4

  0
STYLE
  5
2C
330
3
100
AcDbSymbolTableRecord
100
AcDbTextStyleTableRecord
  2
SIMPLEX
 70
     0
 40
0.0
 41
1.0
 50
0.0
 71
     0
 42
3.5
  3
simplex
  4

  0
STYLE
  5
2D
330
3
100
AcDbSymbolTableRecord
100
AcDbTextStyleTableRecord
  2
COMPLEX
 70
     0
 40
0.0
 41
1.0
 50
0.0
 71
     0
 42
3.5
  3
complex
  4

  0
STYLE
  5
2E
330
3
100
AcDbSymbolTableRecord
100
AcDbTextStyleTableRecord
  2
ITALIC
 70
     0
 40
0.0
 41
1.0
 50
0.0
 71
     0
 42
3.5
  3
italic
  4

  0
ENDTAB
  0
TABLE
  2
VIEW
  5
6
330
0
100
AcDbSymbolTable
 70
     0
  0
ENDTAB
  0
TABLE
  2
UCS
  5
7
330
0
100
AcDbSymbolTable
 70
     0
  0
ENDTAB
  0
TABLE
  2
APPID
  5
9
330
0
100
AcDbSymbolTable
 70
     1
  0
APPID
  5
12
330
9
100
AcDbSymbolTableRecord
100
AcDbRegAppTableRecord
  2
ACAD
 70
     0
  0
ENDTAB
  0
TABLE
  2
DIMSTYLE
  5
A
330
0
100
AcDbSymbolTable
 70
     2
100
AcDbDimStyleTable
 71
     0
  0
DIMSTYLE
105
22
102
{ACAD_REACTORS
330
446
330
447
330
448
330
449
102
}
330
A
100
AcDbSymbolTableRecord
100
AcDbDimStyleTableRecord
  2
DMST_1
 70
     0
 41
2.5
 42
1.0
 43
7.0
 44
1.0
 73
     0
 74
     0
 77
     1
 78
     9
140
2.5
141
0.0
176
     2
177
     2
178
     2
279
     2
340
11
  0
DIMSTYLE
105
44F
330
A
100
AcDbSymbolTableRecord
100
AcDbDimStyleTableRecord
  2
Standard
 70
     0
340
11
  0
ENDTAB
  0
TABLE
  2
BLOCK_RECORD
  5
1
330
0
100
AcDbSymbolTable
 70
    24
  0
BLOCK_RECORD
  5
1E
330
1
100
AcDbSymbolTableRecord
100
AcDbBlockTableRecord
  2
*Model_Space
340
21
  0
BLOCK_RECORD
  5
1A
330
1
100
AcDbSymbolTableRecord
100
AcDbBlockTableRecord
  2
*Paper_Space
340
1D
  0
BLOCK_RECORD
  5
34
330
1
100
AcDbSymbolTableRecord
100
AcDbBlockTableRecord
  2
*D0
340
0
  0
BLOCK_RECORD
  5
3F
330
1
100
AcDbSymbolTableRecord
100
AcDbBlockTableRecord
  2
*D1
340
0
  0
BLOCK_RECORD
  5
49
330
1
100
AcDbSymbolTableRecord
100
AcDbBlockTableRecord
  2
*D2
340
0
  0
BLOCK_RECORD
  5
53
330
1
100
AcDbSymbolTableRecord
100
AcDbBlockTableRecord
  2
*D3
340
0
  0
BLOCK_RECORD
  5
44A
330
1
100
AcDbSymbolTableRecord
100
AcDbBlockTableRecord
  2
NTC
340
0
310
2800000020000000200000000100080000000000000400000000000000000000000000000000000000000000000080000080000000808000800000008000800080800000C0C0C000C0DCC000F0CAA6000020400000206000002080000020A0000020C0000020E00000400000004020000040400000406000004080000040A0
310
000040C0000040E00000600000006020000060400000606000006080000060A0000060C0000060E00000800000008020000080400000806000008080000080A0000080C0000080E00000A0000000A0200000A0400000A0600000A0800000A0A00000A0C00000A0E00000C0000000C0200000C0400000C0600000C0800000C0
310
A00000C0C00000C0E00000E0000000E0200000E0400000E0600000E0800000E0A00000E0C00000E0E00040000000400020004000400040006000400080004000A0004000C0004000E00040200000402020004020400040206000402080004020A0004020C0004020E000404000004040200040404000404060004040800040
310
40A0004040C0004040E00040600000406020004060400040606000406080004060A0004060C0004060E00040800000408020004080400040806000408080004080A0004080C0004080E00040A0000040A0200040A0400040A0600040A0800040A0A00040A0C00040A0E00040C0000040C0200040C0400040C0600040C08000
310
40C0A00040C0C00040C0E00040E0000040E0200040E0400040E0600040E0800040E0A00040E0C00040E0E00080000000800020008000400080006000800080008000A0008000C0008000E00080200000802020008020400080206000802080008020A0008020C0008020E00080400000804020008040400080406000804080
310
008040A0008040C0008040E00080600000806020008060400080606000806080008060A0008060C0008060E00080800000808020008080400080806000808080008080A0008080C0008080E00080A0000080A0200080A0400080A0600080A0800080A0A00080A0C00080A0E00080C0000080C0200080C0400080C0600080C0
310
800080C0A00080C0C00080C0E00080E0000080E0200080E0400080E0600080E0800080E0A00080E0C00080E0E000C0000000C0002000C0004000C0006000C0008000C000A000C000C000C000E000C0200000C0202000C0204000C0206000C0208000C020A000C020C000C020E000C0400000C0402000C0404000C0406000C0
310
408000C040A000C040C000C040E000C0600000C0602000C0604000C0606000C0608000C060A000C060C000C060E000C0800000C0802000C0804000C0806000C0808000C080A000C080C000C080E000C0A00000C0A02000C0A04000C0A06000C0A08000C0A0A000C0A0C000C0A0E000C0C00000C0C02000C0C04000C0C06000
310
C0C08000C0C0A000F0FBFF00A4A0A000808080000000FF0000FF000000FFFF00FF000000FF00FF00FFFF0000FFFFFF00FFFFFFFFFFFFFFFFFFFFFFFFFFFFFFFFFFFFFFFFFFFFFFFFFFFFFFFFFFFFFFFFFFFFFFFFFFFFFFFFFFFFFFFFFFFFFFFFFFFFFFFFFFFFFFFFFFFFFFFFFFFFFFFFFFFFFFFFFFFFFFFFFFFFFFFFFFFFFF
310
FFFFFFFFFFFFFFFFFFFFFFFFFFFFFFFFFFFFFFFFFFFFFFFFFFFFFFFFFFFFFFFFFFFFFFFFFFFFFFFFFFFFFFFFFFFFFFFFFFFFFFFFFFFFFFFFFFFFFFFFFFFFFFFFFFFFFFFFFFFFFFFFFFFFFFFFFFFFFFFFFFFFFFFFFFFFFFFFFFFFFFFFFFFFFFFFFFFFFFFFFFFFFFFFFFFFFFFFFFFFFFFFFFFFFFFFFFFFFFFFFFFFFFFFFFFFFF
310
FFFFFFFFFFFFFFFFFFFFFFFFFFFFFFFFFFFFFFFFFFFFFFFFFFFFFFFFFFFFFFFFFFFFFFFFFFFFFFFFFFFFFFFFFFFFFFFFFFFFFFFFFFFFFFFFFFFFFFFFFFFFFFFFFFFFFFFFFFFFFFFFFFFFFFFFFFFFFFFFFFFFFFFFFFFFFFFFFFFFFFFFFFFFFFFFFFFFFFFFFFFFFFFFFFFFFFFFFFFFFFFFFFFFFFFFFFFFFFFFFFFFFFFFFFFFFF
310
FFFFFFFFFFFFFFFFFFFFFFFFFFFFFFFFFFFFFFFF000000000000000000000000000000000000000000000000000000000000FFFF00FF0000000000000000FFFFFFFFFFFFFFFFFFFFFFFFFFFFFFFFFFFFFF00FFFF00FF0000000000000000FFFFFFFFFFFFFFFFFFFFFFFFFFFFFFFFFFFFFF00FFFF00FF000000000000000000
310
00000000000000000000000000FFFFFFFFFF00FFFF00FF0000000000000000000000000000000000000000000000000000FF00FFFF00FF0000000000000000000000000000000000000000000000000000FF00FFFF00FF0000000000000000000000000000000000000000000000000000FF00FFFF00FF0000000000000000
310
00000000000000000000000000000000FFFFFF00FFFF00FF0000000000FFFFFFFFFFFFFFFFFFFFFFFFFFFFFFFFFFFFFFFFFFFF00FFFF000000000000000000000000000000000000000000000000000000000000FFFFFFFFFFFFFFFFFFFFFFFFFFFFFFFFFFFFFFFFFFFFFFFFFFFFFFFFFFFFFFFFFFFFFFFFFFFFFFFFFFFFFF
310
FFFFFFFFFFFFFFFFFFFFFFFFFFFFFFFFFFFFFFFFFFFFFFFFFFFFFFFFFFFFFFFFFFFFFFFFFFFFFFFFFFFFFFFFFFFFFFFFFFFFFFFFFFFFFFFFFFFFFFFFFFFFFFFFFFFFFFFFFFFFFFFFFFFFFFFFFFFFFFFFFFFFFFFFFFFFFFFFFFFFFFFFFFFFFFFFFFFFFFFFFFFFFFFFFFFFFFFFFFFFFFFFFFFFFFFFFFFFFFFFFFFFFFFFFFFFFF
310
FFFFFFFFFFFFFFFFFFFFFFFFFFFFFFFFFFFFFFFFFFFFFFFFFFFFFFFFFFFFFFFFFFFFFFFFFFFFFFFFFFFFFFFFFFFFFFFFFFFFFFFFFFFFFFFFFFFFFFFFFFFFFFFFFFFFFFFFFFFFFFFFFFFFFFFFFFFFFFFFFFFFFFFFFFFFFFFFFFFFFFFFFFFFFFFFFFFFFFFFFFFFFFFFFFFFFFFFFFFFFFFFFFFFFFFFFFFFFFFFFFFFFFFFFFFFFF
310
FFFFFFFFFFFFFFFFFFFFFFFFFFFFFFFFFFFFFFFFFFFFFFFFFFFFFFFFFFFFFFFFFFFFFFFFFFFFFFFFFFFFFFFFFFFFFFFFFFFFFFFFFFFFFFFF
102
{BLKREFS
331
451
331
456
102
}
  0
BLOCK_RECORD
  5
457
330
1
100
AcDbSymbolTableRecord
100
AcDbBlockTableRecord
  2
AI9-BLK14
340
0
310
2800000020000000200000000100080000000000000400000000000000000000000000000000000000000000000080000080000000808000800000008000800080800000C0C0C000C0DCC000F0CAA6000020400000206000002080000020A0000020C0000020E00000400000004020000040400000406000004080000040A0
310
000040C0000040E00000600000006020000060400000606000006080000060A0000060C0000060E00000800000008020000080400000806000008080000080A0000080C0000080E00000A0000000A0200000A0400000A0600000A0800000A0A00000A0C00000A0E00000C0000000C0200000C0400000C0600000C0800000C0
310
A00000C0C00000C0E00000E0000000E0200000E0400000E0600000E0800000E0A00000E0C00000E0E00040000000400020004000400040006000400080004000A0004000C0004000E00040200000402020004020400040206000402080004020A0004020C0004020E000404000004040200040404000404060004040800040
310
40A0004040C0004040E00040600000406020004060400040606000406080004060A0004060C0004060E00040800000408020004080400040806000408080004080A0004080C0004080E00040A0000040A0200040A0400040A0600040A0800040A0A00040A0C00040A0E00040C0000040C0200040C0400040C0600040C08000
310
40C0A00040C0C00040C0E00040E0000040E0200040E0400040E0600040E0800040E0A00040E0C00040E0E00080000000800020008000400080006000800080008000A0008000C0008000E00080200000802020008020400080206000802080008020A0008020C0008020E00080400000804020008040400080406000804080
310
008040A0008040C0008040E00080600000806020008060400080606000806080008060A0008060C0008060E00080800000808020008080400080806000808080008080A0008080C0008080E00080A0000080A0200080A0400080A0600080A0800080A0A00080A0C00080A0E00080C0000080C0200080C0400080C0600080C0
310
800080C0A00080C0C00080C0E00080E0000080E0200080E0400080E0600080E0800080E0A00080E0C00080E0E000C0000000C0002000C0004000C0006000C0008000C000A000C000C000C000E000C0200000C0202000C0204000C0206000C0208000C020A000C020C000C020E000C0400000C0402000C0404000C0406000C0
310
408000C040A000C040C000C040E000C0600000C0602000C0604000C0606000C0608000C060A000C060C000C060E000C0800000C0802000C0804000C0806000C0808000C080A000C080C000C080E000C0A00000C0A02000C0A04000C0A06000C0A08000C0A0A000C0A0C000C0A0E000C0C00000C0C02000C0C04000C0C06000
310
C0C08000C0C0A000F0FBFF00A4A0A000808080000000FF0000FF000000FFFF00FF000000FF00FF00FFFF0000FFFFFF00FF00FFFFFFFF00FFFFFFFFFFFFFFFFFFFFFFFFFFFFFFFFFFFFFFFFFFFFFFFFFFFF00FFFFFFFF00FFFFFFFFFFFFFFFFFFFFFFFFFFFFFFFFFFFFFFFFFFFFFFFFFFFF00FFFFFFFF00FFFFFFFFFFFFFFFF
310
FFFFFFFFFFFFFFFFFFFFFFFFFFFFFFFFFFFF00FFFFFFFF00FFFFFFFFFFFFFFFFFFFFFFFFFFFFFFFFFFFFFFFFFFFFFFFFFFFF00FFFFFFFF00FFFFFFFFFFFFFFFFFFFFFFFFFFFFFFFFFFFFFFFFFFFFFFFFFFFF00FFFFFFFF00FFFFFFFFFFFFFFFFFFFFFFFFFFFFFFFFFFFFFFFFFFFFFFFFFFFF00FFFFFFFF00FFFFFFFFFFFFFF
310
FFFFFFFFFFFFFFFFFFFFFFFFFFFFFFFFFFFFFF00FFFFFFFF00FFFFFFFFFFFFFFFFFFFFFFFFFFFFFFFFFFFFFFFFFFFFFFFFFFFF00FFFFFFFF00FFFFFFFFFFFFFFFFFFFFFFFFFFFFFFFFFFFFFFFFFFFFFFFFFFFF00FFFFFFFF00FFFFFFFFFFFFFFFFFFFFFFFFFFFFFFFFFFFFFFFFFFFFFFFFFFFF00FFFFFFFF00FFFFFFFFFFFF
310
FFFFFFFFFFFFFFFFFFFFFFFFFFFFFFFFFFFFFFFF00FFFFFFFF00FFFFFFFFFFFFFFFFFFFFFFFFFFFFFFFFFFFFFFFFFFFFFFFFFFFF00FFFFFFFF00FFFFFFFFFFFFFFFFFFFFFFFFFFFFFFFFFFFFFFFFFFFFFFFFFFFF00FFFFFFFF0000000000000000000000000000000000000000000000000000FF00FFFFFFFFFFFFFFFFFFFF
310
FFFFFFFFFFFFFFFFFFFFFFFFFFFFFFFFFFFFFFFFFF00FFFFFFFFFFFFFFFFFFFFFFFFFFFFFFFFFFFFFFFFFFFFFFFFFFFFFFFFFFFFFF00FFFFFFFFFFFFFFFFFFFFFFFFFFFFFFFFFFFFFFFFFFFFFFFFFFFFFFFFFFFFFF00FFFFFFFFFFFFFFFFFFFFFFFFFFFFFFFFFFFFFFFFFFFFFFFFFFFFFFFFFF00FF00000000000000000000
310
0000000000000000000000000000000000000000FFFFFFFFFFFFFFFFFFFFFFFFFFFFFFFFFFFFFFFFFFFFFFFFFFFFFFFFFFFFFFFFFFFFFFFFFFFFFFFFFFFFFFFFFFFFFFFFFFFFFFFFFFFFFFFFFFFFFFFFFFFFFFFFFFFFFFFFFFFFFFFFFFFFFFFFFFFFFFFFFFFFFFFFFFFFFFFFFFFFFFFFFFFFFFFFFFFFFFFFFFFFFFFFFFFFFF
310
FFFFFFFFFFFFFFFFFFFFFFFFFFFFFFFFFFFFFFFFFFFFFFFFFFFFFFFFFFFFFFFFFFFFFFFFFFFFFFFFFFFFFFFFFFFFFFFFFFFFFFFFFFFFFFFFFFFFFFFFFFFFFFFFFFFFFFFFFFFFFFFFFFFFFFFFFFFFFFFFFFFFFFFFFFFFFFFFFFFFFFFFFFFFFFFFFFFFFFFFFFFFFFFFFFFFFFFFFFFFFFFFFFFFFFFFFFFFFFFFFFFFFFFFFFFFFF
310
FFFFFFFFFFFFFFFFFFFFFFFFFFFFFFFFFFFFFFFFFFFFFFFFFFFFFFFFFFFFFFFFFFFFFFFFFFFFFFFFFFFFFFFFFFFFFFFFFFFFFFFFFFFFFFFFFFFFFFFFFFFFFFFFFFFFFFFFFFFFFFFFFFFFFFFFFFFFFFFFFFFFFFFFFFFFFFFFFFFFFFFFFFFFFFFFFFFFFFFFFFFFFFFFFFFFFFFFFFFFFFFFFFFFFFFFFFFFFFFFFFFFFFFFFFFFFF
310
FFFFFFFFFFFFFFFFFFFFFFFFFFFFFFFFFFFFFFFFFFFFFFFFFFFFFFFFFFFFFFFFFFFFFFFFFFFFFFFFFFFFFFFFFFFFFFFFFFFFFFFFFFFFFFFF
102
{BLKREFS
331
498
102
}
  0
BLOCK_RECORD
  5
45C
330
1
100
AcDbSymbolTableRecord
100
AcDbBlockTableRecord
  2
AI9-BLK13
340
0
310
2800000020000000200000000100080000000000000400000000000000000000000000000000000000000000000080000080000000808000800000008000800080800000C0C0C000C0DCC000F0CAA6000020400000206000002080000020A0000020C0000020E00000400000004020000040400000406000004080000040A0
310
000040C0000040E00000600000006020000060400000606000006080000060A0000060C0000060E00000800000008020000080400000806000008080000080A0000080C0000080E00000A0000000A0200000A0400000A0600000A0800000A0A00000A0C00000A0E00000C0000000C0200000C0400000C0600000C0800000C0
310
A00000C0C00000C0E00000E0000000E0200000E0400000E0600000E0800000E0A00000E0C00000E0E00040000000400020004000400040006000400080004000A0004000C0004000E00040200000402020004020400040206000402080004020A0004020C0004020E000404000004040200040404000404060004040800040
310
40A0004040C0004040E00040600000406020004060400040606000406080004060A0004060C0004060E00040800000408020004080400040806000408080004080A0004080C0004080E00040A0000040A0200040A0400040A0600040A0800040A0A00040A0C00040A0E00040C0000040C0200040C0400040C0600040C08000
310
40C0A00040C0C00040C0E00040E0000040E0200040E0400040E0600040E0800040E0A00040E0C00040E0E00080000000800020008000400080006000800080008000A0008000C0008000E00080200000802020008020400080206000802080008020A0008020C0008020E00080400000804020008040400080406000804080
310
008040A0008040C0008040E00080600000806020008060400080606000806080008060A0008060C0008060E00080800000808020008080400080806000808080008080A0008080C0008080E00080A0000080A0200080A0400080A0600080A0800080A0A00080A0C00080A0E00080C0000080C0200080C0400080C0600080C0
310
800080C0A00080C0C00080C0E00080E0000080E0200080E0400080E0600080E0800080E0A00080E0C00080E0E000C0000000C0002000C0004000C0006000C0008000C000A000C000C000C000E000C0200000C0202000C0204000C0206000C0208000C020A000C020C000C020E000C0400000C0402000C0404000C0406000C0
310
408000C040A000C040C000C040E000C0600000C0602000C0604000C0606000C0608000C060A000C060C000C060E000C0800000C0802000C0804000C0806000C0808000C080A000C080C000C080E000C0A00000C0A02000C0A04000C0A06000C0A08000C0A0A000C0A0C000C0A0E000C0C00000C0C02000C0C04000C0C06000
310
C0C08000C0C0A000F0FBFF00A4A0A000808080000000FF0000FF000000FFFF00FF000000FF00FF00FFFF0000FFFFFF00FFFFFFFFFFFFFFFFFFFFFFFFFFFFFFFFFFFFFFFFFFFFFFFFFFFFFFFFFFFFFFFFFFFFFFFFFFFFFFFFFFFFFF0000FFFFFFFFFFFF0000FFFFFFFFFFFFFFFFFFFFFFFFFFFFFFFFFFFFFFFFFFFF0000FFFF
310
FFFFFFFF0000FFFFFFFFFFFFFFFFFFFFFFFFFFFFFFFFFFFFFFFFFFFF0000FFFFFFFFFFFF0000FFFFFFFFFFFFFFFFFFFFFFFFFFFFFFFFFFFFFFFFFFFF0000FFFFFFFFFFFF0000FFFFFFFFFFFFFFFFFFFFFFFFFFFFFFFFFFFFFFFFFFFF0000FFFFFFFFFFFF0000FFFFFFFFFFFFFFFFFFFFFFFFFFFFFFFFFFFFFFFFFFFF0000FF
310
FFFFFFFFFF0000FFFFFFFFFFFFFFFFFFFFFFFFFFFFFFFFFFFFFFFFFFFF0000FFFFFFFFFFFF0000FFFFFFFFFFFFFFFFFFFFFFFFFFFFFFFFFFFFFFFFFFFF0000FFFFFFFFFFFF0000FFFFFFFFFFFFFFFFFFFFFFFFFFFFFFFFFFFFFFFFFFFF0000FFFFFFFFFFFF0000FFFFFFFFFFFFFFFFFFFFFFFFFFFFFFFFFFFFFFFFFFFF0000
310
FFFFFFFFFFFF0000FFFFFFFFFFFFFFFFFFFFFFFFFFFFFFFFFFFFFFFFFFFF0000FFFFFFFFFFFF0000FFFFFFFFFFFFFFFFFFFFFFFFFFFFFFFFFFFFFFFFFFFF0000FFFFFFFFFFFF0000FFFFFFFFFFFFFFFFFFFFFFFFFFFFFFFFFFFFFFFFFFFF0000FFFFFFFFFFFF0000FFFFFFFFFFFFFFFFFFFFFFFFFFFFFFFFFFFFFFFFFFFF00
310
00FFFFFFFFFFFF0000FFFFFFFFFFFFFFFFFFFFFFFFFFFFFFFFFFFFFFFFFFFF00000000000000000000FFFFFFFFFFFFFFFFFFFFFFFFFFFFFFFFFFFFFFFFFFFF00FFFFFFFFFFFFFFFF00FFFFFFFFFFFFFFFFFFFFFFFFFFFFFFFFFFFFFFFFFFFF00FFFFFFFFFFFFFFFF00FFFFFFFFFFFFFFFFFFFFFFFFFFFFFFFFFFFFFFFFFFFF
310
00000000000000000000FFFFFFFFFFFFFFFFFFFFFFFFFFFFFFFFFFFFFFFFFFFF0000FFFFFFFFFFFF0000FFFFFFFFFFFFFFFFFFFFFFFFFFFFFFFFFFFFFFFFFFFF0000FFFFFFFFFFFF0000FFFFFFFFFFFFFFFFFFFFFFFFFFFFFFFFFFFFFFFFFFFF0000FFFFFFFFFFFF0000FFFFFFFFFFFFFFFFFFFFFFFFFFFFFFFFFFFFFFFFFF
310
FF0000FFFFFFFFFFFF0000FFFFFFFFFFFFFFFFFFFFFFFFFFFFFFFFFFFFFFFFFFFF0000FFFFFFFFFFFF0000FFFFFFFFFFFFFFFFFFFFFFFFFFFFFFFFFFFFFFFFFFFF0000FFFFFFFFFFFF0000FFFFFFFFFFFFFFFFFFFFFFFFFFFFFFFFFFFFFFFFFFFF0000FFFFFFFFFFFF0000FFFFFFFFFFFFFFFFFFFFFFFFFFFFFFFFFFFFFFFF
310
FFFF0000FFFFFFFFFFFF0000FFFFFFFFFFFFFFFFFFFFFFFFFFFFFFFFFFFFFFFFFFFF0000FFFFFFFFFFFF0000FFFFFFFFFFFFFFFFFFFFFFFFFFFFFFFFFFFFFFFFFFFF0000FFFFFFFFFFFF0000FFFFFFFFFFFFFFFFFFFFFFFFFFFFFFFFFFFFFFFFFFFF0000FFFFFFFFFFFF0000FFFFFFFFFFFFFFFFFFFFFFFFFFFFFFFFFFFFFF
310
FFFFFF0000FFFFFFFFFFFF0000FFFFFFFFFFFFFFFFFFFFFFFFFFFFFFFFFFFFFFFFFFFFFFFFFFFFFFFFFFFFFFFFFFFFFFFFFFFFFFFFFFFFFF
102
{BLKREFS
331
499
102
}
  0
BLOCK_RECORD
  5
461
330
1
100
AcDbSymbolTableRecord
100
AcDbBlockTableRecord
  2
AI9-BLK11
340
0
310
2800000020000000200000000100080000000000000400000000000000000000000000000000000000000000000080000080000000808000800000008000800080800000C0C0C000C0DCC000F0CAA6000020400000206000002080000020A0000020C0000020E00000400000004020000040400000406000004080000040A0
310
000040C0000040E00000600000006020000060400000606000006080000060A0000060C0000060E00000800000008020000080400000806000008080000080A0000080C0000080E00000A0000000A0200000A0400000A0600000A0800000A0A00000A0C00000A0E00000C0000000C0200000C0400000C0600000C0800000C0
310
A00000C0C00000C0E00000E0000000E0200000E0400000E0600000E0800000E0A00000E0C00000E0E00040000000400020004000400040006000400080004000A0004000C0004000E00040200000402020004020400040206000402080004020A0004020C0004020E000404000004040200040404000404060004040800040
310
40A0004040C0004040E00040600000406020004060400040606000406080004060A0004060C0004060E00040800000408020004080400040806000408080004080A0004080C0004080E00040A0000040A0200040A0400040A0600040A0800040A0A00040A0C00040A0E00040C0000040C0200040C0400040C0600040C08000
310
40C0A00040C0C00040C0E00040E0000040E0200040E0400040E0600040E0800040E0A00040E0C00040E0E00080000000800020008000400080006000800080008000A0008000C0008000E00080200000802020008020400080206000802080008020A0008020C0008020E00080400000804020008040400080406000804080
310
008040A0008040C0008040E00080600000806020008060400080606000806080008060A0008060C0008060E00080800000808020008080400080806000808080008080A0008080C0008080E00080A0000080A0200080A0400080A0600080A0800080A0A00080A0C00080A0E00080C0000080C0200080C0400080C0600080C0
310
800080C0A00080C0C00080C0E00080E0000080E0200080E0400080E0600080E0800080E0A00080E0C00080E0E000C0000000C0002000C0004000C0006000C0008000C000A000C000C000C000E000C0200000C0202000C0204000C0206000C0208000C020A000C020C000C020E000C0400000C0402000C0404000C0406000C0
310
408000C040A000C040C000C040E000C0600000C0602000C0604000C0606000C0608000C060A000C060C000C060E000C0800000C0802000C0804000C0806000C0808000C080A000C080C000C080E000C0A00000C0A02000C0A04000C0A06000C0A08000C0A0A000C0A0C000C0A0E000C0C00000C0C02000C0C04000C0C06000
310
C0C08000C0C0A000F0FBFF00A4A0A000808080000000FF0000FF000000FFFF00FF000000FF00FF00FFFF0000FFFFFF00FFFFFFFFFFFFFFFFFFFFFFFFFFFFFFFFFFFFFFFFFFFFFFFFFFFFFFFFFFFFFFFFFFFFFFFFFFFFFFFFFFFFFFFFFFFF00000000FFFFFFFFFFFFFFFFFFFFFF000000FFFFFFFFFFFFFFFFFFFFFFFFFFFF00
310
FFFF00FFFFFFFFFFFFFFFFFFFFFF00FFFFFFFFFFFFFFFFFFFFFFFFFFFFFFFF00FFFF00FFFFFFFFFFFFFFFFFFFFFF00FFFFFFFFFFFFFFFFFFFFFFFFFFFFFFFF00FFFF00FFFFFFFFFFFFFFFFFFFFFF00FFFFFFFFFFFFFFFFFFFFFFFFFFFFFFFF00FFFF00FFFFFFFFFFFFFFFFFFFFFF00FFFFFFFFFFFFFFFFFFFFFFFFFFFFFFFF
310
00FFFF00FFFFFFFFFFFFFFFFFFFFFF00FFFFFFFFFFFFFFFFFFFFFFFFFFFFFFFF00FFFF00FFFFFFFFFFFFFFFFFFFFFF00FFFFFFFFFFFFFFFFFFFFFFFFFFFFFFFF00FFFF00FFFFFFFFFFFFFFFFFFFFFF00FFFFFFFFFFFFFFFFFFFFFFFFFFFFFFFF00FFFF00FFFFFFFFFFFFFFFFFFFFFF00FFFFFFFFFFFFFFFFFFFFFFFFFFFFFF
310
FF00FFFF00FFFFFFFFFFFFFFFFFFFFFF00FFFFFFFFFFFFFFFFFFFFFFFFFFFFFFFF00FFFF00FFFFFFFFFFFFFFFFFFFFFF00FFFFFFFFFFFFFFFFFFFFFFFFFFFFFFFF00FFFF00FFFFFFFFFFFFFFFFFFFFFF00FFFFFFFFFFFFFFFFFFFFFFFFFFFFFFFF00FFFF00FFFFFFFFFFFFFFFFFFFFFF00FFFFFFFFFFFFFFFFFFFFFFFFFFFF
310
FFFF00FFFF00FFFFFFFFFFFFFFFFFFFFFF00FFFFFFFFFFFFFFFFFFFFFFFFFFFFFFFF00FFFF00FFFFFFFFFFFFFFFFFFFFFF00FFFFFFFFFFFFFFFFFFFFFFFFFFFFFFFF00FFFF00FFFFFFFFFFFFFFFFFFFFFF00FFFFFFFFFFFFFFFFFFFFFFFFFFFFFFFF00FFFF00FFFFFFFFFFFFFFFFFFFF00FFFFFFFFFFFFFFFFFFFFFFFFFFFF
310
FFFFFF00FFFF00FFFFFFFFFFFFFFFFFFFF00FFFFFFFFFFFFFFFFFFFFFFFFFFFFFFFFFF00FFFF00FFFFFFFFFFFFFFFFFFFF00FFFFFFFFFFFFFFFFFFFFFFFFFFFFFFFFFF00FFFF00FFFFFFFFFFFFFFFFFFFF00FFFFFFFFFFFFFFFFFFFFFFFFFFFFFFFFFF00FFFF00FFFFFFFFFFFFFFFFFFFF00FFFFFFFFFFFFFFFFFFFFFFFFFF
310
FFFFFFFF00FFFF00FFFFFFFFFFFFFFFFFF0000FFFF00FFFFFFFFFFFFFFFFFFFFFFFFFFFF00FFFF00FFFFFFFFFFFFFFFF0000FFFFFF00FFFFFFFFFFFFFFFFFFFFFFFFFFFF00FFFF00000000000000000000FFFFFFFF00FFFFFFFFFFFFFFFFFFFFFFFFFFFF00FFFFFFFFFFFFFFFFFFFFFFFFFFFFFF00FFFFFFFFFFFFFFFFFFFF
310
FFFFFFFFFF00FFFFFFFFFFFFFFFFFFFFFFFFFFFF00FFFFFFFFFFFFFFFFFFFFFFFFFFFFFFFF00FFFFFFFFFFFFFFFFFFFFFFFFFFFF00FFFFFFFFFFFFFFFFFFFFFFFFFFFFFFFF00FFFFFFFFFFFFFFFFFFFFFFFFFFFFFF00FFFFFFFFFFFFFFFFFFFFFFFFFFFFFF00FFFFFFFFFFFFFFFFFFFFFFFFFFFFFF00FFFFFFFFFFFFFFFFFF
310
FFFFFFFFFFFF00FFFF00000000000000000000FFFFFFFF00FFFFFFFFFFFFFFFFFFFFFFFFFFFF00FFFF00FFFFFFFFFFFFFFFFFF0000FFFF00
102
{BLKREFS
331
49A
102
}
  0
BLOCK_RECORD
  5
466
330
1
100
AcDbSymbolTableRecord
100
AcDbBlockTableRecord
  2
AI9-BLK10
340
0
310
2800000020000000200000000100080000000000000400000000000000000000000000000000000000000000000080000080000000808000800000008000800080800000C0C0C000C0DCC000F0CAA6000020400000206000002080000020A0000020C0000020E00000400000004020000040400000406000004080000040A0
310
000040C0000040E00000600000006020000060400000606000006080000060A0000060C0000060E00000800000008020000080400000806000008080000080A0000080C0000080E00000A0000000A0200000A0400000A0600000A0800000A0A00000A0C00000A0E00000C0000000C0200000C0400000C0600000C0800000C0
310
A00000C0C00000C0E00000E0000000E0200000E0400000E0600000E0800000E0A00000E0C00000E0E00040000000400020004000400040006000400080004000A0004000C0004000E00040200000402020004020400040206000402080004020A0004020C0004020E000404000004040200040404000404060004040800040
310
40A0004040C0004040E00040600000406020004060400040606000406080004060A0004060C0004060E00040800000408020004080400040806000408080004080A0004080C0004080E00040A0000040A0200040A0400040A0600040A0800040A0A00040A0C00040A0E00040C0000040C0200040C0400040C0600040C08000
310
40C0A00040C0C00040C0E00040E0000040E0200040E0400040E0600040E0800040E0A00040E0C00040E0E00080000000800020008000400080006000800080008000A0008000C0008000E00080200000802020008020400080206000802080008020A0008020C0008020E00080400000804020008040400080406000804080
310
008040A0008040C0008040E00080600000806020008060400080606000806080008060A0008060C0008060E00080800000808020008080400080806000808080008080A0008080C0008080E00080A0000080A0200080A0400080A0600080A0800080A0A00080A0C00080A0E00080C0000080C0200080C0400080C0600080C0
310
800080C0A00080C0C00080C0E00080E0000080E0200080E0400080E0600080E0800080E0A00080E0C00080E0E000C0000000C0002000C0004000C0006000C0008000C000A000C000C000C000E000C0200000C0202000C0204000C0206000C0208000C020A000C020C000C020E000C0400000C0402000C0404000C0406000C0
310
408000C040A000C040C000C040E000C0600000C0602000C0604000C0606000C0608000C060A000C060C000C060E000C0800000C0802000C0804000C0806000C0808000C080A000C080C000C080E000C0A00000C0A02000C0A04000C0A06000C0A08000C0A0A000C0A0C000C0A0E000C0C00000C0C02000C0C04000C0C06000
310
C0C08000C0C0A000F0FBFF00A4A0A000808080000000FF0000FF000000FFFF00FF000000FF00FF00FFFF0000FFFFFF00FFFFFFFFFFFFFFFFFFFFFFFFFFFFFFFF00FFFFFFFFFFFFFFFFFFFFFFFF00FFFFFFFFFFFFFFFFFFFFFFFFFFFFFFFFFFFF00FFFFFFFFFFFFFFFFFFFFFF00FFFFFFFFFFFFFFFFFFFFFFFFFFFFFFFFFFFF
310
FF00FFFFFFFFFFFFFFFFFFFFFF00FFFFFFFFFFFFFFFFFFFFFFFFFFFFFFFFFFFFFF00FFFFFFFFFFFFFFFFFFFFFF00FFFFFFFFFFFFFFFFFFFFFFFFFFFFFFFFFFFFFF00FFFFFFFFFFFFFFFFFFFFFF00FFFFFFFFFFFFFFFFFFFFFFFFFFFFFFFFFFFFFF00FFFFFFFFFFFFFFFFFFFFFF00FFFFFFFFFFFFFFFFFFFFFFFFFFFFFFFFFF
310
FFFF00FFFFFFFFFFFFFFFFFFFFFF00FFFFFFFFFFFFFFFFFFFFFFFFFFFFFFFFFFFFFF00FFFFFFFFFFFFFFFFFFFF00FFFFFFFFFFFFFFFFFFFFFFFFFFFFFFFFFFFFFFFF00FFFFFFFFFFFFFFFFFFFF00FFFFFFFFFFFFFFFFFFFFFFFFFFFFFFFFFFFFFFFF00FFFFFFFFFFFFFFFFFFFF00FFFFFFFFFFFFFFFFFFFFFFFFFFFFFFFFFF
310
FFFFFF00FFFFFFFFFFFFFFFFFFFF00FFFFFFFFFFFFFFFFFFFFFFFFFFFFFFFFFFFFFFFF00FFFFFFFFFFFFFFFFFFFF00FFFFFFFFFFFFFFFFFFFFFFFFFFFFFFFFFFFFFFFF00FFFFFFFFFFFFFFFFFFFF00FFFFFFFFFFFFFFFFFFFFFFFFFFFFFFFFFFFFFFFF00FFFFFFFFFFFFFFFFFF00FFFFFFFFFFFFFFFFFFFFFFFFFFFFFFFFFF
310
FFFFFFFF00FFFFFFFFFFFFFFFFFF00FFFFFFFFFFFFFFFFFFFFFFFFFFFFFFFFFFFFFFFFFF00FFFFFFFFFFFFFFFFFF00FFFFFFFFFFFFFFFFFFFFFFFFFFFFFFFFFFFFFFFFFF0000000000000000000000FFFFFFFFFFFFFFFFFFFFFFFFFFFFFFFFFFFFFFFFFFFFFFFFFFFFFFFFFFFFFFFFFFFFFFFFFFFFFFFFFFFFFFFFFFFFFFFF
310
FFFFFFFFFFFFFFFFFFFFFFFFFFFFFFFFFFFFFFFFFFFFFFFFFFFFFFFFFFFFFFFFFFFFFFFFFFFFFFFFFFFFFFFFFFFFFFFFFFFFFFFFFFFFFFFFFFFFFFFFFFFFFFFFFFFFFFFFFFFFFFFFFFFFFFFFFFFFFFFFFFFFFFFFFFFFFFFFFFFFFFFFFFFFFFFFFFFFFFFFFFFFFFFFFFFFFFFFFFFFFFFFFFFFFFFFFFFFFFFFFFFFFFFFFFFFFF
310
FFFFFFFFFFFFFFFFFFFFFFFFFFFFFFFFFFFFFFFFFFFFFFFFFFFFFFFFFFFFFFFFFFFFFFFFFFFFFFFFFFFFFFFFFFFFFFFFFFFFFFFFFFFFFFFFFFFFFFFFFFFFFFFFFFFFFFFFFFFFFFFFFFFFFFFFFFFFFFFFFFFFFFFFFFFFFFFFFFFFFFFFFFFFFFFFFFFFFFFFFFFFFFFFFFFFFFFFFFFFFFFFFFFFFFFFFFFFFFFFFFFFFFFFFFFFFF
310
FFFFFFFFFFFFFFFFFFFFFFFFFFFFFFFFFFFFFFFFFFFFFFFFFFFFFFFFFFFFFFFFFFFFFFFFFFFFFFFFFFFFFFFFFFFFFFFFFFFFFFFFFFFFFFFFFFFFFFFFFFFFFFFFFFFFFFFFFFFFFFFFFFFFFFFFFFFFFFFFFFFFFFFFFFFFFFFFFFFFFFFFFFFFFFFFFFFFFFFFFFFFFFFFFFFFFFFFFFFFFFFFFFFFFFFFFFFFFFFFFFFFFFFFFFFFFF
310
FFFFFFFFFFFFFFFFFFFFFFFFFFFFFFFFFFFFFFFFFFFFFFFFFFFFFFFFFFFFFFFFFFFFFFFFFFFFFFFFFFFFFFFFFFFFFFFFFFFFFFFFFFFFFFFF
102
{BLKREFS
331
49B
102
}
  0
BLOCK_RECORD
  5
46A
330
1
100
AcDbSymbolTableRecord
100
AcDbBlockTableRecord
  2
AI9-BLK9
340
0
310
2800000020000000200000000100080000000000000400000000000000000000000000000000000000000000000080000080000000808000800000008000800080800000C0C0C000C0DCC000F0CAA6000020400000206000002080000020A0000020C0000020E00000400000004020000040400000406000004080000040A0
310
000040C0000040E00000600000006020000060400000606000006080000060A0000060C0000060E00000800000008020000080400000806000008080000080A0000080C0000080E00000A0000000A0200000A0400000A0600000A0800000A0A00000A0C00000A0E00000C0000000C0200000C0400000C0600000C0800000C0
310
A00000C0C00000C0E00000E0000000E0200000E0400000E0600000E0800000E0A00000E0C00000E0E00040000000400020004000400040006000400080004000A0004000C0004000E00040200000402020004020400040206000402080004020A0004020C0004020E000404000004040200040404000404060004040800040
310
40A0004040C0004040E00040600000406020004060400040606000406080004060A0004060C0004060E00040800000408020004080400040806000408080004080A0004080C0004080E00040A0000040A0200040A0400040A0600040A0800040A0A00040A0C00040A0E00040C0000040C0200040C0400040C0600040C08000
310
40C0A00040C0C00040C0E00040E0000040E0200040E0400040E0600040E0800040E0A00040E0C00040E0E00080000000800020008000400080006000800080008000A0008000C0008000E00080200000802020008020400080206000802080008020A0008020C0008020E00080400000804020008040400080406000804080
310
008040A0008040C0008040E00080600000806020008060400080606000806080008060A0008060C0008060E00080800000808020008080400080806000808080008080A0008080C0008080E00080A0000080A0200080A0400080A0600080A0800080A0A00080A0C00080A0E00080C0000080C0200080C0400080C0600080C0
310
800080C0A00080C0C00080C0E00080E0000080E0200080E0400080E0600080E0800080E0A00080E0C00080E0E000C0000000C0002000C0004000C0006000C0008000C000A000C000C000C000E000C0200000C0202000C0204000C0206000C0208000C020A000C020C000C020E000C0400000C0402000C0404000C0406000C0
310
408000C040A000C040C000C040E000C0600000C0602000C0604000C0606000C0608000C060A000C060C000C060E000C0800000C0802000C0804000C0806000C0808000C080A000C080C000C080E000C0A00000C0A02000C0A04000C0A06000C0A08000C0A0A000C0A0C000C0A0E000C0C00000C0C02000C0C04000C0C06000
310
C0C08000C0C0A000F0FBFF00A4A0A000808080000000FF0000FF000000FFFF00FF000000FF00FF00FFFF0000FFFFFF00FFFFFFFFFFFFFFFFFFFFFFFFFFFFFFFFFFFFFFFFFFFFFFFFFFFFFFFFFFFFFFFFFFFFFFFFFFFFFFFFFFFFFFFFFFFFFF0000FFFFFFFFFFFFFFFFFFFFFFFFFFFFFFFFFFFFFFFFFFFFFFFFFFFFFFFF0000
310
FF0000FFFFFFFFFFFFFFFFFFFFFFFFFFFFFFFFFFFFFFFFFFFFFFFFFFFFFF00FFFFFF0000FFFFFFFFFFFFFFFFFFFFFFFFFFFFFFFFFFFFFFFFFFFFFFFFFFFF00FFFFFFFF0000FFFFFFFFFFFFFFFFFFFFFFFFFFFFFFFFFFFFFFFFFFFFFFFF00FF00000000FF00FFFFFFFFFFFFFFFFFFFFFFFFFFFFFFFFFFFFFFFFFFFFFFFF0000
310
00FFFF00FF00FFFFFFFFFFFFFFFFFFFFFFFFFFFFFFFFFFFFFFFFFFFFFFFF0000FFFFFFFF0000FFFFFFFFFFFFFFFFFFFFFFFFFFFFFFFFFFFFFFFFFFFFFFFF0000FFFFFFFF0000FFFFFFFFFFFFFFFFFFFFFFFFFFFFFFFFFFFFFFFFFFFFFF00FF00FFFFFFFF00FF00FFFFFFFFFFFFFFFFFFFFFFFFFFFFFFFFFFFFFFFFFFFF0000
310
FFFFFFFFFF00FF00FFFFFFFFFFFFFFFFFFFFFFFFFFFFFFFFFFFFFFFFFFFF0000FFFFFFFFFFFF0000FFFFFFFFFFFFFFFFFFFFFFFFFFFFFFFFFFFFFFFFFFFF0000FFFFFFFFFFFF0000FFFFFFFFFFFFFFFFFFFFFFFFFFFFFFFFFFFFFFFFFFFF0000FFFFFFFFFFFF0000FFFFFFFFFFFFFFFFFFFFFFFFFFFFFFFFFFFFFFFFFFFF00
310
00FFFFFFFFFFFF0000FFFFFFFFFFFFFFFFFFFFFFFFFFFFFFFFFFFFFFFFFFFF0000FFFFFFFFFFFF0000FFFFFFFFFFFFFFFFFFFFFFFFFFFFFFFFFFFFFFFFFFFF0000FFFFFFFFFFFF0000FFFFFFFFFFFFFFFFFFFFFFFFFFFFFFFFFFFFFFFFFFFF0000FFFFFFFFFFFF0000FFFFFFFFFFFFFFFFFFFFFFFFFFFFFFFFFFFFFFFFFFFF
310
0000FFFFFFFFFFFF0000FFFFFFFFFFFFFFFFFFFFFFFFFFFFFFFFFFFFFFFFFFFF0000FFFFFFFFFFFF0000FFFFFFFFFFFFFFFFFFFFFFFFFFFFFFFFFFFFFFFFFFFF0000FFFFFFFFFFFF0000FFFFFFFFFFFFFFFFFFFFFFFFFFFFFFFFFFFFFFFFFFFF00FF00FFFFFFFF00FF00FFFFFFFFFFFFFFFFFFFFFFFFFFFFFFFFFFFFFFFFFF
310
FF00FF00FFFFFFFF00FF00FFFFFFFFFFFFFFFFFFFFFFFFFFFFFFFFFFFFFFFFFFFF00FF00FFFFFFFF00FF00FFFFFFFFFFFFFFFFFFFFFFFFFFFFFFFFFFFFFFFFFFFFFF0000FFFFFFFF0000FFFFFFFFFFFFFFFFFFFFFFFFFFFFFFFFFFFFFFFFFFFFFFFF00FF00FFFF00FF00FFFFFFFFFFFFFFFFFFFFFFFFFFFFFFFFFFFFFFFFFF
310
FFFFFF00FF00000000FF00FFFFFFFFFFFFFFFFFFFFFFFFFFFFFFFFFFFFFFFFFFFFFFFFFF00FFFFFFFF0000FFFFFFFFFFFFFFFFFFFFFFFFFFFFFFFFFFFFFFFFFFFFFFFFFF00FFFFFFFF00FFFFFFFFFFFFFFFFFFFFFFFFFFFFFFFFFFFFFFFFFFFFFFFFFFFFFF00000000FFFFFFFFFFFFFFFFFFFFFFFFFFFFFFFFFFFFFFFFFFFF
310
FFFFFFFFFFFFFF0000FFFFFFFFFFFFFFFFFFFFFFFFFFFFFFFFFFFFFFFFFFFFFFFFFFFFFFFFFFFFFFFFFFFFFFFFFFFFFFFFFFFFFFFFFFFFFF
102
{BLKREFS
331
49C
102
}
  0
BLOCK_RECORD
  5
46F
330
1
100
AcDbSymbolTableRecord
100
AcDbBlockTableRecord
  2
AI9-BLK8
340
0
310
2800000020000000200000000100080000000000000400000000000000000000000000000000000000000000000080000080000000808000800000008000800080800000C0C0C000C0DCC000F0CAA6000020400000206000002080000020A0000020C0000020E00000400000004020000040400000406000004080000040A0
310
000040C0000040E00000600000006020000060400000606000006080000060A0000060C0000060E00000800000008020000080400000806000008080000080A0000080C0000080E00000A0000000A0200000A0400000A0600000A0800000A0A00000A0C00000A0E00000C0000000C0200000C0400000C0600000C0800000C0
310
A00000C0C00000C0E00000E0000000E0200000E0400000E0600000E0800000E0A00000E0C00000E0E00040000000400020004000400040006000400080004000A0004000C0004000E00040200000402020004020400040206000402080004020A0004020C0004020E000404000004040200040404000404060004040800040
310
40A0004040C0004040E00040600000406020004060400040606000406080004060A0004060C0004060E00040800000408020004080400040806000408080004080A0004080C0004080E00040A0000040A0200040A0400040A0600040A0800040A0A00040A0C00040A0E00040C0000040C0200040C0400040C0600040C08000
310
40C0A00040C0C00040C0E00040E0000040E0200040E0400040E0600040E0800040E0A00040E0C00040E0E00080000000800020008000400080006000800080008000A0008000C0008000E00080200000802020008020400080206000802080008020A0008020C0008020E00080400000804020008040400080406000804080
310
008040A0008040C0008040E00080600000806020008060400080606000806080008060A0008060C0008060E00080800000808020008080400080806000808080008080A0008080C0008080E00080A0000080A0200080A0400080A0600080A0800080A0A00080A0C00080A0E00080C0000080C0200080C0400080C0600080C0
310
800080C0A00080C0C00080C0E00080E0000080E0200080E0400080E0600080E0800080E0A00080E0C00080E0E000C0000000C0002000C0004000C0006000C0008000C000A000C000C000C000E000C0200000C0202000C0204000C0206000C0208000C020A000C020C000C020E000C0400000C0402000C0404000C0406000C0
310
408000C040A000C040C000C040E000C0600000C0602000C0604000C0606000C0608000C060A000C060C000C060E000C0800000C0802000C0804000C0806000C0808000C080A000C080C000C080E000C0A00000C0A02000C0A04000C0A06000C0A08000C0A0A000C0A0C000C0A0E000C0C00000C0C02000C0C04000C0C06000
310
C0C08000C0C0A000F0FBFF00A4A0A000808080000000FF0000FF000000FFFF00FF000000FF00FF00FFFF0000FFFFFF00FFFFFFFFFFFFFFFFFFFFFFFFFFFFFFFFFFFFFFFFFFFFFFFFFFFFFFFFFFFFFFFFFFFFFFFFFFFFFFFFFFFFFF0000FFFFFFFFFFFF0000FFFFFFFFFFFFFFFFFFFFFFFFFFFFFFFFFFFFFFFFFFFF0000FFFF
310
FFFFFFFF0000FFFFFFFFFFFFFFFFFFFFFFFFFFFFFFFFFFFFFFFFFFFF0000FFFFFFFFFF00FF00FFFFFFFFFFFFFFFFFFFFFFFFFFFFFFFFFFFFFFFFFFFF0000FFFFFFFFFF00FF00FFFFFFFFFFFFFFFFFFFFFFFFFFFFFFFFFFFFFFFFFFFF0000FFFFFFFFFF00FF00FFFFFFFFFFFFFFFFFFFFFFFFFFFFFFFFFFFFFFFFFFFF0000FF
310
FFFFFF00FFFF00FFFFFFFFFFFFFFFFFFFFFFFFFFFFFFFFFFFFFFFFFFFF0000FFFFFFFF00FF0000FFFFFFFFFFFFFFFFFFFFFFFFFFFFFFFFFFFFFFFFFFFF0000FFFFFFFF00FF0000FFFFFFFFFFFFFFFFFFFFFFFFFFFFFFFFFFFFFFFFFFFF0000FFFFFFFF00000000FFFFFFFFFFFFFFFFFFFFFFFFFFFFFFFFFFFFFFFFFFFF0000
310
FFFFFF00FF000000FFFFFFFFFFFFFFFFFFFFFFFFFFFFFFFFFFFFFFFFFFFF0000FFFFFF00FF000000FFFFFFFFFFFFFFFFFFFFFFFFFFFFFFFFFFFFFFFFFFFF0000FFFFFF00FF000000FFFFFFFFFFFFFFFFFFFFFFFFFFFFFFFFFFFFFFFFFFFF0000FFFF00FF00FF0000FFFFFFFFFFFFFFFFFFFFFFFFFFFFFFFFFFFFFFFFFFFF00
310
00FFFF00FF00FF0000FFFFFFFFFFFFFFFFFFFFFFFFFFFFFFFFFFFFFFFFFFFF0000FFFF00FF00FF0000FFFFFFFFFFFFFFFFFFFFFFFFFFFFFFFFFFFFFFFFFFFF0000FF00FFFF00FF0000FFFFFFFFFFFFFFFFFFFFFFFFFFFFFFFFFFFFFFFFFFFF0000FF00FF00FFFF0000FFFFFFFFFFFFFFFFFFFFFFFFFFFFFFFFFFFFFFFFFFFF
310
0000FF00FF00FFFF0000FFFFFFFFFFFFFFFFFFFFFFFFFFFFFFFFFFFFFFFFFFFF0000FF00FF00FFFF0000FFFFFFFFFFFFFFFFFFFFFFFFFFFFFFFFFFFFFFFFFFFF000000FFFF00FFFF0000FFFFFFFFFFFFFFFFFFFFFFFFFFFFFFFFFFFFFFFFFFFF000000FF00FFFFFF0000FFFFFFFFFFFFFFFFFFFFFFFFFFFFFFFFFFFFFFFFFF
310
FF000000FF00FFFFFF0000FFFFFFFFFFFFFFFFFFFFFFFFFFFFFFFFFFFFFFFFFFFF0000FFFF00FFFFFF0000FFFFFFFFFFFFFFFFFFFFFFFFFFFFFFFFFFFFFFFFFFFF0000FFFF00FFFFFF0000FFFFFFFFFFFFFFFFFFFFFFFFFFFFFFFFFFFFFFFFFFFF00FFFF00FFFFFFFF0000FFFFFFFFFFFFFFFFFFFFFFFFFFFFFFFFFFFFFFFF
310
FFFF00FFFF00FFFFFFFF0000FFFFFFFFFFFFFFFFFFFFFFFFFFFFFFFFFFFFFFFFFFFF00FFFF00FFFFFFFF0000FFFFFFFFFFFFFFFFFFFFFFFFFFFFFFFFFFFFFFFFFFFF00FFFF00FFFFFFFF0000FFFFFFFFFFFFFFFFFFFFFFFFFFFFFFFFFFFFFFFFFFFF00FF00FFFFFFFFFF0000FFFFFFFFFFFFFFFFFFFFFFFFFFFFFFFFFFFFFF
310
FFFFFF000000FFFFFFFFFF0000FFFFFFFFFFFFFFFFFFFFFFFFFFFFFFFFFFFFFFFFFFFFFFFFFFFFFFFFFFFFFFFFFFFFFFFFFFFFFFFFFFFFFF
102
{BLKREFS
331
49D
102
}
  0
BLOCK_RECORD
  5
474
330
1
100
AcDbSymbolTableRecord
100
AcDbBlockTableRecord
  2
AI9-BLK7
340
0
310
2800000020000000200000000100080000000000000400000000000000000000000000000000000000000000000080000080000000808000800000008000800080800000C0C0C000C0DCC000F0CAA6000020400000206000002080000020A0000020C0000020E00000400000004020000040400000406000004080000040A0
310
000040C0000040E00000600000006020000060400000606000006080000060A0000060C0000060E00000800000008020000080400000806000008080000080A0000080C0000080E00000A0000000A0200000A0400000A0600000A0800000A0A00000A0C00000A0E00000C0000000C0200000C0400000C0600000C0800000C0
310
A00000C0C00000C0E00000E0000000E0200000E0400000E0600000E0800000E0A00000E0C00000E0E00040000000400020004000400040006000400080004000A0004000C0004000E00040200000402020004020400040206000402080004020A0004020C0004020E000404000004040200040404000404060004040800040
310
40A0004040C0004040E00040600000406020004060400040606000406080004060A0004060C0004060E00040800000408020004080400040806000408080004080A0004080C0004080E00040A0000040A0200040A0400040A0600040A0800040A0A00040A0C00040A0E00040C0000040C0200040C0400040C0600040C08000
310
40C0A00040C0C00040C0E00040E0000040E0200040E0400040E0600040E0800040E0A00040E0C00040E0E00080000000800020008000400080006000800080008000A0008000C0008000E00080200000802020008020400080206000802080008020A0008020C0008020E00080400000804020008040400080406000804080
310
008040A0008040C0008040E00080600000806020008060400080606000806080008060A0008060C0008060E00080800000808020008080400080806000808080008080A0008080C0008080E00080A0000080A0200080A0400080A0600080A0800080A0A00080A0C00080A0E00080C0000080C0200080C0400080C0600080C0
310
800080C0A00080C0C00080C0E00080E0000080E0200080E0400080E0600080E0800080E0A00080E0C00080E0E000C0000000C0002000C0004000C0006000C0008000C000A000C000C000C000E000C0200000C0202000C0204000C0206000C0208000C020A000C020C000C020E000C0400000C0402000C0404000C0406000C0
310
408000C040A000C040C000C040E000C0600000C0602000C0604000C0606000C0608000C060A000C060C000C060E000C0800000C0802000C0804000C0806000C0808000C080A000C080C000C080E000C0A00000C0A02000C0A04000C0A06000C0A08000C0A0A000C0A0C000C0A0E000C0C00000C0C02000C0C04000C0C06000
310
C0C08000C0C0A000F0FBFF00A4A0A000808080000000FF0000FF000000FFFF00FF000000FF00FF00FFFF0000FFFFFF00FFFFFFFFFFFFFFFFFFFFFFFFFFFFFFFFFFFFFFFFFFFFFFFFFFFFFFFFFFFFFFFFFFFFFFFFFFFFFFFFFFFFFFFFFFFFFF0000FFFFFFFFFFFFFFFFFFFFFFFFFFFFFFFFFFFFFFFFFFFFFFFFFFFFFFFFFFFF
310
0000FFFFFFFFFFFFFFFFFFFFFFFFFFFFFFFFFFFFFFFFFFFFFFFFFFFFFFFFFFFF0000FFFFFFFFFFFFFFFFFFFFFFFFFFFFFFFFFFFFFFFFFFFFFFFFFFFFFFFFFFFF0000FFFFFFFFFFFFFFFFFFFFFFFFFFFFFFFFFFFFFFFFFFFFFFFFFFFFFFFFFFFF0000FFFFFFFFFFFFFFFFFFFFFFFFFFFFFFFFFFFFFFFFFFFFFFFFFFFFFFFFFF
310
FF0000FFFFFFFFFFFFFFFFFFFFFFFFFFFFFFFFFFFFFFFFFFFFFFFFFFFFFFFFFFFF0000FFFFFFFFFFFFFFFFFFFFFFFFFFFFFFFFFFFFFFFFFFFFFFFFFFFFFFFFFFFF0000FFFFFFFFFFFFFFFFFFFFFFFFFFFFFFFFFFFFFFFFFFFFFFFFFFFFFFFFFFFF0000FFFFFFFFFFFFFFFFFFFFFFFFFFFFFFFFFFFFFFFFFFFFFFFFFFFFFFFF
310
FFFF0000FFFFFFFFFFFFFFFFFFFFFFFFFFFFFFFFFFFFFFFFFFFFFFFFFFFFFFFFFFFF0000FFFFFFFFFFFFFFFFFFFFFFFFFFFFFFFFFFFFFFFFFFFFFFFFFFFFFFFFFFFF0000FFFFFFFFFFFFFFFFFFFFFFFFFFFFFFFFFFFFFFFFFFFFFFFFFFFFFFFFFFFF0000FFFFFFFFFFFFFFFFFFFFFFFFFFFFFFFFFFFFFFFFFFFFFFFFFFFFFF
310
FFFFFF0000FFFFFFFFFFFFFFFFFFFFFFFFFFFFFFFFFFFFFFFFFFFFFFFFFFFFFFFFFFFF0000FFFFFFFFFFFFFFFFFFFFFFFFFFFFFFFFFFFFFFFFFFFFFFFFFFFFFFFFFFFF0000FFFFFFFFFFFFFFFFFFFFFFFFFFFFFFFFFFFFFFFFFFFFFFFFFFFFFFFFFFFF0000FFFFFFFFFFFFFFFFFFFFFFFFFFFFFFFFFFFFFFFFFFFFFFFFFFFF
310
FFFFFFFF0000FFFFFFFFFFFFFFFFFFFFFFFFFFFFFFFFFFFFFFFFFFFFFFFFFFFFFFFFFFFF0000FFFFFFFFFFFFFFFFFFFFFFFFFFFFFFFFFFFFFFFFFFFFFFFFFFFFFFFFFFFF0000FFFFFFFFFFFFFFFFFFFFFFFFFFFFFFFFFFFFFFFFFFFFFFFFFFFFFFFFFFFF0000FFFFFFFFFFFFFFFFFFFFFFFFFFFFFFFFFFFFFFFFFFFFFFFFFF
310
FFFFFFFFFF0000FFFFFFFFFFFFFFFFFFFFFFFFFFFFFFFFFFFFFFFFFFFFFFFFFFFFFFFFFFFF0000FFFFFFFFFFFFFFFFFFFFFFFFFFFFFFFFFFFFFFFFFFFFFFFFFFFFFFFFFFFF0000FFFFFFFFFFFFFFFFFFFFFFFFFFFFFFFFFFFFFFFFFFFFFFFFFFFFFFFFFFFF0000FFFFFFFFFFFFFFFFFFFFFFFFFFFFFFFFFFFFFFFFFFFFFFFF
310
FFFFFFFFFFFF0000FFFFFFFFFFFFFFFFFFFFFFFFFFFFFFFFFFFFFFFFFFFFFFFFFFFFFFFFFFFF0000FFFFFFFFFFFFFFFFFFFFFFFFFFFFFFFFFFFFFFFFFFFFFFFFFFFFFFFFFFFF0000FFFFFFFFFFFFFFFFFFFFFFFFFFFFFFFFFFFFFFFFFFFFFFFFFFFFFFFFFFFF0000FFFFFFFFFFFFFFFFFFFFFFFFFFFFFFFFFFFFFFFFFFFFFF
310
FFFFFFFFFFFFFF0000FFFFFFFFFFFFFFFFFFFFFFFFFFFFFFFFFFFFFFFFFFFFFFFFFFFFFFFFFFFFFFFFFFFFFFFFFFFFFFFFFFFFFFFFFFFFFF
102
{BLKREFS
331
49E
102
}
  0
BLOCK_RECORD
  5
479
330
1
100
AcDbSymbolTableRecord
100
AcDbBlockTableRecord
  2
AI9-BLK6
340
0
310
2800000020000000200000000100080000000000000400000000000000000000000000000000000000000000000080000080000000808000800000008000800080800000C0C0C000C0DCC000F0CAA6000020400000206000002080000020A0000020C0000020E00000400000004020000040400000406000004080000040A0
310
000040C0000040E00000600000006020000060400000606000006080000060A0000060C0000060E00000800000008020000080400000806000008080000080A0000080C0000080E00000A0000000A0200000A0400000A0600000A0800000A0A00000A0C00000A0E00000C0000000C0200000C0400000C0600000C0800000C0
310
A00000C0C00000C0E00000E0000000E0200000E0400000E0600000E0800000E0A00000E0C00000E0E00040000000400020004000400040006000400080004000A0004000C0004000E00040200000402020004020400040206000402080004020A0004020C0004020E000404000004040200040404000404060004040800040
310
40A0004040C0004040E00040600000406020004060400040606000406080004060A0004060C0004060E00040800000408020004080400040806000408080004080A0004080C0004080E00040A0000040A0200040A0400040A0600040A0800040A0A00040A0C00040A0E00040C0000040C0200040C0400040C0600040C08000
310
40C0A00040C0C00040C0E00040E0000040E0200040E0400040E0600040E0800040E0A00040E0C00040E0E00080000000800020008000400080006000800080008000A0008000C0008000E00080200000802020008020400080206000802080008020A0008020C0008020E00080400000804020008040400080406000804080
310
008040A0008040C0008040E00080600000806020008060400080606000806080008060A0008060C0008060E00080800000808020008080400080806000808080008080A0008080C0008080E00080A0000080A0200080A0400080A0600080A0800080A0A00080A0C00080A0E00080C0000080C0200080C0400080C0600080C0
310
800080C0A00080C0C00080C0E00080E0000080E0200080E0400080E0600080E0800080E0A00080E0C00080E0E000C0000000C0002000C0004000C0006000C0008000C000A000C000C000C000E000C0200000C0202000C0204000C0206000C0208000C020A000C020C000C020E000C0400000C0402000C0404000C0406000C0
310
408000C040A000C040C000C040E000C0600000C0602000C0604000C0606000C0608000C060A000C060C000C060E000C0800000C0802000C0804000C0806000C0808000C080A000C080C000C080E000C0A00000C0A02000C0A04000C0A06000C0A08000C0A0A000C0A0C000C0A0E000C0C00000C0C02000C0C04000C0C06000
310
C0C08000C0C0A000F0FBFF00A4A0A000808080000000FF0000FF000000FFFF00FF000000FF00FF00FFFF0000FFFFFF00FFFFFFFFFFFFFFFFFFFFFFFF00FFFFFFFFFFFFFF00FFFFFFFFFFFFFFFFFFFFFFFFFFFFFFFFFFFFFFFFFFFFFF00FFFFFFFFFFFFFF00FFFFFFFFFFFFFFFFFFFFFFFFFFFFFFFFFFFFFFFFFFFFFF00FFFF
310
FFFFFFFFFF00FFFFFFFFFFFFFFFFFFFFFFFFFFFFFFFFFFFFFFFFFFFF00FFFFFFFFFFFFFFFF00FFFFFFFFFFFFFFFFFFFFFFFFFFFFFFFFFFFFFFFFFFFF00FFFFFFFFFFFFFF00FFFFFFFFFFFFFFFFFFFFFFFFFFFFFFFFFFFFFFFFFFFFFF00FFFFFFFFFFFFFF00FFFFFFFFFFFFFFFFFFFFFFFFFFFFFFFFFFFFFFFFFFFF00FFFFFF
310
FFFFFFFFFF00FFFFFFFFFFFFFFFFFFFFFFFFFFFFFFFFFFFFFFFFFFFF00FFFFFFFFFFFFFF00FFFFFFFFFFFFFFFFFFFFFFFFFFFFFFFFFFFFFFFFFFFF00FFFFFFFFFFFFFFFF00FFFFFFFFFFFFFFFFFFFFFFFFFFFFFFFFFFFFFFFFFF00FFFFFFFFFFFFFFFFFF00FFFFFFFFFFFFFFFFFFFFFFFFFFFFFFFFFFFFFFFF00FFFFFFFFFF
310
FFFFFFFFFF00FFFFFFFFFFFFFFFFFFFFFFFFFFFFFFFFFFFFFF00FFFFFFFFFFFFFFFFFFFF00FFFFFFFFFFFFFFFFFFFFFFFFFFFFFFFFFFFF0000FFFFFFFFFFFFFFFFFFFFFF00FFFFFFFFFFFFFFFFFFFFFFFFFFFF00000000FFFFFFFFFFFFFFFFFFFFFFFFFF00FFFFFFFFFFFFFFFFFFFFFFFFFFFFFFFFFFFFFFFFFFFFFFFFFFFF
310
FFFFFFFF00FFFFFFFFFFFFFFFFFFFFFFFFFFFFFFFFFFFFFFFFFFFFFFFFFFFFFFFFFFFFFF00FFFFFFFFFFFFFFFFFFFFFFFFFFFFFFFFFFFFFFFFFFFFFFFFFFFFFFFFFFFFFF00FFFFFFFFFFFFFFFFFFFFFFFFFFFFFFFFFFFFFFFFFFFFFFFFFFFFFFFFFFFF00FFFFFFFFFFFFFFFFFFFFFFFFFFFFFFFFFFFFFFFFFFFFFFFFFFFFFF
310
FFFFFFFF00FFFFFFFFFFFFFFFFFFFFFFFFFFFFFFFFFFFFFFFFFFFFFFFFFFFFFFFFFFFF00FFFFFFFFFFFFFFFFFFFFFFFFFFFFFFFFFFFFFFFFFFFFFFFFFFFFFFFFFFFF00FFFFFFFFFFFFFFFFFFFFFFFFFFFFFFFFFFFFFFFFFFFFFFFFFFFFFFFFFFFF00FFFFFFFFFFFFFFFFFFFFFFFFFFFFFFFFFFFFFFFFFFFFFFFFFFFFFFFFFF
310
FF00FFFFFFFFFFFFFFFFFFFFFFFFFFFFFFFFFFFFFFFFFFFFFFFFFFFFFFFFFFFFFF00FFFFFFFFFFFFFFFFFFFFFFFFFFFFFFFFFFFFFFFFFFFFFFFFFFFFFFFFFFFF00FFFFFFFFFFFFFFFFFFFFFFFFFFFFFFFFFFFFFFFFFFFFFFFFFFFFFFFFFF0000FFFFFFFFFFFFFFFFFFFFFFFFFFFFFFFFFFFFFFFFFFFFFFFFFFFFFFFF0000FF
310
FFFFFFFFFFFFFFFFFFFFFFFFFFFFFFFFFFFFFFFFFFFFFFFFFF00000000FFFFFFFFFFFFFFFFFFFFFFFFFFFFFFFFFFFFFFFFFFFFFFFFFFFF0000FFFFFFFFFFFFFFFFFFFFFFFFFFFFFFFFFFFFFFFFFFFFFFFFFFFFFFFFFFFFFFFFFFFFFFFFFFFFFFFFFFFFFFFFFFFFFFFFFFFFFFFFFFFFFFFFFFFFFFFFFFFFFFFFFFFFFFFFFFFF
310
FFFFFFFFFFFFFFFFFFFFFFFFFFFFFFFFFFFFFFFFFFFFFFFFFFFFFFFFFFFFFFFFFFFFFFFFFFFFFFFFFFFFFFFFFFFFFFFFFFFFFFFFFFFFFFFF
102
{BLKREFS
331
49F
102
}
  0
BLOCK_RECORD
  5
47D
330
1
100
AcDbSymbolTableRecord
100
AcDbBlockTableRecord
  2
AI9-BLK5
340
0
310
2800000020000000200000000100080000000000000400000000000000000000000000000000000000000000000080000080000000808000800000008000800080800000C0C0C000C0DCC000F0CAA6000020400000206000002080000020A0000020C0000020E00000400000004020000040400000406000004080000040A0
310
000040C0000040E00000600000006020000060400000606000006080000060A0000060C0000060E00000800000008020000080400000806000008080000080A0000080C0000080E00000A0000000A0200000A0400000A0600000A0800000A0A00000A0C00000A0E00000C0000000C0200000C0400000C0600000C0800000C0
310
A00000C0C00000C0E00000E0000000E0200000E0400000E0600000E0800000E0A00000E0C00000E0E00040000000400020004000400040006000400080004000A0004000C0004000E00040200000402020004020400040206000402080004020A0004020C0004020E000404000004040200040404000404060004040800040
310
40A0004040C0004040E00040600000406020004060400040606000406080004060A0004060C0004060E00040800000408020004080400040806000408080004080A0004080C0004080E00040A0000040A0200040A0400040A0600040A0800040A0A00040A0C00040A0E00040C0000040C0200040C0400040C0600040C08000
310
40C0A00040C0C00040C0E00040E0000040E0200040E0400040E0600040E0800040E0A00040E0C00040E0E00080000000800020008000400080006000800080008000A0008000C0008000E00080200000802020008020400080206000802080008020A0008020C0008020E00080400000804020008040400080406000804080
310
008040A0008040C0008040E00080600000806020008060400080606000806080008060A0008060C0008060E00080800000808020008080400080806000808080008080A0008080C0008080E00080A0000080A0200080A0400080A0600080A0800080A0A00080A0C00080A0E00080C0000080C0200080C0400080C0600080C0
310
800080C0A00080C0C00080C0E00080E0000080E0200080E0400080E0600080E0800080E0A00080E0C00080E0E000C0000000C0002000C0004000C0006000C0008000C000A000C000C000C000E000C0200000C0202000C0204000C0206000C0208000C020A000C020C000C020E000C0400000C0402000C0404000C0406000C0
310
408000C040A000C040C000C040E000C0600000C0602000C0604000C0606000C0608000C060A000C060C000C060E000C0800000C0802000C0804000C0806000C0808000C080A000C080C000C080E000C0A00000C0A02000C0A04000C0A06000C0A08000C0A0A000C0A0C000C0A0E000C0C00000C0C02000C0C04000C0C06000
310
C0C08000C0C0A000F0FBFF00A4A0A000808080000000FF0000FF000000FFFF00FF000000FF00FF00FFFF0000FFFFFF00FFFFFFFFFFFFFFFFFFFFFFFFFFFFFFFFFFFFFFFFFFFFFFFFFFFFFFFFFFFFFFFFFFFFFFFFFFFFFFFF000000000000000000000000000000000000000000000000FFFFFFFFFFFFFFFF00FFFFFFFFFFFF
310
FFFFFFFFFFFFFFFFFFFFFFFFFFFFFFFFFFFFFFFFFFFFFFFFFF00FFFFFFFFFFFFFFFFFFFFFFFFFFFFFFFFFFFFFFFFFFFFFFFFFFFFFFFFFFFFFF00FFFFFFFFFFFFFFFFFFFFFFFFFFFFFFFFFFFFFFFFFFFFFFFFFFFFFFFFFFFFFF00FFFFFFFFFFFFFFFFFFFFFFFFFFFFFFFFFFFFFFFFFFFFFFFFFFFFFFFFFFFFFF00FFFFFFFFFF
310
FFFFFFFFFFFFFFFFFFFFFFFFFFFFFFFFFFFFFFFFFFFFFFFFFFFF00FFFFFFFFFFFFFFFFFFFFFFFFFFFFFFFFFFFFFFFFFFFFFFFFFFFFFFFFFFFFFF00FFFFFFFFFFFFFFFFFFFFFFFFFFFFFFFFFFFFFFFFFFFFFFFFFFFFFFFFFFFFFF00FFFFFFFFFFFFFFFFFFFFFFFFFFFFFFFFFFFFFFFFFFFFFFFFFFFFFFFFFFFFFF00FFFFFFFF
310
FFFFFFFFFFFFFFFFFFFFFFFFFFFFFFFFFFFFFFFFFFFFFFFFFFFFFF00FFFFFFFFFFFFFFFFFFFFFFFFFFFFFFFFFFFFFFFFFFFFFFFFFFFFFFFFFFFFFF00FFFFFFFFFFFFFFFFFFFFFFFFFFFFFFFFFFFFFFFFFFFFFFFFFFFFFFFFFFFFFF00FFFFFFFFFFFFFFFFFFFFFFFFFFFFFFFFFFFFFFFFFFFFFFFFFFFFFFFFFFFFFF00FFFFFF
310
FFFFFFFFFFFFFFFFFFFFFFFFFFFFFFFFFFFFFFFFFFFFFFFFFFFFFFFF00FFFFFFFFFFFFFFFFFFFFFFFFFFFFFFFFFFFFFFFFFFFFFFFFFFFFFFFFFFFFFF00FFFFFFFFFFFFFFFFFFFFFFFFFFFFFFFFFFFFFFFFFFFFFFFFFFFFFFFFFFFFFF00FFFFFFFFFFFFFFFFFFFFFFFFFFFFFFFFFFFFFFFFFFFFFFFFFFFFFFFFFFFFFF00FFFF
310
FFFFFFFFFFFFFFFFFFFFFFFFFFFFFFFFFFFFFFFFFFFFFFFFFFFFFFFFFF00FFFFFFFFFFFFFFFFFFFFFFFFFFFFFFFFFFFFFFFFFFFFFFFFFFFFFFFFFFFFFF00FFFFFFFFFFFFFFFFFFFFFFFFFFFFFFFFFFFFFFFFFFFFFFFFFFFFFFFFFFFFFF00FFFFFFFFFFFFFFFFFFFFFFFFFFFFFFFFFFFFFFFFFFFFFFFFFFFFFFFFFFFFFF00FF
310
FFFFFFFFFFFFFFFFFFFFFFFFFFFFFFFFFFFFFFFFFFFFFFFFFFFFFFFFFFFF00FFFFFFFFFFFFFFFFFFFFFFFFFFFFFFFFFFFFFFFFFFFFFFFFFFFFFFFFFFFFFF00FFFFFFFFFFFFFFFFFFFFFFFFFFFFFFFFFFFFFFFFFFFFFFFFFFFFFFFFFFFFFF00FFFFFFFFFFFFFFFFFFFFFFFFFFFFFFFFFFFFFFFFFFFFFFFFFFFFFFFFFFFFFF00
310
FFFFFFFFFFFFFFFFFFFFFFFFFFFFFFFFFFFFFFFFFFFFFFFFFFFFFFFFFFFFFF00FFFFFFFFFFFFFFFFFFFFFFFFFFFFFFFFFFFFFFFFFFFFFFFFFFFFFFFFFFFFFF00FFFFFFFFFFFFFFFFFFFFFFFFFFFFFFFFFFFFFFFFFFFFFFFFFFFFFFFFFFFFFF00FFFFFFFFFFFFFFFFFFFFFFFFFFFFFFFFFFFFFFFFFFFFFFFFFFFFFFFFFFFFFF
310
00FFFFFFFFFFFFFFFFFFFFFFFFFFFF000000000000000000FFFFFFFFFFFFFFFF00FFFFFFFFFFFFFFFFFFFFFFFFFFFF00FFFFFFFFFFFFFFFF
102
{BLKREFS
331
4A0
102
}
  0
BLOCK_RECORD
  5
482
330
1
100
AcDbSymbolTableRecord
100
AcDbBlockTableRecord
  2
AI9-BLK4
340
0
310
2800000020000000200000000100080000000000000400000000000000000000000000000000000000000000000080000080000000808000800000008000800080800000C0C0C000C0DCC000F0CAA6000020400000206000002080000020A0000020C0000020E00000400000004020000040400000406000004080000040A0
310
000040C0000040E00000600000006020000060400000606000006080000060A0000060C0000060E00000800000008020000080400000806000008080000080A0000080C0000080E00000A0000000A0200000A0400000A0600000A0800000A0A00000A0C00000A0E00000C0000000C0200000C0400000C0600000C0800000C0
310
A00000C0C00000C0E00000E0000000E0200000E0400000E0600000E0800000E0A00000E0C00000E0E00040000000400020004000400040006000400080004000A0004000C0004000E00040200000402020004020400040206000402080004020A0004020C0004020E000404000004040200040404000404060004040800040
310
40A0004040C0004040E00040600000406020004060400040606000406080004060A0004060C0004060E00040800000408020004080400040806000408080004080A0004080C0004080E00040A0000040A0200040A0400040A0600040A0800040A0A00040A0C00040A0E00040C0000040C0200040C0400040C0600040C08000
310
40C0A00040C0C00040C0E00040E0000040E0200040E0400040E0600040E0800040E0A00040E0C00040E0E00080000000800020008000400080006000800080008000A0008000C0008000E00080200000802020008020400080206000802080008020A0008020C0008020E00080400000804020008040400080406000804080
310
008040A0008040C0008040E00080600000806020008060400080606000806080008060A0008060C0008060E00080800000808020008080400080806000808080008080A0008080C0008080E00080A0000080A0200080A0400080A0600080A0800080A0A00080A0C00080A0E00080C0000080C0200080C0400080C0600080C0
310
800080C0A00080C0C00080C0E00080E0000080E0200080E0400080E0600080E0800080E0A00080E0C00080E0E000C0000000C0002000C0004000C0006000C0008000C000A000C000C000C000E000C0200000C0202000C0204000C0206000C0208000C020A000C020C000C020E000C0400000C0402000C0404000C0406000C0
310
408000C040A000C040C000C040E000C0600000C0602000C0604000C0606000C0608000C060A000C060C000C060E000C0800000C0802000C0804000C0806000C0808000C080A000C080C000C080E000C0A00000C0A02000C0A04000C0A06000C0A08000C0A0A000C0A0C000C0A0E000C0C00000C0C02000C0C04000C0C06000
310
C0C08000C0C0A000F0FBFF00A4A0A000808080000000FF0000FF000000FFFF00FF000000FF00FF00FFFF0000FFFFFF00FFFFFFFFFFFFFFFFFFFFFFFFFFFFFFFFFFFFFFFFFFFFFFFFFFFFFFFFFFFFFFFFFFFFFFFFFFFFFFFFFFFFFFFFFFFF00000000FFFFFFFFFFFFFFFFFFFFFF000000FFFFFFFFFFFFFFFFFFFFFFFFFFFF00
310
FFFF00FFFFFFFFFFFFFFFFFFFFFF00FFFFFFFFFFFFFFFFFFFFFFFFFFFFFFFF00FFFF00FFFFFFFFFFFFFFFFFFFFFF00FFFFFFFFFFFFFFFFFFFFFFFFFFFFFFFF00FFFF00FFFFFFFFFFFFFFFFFFFFFF00FFFFFFFFFFFFFFFFFFFFFFFFFFFFFFFF00FFFF00FFFFFFFFFFFFFFFFFFFFFF00FFFFFFFFFFFFFFFFFFFFFFFFFFFFFFFF
310
00FFFF00FFFFFFFFFFFFFFFFFFFFFF00FFFFFFFFFFFFFFFFFFFFFFFFFFFFFFFF00FFFF00FFFFFFFFFFFFFFFFFFFFFF00FFFFFFFFFFFFFFFFFFFFFFFFFFFFFFFF00FFFF00FFFFFFFFFFFFFFFFFFFFFF00FFFFFFFFFFFFFFFFFFFFFFFFFFFFFFFF00FFFF00FFFFFFFFFFFFFFFFFFFFFF00FFFFFFFFFFFFFFFFFFFFFFFFFFFFFF
310
FF00FFFF00FFFFFFFFFFFFFFFFFFFFFF00FFFFFFFFFFFFFFFFFFFFFFFFFFFFFFFF00FFFF00FFFFFFFFFFFFFFFFFFFFFF00FFFFFFFFFFFFFFFFFFFFFFFFFFFFFFFF00FFFF00FFFFFFFFFFFFFFFFFFFFFF00FFFFFFFFFFFFFFFFFFFFFFFFFFFFFFFF00FFFF00FFFFFFFFFFFFFFFFFFFFFF00FFFFFFFFFFFFFFFFFFFFFFFFFFFF
310
FFFF00FFFF00FFFFFFFFFFFFFFFFFFFFFF00FFFFFFFFFFFFFFFFFFFFFFFFFFFFFFFF00FFFF00FFFFFFFFFFFFFFFFFFFFFF00FFFFFFFFFFFFFFFFFFFFFFFFFFFFFFFF00FFFF00FFFFFFFFFFFFFFFFFFFFFF00FFFFFFFFFFFFFFFFFFFFFFFFFFFFFFFF00FFFF00FFFFFFFFFFFFFFFFFFFF00FFFFFFFFFFFFFFFFFFFFFFFFFFFF
310
FFFFFF00FFFF00FFFFFFFFFFFFFFFFFFFF00FFFFFFFFFFFFFFFFFFFFFFFFFFFFFFFFFF00FFFF00FFFFFFFFFFFFFFFFFFFF00FFFFFFFFFFFFFFFFFFFFFFFFFFFFFFFFFF00FFFF00FFFFFFFFFFFFFFFFFFFF00FFFFFFFFFFFFFFFFFFFFFFFFFFFFFFFFFF00FFFF00FFFFFFFFFFFFFFFFFFFF00FFFFFFFFFFFFFFFFFFFFFFFFFF
310
FFFFFFFF00FFFF00FFFFFFFFFFFFFFFFFF0000FFFF00FFFFFFFFFFFFFFFFFFFFFFFFFFFF00FFFF00FFFFFFFFFFFFFFFF0000FFFFFF00FFFFFFFFFFFFFFFFFFFFFFFFFFFF00FFFF00000000000000000000FFFFFFFF00FFFFFFFFFFFFFFFFFFFFFFFFFFFF00FFFFFFFFFFFFFFFFFFFFFFFFFFFFFF00FFFFFFFFFFFFFFFFFFFF
310
FFFFFFFFFF00FFFFFFFFFFFFFFFFFFFFFFFFFFFF00FFFFFFFFFFFFFFFFFFFFFFFFFFFFFFFF00FFFFFFFFFFFFFFFFFFFFFFFFFFFF00FFFFFFFFFFFFFFFFFFFFFFFFFFFFFFFF00FFFFFFFFFFFFFFFFFFFFFFFFFFFFFF00FFFFFFFFFFFFFFFFFFFFFFFFFFFFFF00FFFFFFFFFFFFFFFFFFFFFFFFFFFFFF00FFFFFFFFFFFFFFFFFF
310
FFFFFFFFFFFF00FFFF00000000000000000000FFFFFFFF00FFFFFFFFFFFFFFFFFFFFFFFFFFFF00FFFF00FFFFFFFFFFFFFFFFFF0000FFFF00
102
{BLKREFS
331
4A1
102
}
  0
BLOCK_RECORD
  5
487
330
1
100
AcDbSymbolTableRecord
100
AcDbBlockTableRecord
  2
AI9-BLK3
340
0
310
2800000020000000200000000100080000000000000400000000000000000000000000000000000000000000000080000080000000808000800000008000800080800000C0C0C000C0DCC000F0CAA6000020400000206000002080000020A0000020C0000020E00000400000004020000040400000406000004080000040A0
310
000040C0000040E00000600000006020000060400000606000006080000060A0000060C0000060E00000800000008020000080400000806000008080000080A0000080C0000080E00000A0000000A0200000A0400000A0600000A0800000A0A00000A0C00000A0E00000C0000000C0200000C0400000C0600000C0800000C0
310
A00000C0C00000C0E00000E0000000E0200000E0400000E0600000E0800000E0A00000E0C00000E0E00040000000400020004000400040006000400080004000A0004000C0004000E00040200000402020004020400040206000402080004020A0004020C0004020E000404000004040200040404000404060004040800040
310
40A0004040C0004040E00040600000406020004060400040606000406080004060A0004060C0004060E00040800000408020004080400040806000408080004080A0004080C0004080E00040A0000040A0200040A0400040A0600040A0800040A0A00040A0C00040A0E00040C0000040C0200040C0400040C0600040C08000
310
40C0A00040C0C00040C0E00040E0000040E0200040E0400040E0600040E0800040E0A00040E0C00040E0E00080000000800020008000400080006000800080008000A0008000C0008000E00080200000802020008020400080206000802080008020A0008020C0008020E00080400000804020008040400080406000804080
310
008040A0008040C0008040E00080600000806020008060400080606000806080008060A0008060C0008060E00080800000808020008080400080806000808080008080A0008080C0008080E00080A0000080A0200080A0400080A0600080A0800080A0A00080A0C00080A0E00080C0000080C0200080C0400080C0600080C0
310
800080C0A00080C0C00080C0E00080E0000080E0200080E0400080E0600080E0800080E0A00080E0C00080E0E000C0000000C0002000C0004000C0006000C0008000C000A000C000C000C000E000C0200000C0202000C0204000C0206000C0208000C020A000C020C000C020E000C0400000C0402000C0404000C0406000C0
310
408000C040A000C040C000C040E000C0600000C0602000C0604000C0606000C0608000C060A000C060C000C060E000C0800000C0802000C0804000C0806000C0808000C080A000C080C000C080E000C0A00000C0A02000C0A04000C0A06000C0A08000C0A0A000C0A0C000C0A0E000C0C00000C0C02000C0C04000C0C06000
310
C0C08000C0C0A000F0FBFF00A4A0A000808080000000FF0000FF000000FFFF00FF000000FF00FF00FFFF0000FFFFFF00FFFFFFFFFFFFFFFFFFFFFFFFFFFFFFFFFFFFFFFFFFFFFFFFFFFFFFFFFFFFFFFFFFFFFFFFFFFFFFFFFFFFFFFFFFFFFF0000FFFFFFFFFFFFFFFFFFFFFFFFFFFFFFFFFFFFFFFFFFFFFFFFFFFFFFFFFFFF
310
0000FFFFFFFFFFFFFFFFFFFFFFFFFFFFFFFFFFFFFFFFFFFFFFFFFFFFFFFFFFFF0000FFFFFFFFFFFFFFFFFFFFFFFFFFFFFFFFFFFFFFFFFFFFFFFFFFFFFFFFFFFF0000FFFFFFFFFFFFFFFFFFFFFFFFFFFFFFFFFFFFFFFFFFFFFFFFFFFFFFFFFFFF0000FFFFFFFFFFFFFFFFFFFFFFFFFFFFFFFFFFFFFFFFFFFFFFFFFFFFFFFFFF
310
FF0000FFFFFFFFFFFFFFFFFFFFFFFFFFFFFFFFFFFFFFFFFFFFFFFFFFFFFFFFFFFF0000FFFFFFFFFFFFFFFFFFFFFFFFFFFFFFFFFFFFFFFFFFFFFFFFFFFFFFFFFFFF0000FFFFFFFFFFFFFFFFFFFFFFFFFFFFFFFFFFFFFFFFFFFFFFFFFFFFFFFFFFFF0000FFFFFFFFFFFFFFFFFFFFFFFFFFFFFFFFFFFFFFFFFFFFFFFFFFFFFFFF
310
FFFF0000FFFFFFFFFFFFFFFFFFFFFFFFFFFFFFFFFFFFFFFFFFFFFFFFFFFFFFFFFFFF0000FFFFFFFFFFFFFFFFFFFFFFFFFFFFFFFFFFFFFFFFFFFFFFFFFFFFFFFFFFFF0000FFFFFFFFFFFFFFFFFFFFFFFFFFFFFFFFFFFFFFFFFFFFFFFFFFFFFFFFFFFF0000FFFFFFFFFFFFFFFFFFFFFFFFFFFFFFFFFFFFFFFFFFFFFFFFFFFFFF
310
FFFFFF0000FFFFFFFFFFFFFFFFFFFFFFFFFFFFFFFFFFFFFFFFFFFFFFFFFFFFFFFFFFFF0000FFFFFFFFFFFFFFFFFFFFFFFFFFFFFFFFFFFFFFFFFFFFFFFFFFFFFFFFFFFF0000FFFFFFFFFFFFFFFFFFFFFFFFFFFFFFFFFFFFFFFFFFFFFFFFFFFFFFFFFFFF0000FFFFFFFFFFFFFFFFFFFFFFFFFFFFFFFFFFFFFFFFFFFFFFFFFFFF
310
FFFFFFFF0000FFFFFFFFFFFFFFFFFFFFFFFFFFFFFFFFFFFFFFFFFFFFFFFFFFFFFFFFFFFF0000FFFFFFFFFFFFFFFFFFFFFFFFFFFFFFFFFFFFFFFFFFFFFFFFFFFFFFFFFFFF0000FFFFFFFFFFFFFFFFFFFFFFFFFFFFFFFFFFFFFFFFFFFFFFFFFFFFFFFFFFFF0000FFFFFFFFFFFFFFFFFFFFFFFFFFFFFFFFFFFFFFFFFFFFFFFFFF
310
FFFFFFFFFF0000FFFFFFFFFFFFFFFFFFFFFFFFFFFFFFFFFFFFFFFFFFFFFFFFFFFFFFFFFFFF0000FFFFFFFFFFFFFFFFFFFFFFFFFFFFFFFFFFFFFFFFFFFFFFFFFFFFFFFFFFFF0000FFFFFFFFFFFFFFFFFFFFFFFFFFFFFFFFFFFFFFFFFFFFFFFFFFFFFFFFFFFF0000FFFFFFFFFFFFFFFFFFFFFFFFFFFFFFFFFFFFFFFFFFFFFFFF
310
FFFFFFFFFFFF0000FFFFFFFFFFFFFFFFFFFFFFFFFFFFFFFFFFFFFFFFFFFFFFFFFFFFFFFFFFFF0000FFFFFFFFFFFFFFFFFFFFFFFFFFFFFFFFFFFFFFFFFFFFFFFFFFFFFFFFFFFF0000FFFFFFFFFFFFFFFFFFFFFFFFFFFFFFFFFFFFFFFFFFFFFFFFFFFFFFFFFFFF0000FFFFFFFFFFFFFFFFFFFFFFFFFFFFFFFFFFFFFFFFFFFFFF
310
FFFFFFFFFFFFFF0000FFFFFFFFFFFFFFFFFFFFFFFFFFFFFFFFFFFFFFFFFFFFFFFFFFFFFFFFFFFFFFFFFFFFFFFFFFFFFFFFFFFFFFFFFFFFFF
102
{BLKREFS
331
4A2
102
}
  0
BLOCK_RECORD
  5
48C
330
1
100
AcDbSymbolTableRecord
100
AcDbBlockTableRecord
  2
AI9-BLK2
340
0
310
2800000020000000200000000100080000000000000400000000000000000000000000000000000000000000000080000080000000808000800000008000800080800000C0C0C000C0DCC000F0CAA6000020400000206000002080000020A0000020C0000020E00000400000004020000040400000406000004080000040A0
310
000040C0000040E00000600000006020000060400000606000006080000060A0000060C0000060E00000800000008020000080400000806000008080000080A0000080C0000080E00000A0000000A0200000A0400000A0600000A0800000A0A00000A0C00000A0E00000C0000000C0200000C0400000C0600000C0800000C0
310
A00000C0C00000C0E00000E0000000E0200000E0400000E0600000E0800000E0A00000E0C00000E0E00040000000400020004000400040006000400080004000A0004000C0004000E00040200000402020004020400040206000402080004020A0004020C0004020E000404000004040200040404000404060004040800040
310
40A0004040C0004040E00040600000406020004060400040606000406080004060A0004060C0004060E00040800000408020004080400040806000408080004080A0004080C0004080E00040A0000040A0200040A0400040A0600040A0800040A0A00040A0C00040A0E00040C0000040C0200040C0400040C0600040C08000
310
40C0A00040C0C00040C0E00040E0000040E0200040E0400040E0600040E0800040E0A00040E0C00040E0E00080000000800020008000400080006000800080008000A0008000C0008000E00080200000802020008020400080206000802080008020A0008020C0008020E00080400000804020008040400080406000804080
310
008040A0008040C0008040E00080600000806020008060400080606000806080008060A0008060C0008060E00080800000808020008080400080806000808080008080A0008080C0008080E00080A0000080A0200080A0400080A0600080A0800080A0A00080A0C00080A0E00080C0000080C0200080C0400080C0600080C0
310
800080C0A00080C0C00080C0E00080E0000080E0200080E0400080E0600080E0800080E0A00080E0C00080E0E000C0000000C0002000C0004000C0006000C0008000C000A000C000C000C000E000C0200000C0202000C0204000C0206000C0208000C020A000C020C000C020E000C0400000C0402000C0404000C0406000C0
310
408000C040A000C040C000C040E000C0600000C0602000C0604000C0606000C0608000C060A000C060C000C060E000C0800000C0802000C0804000C0806000C0808000C080A000C080C000C080E000C0A00000C0A02000C0A04000C0A06000C0A08000C0A0A000C0A0C000C0A0E000C0C00000C0C02000C0C04000C0C06000
310
C0C08000C0C0A000F0FBFF00A4A0A000808080000000FF0000FF000000FFFF00FF000000FF00FF00FFFF0000FFFFFF00FFFFFFFFFFFFFFFFFFFFFFFFFFFFFFFFFFFFFFFFFFFFFFFFFFFFFFFFFFFFFFFFFFFFFFFFFFFFFFFFFFFFFFFFFFFFFF0000FFFFFFFFFFFFFFFFFFFFFFFFFFFFFFFFFFFFFFFFFFFFFFFFFFFFFFFFFFFF
310
0000FFFFFFFFFFFFFFFFFFFFFFFFFFFFFFFFFFFFFFFFFFFFFFFFFFFFFFFFFFFF0000FFFFFFFFFFFFFFFFFFFFFFFFFFFFFFFFFFFFFFFFFFFFFFFFFFFFFFFFFF00FFFF00FFFFFFFFFFFFFFFFFFFFFFFFFFFFFFFFFFFFFFFFFFFFFFFFFFFFFFFF00FFFF00FFFFFFFFFFFFFFFFFFFFFFFFFFFFFFFFFFFFFFFFFFFFFFFFFFFFFFFF
310
00FF0000FFFFFFFFFFFFFFFFFFFFFFFFFFFFFFFFFFFFFFFFFFFFFFFFFFFFFFFF00FF0000FFFFFFFFFFFFFFFFFFFFFFFFFFFFFFFFFFFFFFFFFFFFFFFFFFFFFFFF00FF0000FFFFFFFFFFFFFFFFFFFFFFFFFFFFFFFFFFFFFFFFFFFFFFFFFFFFFFFF00000000FFFFFFFFFFFFFFFFFFFFFFFFFFFFFFFFFFFFFFFFFFFFFFFFFFFFFF
310
00FF00FF0000FFFFFFFFFFFFFFFFFFFFFFFFFFFFFFFFFFFFFFFFFFFFFFFFFFFF00FF00FF0000FFFFFFFFFFFFFFFFFFFFFFFFFFFFFFFFFFFFFFFFFFFFFFFFFFFF00FF00FF0000FFFFFFFFFFFFFFFFFFFFFFFFFFFFFFFFFFFFFFFFFFFFFFFFFFFF00FF00FF0000FFFFFFFFFFFFFFFFFFFFFFFFFFFFFFFFFFFFFFFFFFFFFFFFFF
310
FF00FF00FF0000FFFFFFFFFFFFFFFFFFFFFFFFFFFFFFFFFFFFFFFFFFFFFFFFFFFF0000FFFF0000FFFFFFFFFFFFFFFFFFFFFFFFFFFFFFFFFFFFFFFFFFFFFFFFFF00FF00FFFF00FF00FFFFFFFFFFFFFFFFFFFFFFFFFFFFFFFFFFFFFFFFFFFFFFFF00FF00FFFF00FF00FFFFFFFFFFFFFFFFFFFFFFFFFFFFFFFFFFFFFFFFFFFFFF
310
FF00FF00FFFFFF0000FFFFFFFFFFFFFFFFFFFFFFFFFFFFFFFFFFFFFFFFFFFFFFFF00FF00FFFFFF0000FFFFFFFFFFFFFFFFFFFFFFFFFFFFFFFFFFFFFFFFFFFFFFFF00FF00FFFFFF0000FFFFFFFFFFFFFFFFFFFFFFFFFFFFFFFFFFFFFFFFFFFFFFFF0000FFFFFFFF0000FFFFFFFFFFFFFFFFFFFFFFFFFFFFFFFFFFFFFFFFFFFF
310
FF00FF00FFFFFFFF00FF00FFFFFFFFFFFFFFFFFFFFFFFFFFFFFFFFFFFFFFFFFFFF00FF00FFFFFFFF00FF00FFFFFFFFFFFFFFFFFFFFFFFFFFFFFFFFFFFFFFFFFFFF00FF00FFFFFFFF00FF00FFFFFFFFFFFFFFFFFFFFFFFFFFFFFFFFFFFFFFFFFFFF00FF00FFFFFFFF00FF00FFFFFFFFFFFFFFFFFFFFFFFFFFFFFFFFFFFFFFFF
310
FFFF00FF00FFFFFFFFFF0000FFFFFFFFFFFFFFFFFFFFFFFFFFFFFFFFFFFFFFFFFFFF0000FFFFFFFFFFFF0000FFFFFFFFFFFFFFFFFFFFFFFFFFFFFFFFFFFFFFFFFF00FF00FFFFFFFFFFFF00FF00FFFFFFFFFFFFFFFFFFFFFFFFFFFFFFFFFFFFFFFF00FF00FFFFFFFFFFFF00FF00FFFFFFFFFFFFFFFFFFFFFFFFFFFFFFFFFFFF
310
FFFF000000FFFFFFFFFFFF000000FFFFFFFFFFFFFFFFFFFFFFFFFFFFFFFFFFFFFFFFFFFFFFFFFFFFFFFFFFFFFFFFFFFFFFFFFFFFFFFFFFFF
102
{BLKREFS
331
4A3
102
}
  0
BLOCK_RECORD
  5
491
330
1
100
AcDbSymbolTableRecord
100
AcDbBlockTableRecord
  2
AI9-BLK1
340
0
310
2800000020000000200000000100080000000000000400000000000000000000000000000000000000000000000080000080000000808000800000008000800080800000C0C0C000C0DCC000F0CAA6000020400000206000002080000020A0000020C0000020E00000400000004020000040400000406000004080000040A0
310
000040C0000040E00000600000006020000060400000606000006080000060A0000060C0000060E00000800000008020000080400000806000008080000080A0000080C0000080E00000A0000000A0200000A0400000A0600000A0800000A0A00000A0C00000A0E00000C0000000C0200000C0400000C0600000C0800000C0
310
A00000C0C00000C0E00000E0000000E0200000E0400000E0600000E0800000E0A00000E0C00000E0E00040000000400020004000400040006000400080004000A0004000C0004000E00040200000402020004020400040206000402080004020A0004020C0004020E000404000004040200040404000404060004040800040
310
40A0004040C0004040E00040600000406020004060400040606000406080004060A0004060C0004060E00040800000408020004080400040806000408080004080A0004080C0004080E00040A0000040A0200040A0400040A0600040A0800040A0A00040A0C00040A0E00040C0000040C0200040C0400040C0600040C08000
310
40C0A00040C0C00040C0E00040E0000040E0200040E0400040E0600040E0800040E0A00040E0C00040E0E00080000000800020008000400080006000800080008000A0008000C0008000E00080200000802020008020400080206000802080008020A0008020C0008020E00080400000804020008040400080406000804080
310
008040A0008040C0008040E00080600000806020008060400080606000806080008060A0008060C0008060E00080800000808020008080400080806000808080008080A0008080C0008080E00080A0000080A0200080A0400080A0600080A0800080A0A00080A0C00080A0E00080C0000080C0200080C0400080C0600080C0
310
800080C0A00080C0C00080C0E00080E0000080E0200080E0400080E0600080E0800080E0A00080E0C00080E0E000C0000000C0002000C0004000C0006000C0008000C000A000C000C000C000E000C0200000C0202000C0204000C0206000C0208000C020A000C020C000C020E000C0400000C0402000C0404000C0406000C0
310
408000C040A000C040C000C040E000C0600000C0602000C0604000C0606000C0608000C060A000C060C000C060E000C0800000C0802000C0804000C0806000C0808000C080A000C080C000C080E000C0A00000C0A02000C0A04000C0A06000C0A08000C0A0A000C0A0C000C0A0E000C0C00000C0C02000C0C04000C0C06000
310
C0C08000C0C0A000F0FBFF00A4A0A000808080000000FF0000FF000000FFFF00FF000000FF00FF00FFFF0000FFFFFF00FFFFFFFFFFFFFFFFFFFFFFFFFFFFFFFFFFFFFFFFFFFFFFFFFFFFFFFFFFFFFFFFFFFFFFFFFFFFFFFFFFFFFF00000000000000000000FFFFFFFFFFFFFFFFFFFFFFFFFFFFFFFFFFFFFFFFFFFF00FFFFFF
310
FFFFFFFFFF00FFFFFFFFFFFFFFFFFFFFFFFFFFFFFFFFFFFFFFFFFFFF00FFFFFFFFFFFFFFFF00FFFFFFFFFFFFFFFFFFFFFFFFFFFFFFFFFFFFFFFFFFFF00FFFFFFFFFFFFFFFF00FFFFFFFFFFFFFFFFFFFFFFFFFFFFFFFFFFFFFFFFFFFF00FF0000000000000000FFFFFFFFFFFFFFFFFFFFFFFFFFFFFFFFFFFFFFFFFFFF00FF00
310
FFFFFFFFFFFFFFFFFFFFFFFFFFFFFFFFFFFFFFFFFFFFFFFFFFFFFFFFFF00FF00FFFFFFFFFFFFFFFFFFFFFFFFFFFFFFFFFFFFFFFFFFFFFFFFFFFFFFFFFF00FF00FFFFFFFFFFFFFFFFFFFFFFFFFFFFFFFFFFFFFFFFFFFFFFFFFFFFFFFFFF00FF00FFFFFFFFFFFFFFFFFFFFFFFFFFFFFFFFFFFFFFFFFFFFFFFFFFFFFFFFFF00FF
310
00FFFFFFFFFFFFFFFFFFFFFFFFFFFFFFFFFFFFFFFFFFFFFFFFFFFFFFFFFF00FF00FFFFFFFFFFFFFFFFFFFFFFFFFFFFFFFFFFFFFFFFFFFFFFFFFFFFFFFFFF00FF00FFFFFFFFFFFFFFFFFFFFFFFFFFFFFFFFFFFFFFFFFFFFFFFFFFFFFFFFFF00FF00FFFFFFFFFFFFFFFFFFFFFFFFFFFFFFFFFFFFFFFFFFFFFFFFFFFFFFFFFF00
310
FF00000000000000FFFFFFFFFFFFFFFFFFFFFFFFFFFFFFFFFFFFFFFFFFFFFF00FFFFFFFFFFFFFF00FFFFFFFFFFFFFFFFFFFFFFFFFFFFFFFFFFFFFFFFFFFFFF00FFFFFFFFFFFFFF00FFFFFFFFFFFFFFFFFFFFFFFFFFFFFFFFFFFFFFFFFFFFFF00FFFFFFFFFFFFFF00FFFFFFFFFFFFFFFFFFFFFFFFFFFFFFFFFFFFFFFFFFFFFF
310
00FF00000000000000FFFFFFFFFFFFFFFFFFFFFFFFFFFFFFFFFFFFFFFFFFFFFF00FF00FFFFFFFFFFFFFFFFFFFFFFFFFFFFFFFFFFFFFFFFFFFFFFFFFFFFFFFFFF00FF00FFFFFFFFFFFFFFFFFFFFFFFFFFFFFFFFFFFFFFFFFFFFFFFFFFFFFFFFFF00FF00FFFFFFFFFFFFFFFFFFFFFFFFFFFFFFFFFFFFFFFFFFFFFFFFFFFFFFFF
310
FF00FF00FFFFFFFFFFFFFFFFFFFFFFFFFFFFFFFFFFFFFFFFFFFFFFFFFFFFFFFFFF00FF00FFFFFFFFFFFFFFFFFFFFFFFFFFFFFFFFFFFFFFFFFFFFFFFFFFFFFFFFFF00FF00FFFFFFFFFFFFFFFFFFFFFFFFFFFFFFFFFFFFFFFFFFFFFFFFFFFFFFFFFF00FF00FFFFFFFFFFFFFFFFFFFFFFFFFFFFFFFFFFFFFFFFFFFFFFFFFFFFFF
310
FFFF00FF0000000000000000FFFFFFFFFFFFFFFFFFFFFFFFFFFFFFFFFFFFFFFFFFFF00FFFFFFFFFFFFFFFF00FFFFFFFFFFFFFFFFFFFFFFFFFFFFFFFFFFFFFFFFFFFF00FFFFFFFFFFFFFFFF00FFFFFFFFFFFFFFFFFFFFFFFFFFFFFFFFFFFFFFFFFFFF00FFFFFFFFFFFFFFFF00FFFFFFFFFFFFFFFFFFFFFFFFFFFFFFFFFFFFFF
310
FFFFFF00000000000000000000FFFFFFFFFFFFFFFFFFFFFFFFFFFFFFFFFFFFFFFFFFFFFFFFFFFFFFFFFFFFFFFFFFFFFFFFFFFFFFFFFFFFFF
102
{BLKREFS
331
4A4
102
}
  0
BLOCK_RECORD
  5
496
330
1
100
AcDbSymbolTableRecord
100
AcDbBlockTableRecord
  2
HD_LLC_logo_OT5
340
0
310
2800000020000000200000000100080000000000000400000000000000000000000000000000000000000000000080000080000000808000800000008000800080800000C0C0C000C0DCC000F0CAA6000020400000206000002080000020A0000020C0000020E00000400000004020000040400000406000004080000040A0
310
000040C0000040E00000600000006020000060400000606000006080000060A0000060C0000060E00000800000008020000080400000806000008080000080A0000080C0000080E00000A0000000A0200000A0400000A0600000A0800000A0A00000A0C00000A0E00000C0000000C0200000C0400000C0600000C0800000C0
310
A00000C0C00000C0E00000E0000000E0200000E0400000E0600000E0800000E0A00000E0C00000E0E00040000000400020004000400040006000400080004000A0004000C0004000E00040200000402020004020400040206000402080004020A0004020C0004020E000404000004040200040404000404060004040800040
310
40A0004040C0004040E00040600000406020004060400040606000406080004060A0004060C0004060E00040800000408020004080400040806000408080004080A0004080C0004080E00040A0000040A0200040A0400040A0600040A0800040A0A00040A0C00040A0E00040C0000040C0200040C0400040C0600040C08000
310
40C0A00040C0C00040C0E00040E0000040E0200040E0400040E0600040E0800040E0A00040E0C00040E0E00080000000800020008000400080006000800080008000A0008000C0008000E00080200000802020008020400080206000802080008020A0008020C0008020E00080400000804020008040400080406000804080
310
008040A0008040C0008040E00080600000806020008060400080606000806080008060A0008060C0008060E00080800000808020008080400080806000808080008080A0008080C0008080E00080A0000080A0200080A0400080A0600080A0800080A0A00080A0C00080A0E00080C0000080C0200080C0400080C0600080C0
310
800080C0A00080C0C00080C0E00080E0000080E0200080E0400080E0600080E0800080E0A00080E0C00080E0E000C0000000C0002000C0004000C0006000C0008000C000A000C000C000C000E000C0200000C0202000C0204000C0206000C0208000C020A000C020C000C020E000C0400000C0402000C0404000C0406000C0
310
408000C040A000C040C000C040E000C0600000C0602000C0604000C0606000C0608000C060A000C060C000C060E000C0800000C0802000C0804000C0806000C0808000C080A000C080C000C080E000C0A00000C0A02000C0A04000C0A06000C0A08000C0A0A000C0A0C000C0A0E000C0C00000C0C02000C0C04000C0C06000
310
C0C08000C0C0A000F0FBFF00A4A0A000808080000000FF0000FF000000FFFF00FF000000FF00FF00FFFF0000FFFFFF00FFFFFFFFFFFFFFFFFFFFFFFFFFFFFFFFFFFFFFFFFFFFFFFFFFFFFFFFFFFFFFFFFFFFFFFFFFFFFFFFFFFFFFFFFFFFFFFFFFFFFFFFFFFFFFFFFFFFFFFFFFFFFFFFFFFFFFFFFFFFFFFFFFFFFFFFFFFFFF
310
FFFFFFFFFFFFFFFFFFFFFFFFFFFFFFFFFFFFFFFFFFFFFFFFFFFFFFFFFFFFFFFFFFFFFFFFFFFFFFFFFFFFFFFFFFFFFFFFFFFFFFFFFFFFFFFFFFFFFFFFFFFFFFFFFFFFFFFFFFFFFFFFFFFFFFFFFFFFFFFFFFFFFFFFFFFFFFFFFFFFFFFFFFFFFFFFFFFFFFFFFFFFFFFFFFFFFFFFFFFFFFFFFFFFFFFFFFFFFFFFFFFFFFFFFFFFFF
310
FFFFFFFFFFFFFFFFFFFFFFFFFFFFFFFFFFFFFFFFFFFFFFFFFFFFFFFFFFFFFFFFFFFFFFFFFFFFFFFFFFFFFFFFFFFFFFFFFFFFFFFFFFFFFFFFFFFFFFFFFFFFFFFFFFFFFFFFFFFFFFFFFFFFFFFFFFFFFFFFFFFFFFFFFFFFFFFFFFFFFFFFFFFFFFFFFFFFFFFFFFFFFFFFFFFFFFFFFFFFFFFFFFFFFFFFFFFFFFFFFFFFFFFFFFFFFF
310
FFFFFFFFFFFFFFFFFFFFFFFFFFFFFFFFFFFFFFFFFFFFFFFFFFFFFFFFFFFFFFFFFFFFFFFFFFFFFFFFFFFFFFFFFFFFFFFFFFFFFFFF0000000000000000000000000000000000000000000000000000000000FFFFFF0000000000000000000000000000000000FFFFFFFFFFFFFFFFFFFF0000FFFFFF0000000000000000000000
310
00000000000000FFFFFFFFFFFFFFFFFFFF0000FFFF000000000000000000000000000000000000FFFFFF00000000FFFFFF0000FFFF00FFFFFFFFFFFF00FFFFFF00FFFFFFFFFF00FFFFFF0000000000FFFF0000FFFF00FFFFFFFFFFFF00FFFFFF00FFFFFFFFFF00FFFFFF00FFFF0000FFFF0000FFFF00FFFFFFFFFFFF00FFFF
310
00FFFFFFFFFFFF00FFFFFF00FFFF0000FFFF0000FFFF0000000000FFFF00000000FFFFFF00000000FFFFFF00000000FFFFFF0000FFFFFFFFFFFF00FFFFFFFFFFFFFFFFFF00FFFFFFFFFFFFFFFFFFFFFFFFFF0000FFFFFFFFFFFF00FFFFFFFFFFFFFFFFFF00FFFFFFFFFFFFFFFFFFFFFFFFFF0000FFFFFFFFFFFF00FFFFFFFF
310
FFFFFFFFFF00FFFFFFFFFFFFFFFFFFFFFFFF0000FFFFFF0000000000FFFF00000000FFFFFF0000000000000000000000000000FFFFFFFF00FFFFFFFFFFFF00FFFF00FFFFFFFFFFFF00FFFFFFFFFFFFFFFFFFFFFFFFFFFF00FFFFFFFFFFFF00FFFFFF00FFFFFFFFFF00FFFFFFFFFFFFFFFFFFFFFFFFFFFF0000000000000000
310
FFFFFF00000000000000FFFFFFFFFFFFFFFFFFFFFFFFFFFFFFFFFFFFFFFFFFFFFFFFFFFFFFFFFFFFFFFFFFFFFFFFFFFFFFFFFFFFFFFFFFFFFFFFFFFFFFFFFFFFFFFFFFFFFFFFFFFFFFFFFFFFFFFFFFFFFFFFFFFFFFFFFFFFFFFFFFFFFFFFFFFFFFFFFFFFFFFFFFFFFFFFFFFFFFFFFFFFFFFFFFFFFFFFFFFFFFFFFFFFFFFFFF
310
FFFFFFFFFFFFFFFFFFFFFFFFFFFFFFFFFFFFFFFFFFFFFFFFFFFFFFFFFFFFFFFFFFFFFFFFFFFFFFFFFFFFFFFFFFFFFFFFFFFFFFFFFFFFFFFF
102
{BLKREFS
331
4BC
102
}
  0
BLOCK_RECORD
  5
4BB
330
1
100
AcDbSymbolTableRecord
100
AcDbBlockTableRecord
  2
HD logo-new
340
0
310
2800000020000000200000000100080000000000000400000000000000000000000000000000000000000000000080000080000000808000800000008000800080800000C0C0C000C0DCC000F0CAA6000020400000206000002080000020A0000020C0000020E00000400000004020000040400000406000004080000040A0
310
000040C0000040E00000600000006020000060400000606000006080000060A0000060C0000060E00000800000008020000080400000806000008080000080A0000080C0000080E00000A0000000A0200000A0400000A0600000A0800000A0A00000A0C00000A0E00000C0000000C0200000C0400000C0600000C0800000C0
310
A00000C0C00000C0E00000E0000000E0200000E0400000E0600000E0800000E0A00000E0C00000E0E00040000000400020004000400040006000400080004000A0004000C0004000E00040200000402020004020400040206000402080004020A0004020C0004020E000404000004040200040404000404060004040800040
310
40A0004040C0004040E00040600000406020004060400040606000406080004060A0004060C0004060E00040800000408020004080400040806000408080004080A0004080C0004080E00040A0000040A0200040A0400040A0600040A0800040A0A00040A0C00040A0E00040C0000040C0200040C0400040C0600040C08000
310
40C0A00040C0C00040C0E00040E0000040E0200040E0400040E0600040E0800040E0A00040E0C00040E0E00080000000800020008000400080006000800080008000A0008000C0008000E00080200000802020008020400080206000802080008020A0008020C0008020E00080400000804020008040400080406000804080
310
008040A0008040C0008040E00080600000806020008060400080606000806080008060A0008060C0008060E00080800000808020008080400080806000808080008080A0008080C0008080E00080A0000080A0200080A0400080A0600080A0800080A0A00080A0C00080A0E00080C0000080C0200080C0400080C0600080C0
310
800080C0A00080C0C00080C0E00080E0000080E0200080E0400080E0600080E0800080E0A00080E0C00080E0E000C0000000C0002000C0004000C0006000C0008000C000A000C000C000C000E000C0200000C0202000C0204000C0206000C0208000C020A000C020C000C020E000C0400000C0402000C0404000C0406000C0
310
408000C040A000C040C000C040E000C0600000C0602000C0604000C0606000C0608000C060A000C060C000C060E000C0800000C0802000C0804000C0806000C0808000C080A000C080C000C080E000C0A00000C0A02000C0A04000C0A06000C0A08000C0A0A000C0A0C000C0A0E000C0C00000C0C02000C0C04000C0C06000
310
C0C08000C0C0A000F0FBFF00A4A0A000808080000000FF0000FF000000FFFF00FF000000FF00FF00FFFF0000FFFFFF00FFFFFFFFFFFFFFFFFFFFFFFFFFFFFFFFFFFFFFFFFFFFFFFFFFFFFFFFFFFFFFFFFFFFFFFFFFFFFFFFFFFFFFFFFFFFFFFFFFFFFFFFFFFFFFFFFFFFFFFFFFFFFFFFFFFFFFFFFFFFFFFFFFFFFFFFFFFFFF
310
FFFFFFFFFFFFFFFFFFFFFFFFFFFFFFFFFFFFFFFFFFFFFFFFFFFFFFFFFFFFFFFFFFFFFFFFFFFFFFFFFFFFFFFFFFFFFFFFFFFFFFFFFFFFFFFFFFFFFFFFFFFFFFFFFFFFFFFFFFFFFFFFFFFFFFFFFFFFFFFFFFFFFFFFFFFFFFFFFFFFFFFFFFFFFFFFFFFFFFFFFFFFFFFFFFFFFFFFFFFFFFFFFFFFFFFFFFFFFFFFFFFFFFFFFFFFFF
310
FFFFFFFFFFFFFFFFFFFFFFFFFFFFFFFFFFFFFFFFFFFFFFFFFFFFFFFFFFFFFFFFFFFFFFFFFFFFFFFFFFFFFFFFFFFFFFFFFFFFFFFFFFFFFFFFFFFFFFFFFFFFFFFFFFFFFFFFFFFFFFFFFFFFFFFFFFFFFFFFFFFFFFFFFFFFFFFFFFFFFFFFFFFFFFFFFFFFFFFFFFFFFFFFFFFFFFFFFFFFFFFFFFFFFFFFFFFFFFFFFFFFFFFFFFFFFF
310
FFFFFFFFFFFFFFFFFFFFFFFFFFFFFFFFFFFFFFFFFFFFFFFFFFFFFFFFFFFFFFFFFFFFFFFFFFFFFFFFFFFFFFFFFFFFFFFFFFFFFFFF0000000000000000000000000000000000000000000000000000000000FFFFFF0000000000000000000000000000000000FFFFFFFFFFFFFFFFFFFF0000FFFFFF0000000000000000000000
310
00000000000000FFFFFFFFFFFFFFFFFFFF0000FFFF000000000000000000000000000000000000FFFFFF00000000FFFFFF0000FFFF00FFFFFFFFFFFF00FFFFFF00FFFFFFFFFF00FFFFFF0000000000FFFF0000FFFF00FFFFFFFFFFFF00FFFFFF00FFFFFFFFFF00FFFFFF00FFFF0000FFFF0000FFFF00FFFFFFFFFFFF00FFFF
310
00FFFFFFFFFFFF00FFFFFF00FFFF0000FFFF0000FFFF0000000000FFFF00000000FFFFFF00000000FFFFFF00000000FFFFFF0000FFFFFFFFFFFF00FFFFFFFFFFFFFFFFFF00FFFFFFFFFFFFFFFFFFFFFFFFFF0000FFFFFFFFFFFF00FFFFFFFFFFFFFFFFFF00FFFFFFFFFFFFFFFFFFFFFFFFFF0000FFFFFFFFFFFF00FFFFFFFF
310
FFFFFFFFFF00FFFFFFFFFFFFFFFFFFFFFFFF0000FFFFFF0000000000FFFF00000000FFFFFF0000000000000000000000000000FFFFFFFF00FFFFFFFFFFFF00FFFF00FFFFFFFFFFFF00FFFFFFFFFFFFFFFFFFFFFFFFFFFF00FFFFFFFFFFFF00FFFFFF00FFFFFFFFFF00FFFFFFFFFFFFFFFFFFFFFFFFFFFF0000000000000000
310
FFFFFF00000000000000FFFFFFFFFFFFFFFFFFFFFFFFFFFFFFFFFFFFFFFFFFFFFFFFFFFFFFFFFFFFFFFFFFFFFFFFFFFFFFFFFFFFFFFFFFFFFFFFFFFFFFFFFFFFFFFFFFFFFFFFFFFFFFFFFFFFFFFFFFFFFFFFFFFFFFFFFFFFFFFFFFFFFFFFFFFFFFFFFFFFFFFFFFFFFFFFFFFFFFFFFFFFFFFFFFFFFFFFFFFFFFFFFFFFFFFFFF
310
FFFFFFFFFFFFFFFFFFFFFFFFFFFFFFFFFFFFFFFFFFFFFFFFFFFFFFFFFFFFFFFFFFFFFFFFFFFFFFFFFFFFFFFFFFFFFFFFFFFFFFFFFFFFFFFF
102
{BLKREFS
331
4C1
331
4C5
102
}
  0
BLOCK_RECORD
  5
4C6
330
1
100
AcDbSymbolTableRecord
100
AcDbBlockTableRecord
  2
HD LLC
340
0
310
2800000020000000200000000100080000000000000400000000000000000000000000000000000000000000000080000080000000808000800000008000800080800000C0C0C000C0DCC000F0CAA6000020400000206000002080000020A0000020C0000020E00000400000004020000040400000406000004080000040A0
310
000040C0000040E00000600000006020000060400000606000006080000060A0000060C0000060E00000800000008020000080400000806000008080000080A0000080C0000080E00000A0000000A0200000A0400000A0600000A0800000A0A00000A0C00000A0E00000C0000000C0200000C0400000C0600000C0800000C0
310
A00000C0C00000C0E00000E0000000E0200000E0400000E0600000E0800000E0A00000E0C00000E0E00040000000400020004000400040006000400080004000A0004000C0004000E00040200000402020004020400040206000402080004020A0004020C0004020E000404000004040200040404000404060004040800040
310
40A0004040C0004040E00040600000406020004060400040606000406080004060A0004060C0004060E00040800000408020004080400040806000408080004080A0004080C0004080E00040A0000040A0200040A0400040A0600040A0800040A0A00040A0C00040A0E00040C0000040C0200040C0400040C0600040C08000
310
40C0A00040C0C00040C0E00040E0000040E0200040E0400040E0600040E0800040E0A00040E0C00040E0E00080000000800020008000400080006000800080008000A0008000C0008000E00080200000802020008020400080206000802080008020A0008020C0008020E00080400000804020008040400080406000804080
310
008040A0008040C0008040E00080600000806020008060400080606000806080008060A0008060C0008060E00080800000808020008080400080806000808080008080A0008080C0008080E00080A0000080A0200080A0400080A0600080A0800080A0A00080A0C00080A0E00080C0000080C0200080C0400080C0600080C0
310
800080C0A00080C0C00080C0E00080E0000080E0200080E0400080E0600080E0800080E0A00080E0C00080E0E000C0000000C0002000C0004000C0006000C0008000C000A000C000C000C000E000C0200000C0202000C0204000C0206000C0208000C020A000C020C000C020E000C0400000C0402000C0404000C0406000C0
310
408000C040A000C040C000C040E000C0600000C0602000C0604000C0606000C0608000C060A000C060C000C060E000C0800000C0802000C0804000C0806000C0808000C080A000C080C000C080E000C0A00000C0A02000C0A04000C0A06000C0A08000C0A0A000C0A0C000C0A0E000C0C00000C0C02000C0C04000C0C06000
310
C0C08000C0C0A000F0FBFF00A4A0A000808080000000FF0000FF000000FFFF00FF000000FF00FF00FFFF0000FFFFFF00FFFFFFFFFFFFFFFFFFFFFFFFFFFFFFFFFFFFFFFFFFFFFFFFFFFFFFFFFFFFFFFFFFFFFFFFFFFFFFFFFFFFFFFFFFFFFFFFFFFFFFFFFFFFFFFFFFFFFFFFFFFFFFFFFFFFFFFFFFFFFFFFFFFFFFFFFFFFFF
310
FFFFFFFFFFFFFFFFFFFFFFFFFFFFFFFFFFFFFFFFFFFFFFFFFFFFFFFFFFFFFFFFFFFFFFFFFFFFFFFFFFFFFFFFFFFFFFFFFFFFFFFFFFFFFFFFFFFFFFFFFFFFFFFFFFFFFFFFFFFFFFFFFFFFFFFFFFFFFFFFFFFFFFFFFFFFFFFFFFFFFFFFFFFFFFFFFFFFFFFFFFFFFFFFFFFFFFFFFFFFFFFFFFFFFFFFFFFFFFFFFFFFFFFFFFFFFF
310
FFFFFFFFFFFFFFFFFFFFFFFFFFFFFFFFFFFFFFFFFFFFFFFFFFFFFFFFFFFFFFFFFFFFFFFFFFFFFFFFFFFFFFFFFFFFFFFFFFFFFFFFFFFFFFFFFFFFFFFFFFFFFFFFFFFFFFFFFFFFFFFFFFFFFFFFFFFFFFFFFFFFFFFFFFFFFFFFFFFFFFFFFFFFFFFFFFFFFFFFFFFFFFFFFFFFFFFFFFFFFFFFFFFFFFFFFFFFFFFFFFFFFFFFFFFFFF
310
FFFFFFFFFFFFFFFFFFFFFFFFFFFFFFFFFFFFFFFFFFFFFFFFFFFFFFFFFFFFFFFFFFFFFFFFFFFFFFFFFFFFFFFFFFFFFFFFFFFFFFFFFFFFFFFFFFFFFFFFFFFFFFFFFFFFFFFFFFFFFFFFFFFFFFFFFFFFFFFFFFFFFFFFFFFFFFFFFFFFFFFFFFFFFFFFFFFFFFFFFFFFFFFFFFFFFFFFFFFFFFFFFFFFFFFFFFFFFFFFFFFFFFFFFFFF00
310
000000000000000000FFFFFFFFFFFFFFFFFFFFFFFFFFFFFFFFFFFFFFFFFFFF00000000000000000000FFFFFFFFFFFFFFFFFFFFFFFFFFFFFFFFFFFFFFFFFFFF00000000000000000000FFFFFFFFFFFFFFFFFFFFFFFFFFFFFFFFFFFFFFFFFFFF00000000000000000000FFFFFFFFFFFFFFFFFFFFFFFFFFFFFFFFFFFFFFFFFFFF
310
FFFFFFFFFFFFFFFFFFFFFFFFFFFFFFFFFFFFFFFFFFFFFFFFFFFFFFFFFFFFFFFFFFFFFFFFFFFFFFFFFFFFFFFFFFFFFFFFFFFFFFFFFFFFFFFFFFFFFFFFFFFFFFFFFFFFFFFFFFFFFFFFFFFFFFFFFFFFFFFFFFFFFFFFFFFFFFFFFFFFFFFFFFFFFFFFFFFFFFFFFFFFFFFFFFFFFFFFFFFFFFFFFFFFFFFFFFFFFFFFFFFFFFFFFFFFFF
310
FFFFFFFFFFFFFFFFFFFFFFFFFFFFFFFFFFFFFFFFFFFFFFFFFFFFFFFFFFFFFFFFFFFFFFFFFFFFFFFFFFFFFFFFFFFFFFFFFFFFFFFFFFFFFFFFFFFFFFFFFFFFFFFFFFFFFFFFFFFFFFFFFFFFFFFFFFFFFFFFFFFFFFFFFFFFFFFFFFFFFFFFFFFFFFFFFFFFFFFFFFFFFFFFFFFFFFFFFFFFFFFFFFFFFFFFFFFFFFFFFFFFFFFFFFFFFF
310
FFFFFFFFFFFFFFFFFFFFFFFFFFFFFFFFFFFFFFFFFFFFFFFFFFFFFFFFFFFFFFFFFFFFFFFFFFFFFFFFFFFFFFFFFFFFFFFFFFFFFFFFFFFFFFFFFFFFFFFFFFFFFFFFFFFFFFFFFFFFFFFFFFFFFFFFFFFFFFFFFFFFFFFFFFFFFFFFFFFFFFFFFFFFFFFFFFFFFFFFFFFFFFFFFFFFFFFFFFFFFFFFFFFFFFFFFFFFFFFFFFFFFFFFFFFFFF
310
FFFFFFFFFFFFFFFFFFFFFFFFFFFFFFFFFFFFFFFFFFFFFFFFFFFFFFFFFFFFFFFFFFFFFFFFFFFFFFFFFFFFFFFFFFFFFFFFFFFFFFFFFFFFFFFF
102
{BLKREFS
331
4CB
331
4CF
102
}
  0
ENDTAB
  0
ENDSEC
  0
SECTION
  2
BLOCKS
  0
BLOCK
  5
1F
330
1E
100
AcDbEntity
  8
0
100
AcDbBlockBegin
  2
*Model_Space
 70
     0
 10
0.0
 20
0.0
 30
0.0
  3
*Model_Space
  1

  0
ENDBLK
  5
20
330
1E
100
AcDbEntity
  8
0
100
AcDbBlockEnd
  0
BLOCK
  5
1B
330
1A
100
AcDbEntity
 67
     1
  8
0
100
AcDbBlockBegin
  2
*Paper_Space
 70
     0
 10
0.0
 20
0.0
 30
0.0
  3
*Paper_Space
  1

  0
ENDBLK
  5
1C
330
1A
100
AcDbEntity
 67
     1
  8
0
100
AcDbBlockEnd
  0
BLOCK
  5
35
330
34
100
AcDbEntity
  8
1
100
AcDbBlockBegin
  2
*D0
 70
     1
 10
0.0
 20
0.0
 30
0.0
  3
*D0
  1

  0
LINE
  5
36
330
34
100
AcDbEntity
  8
1
 62
     2
100
AcDbLine
 10
-13.39999999996439
 20
12.2876840942782
 30
0.0
 11
-19.87144084107299
 21
12.2876840942782
 31
0.0
  0
LINE
  5
37
330
34
100
AcDbEntity
  8
1
 62
     2
100
AcDbLine
 10
-13.39999999996439
 20
12.2876840942782
 30
0.0
 11
-11.39999999996438
 21
12.2876840942782
 31
0.0
  0
LINE
  5
38
330
34
100
AcDbEntity
  8
1
 62
     2
100
AcDbLine
 10
-6.399999999964389
 20
12.2876840942782
 30
0.0
 11
-11.39999999996438
 21
12.2876840942782
 31
0.0
  0
LINE
  5
39
330
34
100
AcDbEntity
  8
1
 62
     2
100
AcDbLine
 10
-11.39999999996438
 20
21.49999999999999
 30
0.0
 11
-11.39999999996438
 21
11.2876840942782
 31
0.0
  0
LINE
  5
3A
330
34
100
AcDbEntity
  8
1
 62
     2
100
AcDbLine
 10
-13.39999999996439
 20
17.32
 30
0.0
 11
-13.39999999996439
 21
11.2876840942782
 31
0.0
  0
SOLID
  5
3B
330
34
100
AcDbEntity
  8
1
 62
     2
100
AcDbTrace
 10
-13.39999999996439
 20
12.2876840942782
 30
0.0
 11
-15.89999999996439
 21
11.96268409427819
 31
0.0
 12
-15.89999999996439
 22
12.61268409427819
 32
0.0
 13
-15.89999999996439
 23
12.61268409427819
 33
0.0
  0
SOLID
  5
3C
330
34
100
AcDbEntity
  8
1
 62
     2
100
AcDbTrace
 10
-11.39999999996438
 20
12.2876840942782
 30
0.0
 11
-8.899999999964391
 21
12.61268409427819
 31
0.0
 12
-8.899999999964391
 22
11.96268409427819
 32
0.0
 13
-8.899999999964391
 23
11.96268409427819
 33
0.0
  0
TEXT
  5
3D
330
34
100
AcDbEntity
  8
1
 62
     2
100
AcDbText
 10
-19.87144084107299
 20
13.2876840942782
 30
0.0
 40
2.5
  1
2
 41
0.9
100
AcDbText
  0
ENDBLK
  5
3E
330
34
100
AcDbEntity
  8
0
100
AcDbBlockEnd
  0
BLOCK
  5
40
330
3F
100
AcDbEntity
  8
1
100
AcDbBlockBegin
  2
*D1
 70
     1
 10
0.0
 20
0.0
 30
0.0
  3
*D1
  1

  0
LINE
  5
41
330
3F
100
AcDbEntity
  8
1
 62
     2
100
AcDbLine
 10
-27.0474200768488
 20
-22.5
 30
0.0
 11
-27.0474200768488
 21
22.5
 31
0.0
  0
LINE
  5
42
330
3F
100
AcDbEntity
  8
1
 62
     2
100
AcDbLine
 10
-12.39999999996439
 20
22.5
 30
0.0
 11
-28.0474200768488
 21
22.5
 31
0.0
  0
LINE
  5
43
330
3F
100
AcDbEntity
  8
1
 62
     2
100
AcDbLine
 10
-12.39999999996439
 20
-22.5
 30
0.0
 11
-28.0474200768488
 21
-22.5
 31
0.0
  0
SOLID
  5
44
330
3F
100
AcDbEntity
  8
1
 62
     2
100
AcDbTrace
 10
-27.0474200768488
 20
-22.5
 30
0.0
 11
-27.3724200768488
 21
-20.0
 31
0.0
 12
-26.7224200768488
 22
-20.0
 32
0.0
 13
-26.7224200768488
 23
-20.0
 33
0.0
  0
SOLID
  5
45
330
3F
100
AcDbEntity
  8
1
 62
     2
100
AcDbTrace
 10
-27.0474200768488
 20
22.5
 30
0.0
 11
-26.7224200768488
 21
20.0
 31
0.0
 12
-27.3724200768488
 22
20.0
 32
0.0
 13
-27.3724200768488
 23
20.0
 33
0.0
  0
TEXT
  5
46
330
3F
100
AcDbEntity
  8
1
 62
     2
100
AcDbText
 10
-28.1099200768488
 20
5.91504704901594
 30
0.0
 40
2.5
  1
45
 50
90.0
 41
0.9
100
AcDbText
  0
TEXT
  5
47
330
3F
100
AcDbEntity
  8
1
 62
     2
100
AcDbText
 10
-28.1099200768488
 20
-6.334952950984059
 30
0.0
 40
2.5
  1
M.H.C 
 50
90.0
 41
0.9
100
AcDbText
  0
ENDBLK
  5
48
330
3F
100
AcDbEntity
  8
0
100
AcDbBlockEnd
  0
BLOCK
  5
4A
330
49
100
AcDbEntity
  8
1
100
AcDbBlockBegin
  2
*D2
 70
     1
 10
0.0
 20
0.0
 30
0.0
  3
*D2
  1

  0
LINE
  5
4B
330
49
100
AcDbEntity
  8
1
 62
     2
100
AcDbLine
 10
40.1000000000356
 20
-26.5
 30
0.0
 11
40.1000000000356
 21
26.5
 31
0.0
  0
LINE
  5
4C
330
49
100
AcDbEntity
  8
1
 62
     2
100
AcDbLine
 10
18.09999999990669
 20
26.5
 30
0.0
 11
41.10000000003561
 21
26.5
 31
0.0
  0
LINE
  5
4D
330
49
100
AcDbEntity
  8
1
 62
     2
100
AcDbLine
 10
18.09999999990669
 20
-26.5
 30
0.0
 11
41.10000000003561
 21
-26.5
 31
0.0
  0
SOLID
  5
4E
330
49
100
AcDbEntity
  8
1
 62
     2
100
AcDbTrace
 10
40.1000000000356
 20
-26.5
 30
0.0
 11
39.7750000000356
 21
-24.0
 31
0.0
 12
40.4250000000356
 22
-24.0
 32
0.0
 13
40.4250000000356
 23
-24.0
 33
0.0
  0
SOLID
  5
4F
330
49
100
AcDbEntity
  8
1
 62
     2
100
AcDbTrace
 10
40.1000000000356
 20
26.5
 30
0.0
 11
40.42500000003561
 21
24.0
 31
0.0
 12
39.7750000000356
 22
24.0
 32
0.0
 13
39.7750000000356
 23
24.0
 33
0.0
  0
TEXT
  5
50
330
49
100
AcDbEntity
  8
1
 62
     2
100
AcDbText
 10
39.0375000000356
 20
4.238299863741019
 30
0.0
 40
2.5
  1
53
 50
90.0
 41
0.9
100
AcDbText
  0
TEXT
  5
51
330
49
100
AcDbEntity
  8
1
 62
     2
100
AcDbText
 10
39.0375000000356
 20
-8.01170013625898
 30
0.0
 40
2.5
  1
M.H.C 
 50
90.0
 41
0.9
100
AcDbText
  0
ENDBLK
  5
52
330
49
100
AcDbEntity
  8
0
100
AcDbBlockEnd
  0
BLOCK
  5
54
330
53
100
AcDbEntity
  8
1
100
AcDbBlockBegin
  2
*D3
 70
     1
 10
0.0
 20
0.0
 30
0.0
  3
*D3
  1

  0
LINE
  5
55
330
53
100
AcDbEntity
  8
1
 62
     2
100
AcDbLine
 10
17.09999999990668
 20
-51.05
 30
0.0
 11
39.51495165791289
 21
-51.05
 31
0.0
  0
LINE
  5
56
330
53
100
AcDbEntity
  8
1
 62
     2
100
AcDbLine
 10
15.60000000004333
 20
-51.05
 30
0.0
 11
17.09999999990668
 21
-51.05
 31
0.0
  0
LINE
  5
57
330
53
100
AcDbEntity
  8
1
 62
     2
100
AcDbLine
 10
10.60000000004333
 20
-51.05
 30
0.0
 11
15.60000000004333
 21
-51.05
 31
0.0
  0
LINE
  5
58
330
53
100
AcDbEntity
  8
1
 62
     2
100
AcDbLine
 10
17.09999999990668
 20
-27.5
 30
0.0
 11
17.09999999990668
 21
-52.05
 31
0.0
  0
LINE
  5
59
330
53
100
AcDbEntity
  8
1
 62
     2
100
AcDbLine
 10
15.60000000004333
 20
-35.596985757715
 30
0.0
 11
15.60000000004333
 21
-52.05
 31
0.0
  0
SOLID
  5
5A
330
53
100
AcDbEntity
  8
1
 62
     2
100
AcDbTrace
 10
15.60000000004333
 20
-51.05
 30
0.0
 11
13.10000000004333
 21
-51.375
 31
0.0
 12
13.10000000004333
 22
-50.72499999999998
 32
0.0
 13
13.10000000004333
 23
-50.72499999999998
 33
0.0
  0
SOLID
  5
5B
330
53
100
AcDbEntity
  8
1
 62
     2
100
AcDbTrace
 10
17.09999999990668
 20
-51.05
 30
0.0
 11
19.59999999990669
 21
-50.72499999999998
 31
0.0
 12
19.59999999990669
 22
-51.375
 32
0.0
 13
19.59999999990669
 23
-51.375
 33
0.0
  0
TEXT
  5
5C
330
53
100
AcDbEntity
  8
1
 62
     2
100
AcDbText
 10
35.63995165791289
 20
-49.9875
 30
0.0
 40
2.5
  1
1.5
 41
0.9
100
AcDbText
  0
TEXT
  5
5D
330
53
100
AcDbEntity
  8
1
 62
     2
100
AcDbText
 10
23.3899516579129
 20
-49.9875
 30
0.0
 40
2.5
  1
M.H.C 
 41
0.9
100
AcDbText
  0
ENDBLK
  5
5E
330
53
100
AcDbEntity
  8
0
100
AcDbBlockEnd
  0
BLOCK
  5
44D
330
44A
100
AcDbEntity
  8
0
100
AcDbBlockBegin
  2
NTC
 70
     0
 10
0.0
 20
0.0
 30
0.0
  3
NTC
  1

  0
LWPOLYLINE
  5
44B
330
44A
100
AcDbEntity
  8
0
100
AcDbPolyline
 90
        8
 70
     1
 43
0.0
 10
4.581008201925953
 20
-10.78862239032818
 10
319.3921777697513
 20
-10.78862239032818
 42
-0.4142135623730951
 10
324.9046777697513
 20
-16.30112239032816
 10
324.9046777697513
 20
-117.4075202476924
 42
-0.4142135623730951
 10
319.3921777697513
 20
-122.9200202476925
 10
4.581008201925838
 20
-122.9200202476925
 42
-0.4142135623730951
 10
-0.9314917980741483
 20
-117.4075202476924
 10
-0.9314917980740915
 20
-16.30112239032816
 42
-0.4142135623730951
  0
MTEXT
  5
44C
330
44A
100
AcDbEntity
  8
0
  6
Continuous
370
    30
100
AcDbMText
 10
21.65307678143926
 20
-17.4535155144544
 30
0.0
 40
8.75
 41
294.5432999999998
 71
     1
 72
     5
  3
{\fTxt|b1|i0|c0|p2;Notice:\P\Ftxt.shx;\H0.5714x;All specifications and dimensions shown in the drawing are subject to change without notice. This drawing is the property of Harmonic Drive LLC.   This data is believed to be accurate, however, Harmonic
  1
 Drive LLC assumes no liability for any errors or omissions in the specifications, models, or drawings.\P\PHarmonic Drive LLC\PTel: 800-921-3332\Pwww.harmonicdrive.net}
 73
     1
 44
1.0
  0
ENDBLK
  5
44E
330
44A
100
AcDbEntity
  8
0
100
AcDbBlockEnd
  0
BLOCK
  5
45A
330
457
100
AcDbEntity
  8
0
 62
     7
100
AcDbBlockBegin
  2
AI9-BLK14
 70
     0
 10
0.0
 20
0.0
 30
0.0
  3
AI9-BLK14
  1

  0
SPLINE
  5
458
330
457
100
AcDbEntity
  8
LAYER_1
 62
     7
100
AcDbSpline
210
0.0
220
0.0
230
1.0
 70
    11
 71
     3
 72
    23
 73
    19
 74
     0
 42
0.0000000001
 43
0.0000000001
 40
0.0
 40
0.0
 40
0.0
 40
0.0
 40
1.0
 40
1.0
 40
1.0
 40
2.0
 40
2.0
 40
2.0
 40
3.0
 40
3.0
 40
3.0
 40
4.0
 40
4.0
 40
4.0
 40
5.0
 40
5.0
 40
5.0
 40
6.0
 40
6.0
 40
6.0
 40
6.0
 10
-10.90321044921874
 20
10.88107571072048
 30
0.0
 10
-10.90321044921874
 20
10.88107571072048
 30
0.0
 10
-10.90321044921874
 20
-10.88107571072048
 30
0.0
 10
-10.90321044921874
 20
-10.88107571072048
 30
0.0
 10
-10.90321044921874
 20
-10.88107571072048
 30
0.0
 10
1.752692328559025
 20
-10.88107571072048
 30
0.0
 10
1.752692328559025
 20
-10.88107571072048
 30
0.0
 10
3.280592176649305
 20
-10.88107571072048
 30
0.0
 10
10.90321044921874
 20
-10.32383151584201
 30
0.0
 10
10.90321044921874
 20
0.6792867024739583
 30
0.0
 10
10.90321044921874
 20
10.61700914171006
 30
0.0
 10
2.773129611545138
 20
10.87952541775172
 30
0.0
 10
2.691136338975693
 20
10.88090345594618
 30
0.0
 10
2.691136338975693
 20
10.88090345594618
 30
0.0
 10
-9.903099229600693
 20
10.88107571072048
 30
0.0
 10
-9.903099229600693
 20
10.88107571072048
 30
0.0
 10
-9.903099229600693
 20
10.88107571072048
 30
0.0
 10
-10.90321044921874
 20
10.88107571072048
 30
0.0
 10
-10.90321044921874
 20
10.88107571072048
 30
0.0
  0
SPLINE
  5
459
330
457
100
AcDbEntity
  8
LAYER_1
 62
     7
100
AcDbSpline
210
0.0
220
0.0
230
1.0
 70
    11
 71
     3
 72
    20
 73
    16
 74
     0
 42
0.0000000001
 43
0.0000000001
 40
0.0
 40
0.0
 40
0.0
 40
0.0
 40
1.0
 40
1.0
 40
1.0
 40
2.0
 40
2.0
 40
2.0
 40
3.0
 40
3.0
 40
3.0
 40
4.0
 40
4.0
 40
4.0
 40
5.0
 40
5.0
 40
5.0
 40
5.0
 10
2.672877332899305
 20
8.881197781032986
 30
0.0
 10
2.905421278211805
 20
8.874307590060762
 30
0.0
 10
8.902988009982637
 20
8.616442192925347
 30
0.0
 10
8.902988009982637
 20
0.6792867024739583
 30
0.0
 10
8.902988009982637
 20
-8.191661919487842
 30
0.0
 10
3.430109320746526
 20
-8.881197781032986
 30
0.0
 10
1.752692328559025
 20
-8.881197781032986
 30
0.0
 10
1.752692328559025
 20
-8.881197781032986
 30
0.0
 10
-7.231427680121528
 20
-8.881197781032986
 30
0.0
 10
-8.902988009982637
 20
-8.881197781032986
 30
0.0
 10
-8.902988009982637
 20
-7.174497477213541
 30
0.0
 10
-8.902988009982637
 20
7.174497477213541
 30
0.0
 10
-8.902988009982637
 20
8.881197781032986
 30
0.0
 10
-7.208690049913191
 20
8.881197781032986
 30
0.0
 10
2.672877332899305
 20
8.881197781032986
 30
0.0
 10
2.672877332899305
 20
8.881197781032986
 30
0.0
  0
ENDBLK
  5
45B
330
457
100
AcDbEntity
  8
0
100
AcDbBlockEnd
  0
BLOCK
  5
45F
330
45C
100
AcDbEntity
  8
0
 62
     7
100
AcDbBlockBegin
  2
AI9-BLK13
 70
     0
 10
0.0
 20
0.0
 30
0.0
  3
AI9-BLK13
  1

  0
LWPOLYLINE
  5
45D
330
45C
100
AcDbEntity
  8
LAYER_1
 62
     7
100
AcDbPolyline
 90
       12
 70
     1
 43
0.0
 10
-3.792361111111107
 20
10.7376736111111
 10
-2.469444444444443
 20
10.7376736111111
 10
-2.469444444444443
 20
1.874131944444444
 10
2.469444444444443
 20
1.874131944444444
 10
2.469444444444443
 20
10.7376736111111
 10
3.792361111111107
 20
10.7376736111111
 10
3.792361111111107
 20
-10.7376736111111
 10
2.469444444444443
 20
-10.7376736111111
 10
2.469444444444443
 20
-0.6835069444444444
 10
-2.469444444444443
 20
-0.6835069444444444
 10
-2.469444444444443
 20
-10.7376736111111
 10
-3.792361111111107
 20
-10.7376736111111
  0
HATCH
  5
45E
330
45C
100
AcDbEntity
  8
LAYER_1
 62
     7
100
AcDbHatch
 10
0.0
 20
0.0
 30
0.0
210
0.0
220
0.0
230
1.0
  2
SOLID
 70
     1
 71
     0
 91
        1
 92
        3
 72
     0
 73
     1
 93
       12
 10
-3.792361111111107
 20
10.7376736111111
 10
-2.469444444444443
 20
10.7376736111111
 10
-2.469444444444443
 20
1.874131944444444
 10
2.469444444444443
 20
1.874131944444444
 10
2.469444444444443
 20
10.7376736111111
 10
3.792361111111107
 20
10.7376736111111
 10
3.792361111111107
 20
-10.7376736111111
 10
2.469444444444443
 20
-10.7376736111111
 10
2.469444444444443
 20
-0.6835069444444444
 10
-2.469444444444443
 20
-0.6835069444444444
 10
-2.469444444444443
 20
-10.7376736111111
 10
-3.792361111111107
 20
-10.7376736111111
 97
        0
 75
     2
 76
     1
 98
        1
 10
0.0
 20
0.0
  0
ENDBLK
  5
460
330
45C
100
AcDbEntity
  8
0
100
AcDbBlockEnd
  0
BLOCK
  5
464
330
461
100
AcDbEntity
  8
0
 62
     7
100
AcDbBlockBegin
  2
AI9-BLK11
 70
     0
 10
0.0
 20
0.0
 30
0.0
  3
AI9-BLK11
  1

  0
SPLINE
  5
462
330
461
100
AcDbEntity
  8
LAYER_1
 62
     7
100
AcDbSpline
210
0.0
220
0.0
230
1.0
 70
    11
 71
     3
 72
    26
 73
    22
 74
     0
 42
0.0000000001
 43
0.0000000001
 40
0.0
 40
0.0
 40
0.0
 40
0.0
 40
1.0
 40
1.0
 40
1.0
 40
2.0
 40
2.0
 40
2.0
 40
3.0
 40
3.0
 40
3.0
 40
4.0
 40
4.0
 40
4.0
 40
5.0
 40
5.0
 40
5.0
 40
6.0
 40
6.0
 40
6.0
 40
7.0
 40
7.0
 40
7.0
 40
7.0
 10
-2.645833333333333
 20
0.9039930555555551
 30
0.0
 10
-2.645833333333333
 20
0.9039930555555551
 30
0.0
 10
-2.645833333333333
 20
8.180034722222217
 30
0.0
 10
-2.645833333333333
 20
8.180034722222217
 30
0.0
 10
-2.645833333333333
 20
8.180034722222217
 30
0.0
 10
0.465087890625
 20
8.180034722222217
 30
0.0
 10
0.465087890625
 20
8.180034722222217
 30
0.0
 10
0.9026150173611108
 20
8.180034722222217
 30
0.0
 10
1.24988064236111
 20
8.034651692708331
 30
0.0
 10
1.506884765625
 20
7.745263671874997
 30
0.0
 10
2.001600477430554
 20
7.194048394097221
 30
0.0
 10
2.248958333333332
 20
6.160519748263887
 30
0.0
 10
2.248958333333332
 20
4.643299696180553
 30
0.0
 10
2.248958333333332
 20
3.232188585069443
 30
0.0
 10
2.072569444444444
 20
2.256537543402775
 30
0.0
 10
1.720480685763888
 20
1.715657552083333
 30
0.0
 10
1.368391927083333
 20
1.174088541666665
 30
0.0
 10
0.8929687499999998
 20
0.9039930555555551
 30
0.0
 10
0.2942111545138888
 20
0.9039930555555551
 30
0.0
 10
0.2942111545138888
 20
0.9039930555555551
 30
0.0
 10
-2.645833333333333
 20
0.9039930555555551
 30
0.0
 10
-2.645833333333333
 20
0.9039930555555551
 30
0.0
  0
SPLINE
  5
463
330
461
100
AcDbEntity
  8
LAYER_1
 62
     7
100
AcDbSpline
210
0.0
220
0.0
230
1.0
 70
    11
 71
     3
 72
    68
 73
    64
 74
     0
 42
0.0000000001
 43
0.0000000001
 40
0.0
 40
0.0
 40
0.0
 40
0.0
 40
1.0
 40
1.0
 40
1.0
 40
2.0
 40
2.0
 40
2.0
 40
3.0
 40
3.0
 40
3.0
 40
4.0
 40
4.0
 40
4.0
 40
5.0
 40
5.0
 40
5.0
 40
6.0
 40
6.0
 40
6.0
 40
7.0
 40
7.0
 40
7.0
 40
8.0
 40
8.0
 40
8.0
 40
9.0
 40
9.0
 40
9.0
 40
10.0
 40
10.0
 40
10.0
 40
11.0
 40
11.0
 40
11.0
 40
12.0
 40
12.0
 40
12.0
 40
13.0
 40
13.0
 40
13.0
 40
14.0
 40
14.0
 40
14.0
 40
15.0
 40
15.0
 40
15.0
 40
16.0
 40
16.0
 40
16.0
 40
17.0
 40
17.0
 40
17.0
 40
18.0
 40
18.0
 40
18.0
 40
19.0
 40
19.0
 40
19.0
 40
20.0
 40
20.0
 40
20.0
 40
21.0
 40
21.0
 40
21.0
 40
21.0
 10
-3.968749999999998
 20
-10.7376736111111
 30
0.0
 10
-3.968749999999998
 20
-10.7376736111111
 30
0.0
 10
-2.645833333333333
 20
-10.7376736111111
 30
0.0
 10
-2.645833333333333
 20
-10.7376736111111
 30
0.0
 10
-2.645833333333333
 20
-10.7376736111111
 30
0.0
 10
-2.645833333333333
 20
-1.521354166666665
 30
0.0
 10
-2.645833333333333
 20
-1.521354166666665
 30
0.0
 10
-2.645833333333333
 20
-1.521354166666665
 30
0.0
 10
0.2390896267361111
 20
-1.521354166666665
 30
0.0
 10
0.2390896267361111
 20
-1.521354166666665
 30
0.0
 10
0.7599880642361111
 20
-1.521354166666665
 30
0.0
 10
1.143771701388887
 20
-1.65295681423611
 30
0.0
 10
1.390440538194444
 20
-1.916162109374999
 30
0.0
 10
1.816254340277773
 20
-2.39434136284722
 30
0.0
 10
2.04363064236111
 20
-3.335541449652775
 30
0.0
 10
2.072569444444444
 20
-4.739762369791666
 30
0.0
 10
2.072569444444444
 20
-4.739762369791666
 30
0.0
 10
2.160763888888888
 20
-8.324039713541665
 30
0.0
 10
2.160763888888888
 20
-8.324039713541665
 30
0.0
 10
2.18005642361111
 20
-9.163264973958332
 30
0.0
 10
2.202794053819443
 20
-9.728949652777775
 30
0.0
 10
2.227598741319444
 20
-10.02109374999998
 30
0.0
 10
2.252403428819443
 20
-10.31392686631944
 30
0.0
 10
2.28892144097222
 20
-10.55301649305555
 30
0.0
 10
2.33853081597222
 20
-10.7376736111111
 30
0.0
 10
2.33853081597222
 20
-10.7376736111111
 30
0.0
 10
3.968749999999998
 20
-10.7376736111111
 30
0.0
 10
3.968749999999998
 20
-10.7376736111111
 30
0.0
 10
3.968749999999998
 20
-10.7376736111111
 30
0.0
 10
3.968749999999998
 20
-10.25260416666666
 30
0.0
 10
3.968749999999998
 20
-10.25260416666666
 30
0.0
 10
3.766867404513888
 20
-10.05830078125
 30
0.0
 10
3.625618489583333
 20
-9.621462673611112
 30
0.0
 10
3.545692274305555
 20
-8.942089843749997
 30
0.0
 10
3.49470486111111
 20
-8.543836805555555
 30
0.0
 10
3.459564887152775
 20
-7.937499999999999
 30
0.0
 10
3.439583333333333
 20
-7.121701388888887
 30
0.0
 10
3.439583333333333
 20
-7.121701388888887
 30
0.0
 10
3.395486111111106
 20
-4.232644314236106
 30
0.0
 10
3.395486111111106
 20
-4.232644314236106
 30
0.0
 10
3.375504557291666
 20
-2.981385633680555
 30
0.0
 10
3.26870659722222
 20
-2.077392578125
 30
0.0
 10
3.075781249999999
 20
-1.522043185763888
 30
0.0
 10
2.882166883680555
 20
-0.9666937934027776
 30
0.0
 10
2.592089843749999
 20
-0.5188313802083333
 30
0.0
 10
2.204861111111104
 20
-0.1770779079861111
 30
0.0
 10
2.63618706597222
 20
0.3197048611111111
 30
0.0
 10
2.971739366319443
 20
0.9770290798611107
 30
0.0
 10
3.211518012152775
 20
1.79558376736111
 30
0.0
 10
3.451296657986107
 20
2.613449435763888
 30
0.0
 10
3.571874999999999
 20
3.66558159722222
 30
0.0
 10
3.571874999999999
 20
4.951291232638888
 30
0.0
 10
3.571874999999999
 20
7.415912543402777
 30
0.0
 10
3.124701605902775
 20
9.106076388888887
 30
0.0
 10
2.231043836805555
 20
10.02178276909722
 30
0.0
 10
1.759754774305553
 20
10.498583984375
 30
0.0
 10
1.163753255208332
 20
10.7376736111111
 30
0.0
 10
0.443039279513889
 20
10.7376736111111
 30
0.0
 10
0.443039279513889
 20
10.7376736111111
 30
0.0
 10
-3.968749999999998
 20
10.7376736111111
 30
0.0
 10
-3.968749999999998
 20
10.7376736111111
 30
0.0
 10
-3.968749999999998
 20
10.7376736111111
 30
0.0
 10
-3.968749999999998
 20
-10.7376736111111
 30
0.0
 10
-3.968749999999998
 20
-10.7376736111111
 30
0.0
  0
ENDBLK
  5
465
330
461
100
AcDbEntity
  8
0
100
AcDbBlockEnd
  0
BLOCK
  5
468
330
466
100
AcDbEntity
  8
0
 62
     7
100
AcDbBlockBegin
  2
AI9-BLK10
 70
     0
 10
0.0
 20
0.0
 30
0.0
  3
AI9-BLK10
  1

  0
SPLINE
  5
467
330
466
100
AcDbEntity
  8
LAYER_1
 62
     7
100
AcDbSpline
210
0.0
220
0.0
230
1.0
 70
    11
 71
     3
 72
    59
 73
    55
 74
     0
 42
0.0000000001
 43
0.0000000001
 40
0.0
 40
0.0
 40
0.0
 40
0.0
 40
1.0
 40
1.0
 40
1.0
 40
2.0
 40
2.0
 40
2.0
 40
3.0
 40
3.0
 40
3.0
 40
4.0
 40
4.0
 40
4.0
 40
5.0
 40
5.0
 40
5.0
 40
6.0
 40
6.0
 40
6.0
 40
7.0
 40
7.0
 40
7.0
 40
8.0
 40
8.0
 40
8.0
 40
9.0
 40
9.0
 40
9.0
 40
10.0
 40
10.0
 40
10.0
 40
11.0
 40
11.0
 40
11.0
 40
12.0
 40
12.0
 40
12.0
 40
13.0
 40
13.0
 40
13.0
 40
14.0
 40
14.0
 40
14.0
 40
15.0
 40
15.0
 40
15.0
 40
16.0
 40
16.0
 40
16.0
 40
17.0
 40
17.0
 40
17.0
 40
18.0
 40
18.0
 40
18.0
 40
18.0
 10
-4.652256944444443
 20
10.7376736111111
 30
0.0
 10
-4.652256944444443
 20
10.7376736111111
 30
0.0
 10
-2.798795572916666
 20
10.7376736111111
 30
0.0
 10
-2.798795572916666
 20
10.7376736111111
 30
0.0
 10
-2.798795572916666
 20
10.7376736111111
 30
0.0
 10
0.0
 20
-7.419357638888887
 30
0.0
 10
0.0
 20
-7.419357638888887
 30
0.0
 10
0.0
 20
-7.419357638888887
 30
0.0
 10
2.793283420138888
 20
10.7376736111111
 30
0.0
 10
2.793283420138888
 20
10.7376736111111
 30
0.0
 10
2.793283420138888
 20
10.7376736111111
 30
0.0
 10
4.652256944444443
 20
10.7376736111111
 30
0.0
 10
4.652256944444443
 20
10.7376736111111
 30
0.0
 10
4.652256944444443
 20
10.7376736111111
 30
0.0
 10
4.652256944444443
 20
-10.7376736111111
 30
0.0
 10
4.652256944444443
 20
-10.7376736111111
 30
0.0
 10
4.652256944444443
 20
-10.7376736111111
 30
0.0
 10
3.41753472222222
 20
-10.7376736111111
 30
0.0
 10
3.41753472222222
 20
-10.7376736111111
 30
0.0
 10
3.41753472222222
 20
-10.7376736111111
 30
0.0
 10
3.41753472222222
 20
1.936832682291665
 30
0.0
 10
3.41753472222222
 20
1.936832682291665
 30
0.0
 10
3.41753472222222
 20
2.375048828124999
 30
0.0
 10
3.424424913194443
 20
3.101274956597221
 30
0.0
 10
3.439583333333333
 20
4.11482204861111
 30
0.0
 10
3.454052734374998
 20
5.128369140624998
 30
0.0
 10
3.461631944444443
 20
6.214952256944441
 30
0.0
 10
3.461631944444443
 20
7.375260416666666
 30
0.0
 10
3.461631944444443
 20
7.375260416666666
 30
0.0
 10
0.6538791232638889
 20
-10.7376736111111
 30
0.0
 10
0.6538791232638889
 20
-10.7376736111111
 30
0.0
 10
0.6538791232638889
 20
-10.7376736111111
 30
0.0
 10
-0.6628363715277778
 20
-10.7376736111111
 30
0.0
 10
-0.6628363715277778
 20
-10.7376736111111
 30
0.0
 10
-0.6628363715277778
 20
-10.7376736111111
 30
0.0
 10
-3.461631944444443
 20
7.375260416666666
 30
0.0
 10
-3.461631944444443
 20
7.375260416666666
 30
0.0
 10
-3.461631944444443
 20
7.375260416666666
 30
0.0
 10
-3.461631944444443
 20
6.717247178819441
 30
0.0
 10
-3.461631944444443
 20
6.717247178819441
 30
0.0
 10
-3.461631944444443
 20
6.190836588541666
 30
0.0
 10
-3.45474175347222
 20
5.389507378472222
 30
0.0
 10
-3.439583333333333
 20
4.312570529513888
 30
0.0
 10
-3.425113932291666
 20
3.235633680555555
 30
0.0
 10
-3.41753472222222
 20
2.44395073784722
 30
0.0
 10
-3.41753472222222
 20
1.936832682291665
 30
0.0
 10
-3.41753472222222
 20
1.936832682291665
 30
0.0
 10
-3.41753472222222
 20
-10.7376736111111
 30
0.0
 10
-3.41753472222222
 20
-10.7376736111111
 30
0.0
 10
-3.41753472222222
 20
-10.7376736111111
 30
0.0
 10
-4.652256944444443
 20
-10.7376736111111
 30
0.0
 10
-4.652256944444443
 20
-10.7376736111111
 30
0.0
 10
-4.652256944444443
 20
-10.7376736111111
 30
0.0
 10
-4.652256944444443
 20
10.7376736111111
 30
0.0
 10
-4.652256944444443
 20
10.7376736111111
 30
0.0
  0
ENDBLK
  5
469
330
466
100
AcDbEntity
  8
0
100
AcDbBlockEnd
  0
BLOCK
  5
46D
330
46A
100
AcDbEntity
  8
0
 62
     7
100
AcDbBlockBegin
  2
AI9-BLK9
 70
     0
 10
0.0
 20
0.0
 30
0.0
  3
AI9-BLK9
  1

  0
SPLINE
  5
46B
330
46A
100
AcDbEntity
  8
LAYER_1
 62
     7
100
AcDbSpline
210
0.0
220
0.0
230
1.0
 70
    11
 71
     3
 72
    29
 73
    25
 74
     0
 42
0.0000000001
 43
0.0000000001
 40
0.0
 40
0.0
 40
0.0
 40
0.0
 40
1.0
 40
1.0
 40
1.0
 40
2.0
 40
2.0
 40
2.0
 40
3.0
 40
3.0
 40
3.0
 40
4.0
 40
4.0
 40
4.0
 40
5.0
 40
5.0
 40
5.0
 40
6.0
 40
6.0
 40
6.0
 40
7.0
 40
7.0
 40
7.0
 40
8.0
 40
8.0
 40
8.0
 40
8.0
 10
0.0668348524305556
 20
-8.753298611111111
 30
0.0
 10
-0.9067491319444444
 20
-8.753298611111111
 30
0.0
 10
-1.60954861111111
 20
-7.936810980902778
 30
0.0
 10
-2.041563585069444
 20
-6.30383572048611
 30
0.0
 10
-2.474267578124999
 20
-4.670860460069443
 30
0.0
 10
-2.689930555555555
 20
-2.664436848958333
 30
0.0
 10
-2.689930555555555
 20
-0.28525390625
 30
0.0
 10
-2.689930555555555
 20
2.68855251736111
 30
0.0
 10
-2.439127604166666
 20
4.938199869791666
 30
0.0
 10
-1.937521701388888
 20
6.464377170138886
 30
0.0
 10
-1.43591579861111
 20
7.989865451388887
 30
0.0
 10
-0.7827256944444444
 20
8.753298611111111
 30
0.0
 10
0.0220486111111111
 20
8.753298611111111
 30
0.0
 10
0.8468044704861108
 20
8.753298611111111
 30
0.0
 10
1.49792751736111
 20
7.982975260416663
 30
0.0
 10
1.974728732638888
 20
6.442328559027776
 30
0.0
 10
2.451529947916665
 20
4.901681857638886
 30
0.0
 10
2.689930555555555
 20
2.868386501736111
 30
0.0
 10
2.689930555555555
 20
0.3438205295138888
 30
0.0
 10
2.689930555555555
 20
-2.045697699652774
 30
0.0
 10
2.483224826388884
 20
-4.15891927083333
 30
0.0
 10
2.071191406249999
 20
-5.996533203124998
 30
0.0
 10
1.65915798611111
 20
-7.834836154513887
 30
0.0
 10
0.9908094618055557
 20
-8.753298611111111
 30
0.0
 10
0.0668348524305556
 20
-8.753298611111111
 30
0.0
  0
SPLINE
  5
46C
330
46A
100
AcDbEntity
  8
LAYER_1
 62
     7
100
AcDbSpline
210
0.0
220
0.0
230
1.0
 70
    11
 71
     3
 72
    29
 73
    25
 74
     0
 42
0.0000000001
 43
0.0000000001
 40
0.0
 40
0.0
 40
0.0
 40
0.0
 40
1.0
 40
1.0
 40
1.0
 40
2.0
 40
2.0
 40
2.0
 40
3.0
 40
3.0
 40
3.0
 40
4.0
 40
4.0
 40
4.0
 40
5.0
 40
5.0
 40
5.0
 40
6.0
 40
6.0
 40
6.0
 40
7.0
 40
7.0
 40
7.0
 40
8.0
 40
8.0
 40
8.0
 40
8.0
 10
-0.0289388020833333
 20
11.35503472222222
 30
0.0
 10
-1.317404513888887
 20
11.35503472222222
 30
0.0
 10
-2.28892144097222
 20
10.02798394097222
 30
0.0
 10
-2.94280056423611
 20
7.374571397569441
 30
0.0
 10
-3.450607638888888
 20
5.30613606770833
 30
0.0
 10
-3.704166666666666
 20
2.81877712673611
 30
0.0
 10
-3.704166666666666
 20
-0.0881944444444445
 30
0.0
 10
-3.704166666666666
 20
-3.307291666666666
 30
0.0
 10
-3.406510416666666
 20
-5.97035047743055
 30
0.0
 10
-2.811197916666666
 20
-8.077370876736106
 30
0.0
 10
-2.147672526041664
 20
-10.26293945312499
 30
0.0
 10
-1.229899088541666
 20
-11.35503472222222
 30
0.0
 10
-0.0585666232638889
 20
-11.35503472222222
 30
0.0
 10
1.20027126736111
 20
-11.35503472222222
 30
0.0
 10
2.166276041666665
 20
-10.10653211805555
 30
0.0
 10
2.840136718749998
 20
-7.609526909722221
 30
0.0
 10
3.416156684027776
 20
-5.483213975694441
 30
0.0
 10
3.704166666666666
 20
-2.814643012152775
 30
0.0
 10
3.704166666666666
 20
0.3948079427083333
 30
0.0
 10
3.704166666666666
 20
3.360346137152776
 30
0.0
 10
3.449918619791666
 20
5.793961588541666
 30
0.0
 10
2.94280056423611
 20
7.696343315972222
 30
0.0
 10
2.298567708333333
 20
10.13547092013888
 30
0.0
 10
1.307758246527777
 20
11.35503472222222
 30
0.0
 10
-0.0289388020833333
 20
11.35503472222222
 30
0.0
  0
ENDBLK
  5
46E
330
46A
100
AcDbEntity
  8
0
100
AcDbBlockEnd
  0
BLOCK
  5
472
330
46F
100
AcDbEntity
  8
0
 62
     7
100
AcDbBlockBegin
  2
AI9-BLK8
 70
     0
 10
0.0
 20
0.0
 30
0.0
  3
AI9-BLK8
  1

  0
LWPOLYLINE
  5
470
330
46F
100
AcDbEntity
  8
LAYER_1
 62
     7
100
AcDbPolyline
 90
       10
 70
     1
 43
0.0
 10
-3.792361111111107
 20
10.7376736111111
 10
-2.268939887152773
 20
10.7376736111111
 10
2.557638888888888
 20
-6.505718315972222
 10
2.557638888888888
 20
10.7376736111111
 10
3.792361111111107
 20
10.7376736111111
 10
3.792361111111107
 20
-10.7376736111111
 10
2.32612847222222
 20
-10.7376736111111
 10
-2.557638888888888
 20
6.549815538194441
 10
-2.557638888888888
 20
-10.7376736111111
 10
-3.792361111111107
 20
-10.7376736111111
  0
HATCH
  5
471
330
46F
100
AcDbEntity
  8
LAYER_1
 62
     7
100
AcDbHatch
 10
0.0
 20
0.0
 30
0.0
210
0.0
220
0.0
230
1.0
  2
SOLID
 70
     1
 71
     0
 91
        1
 92
        3
 72
     0
 73
     1
 93
       10
 10
-3.792361111111107
 20
10.7376736111111
 10
-2.268939887152773
 20
10.7376736111111
 10
2.557638888888888
 20
-6.505718315972222
 10
2.557638888888888
 20
10.7376736111111
 10
3.792361111111107
 20
10.7376736111111
 10
3.792361111111107
 20
-10.7376736111111
 10
2.32612847222222
 20
-10.7376736111111
 10
-2.557638888888888
 20
6.549815538194441
 10
-2.557638888888888
 20
-10.7376736111111
 10
-3.792361111111107
 20
-10.7376736111111
 97
        0
 75
     2
 76
     1
 98
        1
 10
0.0
 20
0.0
  0
ENDBLK
  5
473
330
46F
100
AcDbEntity
  8
0
100
AcDbBlockEnd
  0
BLOCK
  5
477
330
474
100
AcDbEntity
  8
0
 62
     7
100
AcDbBlockBegin
  2
AI9-BLK7
 70
     0
 10
0.0
 20
0.0
 30
0.0
  3
AI9-BLK7
  1

  0
LWPOLYLINE
  5
475
330
474
100
AcDbEntity
  8
LAYER_1
 62
     7
100
AcDbPolyline
 90
        4
 70
     1
 43
0.0
 10
-0.6614583333333333
 20
10.7376736111111
 10
0.6614583333333333
 20
10.7376736111111
 10
0.6614583333333333
 20
-10.7376736111111
 10
-0.6614583333333333
 20
-10.7376736111111
  0
HATCH
  5
476
330
474
100
AcDbEntity
  8
LAYER_1
 62
     7
100
AcDbHatch
 10
0.0
 20
0.0
 30
0.0
210
0.0
220
0.0
230
1.0
  2
SOLID
 70
     1
 71
     0
 91
        1
 92
        3
 72
     0
 73
     1
 93
        4
 10
-0.6614583333333333
 20
10.7376736111111
 10
0.6614583333333333
 20
10.7376736111111
 10
0.6614583333333333
 20
-10.7376736111111
 10
-0.6614583333333333
 20
-10.7376736111111
 97
        0
 75
     2
 76
     1
 98
        1
 10
0.0
 20
0.0
  0
ENDBLK
  5
478
330
474
100
AcDbEntity
  8
0
100
AcDbBlockEnd
  0
BLOCK
  5
47B
330
479
100
AcDbEntity
  8
0
 62
     7
100
AcDbBlockBegin
  2
AI9-BLK6
 70
     0
 10
0.0
 20
0.0
 30
0.0
  3
AI9-BLK6
  1

  0
SPLINE
  5
47A
330
479
100
AcDbEntity
  8
LAYER_1
 62
     7
100
AcDbSpline
210
0.0
220
0.0
230
1.0
 70
    11
 71
     3
 72
    59
 73
    55
 74
     0
 42
0.0000000001
 43
0.0000000001
 40
0.0
 40
0.0
 40
0.0
 40
0.0
 40
1.0
 40
1.0
 40
1.0
 40
2.0
 40
2.0
 40
2.0
 40
3.0
 40
3.0
 40
3.0
 40
4.0
 40
4.0
 40
4.0
 40
5.0
 40
5.0
 40
5.0
 40
6.0
 40
6.0
 40
6.0
 40
7.0
 40
7.0
 40
7.0
 40
8.0
 40
8.0
 40
8.0
 40
9.0
 40
9.0
 40
9.0
 40
10.0
 40
10.0
 40
10.0
 40
11.0
 40
11.0
 40
11.0
 40
12.0
 40
12.0
 40
12.0
 40
13.0
 40
13.0
 40
13.0
 40
14.0
 40
14.0
 40
14.0
 40
15.0
 40
15.0
 40
15.0
 40
16.0
 40
16.0
 40
16.0
 40
17.0
 40
17.0
 40
17.0
 40
18.0
 40
18.0
 40
18.0
 40
18.0
 10
3.062689887152775
 20
9.168088107638887
 30
0.0
 10
3.735172526041666
 20
7.739062499999997
 30
0.0
 10
4.110687934027776
 20
6.116422526041666
 30
0.0
 10
4.189236111111108
 20
4.299479166666666
 30
0.0
 10
4.189236111111108
 20
4.299479166666666
 30
0.0
 10
2.866319444444443
 20
4.299479166666666
 30
0.0
 10
2.866319444444443
 20
4.299479166666666
 30
0.0
 10
2.720936414930555
 20
5.667871093749997
 30
0.0
 10
2.435682508680555
 20
6.752387152777776
 30
0.0
 10
2.009868706597218
 20
7.553027343749997
 30
0.0
 10
1.584054904513888
 20
8.352978515624997
 30
0.0
 10
0.9839192708333332
 20
8.753298611111111
 30
0.0
 10
0.2101508246527778
 20
8.753298611111111
 30
0.0
 10
-0.7386284722222222
 20
8.753298611111111
 30
0.0
 10
-1.503439670138888
 20
8.010536024305555
 30
0.0
 10
-2.083593749999999
 20
6.526388888888886
 30
0.0
 10
-2.664436848958333
 20
5.042241753472221
 30
0.0
 10
-2.954513888888888
 20
2.767100694444443
 30
0.0
 10
-2.954513888888888
 20
-0.2990342881944444
 30
0.0
 10
-2.954513888888888
 20
-2.811197916666666
 30
0.0
 10
-2.693375651041666
 20
-4.847938368055555
 30
0.0
 10
-2.17041015625
 20
-6.409944661458332
 30
0.0
 10
-1.648133680555553
 20
-7.972639973958332
 30
0.0
 10
-0.8640299479166666
 20
-8.753298611111111
 30
0.0
 10
0.1812120225694444
 20
-8.753298611111111
 30
0.0
 10
1.138948567708333
 20
-8.753298611111111
 30
0.0
 10
1.865174696180553
 20
-7.927853732638887
 30
0.0
 10
2.359201388888884
 20
-6.275585937499998
 30
0.0
 10
2.62998589409722
 20
-5.406043836805555
 30
0.0
 10
2.828423394097221
 20
-4.262272135416666
 30
0.0
 10
2.954513888888888
 20
-2.844270833333331
 30
0.0
 10
2.954513888888888
 20
-2.844270833333331
 30
0.0
 10
4.277430555555555
 20
-2.844270833333331
 30
0.0
 10
4.277430555555555
 20
-2.844270833333331
 30
0.0
 10
4.169943576388888
 20
-5.109765624999996
 30
0.0
 10
3.795117187499998
 20
-7.009391276041665
 30
0.0
 10
3.151573350694443
 20
-8.542458767361106
 30
0.0
 10
2.381249999999999
 20
-10.38834092881943
 30
0.0
 10
1.347721354166665
 20
-11.3109375
 30
0.0
 10
0.0509874131944445
 20
-11.3109375
 30
0.0
 10
-1.07004665798611
 20
-11.3109375
 30
0.0
 10
-2.010557725694444
 20
-10.55577256944443
 30
0.0
 10
-2.771234809027776
 20
-9.04475368923611
 30
0.0
 10
-3.775824652777775
 20
-7.046598307291666
 30
0.0
 10
-4.277430555555555
 20
-3.961170789930555
 30
0.0
 10
-4.277430555555555
 20
0.2115288628472222
 30
0.0
 10
-4.277430555555555
 20
3.379638671874998
 30
0.0
 10
-3.902604166666666
 20
5.977929687499997
 30
0.0
 10
-3.151573350694443
 20
8.005712890624996
 30
0.0
 10
-2.333018663194443
 20
10.20919596354165
 30
0.0
 10
-1.20647243923611
 20
11.3109375
 30
0.0
 10
0.2266872829861111
 20
11.3109375
 30
0.0
 10
1.444873046875
 20
11.3109375
 30
0.0
 10
2.390207248263884
 20
10.59642469618055
 30
0.0
 10
3.062689887152775
 20
9.168088107638887
 30
0.0
  0
ENDBLK
  5
47C
330
479
100
AcDbEntity
  8
0
100
AcDbBlockEnd
  0
BLOCK
  5
480
330
47D
100
AcDbEntity
  8
0
 62
     7
100
AcDbBlockBegin
  2
AI9-BLK5
 70
     0
 10
0.0
 20
0.0
 30
0.0
  3
AI9-BLK5
  1

  0
SPLINE
  5
47E
330
47D
100
AcDbEntity
  8
LAYER_1
 62
     7
100
AcDbSpline
210
0.0
220
0.0
230
1.0
 70
    11
 71
     3
 72
    32
 73
    28
 74
     0
 42
0.0000000001
 43
0.0000000001
 40
0.0
 40
0.0
 40
0.0
 40
0.0
 40
1.0
 40
1.0
 40
1.0
 40
2.0
 40
2.0
 40
2.0
 40
3.0
 40
3.0
 40
3.0
 40
4.0
 40
4.0
 40
4.0
 40
5.0
 40
5.0
 40
5.0
 40
6.0
 40
6.0
 40
6.0
 40
7.0
 40
7.0
 40
7.0
 40
8.0
 40
8.0
 40
8.0
 40
9.0
 40
9.0
 40
9.0
 40
9.0
 10
-2.62378472222222
 20
-8.268229166666666
 30
0.0
 10
-2.62378472222222
 20
-8.268229166666666
 30
0.0
 10
-2.62378472222222
 20
8.180034722222217
 30
0.0
 10
-2.62378472222222
 20
8.180034722222217
 30
0.0
 10
-2.62378472222222
 20
8.180034722222217
 30
0.0
 10
-0.3376193576388888
 20
8.180034722222217
 30
0.0
 10
-0.3376193576388888
 20
8.180034722222217
 30
0.0
 10
0.6972873263888888
 20
8.180034722222217
 30
0.0
 10
1.449007161458333
 20
7.445540364583332
 30
0.0
 10
1.918918185763885
 20
5.977929687499997
 30
0.0
 10
2.388829210069443
 20
4.510319010416666
 30
0.0
 10
2.62378472222222
 20
2.449462890624999
 30
0.0
 10
2.62378472222222
 20
-0.204638671875
 30
0.0
 10
2.62378472222222
 20
-0.8950358072916666
 30
0.0
 10
2.590022786458332
 20
-1.643310546874999
 30
0.0
 10
2.523187934027772
 20
-2.45015190972222
 30
0.0
 10
2.408121744791666
 20
-3.80200737847222
 30
0.0
 10
2.226220703124999
 20
-4.909950086805555
 30
0.0
 10
1.976795789930553
 20
-5.774669053819441
 30
0.0
 10
1.659847005208333
 20
-6.853672960069442
 30
0.0
 10
1.252636718749998
 20
-7.583344184027778
 30
0.0
 10
0.7544759114583333
 20
-7.962304687499997
 30
0.0
 10
0.4664659288194444
 20
-8.166254340277777
 30
0.0
 10
0.1074869791666666
 20
-8.268229166666666
 30
0.0
 10
-0.3231499565972222
 20
-8.268229166666666
 30
0.0
 10
-0.3231499565972222
 20
-8.268229166666666
 30
0.0
 10
-2.62378472222222
 20
-8.268229166666666
 30
0.0
 10
-2.62378472222222
 20
-8.268229166666666
 30
0.0
  0
SPLINE
  5
47F
330
47D
100
AcDbEntity
  8
LAYER_1
 62
     7
100
AcDbSpline
210
0.0
220
0.0
230
1.0
 70
    11
 71
     3
 72
    26
 73
    22
 74
     0
 42
0.0000000001
 43
0.0000000001
 40
0.0
 40
0.0
 40
0.0
 40
0.0
 40
1.0
 40
1.0
 40
1.0
 40
2.0
 40
2.0
 40
2.0
 40
3.0
 40
3.0
 40
3.0
 40
4.0
 40
4.0
 40
4.0
 40
5.0
 40
5.0
 40
5.0
 40
6.0
 40
6.0
 40
6.0
 40
7.0
 40
7.0
 40
7.0
 40
7.0
 10
-3.946701388888888
 20
-10.7376736111111
 30
0.0
 10
-3.946701388888888
 20
-10.7376736111111
 30
0.0
 10
-0.0943956163194444
 20
-10.7376736111111
 30
0.0
 10
-0.0943956163194444
 20
-10.7376736111111
 30
0.0
 10
1.546847873263885
 20
-10.7376736111111
 30
0.0
 10
2.705777994791666
 20
-9.11021050347222
 30
0.0
 10
3.381705729166666
 20
-5.854595269097222
 30
0.0
 10
3.757910156249999
 20
-4.01284722222222
 30
0.0
 10
3.946701388888888
 20
-1.951991102430555
 30
0.0
 10
3.946701388888888
 20
0.328662109375
 30
0.0
 10
3.946701388888888
 20
3.281797960069443
 30
0.0
 10
3.622862413194443
 20
5.703700086805552
 30
0.0
 10
2.976562499999998
 20
7.594368489583332
 30
0.0
 10
2.25171440972222
 20
9.689675564236106
 30
0.0
 10
1.233344184027777
 20
10.7376736111111
 30
0.0
 10
-0.0799262152777778
 20
10.7376736111111
 30
0.0
 10
-0.0799262152777778
 20
10.7376736111111
 30
0.0
 10
-3.946701388888888
 20
10.7376736111111
 30
0.0
 10
-3.946701388888888
 20
10.7376736111111
 30
0.0
 10
-3.946701388888888
 20
10.7376736111111
 30
0.0
 10
-3.946701388888888
 20
-10.7376736111111
 30
0.0
 10
-3.946701388888888
 20
-10.7376736111111
 30
0.0
  0
ENDBLK
  5
481
330
47D
100
AcDbEntity
  8
0
100
AcDbBlockEnd
  0
BLOCK
  5
485
330
482
100
AcDbEntity
  8
0
 62
     7
100
AcDbBlockBegin
  2
AI9-BLK4
 70
     0
 10
0.0
 20
0.0
 30
0.0
  3
AI9-BLK4
  1

  0
SPLINE
  5
483
330
482
100
AcDbEntity
  8
LAYER_1
 62
     7
100
AcDbSpline
210
0.0
220
0.0
230
1.0
 70
    11
 71
     3
 72
    26
 73
    22
 74
     0
 42
0.0000000001
 43
0.0000000001
 40
0.0
 40
0.0
 40
0.0
 40
0.0
 40
1.0
 40
1.0
 40
1.0
 40
2.0
 40
2.0
 40
2.0
 40
3.0
 40
3.0
 40
3.0
 40
4.0
 40
4.0
 40
4.0
 40
5.0
 40
5.0
 40
5.0
 40
6.0
 40
6.0
 40
6.0
 40
7.0
 40
7.0
 40
7.0
 40
7.0
 10
-2.645833333333333
 20
0.9039930555555551
 30
0.0
 10
-2.645833333333333
 20
0.9039930555555551
 30
0.0
 10
-2.645833333333333
 20
8.180034722222217
 30
0.0
 10
-2.645833333333333
 20
8.180034722222217
 30
0.0
 10
-2.645833333333333
 20
8.180034722222217
 30
0.0
 10
0.465087890625
 20
8.180034722222217
 30
0.0
 10
0.465087890625
 20
8.180034722222217
 30
0.0
 10
0.9026150173611108
 20
8.180034722222217
 30
0.0
 10
1.24988064236111
 20
8.034651692708331
 30
0.0
 10
1.506884765625
 20
7.745263671874997
 30
0.0
 10
2.001600477430554
 20
7.194048394097221
 30
0.0
 10
2.248958333333332
 20
6.160519748263887
 30
0.0
 10
2.248958333333332
 20
4.643299696180553
 30
0.0
 10
2.248958333333332
 20
3.232188585069443
 30
0.0
 10
2.072569444444444
 20
2.256537543402775
 30
0.0
 10
1.720480685763888
 20
1.715657552083333
 30
0.0
 10
1.368391927083333
 20
1.174088541666665
 30
0.0
 10
0.8929687499999998
 20
0.9039930555555551
 30
0.0
 10
0.2942111545138888
 20
0.9039930555555551
 30
0.0
 10
0.2942111545138888
 20
0.9039930555555551
 30
0.0
 10
-2.645833333333333
 20
0.9039930555555551
 30
0.0
 10
-2.645833333333333
 20
0.9039930555555551
 30
0.0
  0
SPLINE
  5
484
330
482
100
AcDbEntity
  8
LAYER_1
 62
     7
100
AcDbSpline
210
0.0
220
0.0
230
1.0
 70
    11
 71
     3
 72
    68
 73
    64
 74
     0
 42
0.0000000001
 43
0.0000000001
 40
0.0
 40
0.0
 40
0.0
 40
0.0
 40
1.0
 40
1.0
 40
1.0
 40
2.0
 40
2.0
 40
2.0
 40
3.0
 40
3.0
 40
3.0
 40
4.0
 40
4.0
 40
4.0
 40
5.0
 40
5.0
 40
5.0
 40
6.0
 40
6.0
 40
6.0
 40
7.0
 40
7.0
 40
7.0
 40
8.0
 40
8.0
 40
8.0
 40
9.0
 40
9.0
 40
9.0
 40
10.0
 40
10.0
 40
10.0
 40
11.0
 40
11.0
 40
11.0
 40
12.0
 40
12.0
 40
12.0
 40
13.0
 40
13.0
 40
13.0
 40
14.0
 40
14.0
 40
14.0
 40
15.0
 40
15.0
 40
15.0
 40
16.0
 40
16.0
 40
16.0
 40
17.0
 40
17.0
 40
17.0
 40
18.0
 40
18.0
 40
18.0
 40
19.0
 40
19.0
 40
19.0
 40
20.0
 40
20.0
 40
20.0
 40
21.0
 40
21.0
 40
21.0
 40
21.0
 10
-3.968749999999998
 20
-10.7376736111111
 30
0.0
 10
-3.968749999999998
 20
-10.7376736111111
 30
0.0
 10
-2.645833333333333
 20
-10.7376736111111
 30
0.0
 10
-2.645833333333333
 20
-10.7376736111111
 30
0.0
 10
-2.645833333333333
 20
-10.7376736111111
 30
0.0
 10
-2.645833333333333
 20
-1.521354166666665
 30
0.0
 10
-2.645833333333333
 20
-1.521354166666665
 30
0.0
 10
-2.645833333333333
 20
-1.521354166666665
 30
0.0
 10
0.2390896267361111
 20
-1.521354166666665
 30
0.0
 10
0.2390896267361111
 20
-1.521354166666665
 30
0.0
 10
0.7599880642361111
 20
-1.521354166666665
 30
0.0
 10
1.143771701388887
 20
-1.65295681423611
 30
0.0
 10
1.390440538194444
 20
-1.916162109374999
 30
0.0
 10
1.816254340277773
 20
-2.39434136284722
 30
0.0
 10
2.04363064236111
 20
-3.335541449652775
 30
0.0
 10
2.072569444444444
 20
-4.739762369791666
 30
0.0
 10
2.072569444444444
 20
-4.739762369791666
 30
0.0
 10
2.160763888888888
 20
-8.324039713541665
 30
0.0
 10
2.160763888888888
 20
-8.324039713541665
 30
0.0
 10
2.18005642361111
 20
-9.163264973958332
 30
0.0
 10
2.202794053819443
 20
-9.728949652777775
 30
0.0
 10
2.227598741319444
 20
-10.02109374999998
 30
0.0
 10
2.252403428819443
 20
-10.31392686631944
 30
0.0
 10
2.28892144097222
 20
-10.55301649305555
 30
0.0
 10
2.33853081597222
 20
-10.7376736111111
 30
0.0
 10
2.33853081597222
 20
-10.7376736111111
 30
0.0
 10
3.968749999999998
 20
-10.7376736111111
 30
0.0
 10
3.968749999999998
 20
-10.7376736111111
 30
0.0
 10
3.968749999999998
 20
-10.7376736111111
 30
0.0
 10
3.968749999999998
 20
-10.25260416666666
 30
0.0
 10
3.968749999999998
 20
-10.25260416666666
 30
0.0
 10
3.766867404513888
 20
-10.05830078125
 30
0.0
 10
3.625618489583333
 20
-9.621462673611112
 30
0.0
 10
3.545692274305555
 20
-8.942089843749997
 30
0.0
 10
3.49470486111111
 20
-8.543836805555555
 30
0.0
 10
3.459564887152775
 20
-7.937499999999999
 30
0.0
 10
3.439583333333333
 20
-7.121701388888887
 30
0.0
 10
3.439583333333333
 20
-7.121701388888887
 30
0.0
 10
3.395486111111106
 20
-4.232644314236106
 30
0.0
 10
3.395486111111106
 20
-4.232644314236106
 30
0.0
 10
3.375504557291666
 20
-2.981385633680555
 30
0.0
 10
3.26870659722222
 20
-2.077392578125
 30
0.0
 10
3.075781249999999
 20
-1.522043185763888
 30
0.0
 10
2.882166883680555
 20
-0.9666937934027776
 30
0.0
 10
2.592089843749999
 20
-0.5188313802083333
 30
0.0
 10
2.204861111111104
 20
-0.1770779079861111
 30
0.0
 10
2.63618706597222
 20
0.3197048611111111
 30
0.0
 10
2.971739366319443
 20
0.9770290798611107
 30
0.0
 10
3.211518012152775
 20
1.79558376736111
 30
0.0
 10
3.451296657986107
 20
2.613449435763888
 30
0.0
 10
3.571874999999999
 20
3.66558159722222
 30
0.0
 10
3.571874999999999
 20
4.951291232638888
 30
0.0
 10
3.571874999999999
 20
7.415912543402777
 30
0.0
 10
3.124701605902775
 20
9.106076388888887
 30
0.0
 10
2.231043836805555
 20
10.02178276909722
 30
0.0
 10
1.759754774305553
 20
10.498583984375
 30
0.0
 10
1.163753255208332
 20
10.7376736111111
 30
0.0
 10
0.443039279513889
 20
10.7376736111111
 30
0.0
 10
0.443039279513889
 20
10.7376736111111
 30
0.0
 10
-3.968749999999998
 20
10.7376736111111
 30
0.0
 10
-3.968749999999998
 20
10.7376736111111
 30
0.0
 10
-3.968749999999998
 20
10.7376736111111
 30
0.0
 10
-3.968749999999998
 20
-10.7376736111111
 30
0.0
 10
-3.968749999999998
 20
-10.7376736111111
 30
0.0
  0
ENDBLK
  5
486
330
482
100
AcDbEntity
  8
0
100
AcDbBlockEnd
  0
BLOCK
  5
48A
330
487
100
AcDbEntity
  8
0
 62
     7
100
AcDbBlockBegin
  2
AI9-BLK3
 70
     0
 10
0.0
 20
0.0
 30
0.0
  3
AI9-BLK3
  1

  0
LWPOLYLINE
  5
488
330
487
100
AcDbEntity
  8
LAYER_1
 62
     7
100
AcDbPolyline
 90
        4
 70
     1
 43
0.0
 10
-0.6613722059461809
 20
10.7376736111111
 10
0.6613722059461809
 20
10.7376736111111
 10
0.6613722059461809
 20
-10.7376736111111
 10
-0.6613722059461809
 20
-10.7376736111111
  0
HATCH
  5
489
330
487
100
AcDbEntity
  8
LAYER_1
 62
     7
100
AcDbHatch
 10
0.0
 20
0.0
 30
0.0
210
0.0
220
0.0
230
1.0
  2
SOLID
 70
     1
 71
     0
 91
        1
 92
        3
 72
     0
 73
     1
 93
        4
 10
-0.6613722059461809
 20
10.7376736111111
 10
0.6613722059461809
 20
10.7376736111111
 10
0.6613722059461809
 20
-10.7376736111111
 10
-0.6613722059461809
 20
-10.7376736111111
 97
        0
 75
     2
 76
     1
 98
        1
 10
0.0
 20
0.0
  0
ENDBLK
  5
48B
330
487
100
AcDbEntity
  8
0
100
AcDbBlockEnd
  0
BLOCK
  5
48F
330
48C
100
AcDbEntity
  8
0
 62
     7
100
AcDbBlockBegin
  2
AI9-BLK2
 70
     0
 10
0.0
 20
0.0
 30
0.0
  3
AI9-BLK2
  1

  0
LWPOLYLINE
  5
48D
330
48C
100
AcDbEntity
  8
LAYER_1
 62
     7
100
AcDbPolyline
 90
        7
 70
     1
 43
0.0
 10
-2.785704210069443
 20
10.7376736111111
 10
0.0
 20
-7.550960286458332
 10
2.771234809027776
 20
10.7376736111111
 10
4.233333333333331
 20
10.7376736111111
 10
0.6910861545138888
 20
-10.7376736111111
 10
-0.7055555555555558
 20
-10.7376736111111
 10
-4.233333333333331
 20
10.7376736111111
  0
HATCH
  5
48E
330
48C
100
AcDbEntity
  8
LAYER_1
 62
     7
100
AcDbHatch
 10
0.0
 20
0.0
 30
0.0
210
0.0
220
0.0
230
1.0
  2
SOLID
 70
     1
 71
     0
 91
        1
 92
        3
 72
     0
 73
     1
 93
        7
 10
-2.785704210069443
 20
10.7376736111111
 10
0.0
 20
-7.550960286458332
 10
2.771234809027776
 20
10.7376736111111
 10
4.233333333333331
 20
10.7376736111111
 10
0.6910861545138888
 20
-10.7376736111111
 10
-0.7055555555555558
 20
-10.7376736111111
 10
-4.233333333333331
 20
10.7376736111111
 97
        0
 75
     2
 76
     1
 98
        1
 10
0.0
 20
0.0
  0
ENDBLK
  5
490
330
48C
100
AcDbEntity
  8
0
100
AcDbBlockEnd
  0
BLOCK
  5
494
330
491
100
AcDbEntity
  8
0
 62
     7
100
AcDbBlockBegin
  2
AI9-BLK1
 70
     0
 10
0.0
 20
0.0
 30
0.0
  3
AI9-BLK1
  1

  0
LWPOLYLINE
  5
492
330
491
100
AcDbEntity
  8
LAYER_1
 62
     7
100
AcDbPolyline
 90
       12
 70
     1
 43
0.0
 10
-3.571874999999999
 20
10.7376736111111
 10
3.483680555555555
 20
10.7376736111111
 10
3.483680555555555
 20
8.091840277777777
 10
-2.248958333333332
 20
8.091840277777777
 10
-2.248958333333332
 20
1.565451388888888
 10
3.042708333333333
 20
1.565451388888888
 10
3.042708333333333
 20
-0.9039930555555551
 10
-2.248958333333332
 20
-0.9039930555555551
 10
-2.248958333333332
 20
-8.180034722222217
 10
3.571874999999999
 20
-8.180034722222217
 10
3.571874999999999
 20
-10.7376736111111
 10
-3.571874999999999
 20
-10.7376736111111
  0
HATCH
  5
493
330
491
100
AcDbEntity
  8
LAYER_1
 62
     7
100
AcDbHatch
 10
0.0
 20
0.0
 30
0.0
210
0.0
220
0.0
230
1.0
  2
SOLID
 70
     1
 71
     0
 91
        1
 92
        3
 72
     0
 73
     1
 93
       12
 10
-3.571874999999999
 20
10.7376736111111
 10
3.483680555555555
 20
10.7376736111111
 10
3.483680555555555
 20
8.091840277777777
 10
-2.248958333333332
 20
8.091840277777777
 10
-2.248958333333332
 20
1.565451388888888
 10
3.042708333333333
 20
1.565451388888888
 10
3.042708333333333
 20
-0.9039930555555551
 10
-2.248958333333332
 20
-0.9039930555555551
 10
-2.248958333333332
 20
-8.180034722222217
 10
3.571874999999999
 20
-8.180034722222217
 10
3.571874999999999
 20
-10.7376736111111
 10
-3.571874999999999
 20
-10.7376736111111
 97
        0
 75
     2
 76
     1
 98
        1
 10
0.0
 20
0.0
  0
ENDBLK
  5
495
330
491
100
AcDbEntity
  8
0
100
AcDbBlockEnd
  0
BLOCK
  5
4B9
330
496
100
AcDbEntity
  8
0
100
AcDbBlockBegin
  2
HD_LLC_logo_OT5
 70
     0
 10
0.0
 20
0.0
 30
0.0
  3
HD_LLC_logo_OT5
  1

  0
SPLINE
  5
497
102
{ACAD_REACTORS
330
4B7
102
}
330
496
100
AcDbEntity
  8
LAYER_1
 62
     7
100
AcDbSpline
210
0.0
220
0.0
230
1.0
 70
    11
 71
     3
 72
   113
 73
   109
 74
     0
 42
0.0000000001
 43
0.0000000001
 40
0.0
 40
0.0
 40
0.0
 40
0.0
 40
1.0
 40
1.0
 40
1.0
 40
2.0
 40
2.0
 40
2.0
 40
3.0
 40
3.0
 40
3.0
 40
4.0
 40
4.0
 40
4.0
 40
5.0
 40
5.0
 40
5.0
 40
6.0
 40
6.0
 40
6.0
 40
7.0
 40
7.0
 40
7.0
 40
8.0
 40
8.0
 40
8.0
 40
9.0
 40
9.0
 40
9.0
 40
10.0
 40
10.0
 40
10.0
 40
11.0
 40
11.0
 40
11.0
 40
12.0
 40
12.0
 40
12.0
 40
13.0
 40
13.0
 40
13.0
 40
14.0
 40
14.0
 40
14.0
 40
15.0
 40
15.0
 40
15.0
 40
16.0
 40
16.0
 40
16.0
 40
17.0
 40
17.0
 40
17.0
 40
18.0
 40
18.0
 40
18.0
 40
19.0
 40
19.0
 40
19.0
 40
20.0
 40
20.0
 40
20.0
 40
21.0
 40
21.0
 40
21.0
 40
22.0
 40
22.0
 40
22.0
 40
23.0
 40
23.0
 40
23.0
 40
24.0
 40
24.0
 40
24.0
 40
25.0
 40
25.0
 40
25.0
 40
26.0
 40
26.0
 40
26.0
 40
27.0
 40
27.0
 40
27.0
 40
28.0
 40
28.0
 40
28.0
 40
29.0
 40
29.0
 40
29.0
 40
30.0
 40
30.0
 40
30.0
 40
31.0
 40
31.0
 40
31.0
 40
32.0
 40
32.0
 40
32.0
 40
33.0
 40
33.0
 40
33.0
 40
34.0
 40
34.0
 40
34.0
 40
35.0
 40
35.0
 40
35.0
 40
36.0
 40
36.0
 40
36.0
 40
36.0
 10
193.3039632161458
 20
186.1548733181423
 30
0.0
 10
193.3039632161458
 20
186.1860514322916
 30
0.0
 10
193.3039632161458
 20
219.6932223849826
 30
0.0
 10
193.3039632161458
 20
219.6932223849826
 30
0.0
 10
193.3039632161458
 20
219.6932223849826
 30
0.0
 10
193.2974175347219
 20
219.7488606770833
 30
0.0
 10
193.2974175347219
 20
219.7488606770833
 30
0.0
 10
191.5293945312499
 20
235.455740017361
 30
0.0
 10
175.1458984374999
 20
235.2467949761284
 30
0.0
 10
174.9808783637151
 20
235.2428331163193
 30
0.0
 10
174.9808783637151
 20
235.2428331163193
 30
0.0
 10
125.8827555338541
 20
235.2430053710937
 30
0.0
 10
125.8827555338541
 20
235.2430053710937
 30
0.0
 10
125.8827555338541
 20
235.2430053710937
 30
0.0
 10
125.8827555338541
 20
255.5278998480901
 30
0.0
 10
125.8827555338541
 20
255.5278998480901
 30
0.0
 10
125.8827555338541
 20
255.5278998480901
 30
0.0
 10
84.5626247829861
 20
255.5278998480901
 30
0.0
 10
84.5626247829861
 20
255.5278998480901
 30
0.0
 10
84.5626247829861
 20
255.5278998480901
 30
0.0
 10
84.55711263020829
 20
233.7919311523436
 30
0.0
 10
84.55711263020829
 20
233.7919311523436
 30
0.0
 10
84.55711263020829
 20
233.7919311523436
 30
0.0
 10
64.42052951388888
 20
233.7919311523436
 30
0.0
 10
64.42052951388888
 20
233.7919311523436
 30
0.0
 10
64.42052951388888
 20
233.7919311523436
 30
0.0
 10
64.41501736111111
 20
255.5278998480901
 30
0.0
 10
64.41501736111111
 20
255.5278998480901
 30
0.0
 10
64.41501736111111
 20
255.5278998480901
 30
0.0
 10
23.91757541232637
 20
255.5278998480901
 30
0.0
 10
23.91757541232637
 20
255.5278998480901
 30
0.0
 10
23.91757541232637
 20
255.5278998480901
 30
0.0
 10
23.91757541232637
 20
233.2393378363715
 30
0.0
 10
23.91757541232637
 20
233.2393378363715
 30
0.0
 10
23.91757541232637
 20
233.2393378363715
 30
0.0
 10
43.65624999999999
 20
233.2393378363715
 30
0.0
 10
43.65624999999999
 20
233.2393378363715
 30
0.0
 10
43.65624999999999
 20
233.2393378363715
 30
0.0
 10
43.65624999999999
 20
211.5188720703125
 30
0.0
 10
43.65624999999999
 20
211.5188720703125
 30
0.0
 10
43.65624999999999
 20
211.5188720703125
 30
0.0
 10
23.91757541232637
 20
211.5188720703125
 30
0.0
 10
23.91757541232637
 20
211.5188720703125
 30
0.0
 10
23.91757541232637
 20
211.5188720703125
 30
0.0
 10
23.91757541232637
 20
189.2303100585936
 30
0.0
 10
23.91757541232637
 20
189.2303100585936
 30
0.0
 10
23.91757541232637
 20
189.2303100585936
 30
0.0
 10
64.41501736111111
 20
189.2303100585936
 30
0.0
 10
64.41501736111111
 20
189.2303100585936
 30
0.0
 10
64.41501736111111
 20
189.2303100585936
 30
0.0
 10
64.42052951388888
 20
211.069976128472
 30
0.0
 10
64.42052951388888
 20
211.069976128472
 30
0.0
 10
64.42052951388888
 20
211.069976128472
 30
0.0
 10
84.55711263020829
 20
211.069976128472
 30
0.0
 10
84.55711263020829
 20
211.069976128472
 30
0.0
 10
84.55711263020829
 20
211.069976128472
 30
0.0
 10
84.5626247829861
 20
189.2303100585936
 30
0.0
 10
84.5626247829861
 20
189.2303100585936
 30
0.0
 10
84.5626247829861
 20
189.2303100585936
 30
0.0
 10
125.8827555338541
 20
189.2303100585936
 30
0.0
 10
125.8827555338541
 20
189.2303100585936
 30
0.0
 10
125.8827555338541
 20
189.2303100585936
 30
0.0
 10
125.8827555338541
 20
211.5188720703125
 30
0.0
 10
125.8827555338541
 20
211.5188720703125
 30
0.0
 10
125.8827555338541
 20
211.5188720703125
 30
0.0
 10
105.3213921440971
 20
211.5188720703125
 30
0.0
 10
105.3213921440971
 20
211.5188720703125
 30
0.0
 10
105.3213921440971
 20
211.5188720703125
 30
0.0
 10
105.3213921440971
 20
233.2393378363715
 30
0.0
 10
105.3213921440971
 20
233.2393378363715
 30
0.0
 10
105.3213921440971
 20
233.2393378363715
 30
0.0
 10
175.0046495225693
 20
233.243127441406
 30
0.0
 10
175.0046495225693
 20
233.243127441406
 30
0.0
 10
175.6268337673611
 20
233.2560465494791
 30
0.0
 10
189.7165852864583
 20
233.3962619357638
 30
0.0
 10
191.3037407769094
 20
219.5690266927083
 30
0.0
 10
191.3037407769094
 20
219.4332899305555
 30
0.0
 10
191.3037407769094
 20
186.1142211914062
 30
0.0
 10
191.3037407769094
 20
186.1142211914062
 30
0.0
 10
191.3037407769094
 20
186.1142211914062
 30
0.0
 10
191.3051188151039
 20
186.0880384657115
 30
0.0
 10
191.3051188151039
 20
186.0880384657115
 30
0.0
 10
191.3054633246526
 20
186.0787367078991
 30
0.0
 10
191.3109754774304
 20
185.9566080729166
 30
0.0
 10
191.3109754774304
 20
185.7399115668401
 30
0.0
 10
191.3109754774304
 20
184.2090833875865
 30
0.0
 10
191.0488037109374
 20
177.9643310546874
 30
0.0
 10
186.9866916232638
 20
173.5652886284722
 30
0.0
 10
184.2540418836804
 20
170.6064683702255
 30
0.0
 10
180.3224989149304
 20
169.0308539496526
 30
0.0
 10
175.300927734375
 20
168.8825425889756
 30
0.0
 10
175.300927734375
 20
168.8825425889756
 30
0.0
 10
107.0094889322916
 20
168.8828870985243
 30
0.0
 10
107.0094889322916
 20
168.8828870985243
 30
0.0
 10
107.0094889322916
 20
168.8828870985243
 30
0.0
 10
107.0094889322916
 20
166.8830091688368
 30
0.0
 10
107.0094889322916
 20
166.8830091688368
 30
0.0
 10
107.0094889322916
 20
166.8830091688368
 30
0.0
 10
175.3305555555555
 20
166.8830091688368
 30
0.0
 10
175.3305555555555
 20
166.8830091688368
 30
0.0
 10
180.9467502170138
 20
167.0485460069444
 30
0.0
 10
185.3571614583333
 20
168.8448187934026
 30
0.0
 10
188.4687717013888
 20
172.2223904079861
 30
0.0
 10
192.9649658203124
 20
177.1034016927083
 30
0.0
 10
193.3136094835069
 20
183.7202243381076
 30
0.0
 10
193.3136094835069
 20
185.6520616319443
 30
0.0
 10
193.3136094835069
 20
185.9247409396701
 30
0.0
 10
193.3070638020833
 20
186.0868326822916
 30
0.0
 10
193.3039632161458
 20
186.1548733181423
 30
0.0
  0
INSERT
  5
498
102
{ACAD_REACTORS
330
4B8
102
}
330
496
100
AcDbEntity
  8
LAYER_1
 62
     7
100
AcDbBlockReference
  2
AI9-BLK14
 10
159.5625257703993
 20
200.5118781195744
 30
0.0
  0
INSERT
  5
499
330
496
100
AcDbEntity
  8
LAYER_1
 62
     7
100
AcDbBlockReference
  2
AI9-BLK13
 10
27.69615614149305
 20
179.2145562065971
 30
0.0
 42
0.9200000000000001
  0
INSERT
  5
49A
102
{ACAD_REACTORS
330
4A5
102
}
330
496
100
AcDbEntity
  8
LAYER_1
 62
     7
100
AcDbBlockReference
  2
AI9-BLK11
 10
44.76591525607638
 20
179.2145562065971
 30
0.0
 42
0.9200000000000001
  0
INSERT
  5
49B
102
{ACAD_REACTORS
330
4B3
102
}
330
496
100
AcDbEntity
  8
LAYER_1
 62
     7
100
AcDbBlockReference
  2
AI9-BLK10
 10
54.04665798611111
 20
179.2145562065971
 30
0.0
 42
0.9200000000000001
  0
INSERT
  5
49C
102
{ACAD_REACTORS
330
4B2
102
}
330
496
100
AcDbEntity
  8
LAYER_1
 62
     7
100
AcDbBlockReference
  2
AI9-BLK9
 10
62.79013807508679
 20
179.2145562065971
 30
0.0
 42
0.9
  0
INSERT
  5
49D
330
496
100
AcDbEntity
  8
LAYER_1
 62
     7
100
AcDbBlockReference
  2
AI9-BLK8
 10
71.03046196831595
 20
179.2145562065971
 30
0.0
 42
0.9200000000000001
  0
INSERT
  5
49E
330
496
100
AcDbEntity
  8
LAYER_1
 62
     7
100
AcDbBlockReference
  2
AI9-BLK7
 10
76.93793945312498
 20
179.2145562065971
 30
0.0
 42
0.9200000000000001
  0
INSERT
  5
49F
102
{ACAD_REACTORS
330
4A6
102
}
330
496
100
AcDbEntity
  8
LAYER_1
 62
     7
100
AcDbBlockReference
  2
AI9-BLK6
 10
82.55602891710069
 20
179.2145562065971
 30
0.0
 42
0.9
  0
INSERT
  5
4A0
102
{ACAD_REACTORS
330
4B4
102
}
330
496
100
AcDbEntity
  8
LAYER_1
 62
     7
100
AcDbBlockReference
  2
AI9-BLK5
 10
94.32430284288193
 20
179.2145562065971
 30
0.0
 42
0.9200000000000001
  0
INSERT
  5
4A1
102
{ACAD_REACTORS
330
4B5
102
}
330
496
100
AcDbEntity
  8
LAYER_1
 62
     7
100
AcDbBlockReference
  2
AI9-BLK4
 10
103.2081705729166
 20
179.2145562065971
 30
0.0
 42
0.9200000000000001
  0
INSERT
  5
4A2
330
496
100
AcDbEntity
  8
LAYER_1
 62
     7
100
AcDbBlockReference
  2
AI9-BLK3
 10
108.850978597005
 20
179.2145562065971
 30
0.0
 42
0.9200000000000001
  0
INSERT
  5
4A3
330
496
100
AcDbEntity
  8
LAYER_1
 62
     7
100
AcDbBlockReference
  2
AI9-BLK2
 10
114.2045708550346
 20
179.2145562065971
 30
0.0
 42
0.9200000000000001
  0
INSERT
  5
4A4
330
496
100
AcDbEntity
  8
LAYER_1
 62
     7
100
AcDbBlockReference
  2
AI9-BLK1
 10
122.4125108506944
 20
179.2145562065971
 30
0.0
 42
0.9200000000000001
  0
HATCH
  5
4A5
330
496
100
AcDbEntity
  8
0
  6
Continuous
100
AcDbHatch
 10
0.0
 20
0.0
 30
0.0
210
0.0
220
0.0
230
1.0
  2
SOLID
 70
     1
 71
     1
 91
        2
 92
       16
 93
        1
 72
     4
 94
        3
 73
     0
 74
     0
 95
       26
 96
       22
 40
0.0
 40
0.0
 40
0.0
 40
0.0
 40
1.0
 40
1.0
 40
1.0
 40
2.0
 40
2.0
 40
2.0
 40
3.0
 40
3.0
 40
3.0
 40
4.0
 40
4.0
 40
4.0
 40
5.0
 40
5.0
 40
5.0
 40
6.0
 40
6.0
 40
6.0
 40
7.0
 40
7.0
 40
7.0
 40
7.0
 10
42.12008192274304
 20
180.046229817708
 10
42.12008192274304
 20
180.046229817708
 10
42.12008192274304
 20
186.7401881510414
 10
42.12008192274304
 20
186.7401881510414
 10
42.12008192274304
 20
186.7401881510414
 10
45.23100314670138
 20
186.7401881510414
 10
45.23100314670138
 20
186.7401881510414
 10
45.66853027343749
 20
186.7401881510414
 10
46.01579589843749
 20
186.6064357638887
 10
46.27280002170138
 20
186.3401987847216
 10
46.76751573350694
 20
185.8330807291664
 10
47.01487358940972
 20
184.8822343749995
 10
47.01487358940972
 20
183.4863919270832
 10
47.01487358940972
 20
182.188169704861
 10
46.83848470052082
 20
181.2905707465276
 10
46.48639594184028
 20
180.7929611545137
 10
46.13430718315971
 20
180.2947176649304
 10
45.65888400607638
 20
180.046229817708
 10
45.06012641059028
 20
180.046229817708
 10
45.06012641059028
 20
180.046229817708
 10
42.12008192274304
 20
180.046229817708
 10
42.12008192274304
 20
180.046229817708
 97
        1
330
49A
 92
        1
 93
        1
 72
     4
 94
        3
 73
     0
 74
     0
 95
       68
 96
       64
 40
0.0
 40
0.0
 40
0.0
 40
0.0
 40
1.0
 40
1.0
 40
1.0
 40
2.0
 40
2.0
 40
2.0
 40
3.0
 40
3.0
 40
3.0
 40
4.0
 40
4.0
 40
4.0
 40
5.0
 40
5.0
 40
5.0
 40
6.0
 40
6.0
 40
6.0
 40
7.0
 40
7.0
 40
7.0
 40
8.0
 40
8.0
 40
8.0
 40
9.0
 40
9.0
 40
9.0
 40
10.0
 40
10.0
 40
10.0
 40
11.0
 40
11.0
 40
11.0
 40
12.0
 40
12.0
 40
12.0
 40
13.0
 40
13.0
 40
13.0
 40
14.0
 40
14.0
 40
14.0
 40
15.0
 40
15.0
 40
15.0
 40
16.0
 40
16.0
 40
16.0
 40
17.0
 40
17.0
 40
17.0
 40
18.0
 40
18.0
 40
18.0
 40
19.0
 40
19.0
 40
19.0
 40
20.0
 40
20.0
 40
20.0
 40
21.0
 40
21.0
 40
21.0
 40
21.0
 10
40.79716525607638
 20
169.3358964843748
 10
40.79716525607638
 20
169.3358964843748
 10
42.12008192274304
 20
169.3358964843748
 10
42.12008192274304
 20
169.3358964843748
 10
42.12008192274304
 20
169.3358964843748
 10
42.12008192274304
 20
177.8149103732637
 10
42.12008192274304
 20
177.8149103732637
 10
42.12008192274304
 20
177.8149103732637
 10
45.00500488281249
 20
177.8149103732637
 10
45.00500488281249
 20
177.8149103732637
 10
45.52590332031249
 20
177.8149103732637
 10
45.90968695746528
 20
177.6938359374998
 10
46.15635579427083
 20
177.4516870659717
 10
46.58216959635415
 20
177.0117621527776
 10
46.80954589843749
 20
176.1458580729164
 10
46.83848470052082
 20
174.8539748263887
 10
46.83848470052082
 20
174.8539748263887
 10
46.92667914496527
 20
171.5564396701385
 10
46.92667914496527
 20
171.5564396701385
 10
46.94597167968749
 20
170.7843524305554
 10
46.96870930989581
 20
170.2639225260415
 10
46.99351399739582
 20
169.9951499565971
 10
47.01831868489581
 20
169.725743489583
 10
47.0548366970486
 20
169.5057810329859
 10
47.10444607204859
 20
169.3358964843748
 10
47.10444607204859
 20
169.3358964843748
 10
48.73466525607638
 20
169.3358964843748
 10
48.73466525607638
 20
169.3358964843748
 10
48.73466525607638
 20
169.3358964843748
 10
48.73466525607638
 20
169.7821603732633
 10
48.73466525607638
 20
169.7821603732633
 10
48.53278266059028
 20
169.9609194878471
 10
48.39153374565971
 20
170.3628105468748
 10
48.31160753038194
 20
170.9878335503471
 10
48.26062011718749
 20
171.3542263454858
 10
48.22548014322915
 20
171.9120562065971
 10
48.20549858940971
 20
172.6625909288193
 10
48.20549858940971
 20
172.6625909288193
 10
48.16140136718749
 20
175.3205234374999
 10
48.16140136718749
 20
175.3205234374999
 10
48.14141981336803
 20
176.4716814236109
 10
48.03462185329859
 20
177.3033550347219
 10
47.84169650607638
 20
177.814276475694
 10
47.64808213975693
 20
178.3251979166665
 10
47.35800509982638
 20
178.7372313368054
 10
46.97077636718749
 20
179.0516445312498
 10
47.4021023220486
 20
179.5086846788193
 10
47.73765462239582
 20
180.1134229600693
 10
47.97743326822915
 20
180.866493272569
 10
48.21721191406249
 20
181.6189296874999
 10
48.33779025607638
 20
182.5868912760411
 10
48.33779025607638
 20
183.7697441406248
 10
48.33779025607638
 20
186.0371957465273
 10
47.89061686197913
 20
187.5921464843749
 10
46.99695909288194
 20
188.4345963541665
 10
46.52567003038194
 20
188.8732534722221
 10
45.92966851128472
 20
189.0932159288193
 10
45.20895453559027
 20
189.0932159288193
 10
45.20895453559027
 20
189.0932159288193
 10
40.79716525607638
 20
189.0932159288193
 10
40.79716525607638
 20
189.0932159288193
 10
40.79716525607638
 20
189.0932159288193
 10
40.79716525607638
 20
169.3358964843748
 10
40.79716525607638
 20
169.3358964843748
 97
        0
 75
     0
 76
     1
 98
        0
  0
HATCH
  5
4A6
330
496
100
AcDbEntity
  8
0
  6
Continuous
100
AcDbHatch
 10
0.0
 20
0.0
 30
0.0
210
0.0
220
0.0
230
1.0
  2
SOLID
 70
     1
 71
     1
 91
        1
 92
        1
 93
        1
 72
     4
 94
        3
 73
     0
 74
     0
 95
       59
 96
       55
 40
0.0
 40
0.0
 40
0.0
 40
0.0
 40
1.0
 40
1.0
 40
1.0
 40
2.0
 40
2.0
 40
2.0
 40
3.0
 40
3.0
 40
3.0
 40
4.0
 40
4.0
 40
4.0
 40
5.0
 40
5.0
 40
5.0
 40
6.0
 40
6.0
 40
6.0
 40
7.0
 40
7.0
 40
7.0
 40
8.0
 40
8.0
 40
8.0
 40
9.0
 40
9.0
 40
9.0
 40
10.0
 40
10.0
 40
10.0
 40
11.0
 40
11.0
 40
11.0
 40
12.0
 40
12.0
 40
12.0
 40
13.0
 40
13.0
 40
13.0
 40
14.0
 40
14.0
 40
14.0
 40
15.0
 40
15.0
 40
15.0
 40
16.0
 40
16.0
 40
16.0
 40
17.0
 40
17.0
 40
17.0
 40
18.0
 40
18.0
 40
18.0
 40
18.0
 10
85.61871880425345
 20
187.4658355034721
 10
86.29120144314232
 20
186.1797124565971
 10
86.66671685112847
 20
184.7193364800346
 10
86.7452650282118
 20
183.0840874565969
 10
86.7452650282118
 20
183.0840874565969
 10
85.42234836154511
 20
183.0840874565969
 10
85.42234836154511
 20
183.0840874565969
 10
85.27696533203123
 20
184.3156401909719
 10
84.99171142578125
 20
185.2917046440971
 10
84.56589762369791
 20
186.0122808159719
 10
84.14008382161458
 20
186.7322368706594
 10
83.53994818793401
 20
187.0925249565969
 10
82.76617974175342
 20
187.0925249565969
 10
81.81740044487847
 20
187.0925249565969
 10
81.05258924696178
 20
186.4240386284721
 10
80.47243516710068
 20
185.0883062065971
 10
79.89159206814234
 20
183.7525737847219
 10
79.6015150282118
 20
181.7049468315971
 10
79.6015150282118
 20
178.9454253472221
 10
79.6015150282118
 20
176.6844780815969
 10
79.86265326605901
 20
174.8514116753471
 10
80.38561876085069
 20
173.4456060112846
 10
80.90789523654512
 20
172.0391802300344
 10
81.69199896918403
 20
171.3365874565971
 10
82.73724093967013
 20
171.3365874565971
 10
83.69497748480901
 20
171.3365874565971
 10
84.42120361328125
 20
172.0794878472221
 10
84.91523030598958
 20
173.5665288628469
 10
85.18601481119791
 20
174.3491167534719
 10
85.38445231119791
 20
175.3785112847221
 10
85.51054280598959
 20
176.6547124565971
 10
85.51054280598959
 20
176.6547124565971
 10
86.83345947265625
 20
176.6547124565971
 10
86.83345947265625
 20
176.6547124565971
 10
86.72597249348957
 20
174.6157671440971
 10
86.35114610460069
 20
172.9061040581596
 10
85.70760226779514
 20
171.526343315972
 10
84.93727891710069
 20
169.8650493706596
 10
83.90375027126735
 20
169.0347124565971
 10
82.60701633029514
 20
169.0347124565971
 10
81.48598225911458
 20
169.0347124565971
 10
80.54547119140625
 20
169.7143608940971
 10
79.78479410807292
 20
171.0742778862845
 10
78.78020426432292
 20
172.8726177300344
 10
78.27859836154512
 20
175.6495024956596
 10
78.27859836154512
 20
179.4049321831594
 10
78.27859836154512
 20
182.2562310112846
 10
78.65342475043402
 20
184.5946929253469
 10
79.40445556640622
 20
186.4196978081596
 10
80.22301025390625
 20
188.4028325737846
 10
81.34955647786458
 20
189.3943999565971
 10
82.78271620008679
 20
189.3943999565971
 10
84.00090196397568
 20
189.3943999565971
 10
84.94623616536458
 20
188.7513384331594
 10
85.61871880425345
 20
187.4658355034721
 97
        1
330
49F
 75
     0
 76
     1
 98
        1
 10
0.0
 20
0.0
  0
LINE
  5
4A7
102
{ACAD_REACTORS
330
4B6
102
}
330
496
100
AcDbEntity
  8
LAYER_1
 62
     7
100
AcDbLine
 10
34.65766059027778
 20
177.4497853732638
 30
0.0
 11
36.19830729166666
 21
186.1658769531249
 31
0.0
  0
LINE
  5
4A8
102
{ACAD_REACTORS
330
4B6
102
}
330
496
100
AcDbEntity
  8
LAYER_1
 62
     7
100
AcDbLine
 10
36.19830729166666
 20
186.1658769531249
 30
0.0
 11
37.67556423611111
 21
177.4497853732638
 31
0.0
  0
LINE
  5
4A9
102
{ACAD_REACTORS
330
4B6
102
}
330
496
100
AcDbEntity
  8
LAYER_1
 62
     7
100
AcDbLine
 10
37.67556423611111
 20
177.4497853732638
 30
0.0
 11
34.65766059027778
 21
177.4497853732638
 31
0.0
  0
LINE
  5
4AA
102
{ACAD_REACTORS
330
4B6
102
}
330
496
100
AcDbEntity
  8
LAYER_1
 62
     7
100
AcDbLine
 10
31.83957248263888
 20
169.3358964843748
 30
0.0
 11
33.22450086805555
 21
169.3358964843748
 31
0.0
  0
LINE
  5
4AB
102
{ACAD_REACTORS
330
4B6
102
}
330
496
100
AcDbEntity
  8
LAYER_1
 62
     7
100
AcDbLine
 10
33.22450086805555
 20
169.3358964843748
 30
0.0
 11
34.27043185763887
 21
175.2590353732638
 31
0.0
  0
LINE
  5
4AC
102
{ACAD_REACTORS
330
4B6
102
}
330
496
100
AcDbEntity
  8
LAYER_1
 62
     7
100
AcDbLine
 10
34.27043185763887
 20
175.2590353732638
 30
0.0
 11
38.04694552951389
 21
175.2590353732638
 31
0.0
  0
LINE
  5
4AD
102
{ACAD_REACTORS
330
4B6
102
}
330
496
100
AcDbEntity
  8
LAYER_1
 62
     7
100
AcDbLine
 10
38.04694552951389
 20
175.2590353732638
 30
0.0
 11
39.05015733506942
 21
169.3358964843748
 31
0.0
  0
LINE
  5
4AE
102
{ACAD_REACTORS
330
4B6
102
}
330
496
100
AcDbEntity
  8
LAYER_1
 62
     7
100
AcDbLine
 10
39.05015733506942
 20
169.3358964843748
 30
0.0
 11
40.43508572048611
 21
169.3358964843748
 31
0.0
  0
LINE
  5
4AF
102
{ACAD_REACTORS
330
4B6
102
}
330
496
100
AcDbEntity
  8
LAYER_1
 62
     7
100
AcDbLine
 10
40.43508572048611
 20
169.3358964843748
 30
0.0
 11
36.952783203125
 21
189.0932159288193
 31
0.0
  0
LINE
  5
4B0
102
{ACAD_REACTORS
330
4B6
102
}
330
496
100
AcDbEntity
  8
LAYER_1
 62
     7
100
AcDbLine
 10
36.952783203125
 20
189.0932159288193
 30
0.0
 11
35.47828233506943
 21
189.0932159288193
 31
0.0
  0
LINE
  5
4B1
102
{ACAD_REACTORS
330
4B6
102
}
330
496
100
AcDbEntity
  8
LAYER_1
 62
     7
100
AcDbLine
 10
35.47828233506943
 20
189.0932159288193
 30
0.0
 11
31.83957248263888
 21
169.3358964843748
 31
0.0
  0
HATCH
  5
4B2
330
496
100
AcDbEntity
  8
0
  6
Continuous
100
AcDbHatch
 10
0.0
 20
0.0
 30
0.0
210
0.0
220
0.0
230
1.0
  2
SOLID
 70
     1
 71
     1
 91
        2
 92
       16
 93
        1
 72
     4
 94
        3
 73
     0
 74
     0
 95
       29
 96
       25
 40
0.0
 40
0.0
 40
0.0
 40
0.0
 40
1.0
 40
1.0
 40
1.0
 40
2.0
 40
2.0
 40
2.0
 40
3.0
 40
3.0
 40
3.0
 40
4.0
 40
4.0
 40
4.0
 40
5.0
 40
5.0
 40
5.0
 40
6.0
 40
6.0
 40
6.0
 40
7.0
 40
7.0
 40
7.0
 40
8.0
 40
8.0
 40
8.0
 40
8.0
 10
62.85697292751734
 20
171.3365874565971
 10
61.88338894314235
 20
171.3365874565971
 10
61.18058946397566
 20
172.0714263237844
 10
60.74857449001735
 20
173.5411040581594
 10
60.31587049696178
 20
175.0107817925344
 10
60.10020751953123
 20
176.8165630425341
 10
60.10020751953123
 20
178.9578276909721
 10
60.10020751953123
 20
181.6342534722221
 10
60.35101047092013
 20
183.6589360894094
 10
60.85261637369789
 20
185.0324956597219
 10
61.35422227647566
 20
186.4054351128471
 10
62.00741238064235
 20
187.0925249565969
 10
62.81218668619789
 20
187.0925249565969
 10
63.6369425455729
 20
187.0925249565969
 10
64.28806559244789
 20
186.3992339409721
 10
64.76486680772568
 20
185.0126519097221
 10
65.24166802300347
 20
183.6260698784719
 10
65.48006863064235
 20
181.7961040581594
 10
65.48006863064235
 20
179.5239946831596
 10
65.48006863064235
 20
177.3734282769096
 10
65.27336290147568
 20
175.4715288628467
 10
64.86132948133678
 20
173.8176763237846
 10
64.4492960611979
 20
172.1632036675344
 10
63.78094753689235
 20
171.3365874565971
 10
62.85697292751734
 20
171.3365874565971
 97
        1
330
49C
 92
        1
 93
        1
 72
     4
 94
        3
 73
     0
 74
     0
 95
       29
 96
       25
 40
0.0
 40
0.0
 40
0.0
 40
0.0
 40
1.0
 40
1.0
 40
1.0
 40
2.0
 40
2.0
 40
2.0
 40
3.0
 40
3.0
 40
3.0
 40
4.0
 40
4.0
 40
4.0
 40
5.0
 40
5.0
 40
5.0
 40
6.0
 40
6.0
 40
6.0
 40
7.0
 40
7.0
 40
7.0
 40
8.0
 40
8.0
 40
8.0
 40
8.0
 10
62.76119927300346
 20
189.4340874565971
 10
61.47273356119789
 20
189.4340874565971
 10
60.50121663411457
 20
188.2397417534719
 10
59.84733751085068
 20
185.8516704644094
 10
59.3395304361979
 20
183.9900786675344
 10
59.08597140842012
 20
181.7514556206596
 10
59.08597140842012
 20
179.1351812065971
 10
59.08597140842012
 20
176.2379937065971
 10
59.3836276584201
 20
173.8412407769094
 10
59.9789401584201
 20
171.9449224175346
 10
60.6424655490451
 20
169.9779106987846
 10
61.5602389865451
 20
168.9950249565971
 10
62.7315714518229
 20
168.9950249565971
 10
63.9904093424479
 20
168.9950249565971
 10
64.95641411675345
 20
170.1186773003469
 10
65.63027479383679
 20
172.3659819878471
 10
66.20629475911457
 20
174.2796636284719
 10
66.49430474175345
 20
176.6813774956591
 10
66.49430474175345
 20
179.5698833550344
 10
66.49430474175345
 20
182.2388677300341
 10
66.24005669487845
 20
184.4291216362844
 10
65.73293863932289
 20
186.1412651909719
 10
65.08870578342011
 20
188.3364800347219
 10
64.09789632161457
 20
189.4340874565971
 10
62.76119927300346
 20
189.4340874565971
 97
        0
 75
     0
 76
     1
 98
        0
  0
HATCH
  5
4B3
330
496
100
AcDbEntity
  8
0
  6
Continuous
100
AcDbHatch
 10
0.0
 20
0.0
 30
0.0
210
0.0
220
0.0
230
1.0
  2
SOLID
 70
     1
 71
     1
 91
        1
 92
        1
 93
        1
 72
     4
 94
        3
 73
     0
 74
     0
 95
       59
 96
       55
 40
0.0
 40
0.0
 40
0.0
 40
0.0
 40
1.0
 40
1.0
 40
1.0
 40
2.0
 40
2.0
 40
2.0
 40
3.0
 40
3.0
 40
3.0
 40
4.0
 40
4.0
 40
4.0
 40
5.0
 40
5.0
 40
5.0
 40
6.0
 40
6.0
 40
6.0
 40
7.0
 40
7.0
 40
7.0
 40
8.0
 40
8.0
 40
8.0
 40
9.0
 40
9.0
 40
9.0
 40
10.0
 40
10.0
 40
10.0
 40
11.0
 40
11.0
 40
11.0
 40
12.0
 40
12.0
 40
12.0
 40
13.0
 40
13.0
 40
13.0
 40
14.0
 40
14.0
 40
14.0
 40
15.0
 40
15.0
 40
15.0
 40
16.0
 40
16.0
 40
16.0
 40
17.0
 40
17.0
 40
17.0
 40
18.0
 40
18.0
 40
18.0
 40
18.0
 10
49.39440104166666
 20
189.0932159288193
 10
49.39440104166666
 20
189.0932159288193
 10
51.24786241319444
 20
189.0932159288193
 10
51.24786241319444
 20
189.0932159288193
 10
51.24786241319444
 20
189.0932159288193
 10
54.04665798611111
 20
172.3887471788193
 10
54.04665798611111
 20
172.3887471788193
 10
54.04665798611111
 20
172.3887471788193
 10
56.83994140624999
 20
189.0932159288193
 10
56.83994140624999
 20
189.0932159288193
 10
56.83994140624999
 20
189.0932159288193
 10
58.69891493055553
 20
189.0932159288193
 10
58.69891493055553
 20
189.0932159288193
 10
58.69891493055553
 20
189.0932159288193
 10
58.69891493055553
 20
169.3358964843748
 10
58.69891493055553
 20
169.3358964843748
 10
58.69891493055553
 20
169.3358964843748
 10
57.46419270833333
 20
169.3358964843748
 10
57.46419270833333
 20
169.3358964843748
 10
57.46419270833333
 20
169.3358964843748
 10
57.46419270833333
 20
180.9964422743054
 10
57.46419270833333
 20
180.9964422743054
 10
57.46419270833333
 20
181.3996011284721
 10
57.47108289930555
 20
182.0677291666664
 10
57.48624131944444
 20
183.0001924913193
 10
57.50071072048609
 20
183.9326558159721
 10
57.50828993055553
 20
184.932312282986
 10
57.50828993055553
 20
185.9997957899304
 10
57.50828993055553
 20
185.9997957899304
 10
54.700537109375
 20
169.3358964843748
 10
54.700537109375
 20
169.3358964843748
 10
54.700537109375
 20
169.3358964843748
 10
53.38382161458333
 20
169.3358964843748
 10
53.38382161458333
 20
169.3358964843748
 10
53.38382161458333
 20
169.3358964843748
 10
50.58502604166665
 20
185.9997957899304
 10
50.58502604166665
 20
185.9997957899304
 10
50.58502604166665
 20
185.9997957899304
 10
50.58502604166665
 20
185.3944236111109
 10
50.58502604166665
 20
185.3944236111109
 10
50.58502604166665
 20
184.9101258680554
 10
50.59191623263888
 20
184.1729029947915
 10
50.60707465277777
 20
183.1821210937498
 10
50.62154405381942
 20
182.1913391927082
 10
50.62912326388889
 20
181.4629908854165
 10
50.62912326388889
 20
180.9964422743054
 10
50.62912326388889
 20
180.9964422743054
 10
50.62912326388889
 20
169.3358964843748
 10
50.62912326388889
 20
169.3358964843748
 10
50.62912326388889
 20
169.3358964843748
 10
49.39440104166666
 20
169.3358964843748
 10
49.39440104166666
 20
169.3358964843748
 10
49.39440104166666
 20
169.3358964843748
 10
49.39440104166666
 20
189.0932159288193
 10
49.39440104166666
 20
189.0932159288193
 97
        1
330
49B
 75
     0
 76
     1
 98
        1
 10
0.0
 20
0.0
  0
HATCH
  5
4B4
330
496
100
AcDbEntity
  8
0
  6
Continuous
100
AcDbHatch
 10
0.0
 20
0.0
 30
0.0
210
0.0
220
0.0
230
1.0
  2
SOLID
 70
     1
 71
     1
 91
        2
 92
       16
 93
        1
 72
     4
 94
        3
 73
     0
 74
     0
 95
       32
 96
       28
 40
0.0
 40
0.0
 40
0.0
 40
0.0
 40
1.0
 40
1.0
 40
1.0
 40
2.0
 40
2.0
 40
2.0
 40
3.0
 40
3.0
 40
3.0
 40
4.0
 40
4.0
 40
4.0
 40
5.0
 40
5.0
 40
5.0
 40
6.0
 40
6.0
 40
6.0
 40
7.0
 40
7.0
 40
7.0
 40
8.0
 40
8.0
 40
8.0
 40
9.0
 40
9.0
 40
9.0
 40
9.0
 10
91.70051812065969
 20
171.6077853732634
 10
91.70051812065969
 20
171.6077853732634
 10
91.70051812065969
 20
186.7401881510414
 10
91.70051812065969
 20
186.7401881510414
 10
91.70051812065969
 20
186.7401881510414
 10
93.98668348524305
 20
186.7401881510414
 10
93.98668348524305
 20
186.7401881510414
 10
95.02159016927082
 20
186.7401881510414
 10
95.77331000434028
 20
186.0644533420137
 10
96.24322102864582
 20
184.7142515190969
 10
96.71313205295138
 20
183.3640496961804
 10
96.94808756510417
 20
181.4680620659721
 10
96.94808756510417
 20
179.0262886284719
 10
96.94808756510417
 20
178.3911232638887
 10
96.91432562934028
 20
177.7027105034721
 10
96.84749077690971
 20
176.9604164496524
 10
96.7324245876736
 20
175.7167094184024
 10
96.55052354600693
 20
174.6974021267359
 10
96.30109863281248
 20
173.901860677083
 10
95.98414984809028
 20
172.9091770833332
 10
95.57693956163193
 20
172.2378795572914
 10
95.07877875434026
 20
171.8892358940971
 10
94.79076877170138
 20
171.7016022135415
 10
94.43178982204859
 20
171.6077853732634
 10
94.00115288628471
 20
171.6077853732634
 10
94.00115288628471
 20
171.6077853732634
 10
91.70051812065969
 20
171.6077853732634
 10
91.70051812065969
 20
171.6077853732634
 97
        1
330
4A0
 92
        1
 93
        1
 72
     4
 94
        3
 73
     0
 74
     0
 95
       26
 96
       22
 40
0.0
 40
0.0
 40
0.0
 40
0.0
 40
1.0
 40
1.0
 40
1.0
 40
2.0
 40
2.0
 40
2.0
 40
3.0
 40
3.0
 40
3.0
 40
4.0
 40
4.0
 40
4.0
 40
5.0
 40
5.0
 40
5.0
 40
6.0
 40
6.0
 40
6.0
 40
7.0
 40
7.0
 40
7.0
 40
7.0
 10
90.37760145399305
 20
169.3358964843748
 10
90.37760145399305
 20
169.3358964843748
 10
94.22990722656248
 20
169.3358964843748
 10
94.22990722656248
 20
169.3358964843748
 10
95.87115071614581
 20
169.3358964843748
 10
97.03008083767359
 20
170.8331625434026
 10
97.70600857204859
 20
173.8283285590274
 10
98.08221299913194
 20
175.5227367621523
 10
98.27100423177082
 20
177.4187243923609
 10
98.27100423177082
 20
179.5169253472221
 10
98.27100423177082
 20
182.233810329861
 10
97.94716525607638
 20
184.4619602864582
 10
97.30086534288195
 20
186.2013752170135
 10
96.57601725260416
 20
188.1290577256939
 10
95.5576470269097
 20
189.0932159288193
 10
94.24437662760416
 20
189.0932159288193
 10
94.24437662760416
 20
189.0932159288193
 10
90.37760145399305
 20
189.0932159288193
 10
90.37760145399305
 20
189.0932159288193
 10
90.37760145399305
 20
189.0932159288193
 10
90.37760145399305
 20
169.3358964843748
 10
90.37760145399305
 20
169.3358964843748
 97
        0
 75
     0
 76
     1
 98
        0
  0
HATCH
  5
4B5
330
496
100
AcDbEntity
  8
0
  6
Continuous
100
AcDbHatch
 10
0.0
 20
0.0
 30
0.0
210
0.0
220
0.0
230
1.0
  2
SOLID
 70
     1
 71
     1
 91
        2
 92
       16
 93
        1
 72
     4
 94
        3
 73
     0
 74
     0
 95
       26
 96
       22
 40
0.0
 40
0.0
 40
0.0
 40
0.0
 40
1.0
 40
1.0
 40
1.0
 40
2.0
 40
2.0
 40
2.0
 40
3.0
 40
3.0
 40
3.0
 40
4.0
 40
4.0
 40
4.0
 40
5.0
 40
5.0
 40
5.0
 40
6.0
 40
6.0
 40
6.0
 40
7.0
 40
7.0
 40
7.0
 40
7.0
 10
100.5623372395832
 20
180.046229817708
 10
100.5623372395832
 20
180.046229817708
 10
100.5623372395832
 20
186.7401881510414
 10
100.5623372395832
 20
186.7401881510414
 10
100.5623372395832
 20
186.7401881510414
 10
103.6732584635416
 20
186.7401881510414
 10
103.6732584635416
 20
186.7401881510414
 10
104.1107855902777
 20
186.7401881510414
 10
104.4580512152777
 20
186.6064357638887
 10
104.7150553385415
 20
186.3401987847216
 10
105.2097710503471
 20
185.8330807291664
 10
105.4571289062495
 20
184.8822343749995
 10
105.4571289062495
 20
183.4863919270832
 10
105.4571289062495
 20
182.188169704861
 10
105.280740017361
 20
181.2905707465276
 10
104.9286512586804
 20
180.7929611545137
 10
104.5765624999999
 20
180.2947176649304
 10
104.1011393229166
 20
180.046229817708
 10
103.5023817274304
 20
180.046229817708
 10
103.5023817274304
 20
180.046229817708
 10
100.5623372395832
 20
180.046229817708
 10
100.5623372395832
 20
180.046229817708
 97
        1
330
4A1
 92
        1
 93
        1
 72
     4
 94
        3
 73
     0
 74
     0
 95
       68
 96
       64
 40
0.0
 40
0.0
 40
0.0
 40
0.0
 40
1.0
 40
1.0
 40
1.0
 40
2.0
 40
2.0
 40
2.0
 40
3.0
 40
3.0
 40
3.0
 40
4.0
 40
4.0
 40
4.0
 40
5.0
 40
5.0
 40
5.0
 40
6.0
 40
6.0
 40
6.0
 40
7.0
 40
7.0
 40
7.0
 40
8.0
 40
8.0
 40
8.0
 40
9.0
 40
9.0
 40
9.0
 40
10.0
 40
10.0
 40
10.0
 40
11.0
 40
11.0
 40
11.0
 40
12.0
 40
12.0
 40
12.0
 40
13.0
 40
13.0
 40
13.0
 40
14.0
 40
14.0
 40
14.0
 40
15.0
 40
15.0
 40
15.0
 40
16.0
 40
16.0
 40
16.0
 40
17.0
 40
17.0
 40
17.0
 40
18.0
 40
18.0
 40
18.0
 40
19.0
 40
19.0
 40
19.0
 40
20.0
 40
20.0
 40
20.0
 40
21.0
 40
21.0
 40
21.0
 40
21.0
 10
99.23942057291661
 20
169.3358964843748
 10
99.23942057291661
 20
169.3358964843748
 10
100.5623372395832
 20
169.3358964843748
 10
100.5623372395832
 20
169.3358964843748
 10
100.5623372395832
 20
169.3358964843748
 10
100.5623372395832
 20
177.8149103732637
 10
100.5623372395832
 20
177.8149103732637
 10
100.5623372395832
 20
177.8149103732637
 10
103.4472601996527
 20
177.8149103732637
 10
103.4472601996527
 20
177.8149103732637
 10
103.9681586371527
 20
177.8149103732637
 10
104.3519422743053
 20
177.6938359374998
 10
104.5986111111109
 20
177.4516870659717
 10
105.0244249131943
 20
177.0117621527776
 10
105.2518012152777
 20
176.1458580729164
 10
105.280740017361
 20
174.8539748263887
 10
105.280740017361
 20
174.8539748263887
 10
105.3689344618053
 20
171.5564396701385
 10
105.3689344618053
 20
171.5564396701385
 10
105.3882269965277
 20
170.7843524305554
 10
105.4109646267359
 20
170.2639225260415
 10
105.4357693142359
 20
169.9951499565971
 10
105.4605740017358
 20
169.725743489583
 10
105.4970920138888
 20
169.5057810329859
 10
105.5467013888887
 20
169.3358964843748
 10
105.5467013888887
 20
169.3358964843748
 10
107.1769205729166
 20
169.3358964843748
 10
107.1769205729166
 20
169.3358964843748
 10
107.1769205729166
 20
169.3358964843748
 10
107.1769205729166
 20
169.7821603732633
 10
107.1769205729166
 20
169.7821603732633
 10
106.9750379774303
 20
169.9609194878471
 10
106.8337890624996
 20
170.3628105468748
 10
106.7538628472221
 20
170.9878335503471
 10
106.7028754340274
 20
171.3542263454858
 10
106.6677354600692
 20
171.9120562065971
 10
106.6477539062496
 20
172.6625909288193
 10
106.6477539062496
 20
172.6625909288193
 10
106.6036566840277
 20
175.3205234374999
 10
106.6036566840277
 20
175.3205234374999
 10
106.5836751302082
 20
176.4716814236109
 10
106.4768771701387
 20
177.3033550347219
 10
106.2839518229166
 20
177.814276475694
 10
106.0903374565971
 20
178.3251979166665
 10
105.8002604166666
 20
178.7372313368054
 10
105.4130316840276
 20
179.0516445312498
 10
105.8443576388885
 20
179.5086846788193
 10
106.179909939236
 20
180.1134229600693
 10
106.4196885850692
 20
180.866493272569
 10
106.6594672309027
 20
181.6189296874999
 10
106.7800455729166
 20
182.5868912760411
 10
106.7800455729166
 20
183.7697441406248
 10
106.7800455729166
 20
186.0371957465273
 10
106.3328721788193
 20
187.5921464843749
 10
105.4392144097221
 20
188.4345963541665
 10
104.9679253472221
 20
188.8732534722221
 10
104.3719238281249
 20
189.0932159288193
 10
103.6512098524303
 20
189.0932159288193
 10
103.6512098524303
 20
189.0932159288193
 10
99.23942057291661
 20
189.0932159288193
 10
99.23942057291661
 20
189.0932159288193
 10
99.23942057291661
 20
189.0932159288193
 10
99.23942057291661
 20
169.3358964843748
 10
99.23942057291661
 20
169.3358964843748
 97
        0
 75
     0
 76
     1
 98
        0
  0
HATCH
  5
4B6
330
496
100
AcDbEntity
  8
0
  6
Continuous
100
AcDbHatch
 10
0.0
 20
0.0
 30
0.0
210
0.0
220
0.0
230
1.0
  2
SOLID
 70
     1
 71
     1
 91
        2
 92
        1
 93
        8
 72
     1
 10
35.47828233506943
 20
189.0932159288193
 11
31.83957248263888
 21
169.3358964843748
 72
     1
 10
31.83957248263888
 20
169.3358964843748
 11
33.22450086805555
 21
169.3358964843748
 72
     1
 10
33.22450086805555
 20
169.3358964843748
 11
34.27043185763887
 21
175.2590353732638
 72
     1
 10
34.27043185763887
 20
175.2590353732638
 11
38.04694552951389
 21
175.2590353732638
 72
     1
 10
38.04694552951389
 20
175.2590353732638
 11
39.05015733506942
 21
169.3358964843748
 72
     1
 10
39.05015733506942
 20
169.3358964843748
 11
40.43508572048611
 21
169.3358964843748
 72
     1
 10
40.43508572048611
 20
169.3358964843748
 11
36.952783203125
 21
189.0932159288193
 72
     1
 10
36.952783203125
 20
189.0932159288193
 11
35.47828233506943
 21
189.0932159288193
 97
        8
330
4B1
330
4AA
330
4AB
330
4AC
330
4AD
330
4AE
330
4AF
330
4B0
 92
       16
 93
        3
 72
     1
 10
37.67556423611111
 20
177.4497853732638
 11
34.65766059027778
 21
177.4497853732638
 72
     1
 10
34.65766059027778
 20
177.4497853732638
 11
36.19830729166666
 21
186.1658769531249
 72
     1
 10
36.19830729166666
 20
186.1658769531249
 11
37.67556423611111
 21
177.4497853732638
 97
        3
330
4A9
330
4A7
330
4A8
 75
     0
 76
     1
 98
        1
 10
0.0
 20
0.0
  0
HATCH
  5
4B7
330
496
100
AcDbEntity
  8
0
  6
Continuous
100
AcDbHatch
 10
0.0
 20
0.0
 30
0.0
210
0.0
220
0.0
230
1.0
  2
SOLID
 70
     1
 71
     1
 91
        1
 92
        1
 93
        1
 72
     4
 94
        3
 73
     0
 74
     0
 95
      113
 96
      109
 40
0.0
 40
0.0
 40
0.0
 40
0.0
 40
1.0
 40
1.0
 40
1.0
 40
2.0
 40
2.0
 40
2.0
 40
3.0
 40
3.0
 40
3.0
 40
4.0
 40
4.0
 40
4.0
 40
5.0
 40
5.0
 40
5.0
 40
6.0
 40
6.0
 40
6.0
 40
7.0
 40
7.0
 40
7.0
 40
8.0
 40
8.0
 40
8.0
 40
9.0
 40
9.0
 40
9.0
 40
10.0
 40
10.0
 40
10.0
 40
11.0
 40
11.0
 40
11.0
 40
12.0
 40
12.0
 40
12.0
 40
13.0
 40
13.0
 40
13.0
 40
14.0
 40
14.0
 40
14.0
 40
15.0
 40
15.0
 40
15.0
 40
16.0
 40
16.0
 40
16.0
 40
17.0
 40
17.0
 40
17.0
 40
18.0
 40
18.0
 40
18.0
 40
19.0
 40
19.0
 40
19.0
 40
20.0
 40
20.0
 40
20.0
 40
21.0
 40
21.0
 40
21.0
 40
22.0
 40
22.0
 40
22.0
 40
23.0
 40
23.0
 40
23.0
 40
24.0
 40
24.0
 40
24.0
 40
25.0
 40
25.0
 40
25.0
 40
26.0
 40
26.0
 40
26.0
 40
27.0
 40
27.0
 40
27.0
 40
28.0
 40
28.0
 40
28.0
 40
29.0
 40
29.0
 40
29.0
 40
30.0
 40
30.0
 40
30.0
 40
31.0
 40
31.0
 40
31.0
 40
32.0
 40
32.0
 40
32.0
 40
33.0
 40
33.0
 40
33.0
 40
34.0
 40
34.0
 40
34.0
 40
35.0
 40
35.0
 40
35.0
 40
36.0
 40
36.0
 40
36.0
 40
36.0
 10
193.3039632161458
 20
186.1548733181423
 10
193.3039632161458
 20
186.1860514322916
 10
193.3039632161458
 20
219.6932223849826
 10
193.3039632161458
 20
219.6932223849826
 10
193.3039632161458
 20
219.6932223849826
 10
193.2974175347219
 20
219.7488606770833
 10
193.2974175347219
 20
219.7488606770833
 10
191.5293945312499
 20
235.455740017361
 10
175.1458984374999
 20
235.2467949761284
 10
174.9808783637151
 20
235.2428331163193
 10
174.9808783637151
 20
235.2428331163193
 10
125.8827555338541
 20
235.2430053710937
 10
125.8827555338541
 20
235.2430053710937
 10
125.8827555338541
 20
235.2430053710937
 10
125.8827555338541
 20
255.5278998480901
 10
125.8827555338541
 20
255.5278998480901
 10
125.8827555338541
 20
255.5278998480901
 10
84.5626247829861
 20
255.5278998480901
 10
84.5626247829861
 20
255.5278998480901
 10
84.5626247829861
 20
255.5278998480901
 10
84.55711263020829
 20
233.7919311523436
 10
84.55711263020829
 20
233.7919311523436
 10
84.55711263020829
 20
233.7919311523436
 10
64.42052951388888
 20
233.7919311523436
 10
64.42052951388888
 20
233.7919311523436
 10
64.42052951388888
 20
233.7919311523436
 10
64.41501736111111
 20
255.5278998480901
 10
64.41501736111111
 20
255.5278998480901
 10
64.41501736111111
 20
255.5278998480901
 10
23.91757541232637
 20
255.5278998480901
 10
23.91757541232637
 20
255.5278998480901
 10
23.91757541232637
 20
255.5278998480901
 10
23.91757541232637
 20
233.2393378363715
 10
23.91757541232637
 20
233.2393378363715
 10
23.91757541232637
 20
233.2393378363715
 10
43.65624999999999
 20
233.2393378363715
 10
43.65624999999999
 20
233.2393378363715
 10
43.65624999999999
 20
233.2393378363715
 10
43.65624999999999
 20
211.5188720703125
 10
43.65624999999999
 20
211.5188720703125
 10
43.65624999999999
 20
211.5188720703125
 10
23.91757541232637
 20
211.5188720703125
 10
23.91757541232637
 20
211.5188720703125
 10
23.91757541232637
 20
211.5188720703125
 10
23.91757541232637
 20
189.2303100585936
 10
23.91757541232637
 20
189.2303100585936
 10
23.91757541232637
 20
189.2303100585936
 10
64.41501736111111
 20
189.2303100585936
 10
64.41501736111111
 20
189.2303100585936
 10
64.41501736111111
 20
189.2303100585936
 10
64.42052951388888
 20
211.069976128472
 10
64.42052951388888
 20
211.069976128472
 10
64.42052951388888
 20
211.069976128472
 10
84.55711263020829
 20
211.069976128472
 10
84.55711263020829
 20
211.069976128472
 10
84.55711263020829
 20
211.069976128472
 10
84.5626247829861
 20
189.2303100585936
 10
84.5626247829861
 20
189.2303100585936
 10
84.5626247829861
 20
189.2303100585936
 10
125.8827555338541
 20
189.2303100585936
 10
125.8827555338541
 20
189.2303100585936
 10
125.8827555338541
 20
189.2303100585936
 10
125.8827555338541
 20
211.5188720703125
 10
125.8827555338541
 20
211.5188720703125
 10
125.8827555338541
 20
211.5188720703125
 10
105.3213921440971
 20
211.5188720703125
 10
105.3213921440971
 20
211.5188720703125
 10
105.3213921440971
 20
211.5188720703125
 10
105.3213921440971
 20
233.2393378363715
 10
105.3213921440971
 20
233.2393378363715
 10
105.3213921440971
 20
233.2393378363715
 10
175.0046495225693
 20
233.243127441406
 10
175.0046495225693
 20
233.243127441406
 10
175.6268337673611
 20
233.2560465494791
 10
189.7165852864583
 20
233.3962619357638
 10
191.3037407769094
 20
219.5690266927083
 10
191.3037407769094
 20
219.4332899305555
 10
191.3037407769094
 20
186.1142211914062
 10
191.3037407769094
 20
186.1142211914062
 10
191.3037407769094
 20
186.1142211914062
 10
191.3051188151039
 20
186.0880384657115
 10
191.3051188151039
 20
186.0880384657115
 10
191.3054633246526
 20
186.0787367078991
 10
191.3109754774304
 20
185.9566080729166
 10
191.3109754774304
 20
185.7399115668401
 10
191.3109754774304
 20
184.2090833875865
 10
191.0488037109374
 20
177.9643310546874
 10
186.9866916232638
 20
173.5652886284722
 10
184.2540418836804
 20
170.6064683702255
 10
180.3224989149304
 20
169.0308539496526
 10
175.300927734375
 20
168.8825425889756
 10
175.300927734375
 20
168.8825425889756
 10
107.0094889322916
 20
168.8828870985243
 10
107.0094889322916
 20
168.8828870985243
 10
107.0094889322916
 20
168.8828870985243
 10
107.0094889322916
 20
166.8830091688368
 10
107.0094889322916
 20
166.8830091688368
 10
107.0094889322916
 20
166.8830091688368
 10
175.3305555555555
 20
166.8830091688368
 10
175.3305555555555
 20
166.8830091688368
 10
180.9467502170138
 20
167.0485460069444
 10
185.3571614583333
 20
168.8448187934026
 10
188.4687717013888
 20
172.2223904079861
 10
192.9649658203124
 20
177.1034016927083
 10
193.3136094835069
 20
183.7202243381076
 10
193.3136094835069
 20
185.6520616319443
 10
193.3136094835069
 20
185.9247409396701
 10
193.3070638020833
 20
186.0868326822916
 10
193.3039632161458
 20
186.1548733181423
 97
        1
330
497
 75
     0
 76
     1
 98
        1
 10
0.0
 20
0.0
  0
HATCH
  5
4B8
330
496
100
AcDbEntity
  8
0
  6
Continuous
100
AcDbHatch
 10
0.0
 20
0.0
 30
0.0
210
0.0
220
0.0
230
1.0
  2
SOLID
 70
     1
 71
     1
 91
        2
 92
        1
 93
        1
 72
     4
 94
        3
 73
     0
 74
     0
 95
       23
 96
       19
 40
0.0
 40
0.0
 40
0.0
 40
0.0
 40
1.0
 40
1.0
 40
1.0
 40
2.0
 40
2.0
 40
2.0
 40
3.0
 40
3.0
 40
3.0
 40
4.0
 40
4.0
 40
4.0
 40
5.0
 40
5.0
 40
5.0
 40
6.0
 40
6.0
 40
6.0
 40
6.0
 10
148.6593153211804
 20
211.3929538302948
 10
148.6593153211804
 20
211.3929538302948
 10
148.6593153211804
 20
189.6308024088539
 10
148.6593153211804
 20
189.6308024088539
 10
148.6593153211804
 20
189.6308024088539
 10
161.3152180989583
 20
189.6308024088539
 10
161.3152180989583
 20
189.6308024088539
 10
162.8431179470483
 20
189.6308024088539
 10
170.4657362196178
 20
190.1880466037321
 10
170.4657362196178
 20
201.1911648220483
 10
170.4657362196178
 20
211.1288872612844
 10
162.3356553819444
 20
211.3914035373261
 10
162.2536621093749
 20
211.3927815755205
 10
162.2536621093749
 20
211.3927815755205
 10
149.6594265407986
 20
211.3929538302948
 10
149.6594265407986
 20
211.3929538302948
 10
149.6594265407986
 20
211.3929538302948
 10
148.6593153211804
 20
211.3929538302948
 10
148.6593153211804
 20
211.3929538302948
 97
        1
330
498
 92
       16
 93
        1
 72
     4
 94
        3
 73
     0
 74
     0
 95
       20
 96
       16
 40
0.0
 40
0.0
 40
0.0
 40
0.0
 40
1.0
 40
1.0
 40
1.0
 40
2.0
 40
2.0
 40
2.0
 40
3.0
 40
3.0
 40
3.0
 40
4.0
 40
4.0
 40
4.0
 40
5.0
 40
5.0
 40
5.0
 40
5.0
 10
162.2354031032983
 20
209.3930759006072
 10
162.467947048611
 20
209.3861857096351
 10
168.4655137803819
 20
209.1283203124997
 10
168.4655137803819
 20
201.1911648220483
 10
168.4655137803819
 20
192.3202162000865
 10
162.9926350911458
 20
191.6306803385413
 10
161.3152180989583
 20
191.6306803385413
 10
161.3152180989583
 20
191.6306803385413
 10
152.3310980902776
 20
191.6306803385413
 10
150.6595377604166
 20
191.6306803385413
 10
150.6595377604166
 20
193.3373806423608
 10
150.6595377604166
 20
207.6863755967879
 10
150.6595377604166
 20
209.3930759006072
 10
152.3538357204859
 20
209.3930759006072
 10
162.2354031032983
 20
209.3930759006072
 10
162.2354031032983
 20
209.3930759006072
 97
        0
 75
     0
 76
     1
 98
        0
  0
ENDBLK
  5
4BA
330
496
100
AcDbEntity
  8
0
100
AcDbBlockEnd
  0
BLOCK
  5
4BD
330
4BB
100
AcDbEntity
  8
0
100
AcDbBlockBegin
  2
HD logo-new
 70
     0
 10
0.0
 20
0.0
 30
0.0
  3
HD logo-new
  1

  0
INSERT
  5
4BC
330
4BB
100
AcDbEntity
  8
0
 62
     3
100
AcDbBlockReference
  2
HD_LLC_logo_OT5
 10
-27.1607188578505
 20
-68.37367811463031
 30
0.0
 41
0.2999999999999971
 42
0.3000000000000007
 43
0.3
  0
ENDBLK
  5
4BE
330
4BB
100
AcDbEntity
  8
0
100
AcDbBlockEnd
  0
BLOCK
  5
4C8
330
4C6
100
AcDbEntity
  8
0
100
AcDbBlockBegin
  2
HD LLC
 70
     0
 10
0.0
 20
0.0
 30
0.0
  3
HD LLC
  1

  0
MTEXT
  5
4C7
330
4C6
100
AcDbEntity
  8
0
100
AcDbMText
 10
-2.314970886968865
 20
1.247205085865914
 30
0.0
 40
5.675387507387601
 41
236.1828726592229
 71
     5
 72
     5
  1
Harmonic Drive LLC\P800-921-3332\Pwww.harmonicdrive.net
 73
     1
 44
1.0
  0
ENDBLK
  5
4C9
330
4C6
100
AcDbEntity
  8
0
100
AcDbBlockEnd
  0
ENDSEC
  0
SECTION
  2
ENTITIES
  0
LINE
  5
5F
330
1E
100
AcDbEntity
  8
1
 62
     7
100
AcDbLine
 10
15.10999995494534
 20
23.40272430685315
 30
0.0
 11
15.10999995494534
 21
24.25083858803855
 31
0.0
  0
LINE
  5
60
330
1E
100
AcDbEntity
  8
1
 62
     7
100
AcDbLine
 10
-13.39999999998881
 20
-44.69698627736214
 30
0.0
 11
-13.39999999996439
 21
-18.002
 31
0.0
  0
LINE
  5
61
330
1E
100
AcDbEntity
  8
1
 62
     7
100
AcDbLine
 10
12.10000000003526
 20
-29.49698627736621
 30
0.0
 11
12.10000000003526
 21
-29.39698627736621
 31
0.0
  0
LINE
  5
62
330
1E
100
AcDbEntity
  8
1
 62
     7
100
AcDbLine
 10
12.10000000003526
 20
-32.49698627736622
 30
0.0
 11
12.10000000003526
 21
-32.5969862773662
 31
0.0
  0
LINE
  5
63
330
1E
100
AcDbEntity
  8
1
 62
     7
100
AcDbLine
 10
14.90000000003534
 20
-33.74698627736622
 30
0.0
 11
14.90000000003534
 21
-28.24698627736621
 31
0.0
  0
LINE
  5
64
330
1E
100
AcDbEntity
  8
1
 62
     7
100
AcDbLine
 10
4.500000000035358
 20
-29.49698627736621
 30
0.0
 11
4.500000000035358
 21
-32.49698627736622
 31
0.0
  0
LINE
  5
65
330
1E
100
AcDbEntity
  8
1
 62
     7
100
AcDbLine
 10
11.10000000003527
 20
-32.49698627736622
 30
0.0
 11
12.00000000003536
 21
-32.49698627736622
 31
0.0
  0
LINE
  5
66
330
1E
100
AcDbEntity
  8
1
 62
     7
100
AcDbLine
 10
11.10000000003527
 20
-29.49698627736621
 30
0.0
 11
4.500000000035358
 21
-29.49698627736621
 31
0.0
  0
LINE
  5
67
330
1E
100
AcDbEntity
  8
1
 62
     7
100
AcDbLine
 10
11.10000000003527
 20
-32.49698627736622
 30
0.0
 11
11.10000000003527
 21
-29.49698627736621
 31
0.0
  0
LINE
  5
68
330
1E
100
AcDbEntity
  8
1
 62
     7
100
AcDbLine
 10
12.10000000003526
 20
-32.5969862773662
 30
0.0
 11
12.10000000003526
 21
-33.74698627736622
 31
0.0
  0
LINE
  5
69
330
1E
100
AcDbEntity
  8
1
 62
     7
100
AcDbLine
 10
4.500000000035358
 20
-32.49698627736622
 30
0.0
 11
11.10000000003527
 21
-32.49698627736622
 31
0.0
  0
LINE
  5
6A
330
1E
100
AcDbEntity
  8
1
 62
     7
100
AcDbLine
 10
4.100000000035266
 20
-32.0969862773662
 30
0.0
 11
4.500000000035358
 21
-32.49698627736622
 31
0.0
  0
LINE
  5
6B
330
1E
100
AcDbEntity
  8
1
 62
     7
100
AcDbLine
 10
4.100000000035266
 20
-29.89698627736622
 30
0.0
 11
4.100000000035266
 21
-32.0969862773662
 31
0.0
  0
LINE
  5
6C
330
1E
100
AcDbEntity
  8
1
 62
     7
100
AcDbLine
 10
4.500000000035358
 20
-29.49698627736621
 30
0.0
 11
4.100000000035266
 21
-29.89698627736622
 31
0.0
  0
LINE
  5
6D
330
1E
100
AcDbEntity
  8
1
 62
     7
100
AcDbLine
 10
12.10000000003526
 20
-29.49698627736621
 30
0.0
 11
12.10000000003526
 21
-30.99698627736621
 31
0.0
  0
LINE
  5
6E
330
1E
100
AcDbEntity
  8
1
 62
     7
100
AcDbLine
 10
12.00000000003536
 20
-29.49698627736621
 30
0.0
 11
11.10000000003527
 21
-29.49698627736621
 31
0.0
  0
LINE
  5
6F
330
1E
100
AcDbEntity
  8
1
 62
     7
100
AcDbLine
 10
12.10000000003526
 20
-28.24698627736621
 30
0.0
 11
12.10000000003526
 21
-29.39698627736621
 31
0.0
  0
LINE
  5
70
330
1E
100
AcDbEntity
  8
1
 62
     7
100
AcDbLine
 10
14.90000000003534
 20
-28.24698627736621
 30
0.0
 11
12.10000000003526
 21
-28.24698627736621
 31
0.0
  0
LINE
  5
71
330
1E
100
AcDbEntity
  8
1
 62
     7
100
AcDbLine
 10
15.10000000003526
 20
-28.44698627736621
 30
0.0
 11
14.90000000003534
 21
-28.24698627736621
 31
0.0
  0
LINE
  5
72
330
1E
100
AcDbEntity
  8
1
 62
     7
100
AcDbLine
 10
15.10000000003526
 20
-33.54698627736621
 30
0.0
 11
15.10000000003526
 21
-28.44698627736621
 31
0.0
  0
LINE
  5
73
330
1E
100
AcDbEntity
  8
1
 62
     7
100
AcDbLine
 10
14.90000000003534
 20
-33.74698627736622
 30
0.0
 11
15.10000000003526
 21
-33.54698627736621
 31
0.0
  0
LINE
  5
74
330
1E
100
AcDbEntity
  8
1
 62
     7
100
AcDbLine
 10
12.10000000003526
 20
-33.74698627736622
 30
0.0
 11
14.90000000003534
 21
-33.74698627736622
 31
0.0
  0
LINE
  5
75
330
1E
100
AcDbEntity
  8
1
 62
     7
100
AcDbLine
 10
12.10000000003526
 20
-30.99698627736621
 30
0.0
 11
12.10000000003526
 21
-32.49698627736622
 31
0.0
  0
LINE
  5
76
330
1E
100
AcDbEntity
  8
1
 62
     3
100
AcDbLine
 10
11.10000000003527
 20
-29.89698627736622
 30
0.0
 11
11.79282032306333
 21
-29.49698627736621
 31
0.0
  0
LINE
  5
77
330
1E
100
AcDbEntity
  8
1
 62
     3
100
AcDbLine
 10
11.10000000003527
 20
-32.0969862773662
 30
0.0
 11
11.79282032306333
 21
-32.49698627736622
 31
0.0
  0
LINE
  5
78
330
1E
100
AcDbEntity
  8
1
 62
     3
100
AcDbLine
 10
11.10000000003527
 20
-29.89698627736622
 30
0.0
 11
4.100000000035266
 21
-29.89698627736622
 31
0.0
  0
LINE
  5
79
330
1E
100
AcDbEntity
  8
1
 62
     3
100
AcDbLine
 10
11.10000000003527
 20
-32.0969862773662
 30
0.0
 11
4.100000000035266
 21
-32.0969862773662
 31
0.0
  0
LINE
  5
7A
330
1E
100
AcDbEntity
  8
1
 62
     7
100
AcDbLine
 10
15.5549999549454
 20
18.88604063402223
 30
0.0
 11
15.55499995494528
 21
18.08301372263354
 31
0.0
  0
LINE
  5
7B
330
1E
100
AcDbEntity
  8
1
 62
     7
100
AcDbLine
 10
15.25499995494534
 20
17.7830137226336
 30
0.0
 11
15.55499995494528
 21
18.08301372263354
 31
0.0
  0
LINE
  5
7C
330
1E
100
AcDbEntity
  8
1
 62
     7
100
AcDbLine
 10
14.60999995494534
 20
24.53951372263356
 30
0.0
 11
15.10999995494534
 21
24.25083858803855
 31
0.0
  0
LINE
  5
7D
330
1E
100
AcDbEntity
  8
1
 62
     7
100
AcDbLine
 10
7.869999954945344
 20
24.25083858803855
 30
0.0
 11
7.869999954945341
 21
23.40272430685315
 31
0.0
  0
LINE
  5
7E
330
1E
100
AcDbEntity
  8
1
 62
     7
100
AcDbLine
 10
7.869999954945344
 20
24.25083858803855
 30
0.0
 11
8.369999954945344
 21
24.53951372263356
 31
0.0
  0
LINE
  5
7F
330
1E
100
AcDbEntity
  8
1
 62
     7
100
AcDbLine
 10
8.369999954945344
 20
24.53951372263356
 30
0.0
 11
14.60999995494534
 21
24.53951372263356
 31
0.0
  0
LINE
  5
80
330
1E
100
AcDbEntity
  8
1
 62
     7
100
AcDbLine
 10
7.424999954945294
 20
18.08301372263354
 30
0.0
 11
7.724999954945363
 21
17.7830137226336
 31
0.0
  0
LINE
  5
81
330
1E
100
AcDbEntity
  8
1
 62
     7
100
AcDbLine
 10
7.424999954945294
 20
18.08301372263354
 30
0.0
 11
7.424999954945291
 21
18.88604063402223
 31
0.0
  0
LINE
  5
82
330
1E
100
AcDbEntity
  8
1
 62
     7
100
AcDbLine
 10
3.53924118014129
 20
36.23548386767268
 30
0.0
 11
3.999272651269281
 21
35.77545244487267
 31
0.0
  0
LINE
  5
83
330
1E
100
AcDbEntity
  8
1
 62
     7
100
AcDbLine
 10
3.999272651269281
 20
35.77545244487267
 30
0.0
 11
2.099999954945361
 21
34.50301319737667
 31
0.0
  0
LINE
  5
84
330
1E
100
AcDbEntity
  8
1
 62
     7
100
AcDbLine
 10
2.099999954945361
 20
34.50301319737667
 30
0.0
 11
3.53924118014129
 21
36.23548386767268
 31
0.0
  0
LINE
  5
85
330
1E
100
AcDbEntity
  8
1
 62
     7
100
AcDbLine
 10
7.099999954945363
 20
39.00301372262467
 30
0.0
 11
2.099999954945361
 21
34.50301319737667
 31
0.0
  0
LINE
  5
86
330
1E
100
AcDbEntity
  8
1
 62
     7
100
AcDbLine
 10
2.099999954945361
 20
39.00301372262467
 30
0.0
 11
2.099999954945361
 21
34.50301319737667
 31
0.0
  0
LINE
  5
87
330
1E
100
AcDbEntity
  8
1
 62
     7
100
AcDbLine
 10
7.099999954945363
 20
39.00301372262467
 30
0.0
 11
2.099999954945361
 21
39.00301372262467
 31
0.0
  0
LINE
  5
88
330
1E
100
AcDbEntity
  8
1
 62
     7
100
AcDbLine
 10
7.099999954945363
 20
34.50301319737667
 30
0.0
 11
7.099999954945363
 21
39.00301372262467
 31
0.0
  0
LINE
  5
89
330
1E
100
AcDbEntity
  8
1
 62
     7
100
AcDbLine
 10
2.099999954945361
 20
34.50301319737667
 30
0.0
 11
7.099999954945363
 21
34.50301319737667
 31
0.0
  0
LINE
  5
8A
330
1E
100
AcDbEntity
  8
1
 62
     7
100
AcDbLine
 10
3.999272651269281
 20
-35.76942499960511
 30
0.0
 11
3.53924118014129
 21
-36.22945642240532
 31
0.0
  0
LINE
  5
8B
330
1E
100
AcDbEntity
  8
1
 62
     7
100
AcDbLine
 10
2.099999954945361
 20
-34.4969857521088
 30
0.0
 11
3.999272651269281
 21
-35.76942499960511
 31
0.0
  0
LINE
  5
8C
330
1E
100
AcDbEntity
  8
1
 62
     7
100
AcDbLine
 10
3.53924118014129
 20
-36.22945642240532
 30
0.0
 11
2.099999954945361
 21
-34.4969857521088
 31
0.0
  0
LINE
  5
8D
330
1E
100
AcDbEntity
  8
1
 62
     7
100
AcDbLine
 10
2.099999954945361
 20
-34.4969857521088
 30
0.0
 11
7.099999954945363
 21
-38.99698627735722
 31
0.0
  0
LINE
  5
8E
330
1E
100
AcDbEntity
  8
1
 62
     7
100
AcDbLine
 10
2.099999954945361
 20
-34.4969857521088
 30
0.0
 11
2.099999954945361
 21
-38.99698627735722
 31
0.0
  0
LINE
  5
8F
330
1E
100
AcDbEntity
  8
1
 62
     7
100
AcDbLine
 10
2.099999954945361
 20
-38.99698627735722
 30
0.0
 11
7.099999954945363
 21
-38.99698627735722
 31
0.0
  0
LINE
  5
90
330
1E
100
AcDbEntity
  8
1
 62
     7
100
AcDbLine
 10
7.099999954945363
 20
-38.99698627735722
 30
0.0
 11
7.099999954945363
 21
-34.4969857521088
 31
0.0
  0
LINE
  5
91
330
1E
100
AcDbEntity
  8
1
 62
     7
100
AcDbLine
 10
7.099999954945363
 20
-34.4969857521088
 30
0.0
 11
2.099999954945361
 21
-34.4969857521088
 31
0.0
  0
LINE
  5
92
330
1E
100
AcDbEntity
  8
1
 62
     7
100
AcDbLine
 10
-16.19999999998469
 20
-39.24698627736612
 30
0.0
 11
-16.19999999998471
 21
-44.74698627736611
 31
0.0
  0
LINE
  5
93
330
1E
100
AcDbEntity
  8
1
 62
     7
100
AcDbLine
 10
-5.799999999984718
 20
-43.49698627736611
 30
0.0
 11
-5.799999999984718
 21
-40.49698627736612
 31
0.0
  0
LINE
  5
94
330
1E
100
AcDbEntity
  8
1
 62
     7
100
AcDbLine
 10
-12.39999999998474
 20
-40.49698627736612
 30
0.0
 11
-13.29999999998472
 21
-40.49698627736612
 31
0.0
  0
LINE
  5
95
330
1E
100
AcDbEntity
  8
1
 62
     7
100
AcDbLine
 10
-12.39999999998474
 20
-43.49698627736611
 30
0.0
 11
-5.799999999984718
 21
-43.49698627736611
 31
0.0
  0
LINE
  5
96
330
1E
100
AcDbEntity
  8
1
 62
     7
100
AcDbLine
 10
-12.39999999998474
 20
-40.49698627736612
 30
0.0
 11
-12.39999999998474
 21
-43.49698627736611
 31
0.0
  0
LINE
  5
97
330
1E
100
AcDbEntity
  8
1
 62
     7
100
AcDbLine
 10
-5.799999999984718
 20
-40.49698627736612
 30
0.0
 11
-12.39999999998474
 21
-40.49698627736612
 31
0.0
  0
LINE
  5
98
330
1E
100
AcDbEntity
  8
1
 62
     7
100
AcDbLine
 10
-5.399999999984742
 20
-40.89698627736613
 30
0.0
 11
-5.799999999984718
 21
-40.49698627736612
 31
0.0
  0
LINE
  5
99
330
1E
100
AcDbEntity
  8
1
 62
     7
100
AcDbLine
 10
-5.399999999984742
 20
-43.09698627736611
 30
0.0
 11
-5.399999999984742
 21
-40.89698627736613
 31
0.0
  0
LINE
  5
9A
330
1E
100
AcDbEntity
  8
1
 62
     7
100
AcDbLine
 10
-5.799999999984718
 20
-43.49698627736611
 30
0.0
 11
-5.399999999984742
 21
-43.09698627736611
 31
0.0
  0
LINE
  5
9B
330
1E
100
AcDbEntity
  8
1
 62
     7
100
AcDbLine
 10
-13.29999999998472
 20
-43.49698627736611
 30
0.0
 11
-12.39999999998474
 21
-43.49698627736611
 31
0.0
  0
LINE
  5
9C
330
1E
100
AcDbEntity
  8
1
 62
     7
100
AcDbLine
 10
-16.19999999998471
 20
-44.74698627736611
 30
0.0
 11
-13.39999999998474
 21
-44.74698627736611
 31
0.0
  0
LINE
  5
9D
330
1E
100
AcDbEntity
  8
1
 62
     7
100
AcDbLine
 10
-16.39999999998473
 20
-44.54698627736611
 30
0.0
 11
-16.19999999998471
 21
-44.74698627736611
 31
0.0
  0
LINE
  5
9E
330
1E
100
AcDbEntity
  8
1
 62
     7
100
AcDbLine
 10
-16.39999999998473
 20
-39.44698627736612
 30
0.0
 11
-16.39999999998473
 21
-44.54698627736611
 31
0.0
  0
LINE
  5
9F
330
1E
100
AcDbEntity
  8
1
 62
     7
100
AcDbLine
 10
-16.19999999998469
 20
-39.24698627736612
 30
0.0
 11
-16.39999999998473
 21
-39.44698627736612
 31
0.0
  0
LINE
  5
A0
330
1E
100
AcDbEntity
  8
1
 62
     7
100
AcDbLine
 10
-13.39999999998474
 20
-39.24698627736612
 30
0.0
 11
-16.19999999998469
 21
-39.24698627736612
 31
0.0
  0
LINE
  5
A1
330
1E
100
AcDbEntity
  8
1
 62
     3
100
AcDbLine
 10
-12.39999999998474
 20
-43.09698627736611
 30
0.0
 11
-13.09282032301166
 21
-43.49698627736611
 31
0.0
  0
LINE
  5
A2
330
1E
100
AcDbEntity
  8
1
 62
     3
100
AcDbLine
 10
-12.39999999998474
 20
-40.89698627736613
 30
0.0
 11
-13.09282032301166
 21
-40.49698627736612
 31
0.0
  0
LINE
  5
A3
330
1E
100
AcDbEntity
  8
1
 62
     3
100
AcDbLine
 10
-12.39999999998474
 20
-43.09698627736611
 30
0.0
 11
-5.399999999984742
 21
-43.09698627736611
 31
0.0
  0
LINE
  5
A4
330
1E
100
AcDbEntity
  8
1
 62
     3
100
AcDbLine
 10
-12.39999999998474
 20
-40.89698627736613
 30
0.0
 11
-5.399999999984742
 21
-40.89698627736613
 31
0.0
  0
LINE
  5
A5
330
1E
100
AcDbEntity
  8
1
 62
     3
100
AcDbLine
 10
0.7970791290173356
 20
-34.99698627736612
 30
0.0
 11
-0.2230447378146874
 21
-34.99698627736612
 31
0.0
  0
LINE
  5
A6
330
1E
100
AcDbEntity
  8
1
  6
CENTER
 62
     3
100
AcDbLine
 10
-3.899999999927671
 20
-30.29990714842101
 30
0.0
 11
-3.899999999927671
 21
-38.9739415395361
 31
0.0
  0
LINE
  5
A7
330
1E
100
AcDbEntity
  8
1
 62
     3
100
AcDbLine
 10
-8.902434249599648
 20
35.00301372263368
 30
0.0
 11
-7.576955262154682
 21
35.00301372263368
 31
0.0
  0
LINE
  5
A8
330
1E
100
AcDbEntity
  8
1
 62
     3
100
AcDbLine
 10
-3.899999999927671
 20
40.00544797230569
 30
0.0
 11
-3.899999999927671
 21
38.67996898480368
 31
0.0
  0
LINE
  5
A9
330
1E
100
AcDbEntity
  8
1
 62
     7
100
AcDbLine
 10
1.599999954944339
 20
-35.49698627712292
 30
0.0
 11
1.599999954945361
 21
-37.49698627736611
 31
0.0
  0
LINE
  5
AA
330
1E
100
AcDbEntity
  8
1
 62
     7
100
AcDbLine
 10
-9.399999999984739
 20
-34.49698627736612
 30
0.0
 11
-9.399999999984739
 21
-27.14698587187492
 31
0.0
  0
LINE
  5
AB
330
1E
100
AcDbEntity
  8
1
 62
     7
100
AcDbLine
 10
8.099999954945362
 20
-29.49698627736612
 30
0.0
 11
8.099999954945362
 21
-27.29698587187492
 31
0.0
  0
LINE
  5
AC
330
1E
100
AcDbEntity
  8
1
 62
     7
100
AcDbLine
 10
-10.39999999998473
 20
-38.99698627736611
 30
0.0
 11
-10.39999999998473
 21
-40.49698627736612
 31
0.0
  0
LINE
  5
AD
330
1E
100
AcDbEntity
  8
1
 62
     7
100
AcDbLine
 10
1.599999954945361
 20
-37.49698627736611
 30
0.0
 11
2.099999954945361
 21
-37.49698627736611
 31
0.0
  0
LINE
  5
AE
330
1E
100
AcDbEntity
  8
1
 62
     7
100
AcDbLine
 10
2.099999954945361
 20
-37.49698627736611
 30
0.0
 11
2.099999954945361
 21
-38.99698627735722
 31
0.0
  0
LINE
  5
AF
330
1E
100
AcDbEntity
  8
1
 62
     7
100
AcDbLine
 10
8.099999954945362
 20
-33.91963548300971
 30
0.0
 11
8.099999954945362
 21
-32.49698627736612
 31
0.0
  0
LINE
  5
B0
330
1E
100
AcDbEntity
  8
1
 62
     7
100
AcDbLine
 10
-10.39999999994973
 20
-43.49698627736611
 30
0.0
 11
-10.39999999997667
 21
-44.59698627736611
 31
0.0
  0
LINE
  5
B1
330
1E
100
AcDbEntity
  8
1
 62
     7
100
AcDbLine
 10
7.799999954945294
 20
-26.99698587187491
 30
0.0
 11
1.100000000008323
 21
-26.99698587187491
 31
0.0
  0
LINE
  5
B2
330
1E
100
AcDbEntity
  8
1
 62
     3
100
AcDbLine
 10
-3.899999999927671
 20
-38.67394153953611
 30
0.0
 11
-3.899999999927671
 21
-39.69406540631122
 31
0.0
  0
LINE
  5
B3
330
1E
100
AcDbEntity
  8
1
 62
     7
100
AcDbLine
 10
8.099999954945362
 20
-27.29698587187492
 30
0.0
 11
7.799999954945294
 21
-26.99698587187491
 31
0.0
  0
LINE
  5
B4
330
1E
100
AcDbEntity
  8
1
 62
     7
100
AcDbLine
 10
-8.899999999984743
 20
-38.99698627736611
 30
0.0
 11
-10.39999999998473
 21
-38.99698627736611
 31
0.0
  0
LINE
  5
B5
330
1E
100
AcDbEntity
  8
1
 62
     7
100
AcDbLine
 10
-10.39999999998473
 20
-36.29698627736611
 30
0.0
 11
-10.39999999998473
 21
-38.99698627736611
 31
0.0
  0
LINE
  5
B6
330
1E
100
AcDbEntity
  8
1
 62
     7
100
AcDbLine
 10
-8.899999999984743
 20
-36.29698627736611
 30
0.0
 11
-10.39999999998473
 21
-36.29698627736611
 31
0.0
  0
LINE
  5
B7
330
1E
100
AcDbEntity
  8
1
 62
     7
100
AcDbLine
 10
-10.39999999998473
 20
-35.79698627736602
 30
0.0
 11
-10.39999999998473
 21
-36.29698627736611
 31
0.0
  0
LINE
  5
B8
330
1E
100
AcDbEntity
  8
1
 62
     7
100
AcDbLine
 10
-8.899999999984743
 20
-36.29698627736611
 30
0.0
 11
-8.899999999984743
 21
-38.99698627736611
 31
0.0
  0
LINE
  5
B9
330
1E
100
AcDbEntity
  8
1
  6
CENTER
 62
     3
100
AcDbLine
 10
-14.42581639786965
 20
42.00301372262467
 30
0.0
 11
9.308423178748286
 21
42.00301372262467
 31
0.0
  0
LINE
  5
BA
330
1E
100
AcDbEntity
  8
1
 62
     7
100
AcDbLine
 10
7.099999954945363
 20
43.75301372263368
 30
0.0
 11
7.099999954945363
 21
40.25301372263368
 31
0.0
  0
LINE
  5
BB
330
1E
100
AcDbEntity
  8
1
 62
     7
100
AcDbLine
 10
-10.39999999994973
 20
43.75301372263368
 30
0.0
 11
-10.39999999998473
 21
40.25301372263368
 31
0.0
  0
LINE
  5
BC
330
1E
100
AcDbEntity
  8
1
 62
     7
100
AcDbLine
 10
-10.39999999994973
 20
43.75301372263368
 30
0.0
 11
7.099999954945363
 21
43.75301372263368
 31
0.0
  0
LINE
  5
BD
330
1E
100
AcDbEntity
  8
1
 62
     7
100
AcDbLine
 10
-10.39999999998473
 20
40.25301372263368
 30
0.0
 11
7.099999954945363
 21
40.25301372263368
 31
0.0
  0
LINE
  5
BE
330
1E
100
AcDbEntity
  8
1
 62
     7
100
AcDbLine
 10
7.099999954945363
 20
44.60301372263367
 30
0.0
 11
7.099999954945363
 21
43.75301372263368
 31
0.0
  0
LINE
  5
BF
330
1E
100
AcDbEntity
  8
1
 62
     7
100
AcDbLine
 10
1.599999954945361
 20
37.50301372263368
 30
0.0
 11
1.599999954944339
 21
35.50301372239068
 31
0.0
  0
LINE
  5
C0
330
1E
100
AcDbEntity
  8
1
 62
     7
100
AcDbLine
 10
2.099999954945361
 20
37.50301372263368
 30
0.0
 11
1.599999954945361
 21
37.50301372263368
 31
0.0
  0
LINE
  5
C1
330
1E
100
AcDbEntity
  8
1
 62
     7
100
AcDbLine
 10
2.099999954945361
 20
39.00301372262467
 30
0.0
 11
2.099999954945361
 21
37.50301372263368
 31
0.0
  0
LINE
  5
C2
330
1E
100
AcDbEntity
  8
1
 62
     7
100
AcDbLine
 10
8.099999954945362
 20
33.92566292827769
 30
0.0
 11
8.099999954945362
 21
32.50301372263368
 31
0.0
  0
LINE
  5
C3
330
1E
100
AcDbEntity
  8
1
 62
     7
100
AcDbLine
 10
-10.39999999997667
 20
44.60301372263367
 30
0.0
 11
-10.39999999994973
 21
43.75301372263368
 31
0.0
  0
LINE
  5
C4
330
1E
100
AcDbEntity
  8
1
 62
     7
100
AcDbLine
 10
6.699999954945271
 20
45.00301372263368
 30
0.0
 11
-9.999999999984652
 21
45.00301372263368
 31
0.0
  0
LINE
  5
C5
330
1E
100
AcDbEntity
  8
1
  6
CENTER
 62
     3
100
AcDbLine
 10
-3.899999999927671
 20
38.97996898480368
 30
0.0
 11
-3.899999999927671
 21
30.00057947296267
 31
0.0
  0
LINE
  5
C6
330
1E
100
AcDbEntity
  8
1
 62
     7
100
AcDbLine
 10
-9.999999999984652
 20
45.00301372263368
 30
0.0
 11
-10.39999999997667
 21
44.60301372263367
 31
0.0
  0
LINE
  5
C7
330
1E
100
AcDbEntity
  8
1
 62
     7
100
AcDbLine
 10
6.699999954945271
 20
45.00301372263368
 30
0.0
 11
7.099999954945363
 21
44.60301372263367
 31
0.0
  0
LINE
  5
C8
330
1E
100
AcDbEntity
  8
1
 62
     3
100
AcDbLine
 10
8.099999954945362
 20
29.50301372263368
 30
0.0
 11
2.099999954945361
 21
29.50301372263368
 31
0.0
  0
LINE
  5
C9
330
1E
100
AcDbEntity
  8
1
 62
     3
100
AcDbLine
 10
2.099999954945361
 20
29.50301372263368
 30
0.0
 11
1.580384712674346
 21
29.80301372263369
 31
0.0
  0
LINE
  5
CA
330
1E
100
AcDbEntity
  8
1
 62
     7
100
AcDbLine
 10
2.099999954945361
 20
29.50301372263368
 30
0.0
 11
2.099999954945361
 21
29.80301372263369
 31
0.0
  0
LINE
  5
CB
330
1E
100
AcDbEntity
  8
1
 62
     3
100
AcDbLine
 10
1.580384712674346
 20
32.20301372263367
 30
0.0
 11
2.099999954945361
 21
32.50301372263368
 31
0.0
  0
LINE
  5
CC
330
1E
100
AcDbEntity
  8
1
 62
     3
100
AcDbLine
 10
2.099999954945361
 20
32.50301372263368
 30
0.0
 11
8.099999954945362
 21
32.50301372263368
 31
0.0
  0
LINE
  5
CD
330
1E
100
AcDbEntity
  8
1
 62
     7
100
AcDbLine
 10
8.099999954945362
 20
32.50301372263368
 30
0.0
 11
8.099999954945362
 21
32.20301372263367
 31
0.0
  0
LINE
  5
CE
330
1E
100
AcDbEntity
  8
1
 62
     7
100
AcDbLine
 10
8.099999954945362
 20
29.80301372263369
 30
0.0
 11
2.099999954945361
 21
29.80301372263369
 31
0.0
  0
LINE
  5
CF
330
1E
100
AcDbEntity
  8
1
 62
     7
100
AcDbLine
 10
8.099999954945362
 20
29.80301372263369
 30
0.0
 11
8.099999954945362
 21
29.50301372263368
 31
0.0
  0
LINE
  5
D0
330
1E
100
AcDbEntity
  8
1
 62
     7
100
AcDbLine
 10
2.099999954945361
 20
29.80301372263369
 30
0.0
 11
2.099999954945361
 21
32.20301372263367
 31
0.0
  0
LINE
  5
D1
330
1E
100
AcDbEntity
  8
1
 62
     7
100
AcDbLine
 10
2.099999954945361
 20
29.80301372263369
 30
0.0
 11
0.8999999549453168
 21
29.80301372263369
 31
0.0
  0
LINE
  5
D2
330
1E
100
AcDbEntity
  8
1
 62
     7
100
AcDbLine
 10
0.8999999549453168
 20
29.80301372263369
 30
0.0
 11
0.8999999549453168
 21
32.20301372263367
 31
0.0
  0
LINE
  5
D3
330
1E
100
AcDbEntity
  8
1
 62
     7
100
AcDbLine
 10
0.8999999549453168
 20
32.20301372263367
 30
0.0
 11
2.099999954945361
 21
32.20301372263367
 31
0.0
  0
LINE
  5
D4
330
1E
100
AcDbEntity
  8
1
 62
     7
100
AcDbLine
 10
2.099999954945361
 20
32.20301372263367
 30
0.0
 11
2.099999954945361
 21
32.50301372263368
 31
0.0
  0
LINE
  5
D5
330
1E
100
AcDbEntity
  8
1
 62
     7
100
AcDbLine
 10
2.099999954945361
 20
32.20301372263367
 30
0.0
 11
8.099999954945362
 21
32.20301372263367
 31
0.0
  0
LINE
  5
D6
330
1E
100
AcDbEntity
  8
1
 62
     7
100
AcDbLine
 10
8.099999954945362
 20
32.20301372263367
 30
0.0
 11
8.099999954945362
 21
29.80301372263369
 31
0.0
  0
LINE
  5
D7
330
1E
100
AcDbEntity
  8
1
 62
     7
100
AcDbLine
 10
0.8999999549453168
 20
29.80301372263369
 30
0.0
 11
0.2071796319172581
 21
31.00301372263368
 31
0.0
  0
LINE
  5
D8
330
1E
100
AcDbEntity
  8
1
 62
     7
100
AcDbLine
 10
0.2071796319172581
 20
31.00301372263368
 30
0.0
 11
0.8999999549453168
 21
32.20301372263367
 31
0.0
  0
LINE
  5
D9
330
1E
100
AcDbEntity
  8
1
  6
CENTER
 62
     3
100
AcDbLine
 10
16.83278645646033
 20
31.00301372263368
 30
0.0
 11
-0.392820368082651
 21
31.00301372263368
 31
0.0
  0
LINE
  5
DA
330
1E
100
AcDbEntity
  8
1
 62
     7
100
AcDbLine
 10
-10.39999999998473
 20
39.00301372263368
 30
0.0
 11
-8.899999999984743
 21
39.00301372263368
 31
0.0
  0
LINE
  5
DB
330
1E
100
AcDbEntity
  8
1
 62
     7
100
AcDbLine
 10
-10.39999999998473
 20
40.25301372263368
 30
0.0
 11
-10.39999999998473
 21
36.30301372263368
 31
0.0
  0
LINE
  5
DC
330
1E
100
AcDbEntity
  8
1
 62
     7
100
AcDbLine
 10
-10.39999999998473
 20
36.30301372263368
 30
0.0
 11
-8.899999999984743
 21
36.30301372263368
 31
0.0
  0
LINE
  5
DD
330
1E
100
AcDbEntity
  8
1
 62
     7
100
AcDbLine
 10
-10.39999999998473
 20
36.30301372263368
 30
0.0
 11
-10.39999999998473
 21
35.80301372263368
 31
0.0
  0
LINE
  5
DE
330
1E
100
AcDbEntity
  8
1
 62
     7
100
AcDbLine
 10
-8.899999999984743
 20
39.00301372263368
 30
0.0
 11
-8.899999999984743
 21
36.30301372263368
 31
0.0
  0
LINE
  5
DF
330
1E
100
AcDbEntity
  8
1
 62
     7
100
AcDbLine
 10
6.699999954945271
 20
39.00301372262467
 30
0.0
 11
2.099999954945361
 21
39.00301372262467
 31
0.0
  0
LINE
  5
E0
330
1E
100
AcDbEntity
  8
1
 62
     7
100
AcDbLine
 10
7.099999954945363
 20
39.40301372262467
 30
0.0
 11
7.099999954945363
 21
40.25301372263368
 31
0.0
  0
LINE
  5
E1
330
1E
100
AcDbEntity
  8
1
 62
     7
100
AcDbLine
 10
7.099999954945363
 20
39.40301372262467
 30
0.0
 11
6.699999954945271
 21
39.00301372262467
 31
0.0
  0
LINE
  5
E2
330
1E
100
AcDbEntity
  8
1
 62
     7
100
AcDbLine
 10
7.099999954945363
 20
34.50301319746669
 30
0.0
 11
8.099999954945362
 21
33.92566292827769
 31
0.0
  0
LINE
  5
E3
330
1E
100
AcDbEntity
  8
1
 62
     7
100
AcDbLine
 10
7.799999954945294
 20
27.00301331714269
 30
0.0
 11
1.100000000008323
 21
27.00301331714269
 31
0.0
  0
LINE
  5
E4
330
1E
100
AcDbEntity
  8
1
 62
     7
100
AcDbLine
 10
8.099999954945362
 20
27.30301331714267
 30
0.0
 11
8.099999954945362
 21
29.50301372263368
 31
0.0
  0
LINE
  5
E5
330
1E
100
AcDbEntity
  8
1
 62
     7
100
AcDbLine
 10
8.099999954945362
 20
27.30301331714267
 30
0.0
 11
7.799999954945294
 21
27.00301331714269
 31
0.0
  0
LINE
  5
E6
330
1E
100
AcDbEntity
  8
1
 62
     7
100
AcDbLine
 10
7.099999954945363
 20
-34.49698575219932
 30
0.0
 11
8.099999954945362
 21
-33.91963548300971
 31
0.0
  0
LINE
  5
E7
330
1E
100
AcDbEntity
  8
1
 62
     7
100
AcDbLine
 10
6.699999954945271
 20
-44.99698627736611
 30
0.0
 11
7.099999954945363
 21
-44.59698627736611
 31
0.0
  0
LINE
  5
E8
330
1E
100
AcDbEntity
  8
1
 62
     7
100
AcDbLine
 10
7.099999954945363
 20
-39.39698627735722
 30
0.0
 11
7.099999954945363
 21
-44.59698627736611
 31
0.0
  0
LINE
  5
E9
330
1E
100
AcDbEntity
  8
1
 62
     7
100
AcDbLine
 10
6.699999954945271
 20
-38.99698627735722
 30
0.0
 11
2.099999954945361
 21
-38.99698627735722
 31
0.0
  0
LINE
  5
EA
330
1E
100
AcDbEntity
  8
1
 62
     7
100
AcDbLine
 10
6.699999954945271
 20
-38.99698627735722
 30
0.0
 11
7.099999954945363
 21
-39.39698627735722
 31
0.0
  0
LINE
  5
EB
330
1E
100
AcDbEntity
  8
1
 62
     7
100
AcDbLine
 10
-10.39999999997667
 20
-44.59698627736611
 30
0.0
 11
-9.999999999949636
 21
-44.99698627736622
 31
0.0
  0
LINE
  5
EC
330
1E
100
AcDbEntity
  8
1
 62
     7
100
AcDbLine
 10
-9.999999999949636
 20
-44.99698627736622
 30
0.0
 11
6.699999954945271
 21
-44.99698627736611
 31
0.0
  0
LINE
  5
ED
330
1E
100
AcDbEntity
  8
1
 62
     7
100
AcDbLine
 10
-4.315999999984681
 20
38.80301372263368
 30
0.0
 11
-3.483999999984688
 21
38.80301372263368
 31
0.0
  0
LINE
  5
EE
330
1E
100
AcDbEntity
  8
1
 62
     7
100
AcDbLine
 10
-3.483999999984688
 20
38.80301372263368
 30
0.0
 11
-3.483999999984688
 21
38.26396898480368
 31
0.0
  0
LINE
  5
EF
330
1E
100
AcDbEntity
  8
1
 62
     7
100
AcDbLine
 10
-3.483999999984688
 20
38.26396898480368
 30
0.0
 11
-3.899999999927671
 21
38.67996898480368
 31
0.0
  0
LINE
  5
F0
330
1E
100
AcDbEntity
  8
1
 62
     7
100
AcDbLine
 10
-3.899999999927671
 20
38.67996898480368
 30
0.0
 11
-4.315999999984681
 21
38.26396898480368
 31
0.0
  0
LINE
  5
F1
330
1E
100
AcDbEntity
  8
1
 62
     7
100
AcDbLine
 10
-4.315999999984681
 20
38.26396898480368
 30
0.0
 11
-4.315999999984681
 21
38.80301372263368
 31
0.0
  0
LINE
  5
F2
330
1E
100
AcDbEntity
  8
1
 62
     7
100
AcDbLine
 10
-4.315999999984681
 20
38.26396898480368
 30
0.0
 11
-7.576955262154682
 21
35.00301372263368
 31
0.0
  0
LINE
  5
F3
330
1E
100
AcDbEntity
  8
1
 62
     7
100
AcDbLine
 10
-0.2230447378146874
 20
35.00301372263368
 30
0.0
 11
-3.483999999984688
 21
38.26396898480368
 31
0.0
  0
LINE
  5
F4
330
1E
100
AcDbEntity
  8
1
 62
     7
100
AcDbLine
 10
-0.2230447378146874
 20
35.00301372263368
 30
0.0
 11
-3.483999999984688
 21
31.74205846046368
 31
0.0
  0
LINE
  5
F5
330
1E
100
AcDbEntity
  8
1
 62
     7
100
AcDbLine
 10
-3.483999999984688
 20
31.74205846046368
 30
0.0
 11
-3.899999999984741
 21
31.32605846046369
 31
0.0
  0
LINE
  5
F6
330
1E
100
AcDbEntity
  8
1
 62
     7
100
AcDbLine
 10
-4.315999999984681
 20
31.74205846046368
 30
0.0
 11
-3.899999999984741
 21
31.32605846046369
 31
0.0
  0
LINE
  5
F7
330
1E
100
AcDbEntity
  8
1
 62
     7
100
AcDbLine
 10
-7.576955262154682
 20
35.00301372263368
 30
0.0
 11
-4.315999999984681
 21
31.74205846046368
 31
0.0
  0
LINE
  5
F8
330
1E
100
AcDbEntity
  8
1
 62
     7
100
AcDbLine
 10
-4.315999999984681
 20
31.20301372263367
 30
0.0
 11
-4.315999999984681
 21
31.74205846046368
 31
0.0
  0
LINE
  5
F9
330
1E
100
AcDbEntity
  8
1
 62
     7
100
AcDbLine
 10
-3.483999999984688
 20
31.20301372263367
 30
0.0
 11
-4.315999999984681
 21
31.20301372263367
 31
0.0
  0
LINE
  5
FA
330
1E
100
AcDbEntity
  8
1
 62
     7
100
AcDbLine
 10
-3.483999999984688
 20
31.74205846046368
 30
0.0
 11
-3.483999999984688
 21
31.20301372263367
 31
0.0
  0
LINE
  5
FB
330
1E
100
AcDbEntity
  8
1
 62
     7
100
AcDbLine
 10
-7.07695473718263
 20
34.50301319746768
 30
0.0
 11
-9.399999999984739
 21
34.50301319746768
 31
0.0
  0
LINE
  5
FC
330
1E
100
AcDbEntity
  8
1
 62
     7
100
AcDbLine
 10
-10.09999999998467
 20
35.50301372263368
 30
0.0
 11
-7.076955262365684
 21
35.50301372263368
 31
0.0
  0
LINE
  5
FD
330
1E
100
AcDbEntity
  8
1
 62
     7
100
AcDbLine
 10
-10.09999999998467
 20
35.50301372263368
 30
0.0
 11
-10.39999999998473
 21
35.80301372263368
 31
0.0
  0
LINE
  5
FE
330
1E
100
AcDbEntity
  8
1
 62
     7
100
AcDbLine
 10
-0.7230447376036846
 20
35.50301372243168
 30
0.0
 11
1.599999954944339
 21
35.50301372239068
 31
0.0
  0
LINE
  5
FF
330
1E
100
AcDbEntity
  8
1
 62
     7
100
AcDbLine
 10
-0.7230452629817119
 20
34.50301319746768
 30
0.0
 11
7.099999954945363
 21
34.50301319746669
 31
0.0
  0
LINE
  5
100
330
1E
100
AcDbEntity
  8
1
 62
     7
100
AcDbLine
 10
-0.7230447378146874
 20
-34.49698627736612
 30
0.0
 11
1.599999954944339
 21
-34.49698627736612
 31
0.0
  0
LINE
  5
101
330
1E
100
AcDbEntity
  8
1
 62
     7
100
AcDbLine
 10
7.099999954945363
 20
-34.49698575219932
 30
0.0
 11
1.599999954944339
 21
-34.49698575219932
 31
0.0
  0
LINE
  5
102
330
1E
100
AcDbEntity
  8
1
 62
     7
100
AcDbLine
 10
-0.7230447378146874
 20
-34.49698627736612
 30
0.0
 11
-3.483999999984688
 21
-31.73603101519582
 31
0.0
  0
LINE
  5
103
330
1E
100
AcDbEntity
  8
1
 62
     7
100
AcDbLine
 10
-0.2230447378146874
 20
-34.99698627736612
 30
0.0
 11
-0.7230447378146874
 21
-34.49698627736612
 31
0.0
  0
LINE
  5
104
330
1E
100
AcDbEntity
  8
1
  6
CENTER
 62
     3
100
AcDbLine
 10
-0.2230447378146874
 20
-34.99698627736612
 30
0.0
 11
-7.576955262154682
 21
-34.99698627736612
 31
0.0
  0
LINE
  5
105
330
1E
100
AcDbEntity
  8
1
 62
     3
100
AcDbLine
 10
-7.576955262154682
 20
-34.99698627736612
 30
0.0
 11
-8.597079128872678
 21
-34.99698627736612
 31
0.0
  0
LINE
  5
106
330
1E
100
AcDbEntity
  8
1
 62
     7
100
AcDbLine
 10
-7.076955262154682
 20
-34.49698627736612
 30
0.0
 11
-9.399999999984739
 21
-34.49698627736612
 31
0.0
  0
LINE
  5
107
330
1E
100
AcDbEntity
  8
1
 62
     7
100
AcDbLine
 10
-7.076955262154682
 20
-34.49698627736612
 30
0.0
 11
-7.576955262154682
 21
-34.99698627736612
 31
0.0
  0
LINE
  5
108
330
1E
100
AcDbEntity
  8
1
 62
     7
100
AcDbLine
 10
-4.315999999984681
 20
-31.73603101519582
 30
0.0
 11
-7.076955262154682
 21
-34.49698627736612
 31
0.0
  0
LINE
  5
109
330
1E
100
AcDbEntity
  8
1
 62
     7
100
AcDbLine
 10
-3.483999999984688
 20
-31.73603101519582
 30
0.0
 11
-3.899999999984741
 21
-31.32003101519581
 31
0.0
  0
LINE
  5
10A
330
1E
100
AcDbEntity
  8
1
 62
     7
100
AcDbLine
 10
-3.483999999984688
 20
-31.19698627736612
 30
0.0
 11
-3.483999999984688
 21
-31.73603101519582
 31
0.0
  0
LINE
  5
10B
330
1E
100
AcDbEntity
  8
1
 62
     7
100
AcDbLine
 10
-4.315999999984681
 20
-31.19698627736612
 30
0.0
 11
-3.483999999984688
 21
-31.19698627736612
 31
0.0
  0
LINE
  5
10C
330
1E
100
AcDbEntity
  8
1
 62
     7
100
AcDbLine
 10
-4.315999999984681
 20
-31.73603101519582
 30
0.0
 11
-4.315999999984681
 21
-31.19698627736612
 31
0.0
  0
LINE
  5
10D
330
1E
100
AcDbEntity
  8
1
 62
     7
100
AcDbLine
 10
-3.899999999984741
 20
-31.32003101519581
 30
0.0
 11
-4.315999999984681
 21
-31.73603101519582
 31
0.0
  0
LINE
  5
10E
330
1E
100
AcDbEntity
  8
1
 62
     7
100
AcDbLine
 10
-3.483999999984688
 20
-38.79698627736611
 30
0.0
 11
-3.483999999984688
 21
-38.25794153953621
 31
0.0
  0
LINE
  5
10F
330
1E
100
AcDbEntity
  8
1
 62
     7
100
AcDbLine
 10
-4.315999999984681
 20
-38.79698627736611
 30
0.0
 11
-3.483999999984688
 21
-38.79698627736611
 31
0.0
  0
LINE
  5
110
330
1E
100
AcDbEntity
  8
1
 62
     7
100
AcDbLine
 10
-4.315999999984681
 20
-38.25794153953621
 30
0.0
 11
-3.899999999927671
 21
-38.67394153953611
 31
0.0
  0
LINE
  5
111
330
1E
100
AcDbEntity
  8
1
 62
     7
100
AcDbLine
 10
-4.315999999984681
 20
-38.25794153953621
 30
0.0
 11
-4.315999999984681
 21
-38.79698627736611
 31
0.0
  0
LINE
  5
112
330
1E
100
AcDbEntity
  8
1
 62
     7
100
AcDbLine
 10
-3.899999999927671
 20
-38.67394153953611
 30
0.0
 11
-3.483999999984688
 21
-38.25794153953621
 31
0.0
  0
LINE
  5
113
330
1E
100
AcDbEntity
  8
1
 62
     7
100
AcDbLine
 10
-3.483999999984688
 20
-38.25794153953621
 30
0.0
 11
-0.2230447378146874
 21
-34.99698627736612
 31
0.0
  0
LINE
  5
114
330
1E
100
AcDbEntity
  8
1
 62
     7
100
AcDbLine
 10
-7.576955262154682
 20
-34.99698627736612
 30
0.0
 11
-4.315999999984681
 21
-38.25794153953621
 31
0.0
  0
LINE
  5
115
330
1E
100
AcDbEntity
  8
1
 62
     7
100
AcDbLine
 10
1.599999954944339
 20
-35.49698627712292
 30
0.0
 11
-0.7230447378146874
 21
-35.49698627716421
 31
0.0
  0
LINE
  5
116
330
1E
100
AcDbEntity
  8
1
 62
     7
100
AcDbLine
 10
-7.076955262154682
 20
-35.49698627736612
 30
0.0
 11
-10.09999999998467
 21
-35.49698627736612
 31
0.0
  0
LINE
  5
117
330
1E
100
AcDbEntity
  8
1
 62
     7
100
AcDbLine
 10
-10.39999999998473
 20
-35.79698627736602
 30
0.0
 11
-10.09999999998467
 21
-35.49698627736612
 31
0.0
  0
LINE
  5
118
330
1E
100
AcDbEntity
  8
1
  6
CENTER
 62
     3
100
AcDbLine
 10
-7.576955262154682
 20
35.00301372263368
 30
0.0
 11
-0.2230447378146874
 21
35.00301372263368
 31
0.0
  0
LINE
  5
119
330
1E
100
AcDbEntity
  8
1
 62
     3
100
AcDbLine
 10
-0.2230447378146874
 20
35.00301372263368
 30
0.0
 11
1.102434249743284
 21
35.00301372263368
 31
0.0
  0
LINE
  5
11A
330
1E
100
AcDbEntity
  8
1
 62
     7
100
AcDbLine
 10
1.100000000008323
 20
26.65301331714269
 30
0.0
 11
0.1000000000083237
 21
25.65301331714269
 31
0.0
  0
LINE
  5
11B
330
1E
100
AcDbEntity
  8
1
 62
     7
100
AcDbLine
 10
1.100000000008323
 20
26.65301331714269
 30
0.0
 11
1.100000000008323
 21
27.00301331714269
 31
0.0
  0
LINE
  5
11C
330
1E
100
AcDbEntity
  8
1
 62
     7
100
AcDbLine
 10
-9.399999999984739
 20
27.15301331714269
 30
0.0
 11
-9.399999999984739
 21
34.50301319746768
 31
0.0
  0
LINE
  5
11D
330
1E
100
AcDbEntity
  8
1
 62
     7
100
AcDbLine
 10
-7.899999999984742
 20
25.65301331714269
 30
0.0
 11
0.1000000000083237
 21
25.65301331714269
 31
0.0
  0
LINE
  5
11E
330
1E
100
AcDbEntity
  8
1
 62
     7
100
AcDbLine
 10
-7.899999999984742
 20
25.65301331714269
 30
0.0
 11
-9.399999999984739
 21
27.15301331714269
 31
0.0
  0
LINE
  5
11F
330
1E
100
AcDbEntity
  8
1
 62
     7
100
AcDbLine
 10
0.1000000000083237
 20
-25.64698587187492
 30
0.0
 11
1.100000000008323
 21
-26.64698587187492
 31
0.0
  0
LINE
  5
120
330
1E
100
AcDbEntity
  8
1
 62
     7
100
AcDbLine
 10
1.100000000008323
 20
-26.99698587187491
 30
0.0
 11
1.100000000008323
 21
-26.64698587187492
 31
0.0
  0
LINE
  5
121
330
1E
100
AcDbEntity
  8
1
 62
     7
100
AcDbLine
 10
0.1000000000083237
 20
-25.64698587187492
 30
0.0
 11
-7.899999999984742
 21
-25.64698587187492
 31
0.0
  0
LINE
  5
122
330
1E
100
AcDbEntity
  8
1
 62
     7
100
AcDbLine
 10
-9.399999999984739
 20
-27.14698587187492
 30
0.0
 11
-7.899999999984742
 21
-25.64698587187492
 31
0.0
  0
LINE
  5
123
330
1E
100
AcDbEntity
  8
1
 62
     7
100
AcDbLine
 10
-116.6814349859337
 20
31.09569237203169
 30
0.0
 11
-118.0756288254967
 21
30.72211925862867
 31
0.0
  0
LINE
  5
124
330
1E
100
AcDbEntity
  8
1
 62
     7
100
AcDbLine
 10
-118.0756288254967
 20
30.72211925862867
 30
0.0
 11
-118.4492019388997
 21
29.32792541906568
 31
0.0
  0
LINE
  5
125
330
1E
100
AcDbEntity
  8
1
 62
     7
100
AcDbLine
 10
-118.4492019388997
 20
29.32792541906568
 30
0.0
 11
-117.4285812127407
 21
28.30730469290569
 31
0.0
  0
LINE
  5
126
330
1E
100
AcDbEntity
  8
1
 62
     7
100
AcDbLine
 10
-117.4285812127407
 20
28.30730469290569
 30
0.0
 11
-116.0343873731777
 21
28.6808778063097
 31
0.0
  0
LINE
  5
127
330
1E
100
AcDbEntity
  8
1
 62
     7
100
AcDbLine
 10
-116.0343873731777
 20
28.6808778063097
 30
0.0
 11
-115.6608142597737
 21
30.07507164587267
 31
0.0
  0
LINE
  5
128
330
1E
100
AcDbEntity
  8
1
 62
     7
100
AcDbLine
 10
-115.6608142597737
 20
30.07507164587267
 30
0.0
 11
-116.6814349859337
 21
31.09569237203169
 31
0.0
  0
LINE
  5
129
330
1E
100
AcDbEntity
  8
1
 62
     7
100
AcDbLine
 10
-117.4285812127397
 20
-28.30127724763801
 30
0.0
 11
-118.4492019388997
 21
-29.32189797379772
 31
0.0
  0
LINE
  5
12A
330
1E
100
AcDbEntity
  8
1
 62
     7
100
AcDbLine
 10
-116.0343873731777
 20
-28.67485036104142
 30
0.0
 11
-117.4285812127397
 21
-28.30127724763801
 31
0.0
  0
LINE
  5
12B
330
1E
100
AcDbEntity
  8
1
 62
     7
100
AcDbLine
 10
-115.6608142597737
 20
-30.06904420060452
 30
0.0
 11
-116.0343873731777
 21
-28.67485036104142
 31
0.0
  0
LINE
  5
12C
330
1E
100
AcDbEntity
  8
1
 62
     7
100
AcDbLine
 10
-116.6814349859337
 20
-31.08966492676421
 30
0.0
 11
-115.6608142597737
 21
-30.06904420060452
 31
0.0
  0
LINE
  5
12D
330
1E
100
AcDbEntity
  8
1
 62
     7
100
AcDbLine
 10
-118.0756288254967
 20
-30.71609181336082
 30
0.0
 11
-116.6814349859337
 21
-31.08966492676421
 31
0.0
  0
LINE
  5
12E
330
1E
100
AcDbEntity
  8
1
 62
     7
100
AcDbLine
 10
-118.4492019388997
 20
-29.32189797379772
 30
0.0
 11
-118.0756288254967
 21
-30.71609181336082
 31
0.0
  0
LINE
  5
12F
330
1E
100
AcDbEntity
  8
1
 62
     7
100
AcDbLine
 10
-59.05223231922969
 20
-30.06904420060442
 30
0.0
 11
-58.03161159307069
 21
-31.08966492676402
 31
0.0
  0
LINE
  5
130
330
1E
100
AcDbEntity
  8
1
 62
     7
100
AcDbLine
 10
-58.67865920582665
 20
-28.67485036104142
 30
0.0
 11
-59.05223231922969
 21
-30.06904420060442
 31
0.0
  0
LINE
  5
131
330
1E
100
AcDbEntity
  8
1
 62
     7
100
AcDbLine
 10
-57.2844653662637
 20
-28.30127724763801
 30
0.0
 11
-58.67865920582665
 21
-28.67485036104142
 31
0.0
  0
LINE
  5
132
330
1E
100
AcDbEntity
  8
1
 62
     7
100
AcDbLine
 10
-56.26384464010368
 20
-29.32189797379772
 30
0.0
 11
-57.2844653662637
 21
-28.30127724763801
 31
0.0
  0
LINE
  5
133
330
1E
100
AcDbEntity
  8
1
 62
     7
100
AcDbLine
 10
-56.63741775350763
 20
-30.71609181336071
 30
0.0
 11
-56.26384464010368
 21
-29.32189797379772
 31
0.0
  0
LINE
  5
134
330
1E
100
AcDbEntity
  8
1
 62
     7
100
AcDbLine
 10
-58.03161159307069
 20
-31.08966492676402
 30
0.0
 11
-56.63741775350763
 21
-30.71609181336071
 31
0.0
  0
LINE
  5
135
330
1E
100
AcDbEntity
  8
1
 62
     7
100
AcDbLine
 10
-57.2844653662637
 20
28.30730469290569
 30
0.0
 11
-56.26384464010368
 21
29.32792541906568
 31
0.0
  0
LINE
  5
136
330
1E
100
AcDbEntity
  8
1
 62
     7
100
AcDbLine
 10
-58.67865920582665
 20
28.6808778063097
 30
0.0
 11
-57.2844653662637
 21
28.30730469290569
 31
0.0
  0
LINE
  5
137
330
1E
100
AcDbEntity
  8
1
 62
     7
100
AcDbLine
 10
-59.05223231922969
 20
30.07507164587267
 30
0.0
 11
-58.67865920582665
 21
28.6808778063097
 31
0.0
  0
LINE
  5
138
330
1E
100
AcDbEntity
  8
1
 62
     7
100
AcDbLine
 10
-58.03161159307069
 20
31.09569237203169
 30
0.0
 11
-59.05223231922969
 21
30.07507164587267
 31
0.0
  0
LINE
  5
139
330
1E
100
AcDbEntity
  8
1
 62
     7
100
AcDbLine
 10
-56.63741775350763
 20
30.72211925862867
 30
0.0
 11
-58.03161159307069
 21
31.09569237203169
 31
0.0
  0
LINE
  5
13A
330
1E
100
AcDbEntity
  8
1
 62
     7
100
AcDbLine
 10
-56.26384464010368
 20
29.32792541906568
 30
0.0
 11
-56.63741775350763
 21
30.72211925862867
 31
0.0
  0
LINE
  5
13B
330
1E
100
AcDbEntity
  8
0
 62
     7
100
AcDbLine
 10
-0.0000000450906992
 20
18.00301345228201
 30
0.0
 11
-0.0000000450906992
 21
0.0030137226310103
 31
0.0
  0
LINE
  5
13C
330
1E
100
AcDbEntity
  8
1
 62
     7
100
AcDbLine
 10
3.199999954909346
 20
-17.99698600701464
 30
0.0
 11
3.199999954909346
 21
-11.74698610087984
 31
0.0
  0
LINE
  5
13D
330
1E
100
AcDbEntity
  8
1
 62
     7
100
AcDbLine
 10
3.199999954909346
 20
-10.49698611965794
 30
0.0
 11
3.199999954909346
 21
-11.49698610463547
 31
0.0
  0
LINE
  5
13E
330
1E
100
AcDbEntity
  8
1
 62
     7
100
AcDbLine
 10
3.199999954909346
 20
18.00301345228201
 30
0.0
 11
3.199999954909346
 21
10.503013564931
 31
0.0
  0
LINE
  5
13F
330
1E
100
AcDbEntity
  8
0
 62
     7
100
AcDbLine
 10
3.199999954909346
 20
-16.8969860235141
 30
0.0
 11
3.500000136654308
 21
-16.8969860235141
 31
0.0
  0
LINE
  5
140
330
1E
100
AcDbEntity
  8
0
 62
     7
100
AcDbLine
 10
93.99347273131935
 20
-10.45571170226938
 30
0.0
 11
93.99347273131935
 21
-13.12198607942131
 31
0.0
  0
LINE
  5
141
330
1E
100
AcDbEntity
  8
0
 62
     7
100
AcDbLine
 10
93.99347273131935
 20
-13.12198607942131
 30
0.0
 11
96.30347269662831
 21
-13.12198607942131
 31
0.0
  0
LINE
  5
142
330
1E
100
AcDbEntity
  8
0
 62
     7
100
AcDbLine
 10
97.00347268610027
 20
-12.42198608992229
 30
0.0
 11
97.00347268610027
 21
-10.99775034886332
 31
0.0
  0
LINE
  5
143
330
1E
100
AcDbEntity
  8
0
 62
     7
100
AcDbLine
 10
93.29347274183728
 20
-10.45571170226938
 30
0.0
 11
93.29347274183728
 21
-13.12198607942131
 31
0.0
  0
LINE
  5
144
330
1E
100
AcDbEntity
  8
0
 62
     7
100
AcDbLine
 10
93.29347274183728
 20
-13.12198607942131
 30
0.0
 11
90.98347277653136
 21
-13.12198607942131
 31
0.0
  0
LINE
  5
145
330
1E
100
AcDbEntity
  8
0
 62
     7
100
AcDbLine
 10
90.28347278706828
 20
-12.42198608992229
 30
0.0
 11
90.28347278706828
 21
-10.99775034886332
 31
0.0
  0
LINE
  5
146
330
1E
100
AcDbEntity
  8
0
 62
     7
100
AcDbLine
 10
-0.0000000450906992
 20
18.00301345228201
 30
0.0
 11
3.199999954909346
 21
18.00301345228201
 31
0.0
  0
LINE
  5
147
330
1E
100
AcDbEntity
  8
0
 62
     7
100
AcDbLine
 10
3.199999954909346
 20
10.503013564931
 30
0.0
 11
16.58999987687434
 21
10.503013564931
 31
0.0
  0
LINE
  5
148
330
1E
100
AcDbEntity
  8
0
 62
     7
100
AcDbLine
 10
16.58999987687434
 20
10.503013564931
 30
0.0
 11
16.58999987687434
 21
10.00301357245501
 31
0.0
  0
LINE
  5
149
330
1E
100
AcDbEntity
  8
0
 62
     7
100
AcDbLine
 10
16.58999987687434
 20
10.00301357245501
 30
0.0
 11
17.89999995479228
 21
10.00301357245501
 31
0.0
  0
LINE
  5
14A
330
1E
100
AcDbEntity
  8
0
 62
     7
100
AcDbLine
 10
17.89999995479228
 20
10.00301357245501
 30
0.0
 11
17.89999995479228
 21
10.503013564931
 31
0.0
  0
LINE
  5
14B
330
1E
100
AcDbEntity
  8
0
 62
     7
100
AcDbLine
 10
17.89999995479228
 20
10.503013564931
 30
0.0
 11
19.5999999624563
 21
10.503013564931
 31
0.0
  0
LINE
  5
14C
330
1E
100
AcDbEntity
  8
0
 62
     7
100
AcDbLine
 10
19.5999999624563
 20
10.503013564931
 30
0.0
 11
20.09999995494536
 21
10.00301357240908
 31
0.0
  0
LINE
  5
14D
330
1E
100
AcDbEntity
  8
0
 62
     7
100
AcDbLine
 10
20.09999995494536
 20
10.00301357240908
 30
0.0
 11
20.09999995494536
 21
0.0030137226310103
 31
0.0
  0
LINE
  5
14E
330
1E
100
AcDbEntity
  8
0
 62
     7
100
AcDbLine
 10
-0.0000000450906992
 20
0.0030137226310103
 30
0.0
 11
-0.0000000450906992
 21
-17.99698600701464
 31
0.0
  0
LINE
  5
14F
330
1E
100
AcDbEntity
  8
0
 62
     7
100
AcDbLine
 10
-0.0000000450906992
 20
-17.99698600701464
 30
0.0
 11
3.199999954909346
 21
-17.99698600701464
 31
0.0
  0
LINE
  5
150
330
1E
100
AcDbEntity
  8
0
 62
     7
100
AcDbLine
 10
3.199999954909346
 20
-10.49698611965794
 30
0.0
 11
16.58999987687434
 21
-10.49698611965794
 31
0.0
  0
LINE
  5
151
330
1E
100
AcDbEntity
  8
0
 62
     7
100
AcDbLine
 10
16.58999987687434
 20
-10.49698611965794
 30
0.0
 11
16.58999987687434
 21
-9.996986127169236
 31
0.0
  0
LINE
  5
152
330
1E
100
AcDbEntity
  8
0
 62
     7
100
AcDbLine
 10
16.58999987687434
 20
-9.996986127169236
 30
0.0
 11
17.89999995479228
 21
-9.996986127169236
 31
0.0
  0
LINE
  5
153
330
1E
100
AcDbEntity
  8
0
 62
     7
100
AcDbLine
 10
17.89999995479228
 20
-9.996986127169236
 30
0.0
 11
17.89999995479228
 21
-10.49698611965794
 31
0.0
  0
LINE
  5
154
330
1E
100
AcDbEntity
  8
0
 62
     7
100
AcDbLine
 10
17.89999995479228
 20
-10.49698611965794
 30
0.0
 11
19.5999999624563
 21
-10.49698611965794
 31
0.0
  0
LINE
  5
155
330
1E
100
AcDbEntity
  8
0
 62
     7
100
AcDbLine
 10
19.5999999624563
 20
-10.49698611965794
 30
0.0
 11
20.09999995494536
 21
-9.996986127143882
 31
0.0
  0
LINE
  5
156
330
1E
100
AcDbEntity
  8
0
 62
     7
100
AcDbLine
 10
20.09999995494536
 20
-9.996986127143882
 30
0.0
 11
20.09999995494536
 21
0.0030137226310103
 31
0.0
  0
LINE
  5
157
330
1E
100
AcDbEntity
  8
0
 62
     7
100
AcDbLine
 10
3.699999947411357
 20
11.00301355743005
 30
0.0
 11
3.199999954909346
 21
11.50301354990602
 31
0.0
  0
LINE
  5
158
330
1E
100
AcDbEntity
  8
0
 62
     7
100
AcDbLine
 10
3.199999954909346
 20
16.90301346883501
 30
0.0
 11
3.500000136654308
 21
16.90301346883501
 31
0.0
  0
LINE
  5
159
330
1E
100
AcDbEntity
  8
0
 62
     7
100
AcDbLine
 10
3.500000136654308
 20
16.90301346883501
 30
0.0
 11
3.500000136654308
 21
23.00301337718206
 31
0.0
  0
LINE
  5
15A
330
1E
100
AcDbEntity
  8
0
 62
     7
100
AcDbLine
 10
3.500000136654308
 20
23.00301337718206
 30
0.0
 11
7.100000082590329
 21
23.00301337718206
 31
0.0
  0
LINE
  5
15B
330
1E
100
AcDbEntity
  8
0
 62
     7
100
AcDbLine
 10
7.100000082590329
 20
23.00301337718206
 30
0.0
 11
7.100000082590329
 21
16.90301346883501
 31
0.0
  0
LINE
  5
15C
330
1E
100
AcDbEntity
  8
0
 62
     7
100
AcDbLine
 10
7.100000082590329
 20
16.90301346883501
 30
0.0
 11
10.33999997225135
 21
16.90301346883501
 31
0.0
  0
LINE
  5
15D
330
1E
100
AcDbEntity
  8
0
 62
     7
100
AcDbLine
 10
10.33999997225135
 20
16.90301346883501
 30
0.0
 11
10.33999997225135
 21
11.75301354614503
 31
0.0
  0
LINE
  5
15E
330
1E
100
AcDbEntity
  8
0
 62
     7
100
AcDbLine
 10
10.33999997225135
 20
11.75301354614503
 30
0.0
 11
7.199999954909346
 21
11.75301354614503
 31
0.0
  0
LINE
  5
15F
330
1E
100
AcDbEntity
  8
0
 62
     7
100
AcDbLine
 10
7.199999954909346
 20
11.75301354614503
 30
0.0
 11
7.199999954909346
 21
11.00301355743005
 31
0.0
  0
LINE
  5
160
330
1E
100
AcDbEntity
  8
0
 62
     7
100
AcDbLine
 10
7.199999954909346
 20
11.00301355743005
 30
0.0
 11
3.699999947411357
 21
11.00301355743005
 31
0.0
  0
LINE
  5
161
330
1E
100
AcDbEntity
  8
0
 62
     7
100
AcDbLine
 10
7.199999954909346
 20
16.90301346883501
 30
0.0
 11
7.199999954909346
 21
11.75301354614503
 31
0.0
  0
LINE
  5
162
330
1E
100
AcDbEntity
  8
0
 62
     7
100
AcDbLine
 10
3.699999947442281
 20
-10.99698611212142
 30
0.0
 11
3.199999954909346
 21
-11.49698610463547
 31
0.0
  0
LINE
  5
163
330
1E
100
AcDbEntity
  8
0
 62
     7
100
AcDbLine
 10
3.199999954909346
 20
-11.49698610463547
 30
0.0
 11
3.199999954909346
 21
-11.74698610087984
 31
0.0
  0
LINE
  5
164
330
1E
100
AcDbEntity
  8
0
 62
     7
100
AcDbLine
 10
3.199999954909346
 20
-11.74698610087984
 30
0.0
 11
0.3400001224463285
 21
-11.74698610087984
 31
0.0
  0
LINE
  5
165
330
1E
100
AcDbEntity
  8
0
 62
     7
100
AcDbLine
 10
0.3400001224463285
 20
-11.74698610087984
 30
0.0
 11
0.3400001224463285
 21
-16.8969860235141
 31
0.0
  0
LINE
  5
166
330
1E
100
AcDbEntity
  8
0
 62
     7
100
AcDbLine
 10
0.3400001224463285
 20
-16.8969860235141
 30
0.0
 11
3.199999954909346
 21
-16.8969860235141
 31
0.0
  0
LINE
  5
167
330
1E
100
AcDbEntity
  8
0
 62
     7
100
AcDbLine
 10
3.500000136654308
 20
-16.8969860235141
 30
0.0
 11
3.500000136654308
 21
-22.99698593190231
 31
0.0
  0
LINE
  5
168
330
1E
100
AcDbEntity
  8
0
 62
     7
100
AcDbLine
 10
3.500000136654308
 20
-22.99698593190231
 30
0.0
 11
7.100000082590329
 21
-22.99698593190231
 31
0.0
  0
LINE
  5
169
330
1E
100
AcDbEntity
  8
0
 62
     7
100
AcDbLine
 10
7.100000082590329
 20
-22.99698593190231
 30
0.0
 11
7.100000082590329
 21
-16.8969860235141
 31
0.0
  0
LINE
  5
16A
330
1E
100
AcDbEntity
  8
0
 62
     7
100
AcDbLine
 10
7.100000082590329
 20
-16.8969860235141
 30
0.0
 11
7.199999954909346
 21
-16.8969860235141
 31
0.0
  0
LINE
  5
16B
330
1E
100
AcDbEntity
  8
0
 62
     7
100
AcDbLine
 10
7.199999954909346
 20
-16.8969860235141
 30
0.0
 11
7.199999954909346
 21
-10.99698611212142
 31
0.0
  0
LINE
  5
16C
330
1E
100
AcDbEntity
  8
0
 62
     7
100
AcDbLine
 10
7.199999954909346
 20
-10.99698611212142
 30
0.0
 11
3.699999947442281
 21
-10.99698611212142
 31
0.0
  0
LINE
  5
16D
330
1E
100
AcDbEntity
  8
0
 62
     7
100
AcDbLine
 10
7.199999954909346
 20
11.00301355743005
 30
0.0
 11
7.199999954897296
 21
17.78301345562005
 31
0.0
  0
LINE
  5
16E
330
1E
100
AcDbEntity
  8
0
 62
     7
100
AcDbLine
 10
7.199999954897296
 20
17.78301345562005
 30
0.0
 11
15.49999995489634
 21
17.78301345562005
 31
0.0
  0
LINE
  5
16F
330
1E
100
AcDbEntity
  8
0
 62
     7
100
AcDbLine
 10
15.49999995489634
 20
17.78301345562005
 30
0.0
 11
15.49999995489634
 21
11.00301355743005
 31
0.0
  0
LINE
  5
170
330
1E
100
AcDbEntity
  8
0
 62
     7
100
AcDbLine
 10
15.49999995489634
 20
11.00301355743005
 30
0.0
 11
7.199999954909346
 21
11.00301355743005
 31
0.0
  0
LINE
  5
171
330
1E
100
AcDbEntity
  8
0
 62
     7
100
AcDbLine
 10
10.5399999692263
 20
11.00301355743005
 30
0.0
 11
10.5399999692263
 21
17.78301345562005
 31
0.0
  0
LINE
  5
172
330
1E
100
AcDbEntity
  8
0
 62
     7
100
AcDbLine
 10
7.199999954909346
 20
-10.99698611212142
 30
0.0
 11
7.199999954897296
 21
-17.77698601033995
 31
0.0
  0
LINE
  5
173
330
1E
100
AcDbEntity
  8
0
 62
     7
100
AcDbLine
 10
7.199999954897296
 20
-17.77698601033995
 30
0.0
 11
15.49999995489634
 21
-17.77698601033995
 31
0.0
  0
LINE
  5
174
330
1E
100
AcDbEntity
  8
0
 62
     7
100
AcDbLine
 10
15.49999995489634
 20
-17.77698601033995
 30
0.0
 11
15.49999995489634
 21
-10.99698611212142
 31
0.0
  0
LINE
  5
175
330
1E
100
AcDbEntity
  8
0
 62
     7
100
AcDbLine
 10
15.49999995489634
 20
-10.99698611212142
 30
0.0
 11
7.199999954909346
 21
-10.99698611212142
 31
0.0
  0
LINE
  5
176
330
1E
100
AcDbEntity
  8
0
 62
     7
100
AcDbLine
 10
7.199999954909346
 20
11.00301355743005
 30
0.0
 11
7.199999954897296
 21
10.503013564931
 31
0.0
  0
LINE
  5
177
330
1E
100
AcDbEntity
  8
0
 62
     7
100
AcDbLine
 10
15.49999995489634
 20
11.00301355743005
 30
0.0
 11
15.49999995489634
 21
10.503013564931
 31
0.0
  0
LINE
  5
178
330
1E
100
AcDbEntity
  8
0
 62
     7
100
AcDbLine
 10
7.199999954897296
 20
-10.49698611965794
 30
0.0
 11
7.199999954909346
 21
-10.99698611212142
 31
0.0
  0
LINE
  5
179
330
1E
100
AcDbEntity
  8
0
 62
     7
100
AcDbLine
 10
15.49999995489634
 20
-10.49698611965794
 30
0.0
 11
15.49999995489634
 21
-10.99698611212142
 31
0.0
  0
LINE
  5
17A
330
1E
100
AcDbEntity
  8
0
 62
     7
100
AcDbLine
 10
-0.0000000450906992
 20
-10.74698611590241
 30
0.0
 11
3.199999954909346
 21
-10.74698611590241
 31
0.0
  0
LINE
  5
17B
330
1E
100
AcDbEntity
  8
0
 62
     7
100
AcDbLine
 10
-0.0000000450906992
 20
5.903013634011074
 30
0.0
 11
20.09999995494536
 21
5.903013634011074
 31
0.0
  0
LINE
  5
17C
330
1E
100
AcDbEntity
  8
0
 62
     7
100
AcDbLine
 10
20.09999995494536
 20
4.503013655043047
 30
0.0
 11
-0.0000000450906992
 21
4.503013655043047
 31
0.0
  0
LINE
  5
17D
330
1E
100
AcDbEntity
  8
0
 62
     7
100
AcDbLine
 10
-0.0000000450906992
 20
-4.496986209767954
 30
0.0
 11
20.09999995494536
 21
-4.496986209767954
 31
0.0
  0
LINE
  5
17E
330
1E
100
AcDbEntity
  8
0
 62
     7
100
AcDbLine
 10
15.49999995489634
 20
11.00301355743005
 30
0.0
 11
15.49999995490134
 21
14.00301351238005
 31
0.0
  0
LINE
  5
17F
330
1E
100
AcDbEntity
  8
0
 62
     7
100
AcDbLine
 10
15.49999995490134
 20
14.00301351238005
 30
0.0
 11
16.58999987687434
 21
14.00301351238005
 31
0.0
  0
LINE
  5
180
330
1E
100
AcDbEntity
  8
0
 62
     7
100
AcDbLine
 10
16.58999987687434
 20
14.00301351238005
 30
0.0
 11
16.58999987687434
 21
10.503013564931
 31
0.0
  0
LINE
  5
181
330
1E
100
AcDbEntity
  8
0
 62
     7
100
AcDbLine
 10
17.89999995479228
 20
10.503013564931
 30
0.0
 11
17.89999995479228
 21
12.503013534903
 31
0.0
  0
LINE
  5
182
330
1E
100
AcDbEntity
  8
0
 62
     7
100
AcDbLine
 10
17.89999995479228
 20
12.503013534903
 30
0.0
 11
16.58999987687434
 21
12.503013534903
 31
0.0
  0
LINE
  5
183
330
1E
100
AcDbEntity
  8
0
 62
     7
100
AcDbLine
 10
15.49999995489634
 20
11.00301355743005
 30
0.0
 11
16.58999987687434
 21
11.00301355743005
 31
0.0
  0
LINE
  5
184
330
1E
100
AcDbEntity
  8
0
 62
     7
100
AcDbLine
 10
15.49999995489634
 20
-10.99698611212142
 30
0.0
 11
15.49999995490134
 21
-13.99698606710461
 31
0.0
  0
LINE
  5
185
330
1E
100
AcDbEntity
  8
0
 62
     7
100
AcDbLine
 10
15.49999995490134
 20
-13.99698606710461
 30
0.0
 11
16.58999987687434
 21
-13.99698606710461
 31
0.0
  0
LINE
  5
186
330
1E
100
AcDbEntity
  8
0
 62
     7
100
AcDbLine
 10
16.58999987687434
 20
-13.99698606710461
 30
0.0
 11
16.58999987687434
 21
-10.49698611965794
 31
0.0
  0
LINE
  5
187
330
1E
100
AcDbEntity
  8
0
 62
     7
100
AcDbLine
 10
16.58999987687434
 20
-10.99698611212142
 30
0.0
 11
15.49999995489634
 21
-10.99698611212142
 31
0.0
  0
LINE
  5
188
330
1E
100
AcDbEntity
  8
0
 62
     7
100
AcDbLine
 10
16.58999987687434
 20
-10.49698611965794
 30
0.0
 11
16.58999987687434
 21
-12.49698608961302
 31
0.0
  0
LINE
  5
189
330
1E
100
AcDbEntity
  8
0
 62
     7
100
AcDbLine
 10
16.58999987687434
 20
-12.49698608961302
 30
0.0
 11
17.89999995479228
 21
-12.49698608961302
 31
0.0
  0
LINE
  5
18A
330
1E
100
AcDbEntity
  8
0
 62
     7
100
AcDbLine
 10
17.89999995479228
 20
-12.49698608961302
 30
0.0
 11
17.89999995479228
 21
-10.49698611965794
 31
0.0
  0
LINE
  5
18B
330
1E
100
AcDbEntity
  8
1
 62
     7
100
AcDbLine
 10
95.14347271302836
 20
5.903013633492691
 30
0.0
 11
95.14347271302836
 21
4.245654346591634
 31
0.0
  0
LINE
  5
18C
330
1E
100
AcDbEntity
  8
1
 62
     7
100
AcDbLine
 10
92.14347275885733
 20
5.903013633492691
 30
0.0
 11
95.14347271302836
 21
5.903013633492691
 31
0.0
  0
LINE
  5
18D
330
1E
100
AcDbEntity
  8
1
 62
     7
100
AcDbLine
 10
92.14347275885733
 20
4.245654345829706
 30
0.0
 11
92.14347275885733
 21
5.903013633492691
 31
0.0
  0
LINE
  5
18E
330
1E
100
AcDbEntity
  8
1
 62
     7
100
AcDbLine
 10
61.87235247587534
 20
5.586855800581688
 30
0.0
 11
62.95753976396326
 21
4.635172090988675
 31
0.0
  0
LINE
  5
18F
330
1E
100
AcDbEntity
  8
1
 62
     7
100
AcDbLine
 10
62.95753976396326
 20
4.635172090988675
 30
0.0
 11
64.32431567688332
 21
5.099129995540678
 31
0.0
  0
LINE
  5
190
330
1E
100
AcDbEntity
  8
1
 62
     7
100
AcDbLine
 10
64.32431567688332
 20
5.099129995540678
 30
0.0
 11
64.60590430171328
 21
6.514771609686675
 31
0.0
  0
LINE
  5
191
330
1E
100
AcDbEntity
  8
1
 62
     7
100
AcDbLine
 10
64.60590430171328
 20
6.514771609686675
 30
0.0
 11
63.52071701362536
 21
7.466455319278679
 31
0.0
  0
LINE
  5
192
330
1E
100
AcDbEntity
  8
1
 62
     7
100
AcDbLine
 10
63.52071701362536
 20
7.466455319278679
 30
0.0
 11
62.15394110070531
 21
7.002497414726676
 31
0.0
  0
LINE
  5
193
330
1E
100
AcDbEntity
  8
1
 62
     7
100
AcDbLine
 10
62.15394110070531
 20
7.002497414726676
 30
0.0
 11
61.87235247587534
 21
5.586855800581688
 31
0.0
  0
LINE
  5
194
330
1E
100
AcDbEntity
  8
1
 62
     7
100
AcDbLine
 10
88.05963000334633
 20
-31.76810588278561
 30
0.0
 11
89.01131371293933
 21
-30.68291859469701
 31
0.0
  0
LINE
  5
195
330
1E
100
AcDbEntity
  8
1
 62
     7
100
AcDbLine
 10
89.01131371293933
 20
-30.68291859469701
 30
0.0
 11
88.54735580838733
 21
-29.31614268177752
 31
0.0
  0
LINE
  5
196
330
1E
100
AcDbEntity
  8
1
 62
     7
100
AcDbLine
 10
88.54735580838733
 20
-29.31614268177752
 30
0.0
 11
87.13171419424236
 21
-29.03455405694682
 31
0.0
  0
LINE
  5
197
330
1E
100
AcDbEntity
  8
1
 62
     7
100
AcDbLine
 10
87.13171419424236
 20
-29.03455405694682
 30
0.0
 11
86.18003048464935
 21
-30.11974134503542
 31
0.0
  0
LINE
  5
198
330
1E
100
AcDbEntity
  8
1
 62
     7
100
AcDbLine
 10
86.18003048464935
 20
-30.11974134503542
 30
0.0
 11
86.64398838920225
 21
-31.48651725795492
 31
0.0
  0
LINE
  5
199
330
1E
100
AcDbEntity
  8
1
 62
     7
100
AcDbLine
 10
86.64398838920225
 20
-31.48651725795492
 30
0.0
 11
88.05963000334633
 21
-31.76810588278561
 31
0.0
  0
LINE
  5
19A
330
1E
100
AcDbEntity
  8
1
 62
     7
100
AcDbLine
 10
125.1330030618833
 20
-6.996469969458317
 30
0.0
 11
125.4145916867143
 21
-5.580828355313315
 31
0.0
  0
LINE
  5
19B
330
1E
100
AcDbEntity
  8
1
 62
     7
100
AcDbLine
 10
123.7662271489643
 20
-7.460427874011315
 30
0.0
 11
125.1330030618833
 21
-6.996469969458317
 31
0.0
  0
LINE
  5
19C
330
1E
100
AcDbEntity
  8
1
 62
     7
100
AcDbLine
 10
122.6810398608753
 20
-6.508744164418317
 30
0.0
 11
123.7662271489643
 21
-7.460427874011315
 31
0.0
  0
LINE
  5
19D
330
1E
100
AcDbEntity
  8
1
 62
     7
100
AcDbLine
 10
122.9626284857062
 20
-5.093102550273314
 30
0.0
 11
122.6810398608753
 21
-6.508744164418317
 31
0.0
  0
LINE
  5
19E
330
1E
100
AcDbEntity
  8
1
 62
     7
100
AcDbLine
 10
124.3294043986252
 20
-4.629144645721311
 30
0.0
 11
122.9626284857062
 21
-5.093102550273314
 31
0.0
  0
LINE
  5
19F
330
1E
100
AcDbEntity
  8
1
 62
     7
100
AcDbLine
 10
125.4145916867143
 20
-5.580828355313315
 30
0.0
 11
124.3294043986252
 21
-4.629144645721311
 31
0.0
  0
LINE
  5
1A0
330
1E
100
AcDbEntity
  8
1
 62
     7
100
AcDbLine
 10
99.22731415924229
 20
31.77413332805369
 30
0.0
 11
98.27563044964927
 21
30.68894603996469
 31
0.0
  0
LINE
  5
1A1
330
1E
100
AcDbEntity
  8
1
 62
     7
100
AcDbLine
 10
98.27563044964927
 20
30.68894603996469
 30
0.0
 11
98.73958835420125
 21
29.32217012704569
 31
0.0
  0
LINE
  5
1A2
330
1E
100
AcDbEntity
  8
1
 62
     7
100
AcDbLine
 10
98.73958835420125
 20
29.32217012704569
 30
0.0
 11
100.1552299683472
 21
29.04058150221468
 31
0.0
  0
LINE
  5
1A3
330
1E
100
AcDbEntity
  8
1
 62
     7
100
AcDbLine
 10
100.1552299683472
 20
29.04058150221468
 30
0.0
 11
101.1069136779394
 21
30.12576879030269
 31
0.0
  0
LINE
  5
1A4
330
1E
100
AcDbEntity
  8
1
 62
     7
100
AcDbLine
 10
101.1069136779394
 20
30.12576879030269
 30
0.0
 11
100.6429557733873
 21
31.49254470322268
 31
0.0
  0
LINE
  5
1A5
330
1E
100
AcDbEntity
  8
1
 62
     7
100
AcDbLine
 10
100.6429557733873
 20
31.49254470322268
 30
0.0
 11
99.22731415924229
 21
31.77413332805369
 31
0.0
  0
LINE
  5
1A6
330
1E
100
AcDbEntity
  8
1
  6
CENTER
 62
     3
100
AcDbLine
 10
-138.1839807127716
 20
0.0030137226336819
 30
0.0
 11
-36.76942676918963
 21
0.0030137226336819
 31
0.0
  0
LINE
  5
1A7
330
1E
100
AcDbEntity
  8
1
  6
CENTER
 62
     3
100
AcDbLine
 10
-87.35652328950164
 20
48.07569987624169
 30
0.0
 11
-87.35652328950164
 21
-50.36228728528082
 31
0.0
  0
LINE
  5
1A8
330
1E
100
AcDbEntity
  8
1
  6
CENTER
 62
     3
100
AcDbLine
 10
93.64347208129435
 20
40.37017008085567
 30
0.0
 11
93.64347208129435
 21
-41.88049758100352
 31
0.0
  0
LINE
  5
1A9
330
1E
100
AcDbEntity
  8
1
  6
CENTER
 62
     3
100
AcDbLine
 10
53.33501339883525
 20
0.0030137226336819
 30
0.0
 11
134.8901637351203
 21
0.0030137226336819
 31
0.0
  0
LINE
  5
1AA
330
1E
100
AcDbEntity
  8
1
  6
CENTER
 62
     3
100
AcDbLine
 10
-55.10671117887671
 20
32.25282583325867
 30
0.0
 11
-60.31144751706768
 21
27.04808949506767
 31
0.0
  0
LINE
  5
1AB
330
1E
100
AcDbEntity
  8
1
  6
CENTER
 62
     3
100
AcDbLine
 10
-55.10671117887671
 20
-32.24679838799142
 30
0.0
 11
-60.31144751706768
 21
-27.04206204979982
 31
0.0
  0
LINE
  5
1AC
330
1E
100
AcDbEntity
  8
1
  6
CENTER
 62
     3
100
AcDbLine
 10
-119.6063354001267
 20
-32.24679838799142
 30
0.0
 11
-114.4015990619357
 21
-27.04206204979992
 31
0.0
  0
LINE
  5
1AD
330
1E
100
AcDbEntity
  8
1
  6
CENTER
 62
     3
100
AcDbLine
 10
-119.6063354001267
 20
32.25282583325969
 30
0.0
 11
-114.4015990619357
 21
27.04808949506767
 31
0.0
  0
LINE
  5
1AE
330
1E
100
AcDbEntity
  8
1
 62
     7
100
AcDbLine
 10
8.849999955122257
 20
28.40301372263369
 30
0.0
 11
8.849999955122257
 21
27.00301331713169
 31
0.0
  0
LINE
  5
1AF
330
1E
100
AcDbEntity
  8
0
 62
     7
100
AcDbLine
 10
8.099999954945362
 20
28.40301372263369
 30
0.0
 11
8.099999954945362
 21
34.60301320308369
 31
0.0
  0
LINE
  5
1B0
330
1E
100
AcDbEntity
  8
1
 62
     7
100
AcDbLine
 10
7.79999995950334
 20
27.00301331706569
 30
0.0
 11
8.849999955122257
 21
27.00301331713169
 31
0.0
  0
LINE
  5
1B1
330
1E
100
AcDbEntity
  8
1
 62
     7
100
AcDbLine
 10
13.00000000001535
 20
25.60301372263368
 30
0.0
 11
10.60000000001526
 21
25.60301372263368
 31
0.0
  0
LINE
  5
1B2
330
1E
100
AcDbEntity
  8
1
 62
     7
100
AcDbLine
 10
10.60000000001526
 20
25.60301372263368
 30
0.0
 11
6.603980441369869
 21
25.55418455595753
 31
0.0
  0
LINE
  5
1B3
330
1E
100
AcDbEntity
  8
1
 62
     7
100
AcDbLine
 10
14.60000000001525
 20
24.53701372263367
 30
0.0
 11
15.60000000001525
 21
24.58942150191669
 31
0.0
  0
LINE
  5
1B4
330
1E
100
AcDbEntity
  8
1
 62
     7
100
AcDbLine
 10
14.60000000001525
 20
24.53701372263367
 30
0.0
 11
-9.25099999998474
 21
24.53701372263367
 31
0.0
  0
LINE
  5
1B5
330
1E
100
AcDbEntity
  8
1
 62
     7
100
AcDbLine
 10
14.97520991604926
 20
25.52780380660067
 30
0.0
 11
13.00000000001535
 21
25.60301372263368
 31
0.0
  0
LINE
  5
1B6
330
1E
100
AcDbEntity
  8
1
 62
     7
100
AcDbLine
 10
15.60000000001525
 20
21.20474348374069
 30
0.0
 11
15.60000000001525
 21
24.90301372263369
 31
0.0
  0
LINE
  5
1B7
330
1E
100
AcDbEntity
  8
1
 62
     7
100
AcDbLine
 10
15.60000000001525
 20
24.90301372263369
 30
0.0
 11
14.97520991604926
 21
25.52780380660067
 31
0.0
  0
LINE
  5
1B8
330
1E
100
AcDbEntity
  8
1
 62
     7
100
AcDbLine
 10
5.100000000008324
 20
25.53601372263367
 30
0.0
 11
5.5000000000083
 21
25.13601372263369
 31
0.0
  0
LINE
  5
1B9
330
1E
100
AcDbEntity
  8
1
 62
     7
100
AcDbLine
 10
15.60000000020269
 20
25.53601372281905
 30
0.0
 11
15.20000000001733
 21
25.13601372263369
 31
0.0
  0
LINE
  5
1BA
330
1E
100
AcDbEntity
  8
1
 62
     7
100
AcDbLine
 10
5.100000000008324
 20
25.60301372263368
 30
0.0
 11
15.60000000001731
 21
25.60301372263368
 31
0.0
  0
LINE
  5
1BB
330
1E
100
AcDbEntity
  8
1
 62
     7
100
AcDbLine
 10
15.20000000001733
 20
25.13601372263369
 30
0.0
 11
5.5000000000083
 21
25.13601372263369
 31
0.0
  0
LINE
  5
1BC
330
1E
100
AcDbEntity
  8
1
 62
     7
100
AcDbLine
 10
15.59999999724597
 20
34.60301320578003
 30
0.0
 11
15.60000000020269
 21
25.53601372281905
 31
0.0
  0
LINE
  5
1BD
330
1E
100
AcDbEntity
  8
1
 62
     7
100
AcDbLine
 10
5.100000000008324
 20
25.10151372263368
 30
0.0
 11
5.100000000008324
 21
26.10451372263367
 31
0.0
  0
LINE
  5
1BE
330
1E
100
AcDbEntity
  8
0
 62
     7
100
AcDbLine
 10
5.500000000038314
 20
27.00301331715269
 30
0.0
 11
7.79999995950334
 21
27.00301331706569
 31
0.0
  0
LINE
  5
1BF
330
1E
100
AcDbEntity
  8
1
 62
     7
100
AcDbLine
 10
5.500000000038314
 20
27.00301331715269
 30
0.0
 11
5.100000000008324
 21
26.60301331717869
 31
0.0
  0
LINE
  5
1C0
330
1E
100
AcDbEntity
  8
0
 62
     7
100
AcDbLine
 10
15.59999999724597
 20
34.60301320578003
 30
0.0
 11
15.20000000602329
 21
35.00301319687168
 31
0.0
  0
LINE
  5
1C1
330
1E
100
AcDbEntity
  8
0
 62
     7
100
AcDbLine
 10
15.20000000602329
 20
35.00301319687168
 30
0.0
 11
8.499999949012364
 21
35.00301319715168
 31
0.0
  0
LINE
  5
1C2
330
1E
100
AcDbEntity
  8
0
 62
     7
100
AcDbLine
 10
8.499999949012364
 20
35.00301319715168
 30
0.0
 11
8.099999954945362
 21
34.60301320308369
 31
0.0
  0
LINE
  5
1C3
330
1E
100
AcDbEntity
  8
1
 62
     7
100
AcDbLine
 10
8.099999954945362
 20
32.75301372263368
 30
0.0
 11
15.60000000002332
 21
32.75301372263368
 31
0.0
  0
LINE
  5
1C4
330
1E
100
AcDbEntity
  8
1
 62
     7
100
AcDbLine
 10
8.099999954945362
 20
29.25301372263368
 30
0.0
 11
15.59999999988735
 21
29.25301372263368
 31
0.0
  0
LINE
  5
1C5
330
1E
100
AcDbEntity
  8
1
 62
     7
100
AcDbLine
 10
-10.39999999998473
 20
26.08500000048835
 30
0.0
 11
-10.39999999998473
 21
40.25301372263368
 31
0.0
  0
LINE
  5
1C6
330
1E
100
AcDbEntity
  8
1
 62
     7
100
AcDbLine
 10
-13.39999999998474
 20
35.30301372263368
 30
0.0
 11
-13.09999999998467
 21
35.00301372263368
 31
0.0
  0
LINE
  5
1C7
330
1E
100
AcDbEntity
  8
1
 62
     7
100
AcDbLine
 10
-13.09999999998467
 20
35.00301372263368
 30
0.0
 11
-10.90099999998471
 21
35.00301372263368
 31
0.0
  0
LINE
  5
1C8
330
1E
100
AcDbEntity
  8
1
 62
     7
100
AcDbLine
 10
-13.09999999998467
 20
45.00301372263368
 30
0.0
 11
-13.39999999998886
 21
44.70301372262953
 31
0.0
  0
LINE
  5
1C9
330
1E
100
AcDbEntity
  8
1
 62
     7
100
AcDbLine
 10
-13.09999999998467
 20
45.00301372263368
 30
0.0
 11
-10.69999999994967
 21
45.00301372263368
 31
0.0
  0
LINE
  5
1CA
330
1E
100
AcDbEntity
  8
1
 62
     7
100
AcDbLine
 10
-10.69999999994967
 20
45.00301372263368
 30
0.0
 11
-10.39999999994973
 21
44.70301372263367
 31
0.0
  0
LINE
  5
1CB
330
1E
100
AcDbEntity
  8
1
 62
     7
100
AcDbLine
 10
-10.39999999994973
 20
43.75301372263368
 30
0.0
 11
-13.39999999994869
 21
43.75301372263368
 31
0.0
  0
LINE
  5
1CC
330
1E
100
AcDbEntity
  8
1
 62
     7
100
AcDbLine
 10
-10.39999999994973
 20
43.75301372263368
 30
0.0
 11
-10.39999999994973
 21
44.70301372263367
 31
0.0
  0
LINE
  5
1CD
330
1E
100
AcDbEntity
  8
1
 62
     7
100
AcDbLine
 10
-10.39999999998473
 20
40.25301372263368
 30
0.0
 11
-13.39999999998474
 21
40.25301372263368
 31
0.0
  0
LINE
  5
1CE
330
1E
100
AcDbEntity
  8
1
 62
     7
100
AcDbLine
 10
-10.39999999998473
 20
40.25301372263368
 30
0.0
 11
-10.39999999994973
 21
43.75301372263368
 31
0.0
  0
LINE
  5
1CF
330
1E
100
AcDbEntity
  8
1
  6
CENTER
 62
     3
100
AcDbLine
 10
-16.2358514926807
 20
0.0030137226336819
 30
0.0
 11
22.19530857689232
 21
0.0030137226336819
 31
0.0
  0
LINE
  5
1D0
330
1E
100
AcDbEntity
  8
1
 62
     7
100
AcDbLine
 10
8.849999955122257
 20
-26.99698587187491
 30
0.0
 11
8.849999955122257
 21
-28.39698627736613
 31
0.0
  0
LINE
  5
1D1
330
1E
100
AcDbEntity
  8
1
 62
     7
100
AcDbLine
 10
8.849999955122257
 20
-28.39698627736613
 30
0.0
 11
8.099999954945362
 21
-28.39698627736613
 31
0.0
  0
LINE
  5
1D2
330
1E
100
AcDbEntity
  8
1
 62
     7
100
AcDbLine
 10
8.849999955122257
 20
-26.99698587187491
 30
0.0
 11
7.799999954945294
 21
-26.99698587187491
 31
0.0
  0
LINE
  5
1D3
330
1E
100
AcDbEntity
  8
1
 62
     7
100
AcDbLine
 10
10.60000000001526
 20
-25.5969862773662
 30
0.0
 11
13.00000000001535
 21
-25.5969862773662
 31
0.0
  0
LINE
  5
1D4
330
1E
100
AcDbEntity
  8
1
 62
     7
100
AcDbLine
 10
6.579169880145723
 20
-25.54785393924307
 30
0.0
 11
10.60000000001526
 21
-25.5969862773662
 31
0.0
  0
LINE
  5
1D5
330
1E
100
AcDbEntity
  8
1
 62
     7
100
AcDbLine
 10
6.590000000015266
 20
-25.54798627736621
 30
0.0
 11
6.591592609196256
 21
-25.54800573817661
 31
0.0
  0
LINE
  5
1D6
330
1E
100
AcDbEntity
  8
1
 62
     7
100
AcDbLine
 10
15.60000000001525
 20
-24.58339405664931
 30
0.0
 11
14.60000000001525
 21
-24.5309862773661
 31
0.0
  0
LINE
  5
1D7
330
1E
100
AcDbEntity
  8
1
 62
     7
100
AcDbLine
 10
-9.25099999998474
 20
-24.53098627736622
 30
0.0
 11
14.60000000001525
 21
-24.5309862773661
 31
0.0
  0
LINE
  5
1D8
330
1E
100
AcDbEntity
  8
1
 62
     7
100
AcDbLine
 10
13.00000000001535
 20
-25.5969862773662
 30
0.0
 11
14.97520991604926
 21
-25.5217763613326
 31
0.0
  0
LINE
  5
1D9
330
1E
100
AcDbEntity
  8
1
 62
     7
100
AcDbLine
 10
15.60000000001525
 20
-24.89698627736613
 30
0.0
 11
15.60000000001525
 21
-21.19871603847292
 31
0.0
  0
LINE
  5
1DA
330
1E
100
AcDbEntity
  8
1
 62
     7
100
AcDbLine
 10
14.97520991604926
 20
-25.5217763613326
 30
0.0
 11
15.60000000001525
 21
-24.89698627736613
 31
0.0
  0
LINE
  5
1DB
330
1E
100
AcDbEntity
  8
1
 62
     7
100
AcDbLine
 10
5.5000000000083
 20
-25.12998627736612
 30
0.0
 11
5.100000000008324
 21
-25.52998627736622
 31
0.0
  0
LINE
  5
1DC
330
1E
100
AcDbEntity
  8
1
 62
     7
100
AcDbLine
 10
15.20000000001733
 20
-25.12998627736621
 30
0.0
 11
15.60000000001926
 21
-25.52998627736817
 31
0.0
  0
LINE
  5
1DD
330
1E
100
AcDbEntity
  8
1
 62
     7
100
AcDbLine
 10
15.60000000001731
 20
-25.5969862773662
 30
0.0
 11
5.100000000008324
 21
-25.5969862773662
 31
0.0
  0
LINE
  5
1DE
330
1E
100
AcDbEntity
  8
1
 62
     7
100
AcDbLine
 10
5.5000000000083
 20
-25.12998627736612
 30
0.0
 11
15.20000000001733
 21
-25.12998627736621
 31
0.0
  0
LINE
  5
1DF
330
1E
100
AcDbEntity
  8
1
 62
     7
100
AcDbLine
 10
5.100000000008324
 20
-26.59698587191132
 30
0.0
 11
5.100000000008324
 21
-25.52998627736622
 31
0.0
  0
LINE
  5
1E0
330
1E
100
AcDbEntity
  8
0
 62
     7
100
AcDbLine
 10
5.500000000038314
 20
-26.99698587189651
 30
0.0
 11
7.799999954945294
 21
-26.99698587187491
 31
0.0
  0
LINE
  5
1E1
330
1E
100
AcDbEntity
  8
1
 62
     7
100
AcDbLine
 10
5.100000000008324
 20
-26.59698587191132
 30
0.0
 11
5.500000000038314
 21
-26.99698587189651
 31
0.0
  0
LINE
  5
1E2
330
1E
100
AcDbEntity
  8
0
 62
     7
100
AcDbLine
 10
15.20000000602329
 20
-34.9969857516043
 30
0.0
 11
15.60000000004333
 21
-34.59698575771501
 31
0.0
  0
LINE
  5
1E3
330
1E
100
AcDbEntity
  8
0
 62
     7
100
AcDbLine
 10
8.499999949012364
 20
-34.9969857518838
 30
0.0
 11
15.20000000602329
 21
-34.9969857516043
 31
0.0
  0
LINE
  5
1E4
330
1E
100
AcDbEntity
  8
0
 62
     7
100
AcDbLine
 10
8.099999954945362
 20
-34.59698575781641
 30
0.0
 11
8.499999949012364
 21
-34.9969857518838
 31
0.0
  0
LINE
  5
1E5
330
1E
100
AcDbEntity
  8
0
 62
     7
100
AcDbLine
 10
15.60000000004333
 20
-34.59698575771501
 30
0.0
 11
15.60000000003527
 21
-34.24698627736622
 31
0.0
  0
LINE
  5
1E6
330
1E
100
AcDbEntity
  8
1
 62
     7
100
AcDbLine
 10
-10.39999999998473
 20
-40.24698627736621
 30
0.0
 11
-10.39999999998473
 21
-26.1849999995116
 31
0.0
  0
LINE
  5
1E7
330
1E
100
AcDbEntity
  8
1
 62
     7
100
AcDbLine
 10
-13.09999999998467
 20
-34.99698627736612
 30
0.0
 11
-13.39999999998474
 21
-35.29698627736621
 31
0.0
  0
LINE
  5
1E8
330
1E
100
AcDbEntity
  8
1
 62
     7
100
AcDbLine
 10
-10.90099999998471
 20
-34.99698627736622
 30
0.0
 11
-13.09999999998467
 21
-34.99698627736612
 31
0.0
  0
LINE
  5
1E9
330
1E
100
AcDbEntity
  8
1
 62
     7
100
AcDbLine
 10
-13.39999999998881
 20
-44.69698627736214
 30
0.0
 11
-13.09999999998467
 21
-44.99698627736622
 31
0.0
  0
LINE
  5
1EA
330
1E
100
AcDbEntity
  8
1
 62
     7
100
AcDbLine
 10
-10.69999999994967
 20
-44.99698627736622
 30
0.0
 11
-13.09999999998467
 21
-44.99698627736622
 31
0.0
  0
LINE
  5
1EB
330
1E
100
AcDbEntity
  8
1
 62
     7
100
AcDbLine
 10
-10.39999999994973
 20
-44.69698627736621
 30
0.0
 11
-10.69999999994967
 21
-44.99698627736622
 31
0.0
  0
LINE
  5
1EC
330
1E
100
AcDbEntity
  8
1
 62
     7
100
AcDbLine
 10
-13.39999999994869
 20
-43.74698627736622
 30
0.0
 11
-10.39999999994973
 21
-43.74698627736622
 31
0.0
  0
LINE
  5
1ED
330
1E
100
AcDbEntity
  8
1
 62
     7
100
AcDbLine
 10
-10.39999999994973
 20
-44.69698627736621
 30
0.0
 11
-10.39999999994973
 21
-43.74698627736622
 31
0.0
  0
LINE
  5
1EE
330
1E
100
AcDbEntity
  8
1
 62
     7
100
AcDbLine
 10
-13.39999999998474
 20
-40.24698627736621
 30
0.0
 11
-10.39999999998473
 21
-40.24698627736621
 31
0.0
  0
LINE
  5
1EF
330
1E
100
AcDbEntity
  8
1
  6
CENTER
 62
     3
100
AcDbLine
 10
-109.6690232895015
 20
38.64939736651468
 30
0.0
 11
-107.0440232895015
 21
34.10276399664667
 31
0.0
  0
LINE
  5
1F0
330
1E
100
AcDbEntity
  8
1
  6
CENTER
 62
     3
100
AcDbLine
 10
-126.0029069333825
 20
22.31551372263368
 30
0.0
 11
-121.4562735635137
 21
19.69051372263368
 31
0.0
  0
LINE
  5
1F1
330
1E
100
AcDbEntity
  8
1
  6
CENTER
 62
     3
100
AcDbLine
 10
-126.0029069333825
 20
-22.30948627736612
 30
0.0
 11
-121.4562735635137
 21
-19.68448627736611
 31
0.0
  0
LINE
  5
1F2
330
1E
100
AcDbEntity
  8
1
  6
CENTER
 62
     3
100
AcDbLine
 10
-109.6690232895015
 20
-38.64336992124671
 30
0.0
 11
-107.0440232895015
 21
-34.09673655137841
 31
0.0
  0
LINE
  5
1F3
330
1E
100
AcDbEntity
  8
1
  6
CENTER
 62
     3
100
AcDbLine
 10
-65.04402328950163
 20
-38.64336992124661
 30
0.0
 11
-67.66902328950163
 21
-34.0967365513783
 31
0.0
  0
LINE
  5
1F4
330
1E
100
AcDbEntity
  8
1
  6
CENTER
 62
     3
100
AcDbLine
 10
-48.71013964562167
 20
-22.30948627736592
 30
0.0
 11
-53.25677301548967
 21
-19.68448627736592
 31
0.0
  0
LINE
  5
1F5
330
1E
100
AcDbEntity
  8
1
  6
CENTER
 62
     3
100
AcDbLine
 10
-48.71013964562167
 20
22.31551372263368
 30
0.0
 11
-53.25677301548967
 21
19.69051372263368
 31
0.0
  0
LINE
  5
1F6
330
1E
100
AcDbEntity
  8
1
  6
CENTER
 62
     3
100
AcDbLine
 10
-65.04402328950163
 20
38.64939736651468
 30
0.0
 11
-67.66902328950163
 21
34.10276399664667
 31
0.0
  0
LINE
  5
1F7
330
1E
100
AcDbEntity
  8
1
  6
CENTER
 62
     3
100
AcDbLine
 10
106.3676962074342
 20
30.7220081786347
 30
0.0
 11
104.6456207617913
 21
26.56455028233366
 31
0.0
  0
LINE
  5
1F8
330
1E
100
AcDbEntity
  8
1
 62
     7
100
AcDbLine
 10
5.100000000008324
 20
25.53601372263367
 30
0.0
 11
5.100000000008324
 21
26.60301331717869
 31
0.0
  0
LINE
  5
1F9
330
1E
100
AcDbEntity
  8
1
 62
     7
100
AcDbLine
 10
8.099999954945362
 20
28.40301372263369
 30
0.0
 11
8.849999955122257
 21
28.40301372263369
 31
0.0
  0
LINE
  5
1FA
330
1E
100
AcDbEntity
  8
1
  6
CENTER
 62
     3
100
AcDbLine
 10
80.91924795515536
 20
30.7220081786347
 30
0.0
 11
82.64132340079834
 21
26.56455028233366
 31
0.0
  0
LINE
  5
1FB
330
1E
100
AcDbEntity
  8
1
  6
CENTER
 62
     3
100
AcDbLine
 10
70.13217160684132
 20
23.51431419708668
 30
0.0
 11
73.31415212218132
 21
20.33233368174669
 31
0.0
  0
LINE
  5
1FC
330
1E
100
AcDbEntity
  8
1
  6
CENTER
 62
     3
100
AcDbLine
 10
62.92447762529434
 20
12.72723784877269
 30
0.0
 11
67.08193552159537
 21
11.00516240312969
 31
0.0
  0
LINE
  5
1FD
330
1E
100
AcDbEntity
  8
1
  6
CENTER
 62
     3
100
AcDbLine
 10
62.92447762529434
 20
-12.72121040350542
 30
0.0
 11
67.08193552159435
 21
-10.99913495786261
 31
0.0
  0
LINE
  5
1FE
330
1E
100
AcDbEntity
  8
1
  6
CENTER
 62
     3
100
AcDbLine
 10
70.13217160684132
 20
-23.508286751819
 30
0.0
 11
73.3141521221803
 21
-20.32630623647953
 31
0.0
  0
LINE
  5
1FF
330
1E
100
AcDbEntity
  8
1
  6
CENTER
 62
     3
100
AcDbLine
 10
80.91924795515431
 20
-30.71598073336682
 30
0.0
 11
82.64132340079731
 21
-26.55852283706602
 31
0.0
  0
LINE
  5
200
330
1E
100
AcDbEntity
  8
1
  6
CENTER
 62
     3
100
AcDbLine
 10
106.3676962074334
 20
-30.71598073336701
 30
0.0
 11
104.6456207617913
 21
-26.55852283706622
 31
0.0
  0
LINE
  5
201
330
1E
100
AcDbEntity
  8
1
  6
CENTER
 62
     3
100
AcDbLine
 10
117.1547725557473
 20
-23.50828675181941
 30
0.0
 11
113.9727920404073
 21
-20.32630623647981
 31
0.0
  0
LINE
  5
202
330
1E
100
AcDbEntity
  8
1
  6
CENTER
 62
     3
100
AcDbLine
 10
124.3624665372953
 20
-12.72121040350592
 30
0.0
 11
120.2050086409943
 21
-10.99913495786292
 31
0.0
  0
LINE
  5
203
330
1E
100
AcDbEntity
  8
1
  6
CENTER
 62
     3
100
AcDbLine
 10
124.3624665372953
 20
12.72723784877269
 30
0.0
 11
120.2050086409943
 21
11.00516240312969
 31
0.0
  0
LINE
  5
204
330
1E
100
AcDbEntity
  8
1
  6
CENTER
 62
     3
100
AcDbLine
 10
117.1547725557473
 20
23.51431419708668
 30
0.0
 11
113.9727920404083
 21
20.33233368174768
 31
0.0
  0
LINE
  5
205
330
1E
100
AcDbEntity
  8
1
  6
CENTER
 62
     3
100
AcDbLine
 10
119.7846238891193
 20
-5.196784669491322
 30
0.0
 11
128.5473427655163
 21
-6.939797825878316
 31
0.0
  0
LINE
  5
206
330
1E
100
AcDbEntity
  8
1
  6
CENTER
 62
     3
100
AcDbLine
 10
98.84327047342026
 20
26.14416553045868
 30
0.0
 11
100.5862836298062
 21
34.90688440685568
 31
0.0
  0
LINE
  5
207
330
1E
100
AcDbEntity
  8
1
  6
CENTER
 62
     3
100
AcDbLine
 10
67.50232027346931
 20
5.202812114759681
 30
0.0
 11
58.73960139707231
 21
6.945825271145678
 31
0.0
  0
LINE
  5
208
330
1E
100
AcDbEntity
  8
1
  6
CENTER
 62
     3
100
AcDbLine
 10
88.44367368916927
 20
-26.13813808519132
 30
0.0
 11
86.70066053278231
 21
-34.90085696158802
 31
0.0
  0
LINE
  5
209
330
1E
100
AcDbEntity
  8
1
 62
     7
100
AcDbLine
 10
-10.70099999998467
 20
-34.79698627736621
 30
0.0
 11
-10.70099999998467
 21
-18.002
 31
0.0
  0
LINE
  5
20A
330
1E
100
AcDbEntity
  8
1
 62
     7
100
AcDbLine
 10
-5.399999999984742
 20
-43.09698627736611
 30
0.0
 11
-1.99999999998465
 21
-43.09698627736611
 31
0.0
  0
LINE
  5
20B
330
1E
100
AcDbEntity
  8
1
 62
     7
100
AcDbLine
 10
-1.99999999998465
 20
-43.09698627736611
 30
0.0
 11
-1.99999999998465
 21
-40.89698627736613
 31
0.0
  0
LINE
  5
20C
330
1E
100
AcDbEntity
  8
1
 62
     7
100
AcDbLine
 10
-1.99999999998465
 20
-40.89698627736613
 30
0.0
 11
-5.399999999984742
 21
-40.89698627736613
 31
0.0
  0
LINE
  5
20D
330
1E
100
AcDbEntity
  8
1
 62
     7
100
AcDbLine
 10
-1.99999999998465
 20
-43.09698627736611
 30
0.0
 11
-1.364914703875682
 21
-41.99698627736611
 31
0.0
  0
LINE
  5
20E
330
1E
100
AcDbEntity
  8
1
 62
     7
100
AcDbLine
 10
-1.364914703875682
 20
-41.99698627736611
 30
0.0
 11
-1.99999999998465
 21
-40.89698627736613
 31
0.0
  0
LINE
  5
20F
330
1E
100
AcDbEntity
  8
1
 62
     7
100
AcDbLine
 10
-4.399999999984742
 20
-43.49698627736611
 30
0.0
 11
-4.399999999984742
 21
-40.49698627736612
 31
0.0
  0
LINE
  5
210
330
1E
100
AcDbEntity
  8
1
 62
     3
100
AcDbLine
 10
-5.799999999984718
 20
-43.49698627736611
 30
0.0
 11
-4.399999999984742
 21
-43.49698627736611
 31
0.0
  0
LINE
  5
211
330
1E
100
AcDbEntity
  8
1
 62
     3
100
AcDbLine
 10
-4.399999999984742
 20
-40.49698627736612
 30
0.0
 11
-5.799999999984718
 21
-40.49698627736612
 31
0.0
  0
LINE
  5
212
330
1E
100
AcDbEntity
  8
1
  6
CENTER
 62
     3
100
AcDbLine
 10
-17.29999999998472
 20
-41.99698627736611
 30
0.0
 11
-0.4649147038757048
 21
-41.99698627736611
 31
0.0
  0
LINE
  5
213
330
1E
100
AcDbEntity
  8
1
 62
     7
100
AcDbLine
 10
15.60000000002332
 20
-27.74698627736622
 30
0.0
 11
12.10000000003526
 21
-27.74698627736622
 31
0.0
  0
LINE
  5
214
330
1E
100
AcDbEntity
  8
1
 62
     7
100
AcDbLine
 10
12.10000000003526
 20
-34.24698627736622
 30
0.0
 11
15.60000000003527
 21
-34.24698627736622
 31
0.0
  0
LINE
  5
215
330
1E
100
AcDbEntity
  8
0
 62
     7
100
AcDbLine
 10
15.60000000003527
 20
-34.24698627736622
 30
0.0
 11
15.60000000001926
 21
-25.52998627736817
 31
0.0
  0
LINE
  5
216
330
1E
100
AcDbEntity
  8
1
 62
     7
100
AcDbLine
 10
12.10000000003526
 20
-29.24698627736622
 30
0.0
 11
8.099999954945362
 21
-29.24698627736622
 31
0.0
  0
LINE
  5
217
330
1E
100
AcDbEntity
  8
0
 62
     7
100
AcDbLine
 10
8.099999954945362
 20
-29.49698627736612
 30
0.0
 11
8.099999954945362
 21
-28.39698627736613
 31
0.0
  0
LINE
  5
218
330
1E
100
AcDbEntity
  8
1
 62
     7
100
AcDbLine
 10
12.10000000003526
 20
-32.74698627736622
 30
0.0
 11
8.099999954945362
 21
-32.74698627736622
 31
0.0
  0
LINE
  5
219
330
1E
100
AcDbEntity
  8
0
 62
     7
100
AcDbLine
 10
8.099999954945362
 20
-34.59698575781641
 30
0.0
 11
8.099999954945362
 21
-32.49698627736612
 31
0.0
  0
LINE
  5
21A
330
1E
100
AcDbEntity
  8
1
 62
     7
100
AcDbLine
 10
12.10000000003526
 20
-27.74698627736622
 30
0.0
 11
12.10000000003526
 21
-34.24698627736622
 31
0.0
  0
LINE
  5
21B
330
1E
100
AcDbEntity
  8
1
 62
     7
100
AcDbLine
 10
4.100000000035266
 20
-29.89698627736622
 30
0.0
 11
0.8999999549453168
 21
-29.89698627736622
 31
0.0
  0
LINE
  5
21C
330
1E
100
AcDbEntity
  8
1
 62
     7
100
AcDbLine
 10
0.8999999549453168
 20
-29.89698627736622
 30
0.0
 11
0.8999999549453168
 21
-32.0969862773662
 31
0.0
  0
LINE
  5
21D
330
1E
100
AcDbEntity
  8
1
 62
     7
100
AcDbLine
 10
0.8999999549453168
 20
-32.0969862773662
 30
0.0
 11
4.100000000035266
 21
-32.0969862773662
 31
0.0
  0
LINE
  5
21E
330
1E
100
AcDbEntity
  8
1
 62
     7
100
AcDbLine
 10
0.8999999549453168
 20
-29.89698627736622
 30
0.0
 11
0.2649146588363482
 21
-30.99698627736621
 31
0.0
  0
LINE
  5
21F
330
1E
100
AcDbEntity
  8
1
 62
     7
100
AcDbLine
 10
0.2649146588363482
 20
-30.99698627736621
 30
0.0
 11
0.8999999549453168
 21
-32.0969862773662
 31
0.0
  0
LINE
  5
220
330
1E
100
AcDbEntity
  8
1
 62
     7
100
AcDbLine
 10
2.099999954945361
 20
-29.49698627736621
 30
0.0
 11
2.099999954945361
 21
-32.49698627736622
 31
0.0
  0
LINE
  5
221
330
1E
100
AcDbEntity
  8
1
 62
     3
100
AcDbLine
 10
4.500000000035358
 20
-29.49698627736621
 30
0.0
 11
2.099999954945361
 21
-29.49698627736621
 31
0.0
  0
LINE
  5
222
330
1E
100
AcDbEntity
  8
1
 62
     3
100
AcDbLine
 10
2.099999954945361
 20
-32.49698627736622
 30
0.0
 11
4.500000000035358
 21
-32.49698627736622
 31
0.0
  0
LINE
  5
223
330
1E
100
AcDbEntity
  8
1
  6
CENTER
 62
     3
100
AcDbLine
 10
16.00000000003536
 20
-30.99698627736621
 30
0.0
 11
-0.6350853411637428
 21
-30.99698627736621
 31
0.0
  0
LINE
  5
224
330
1E
100
AcDbEntity
  8
1
 62
     7
100
AcDbLine
 10
-9.149999999964391
 20
24.93500000000004
 30
0.0
 11
1.288000000035709
 21
24.93500000000004
 31
0.0
  0
LINE
  5
225
330
1E
100
AcDbEntity
  8
1
 62
     7
100
AcDbLine
 10
1.288000000035709
 20
-24.93500000000009
 30
0.0
 11
-9.250999999964278
 21
-24.935
 31
0.0
  0
LINE
  5
226
330
1E
100
AcDbEntity
  8
1
 62
     7
100
AcDbLine
 10
7.869999954945341
 20
23.40272430685315
 30
0.0
 11
8.069999954945272
 21
23.20272430685317
 31
0.0
  0
LINE
  5
227
330
1E
100
AcDbEntity
  8
1
 62
     7
100
AcDbLine
 10
8.069999954945272
 20
23.20272430685317
 30
0.0
 11
10.43037959250421
 21
23.20272430685317
 31
0.0
  0
LINE
  5
228
330
1E
100
AcDbEntity
  8
1
 62
     7
100
AcDbLine
 10
12.54962031738648
 20
23.20272430685317
 30
0.0
 11
14.90999995494519
 21
23.20272430685317
 31
0.0
  0
LINE
  5
229
330
1E
100
AcDbEntity
  8
1
 62
     7
100
AcDbLine
 10
14.90999995494519
 20
23.20272430685317
 30
0.0
 11
15.10999995494534
 21
23.40272430685315
 31
0.0
  0
LINE
  5
22A
330
1E
100
AcDbEntity
  8
1
 62
     7
100
AcDbLine
 10
8.878470082349734
 20
22.71301372182782
 30
0.0
 11
8.878470082349734
 21
19.58301372182782
 31
0.0
  0
LINE
  5
22B
330
1E
100
AcDbEntity
  8
1
 62
     7
100
AcDbLine
 10
7.848075696978979
 20
22.71301372182782
 30
0.0
 11
8.878470082349734
 21
22.71301372182782
 31
0.0
  0
LINE
  5
22C
330
1E
100
AcDbEntity
  8
1
 62
     7
100
AcDbLine
 10
7.698470082349671
 20
21.00301372182778
 30
0.0
 11
7.848075696978979
 21
22.71301372182782
 31
0.0
  0
LINE
  5
22D
330
1E
100
AcDbEntity
  8
1
 62
     7
100
AcDbLine
 10
7.698470082349671
 20
19.58301372182782
 30
0.0
 11
7.698470082349671
 21
21.00301372182778
 31
0.0
  0
LINE
  5
22E
330
1E
100
AcDbEntity
  8
1
 62
     7
100
AcDbLine
 10
8.878470082349734
 20
19.58301372182782
 30
0.0
 11
7.698470082349671
 21
19.58301372182782
 31
0.0
  0
LINE
  5
22F
330
1E
100
AcDbEntity
  8
1
 62
     7
100
AcDbLine
 10
7.724999954945245
 20
19.18604063402225
 30
0.0
 11
10.38625561747403
 21
19.18604063402225
 31
0.0
  0
LINE
  5
230
330
1E
100
AcDbEntity
  8
1
 62
     7
100
AcDbLine
 10
7.724999954945245
 20
19.18604063402225
 30
0.0
 11
7.424999954945291
 21
18.88604063402223
 31
0.0
  0
LINE
  5
231
330
1E
100
AcDbEntity
  8
1
 62
     7
100
AcDbLine
 10
12.59374429241655
 20
19.18604063402225
 30
0.0
 11
15.25499995494533
 21
19.18604063402225
 31
0.0
  0
LINE
  5
232
330
1E
100
AcDbEntity
  8
1
 62
     7
100
AcDbLine
 10
15.5549999549454
 20
18.88604063402223
 30
0.0
 11
15.25499995494533
 21
19.18604063402225
 31
0.0
  0
LINE
  5
233
330
1E
100
AcDbEntity
  8
1
 62
     7
100
AcDbLine
 10
10.38625561747403
 20
-19.18604063402225
 30
0.0
 11
7.724999954945245
 21
-19.18604063402225
 31
0.0
  0
LINE
  5
234
330
1E
100
AcDbEntity
  8
1
 62
     7
100
AcDbLine
 10
7.424999954945292
 20
-18.88604063402226
 30
0.0
 11
7.724999954945245
 21
-19.18604063402225
 31
0.0
  0
LINE
  5
235
330
1E
100
AcDbEntity
  8
1
 62
     7
100
AcDbLine
 10
7.424999954945292
 20
-18.88604063402226
 30
0.0
 11
7.424999954945292
 21
-18.08249999999998
 31
0.0
  0
LINE
  5
236
330
1E
100
AcDbEntity
  8
1
 62
     7
100
AcDbLine
 10
7.724999954945246
 20
-17.78249999999999
 30
0.0
 11
7.424999954945292
 21
-18.08249999999998
 31
0.0
  0
LINE
  5
237
330
1E
100
AcDbEntity
  8
1
 62
     7
100
AcDbLine
 10
15.25499995494533
 20
-19.18604063402225
 30
0.0
 11
12.59374429241655
 21
-19.18604063402225
 31
0.0
  0
LINE
  5
238
330
1E
100
AcDbEntity
  8
1
 62
     7
100
AcDbLine
 10
15.25499995494533
 20
-19.18604063402225
 30
0.0
 11
15.5549999549454
 21
-18.88604063402226
 31
0.0
  0
LINE
  5
239
330
1E
100
AcDbEntity
  8
1
 62
     7
100
AcDbLine
 10
15.5549999549454
 20
-18.08249999999998
 30
0.0
 11
15.5549999549454
 21
-18.88604063402226
 31
0.0
  0
LINE
  5
23A
330
1E
100
AcDbEntity
  8
1
 62
     7
100
AcDbLine
 10
15.5549999549454
 20
-18.08249999999998
 30
0.0
 11
15.25499995494533
 21
-17.78249999999999
 31
0.0
  0
LINE
  5
23B
330
1E
100
AcDbEntity
  8
1
 62
     7
100
AcDbLine
 10
7.698470082349671
 20
-19.57698627817203
 30
0.0
 11
8.878470082349734
 21
-19.57698627817203
 31
0.0
  0
LINE
  5
23C
330
1E
100
AcDbEntity
  8
1
 62
     7
100
AcDbLine
 10
7.698470082349671
 20
-20.99698627817198
 30
0.0
 11
7.698470082349671
 21
-19.57698627817203
 31
0.0
  0
LINE
  5
23D
330
1E
100
AcDbEntity
  8
1
 62
     7
100
AcDbLine
 10
7.848075696978979
 20
-22.70698627817203
 30
0.0
 11
7.698470082349671
 21
-20.99698627817198
 31
0.0
  0
LINE
  5
23E
330
1E
100
AcDbEntity
  8
1
 62
     7
100
AcDbLine
 10
8.878470082349734
 20
-22.70698627817203
 30
0.0
 11
7.848075696978979
 21
-22.70698627817203
 31
0.0
  0
LINE
  5
23F
330
1E
100
AcDbEntity
  8
1
 62
     7
100
AcDbLine
 10
8.878470082349734
 20
-19.57698627817203
 30
0.0
 11
8.878470082349734
 21
-22.70698627817203
 31
0.0
  0
LINE
  5
240
330
1E
100
AcDbEntity
  8
1
 62
     7
100
AcDbLine
 10
10.43037959250421
 20
-23.20272430685317
 30
0.0
 11
8.069999954945272
 21
-23.20272430685317
 31
0.0
  0
LINE
  5
241
330
1E
100
AcDbEntity
  8
1
 62
     7
100
AcDbLine
 10
8.069999954945272
 20
-23.20272430685317
 30
0.0
 11
7.869999954945342
 21
-23.40272430685316
 31
0.0
  0
LINE
  5
242
330
1E
100
AcDbEntity
  8
1
 62
     7
100
AcDbLine
 10
7.869999954945342
 20
-23.40272430685316
 30
0.0
 11
7.869999954945342
 21
-24.25032486540519
 31
0.0
  0
LINE
  5
243
330
1E
100
AcDbEntity
  8
1
 62
     7
100
AcDbLine
 10
8.369999954945342
 20
-24.53899999999999
 30
0.0
 11
7.869999954945342
 21
-24.25032486540519
 31
0.0
  0
LINE
  5
244
330
1E
100
AcDbEntity
  8
1
 62
     7
100
AcDbLine
 10
14.90999995494519
 20
-23.20272430685317
 30
0.0
 11
12.54962031738648
 21
-23.20272430685317
 31
0.0
  0
LINE
  5
245
330
1E
100
AcDbEntity
  8
1
 62
     7
100
AcDbLine
 10
15.10999995494534
 20
-23.40272430685316
 30
0.0
 11
14.90999995494519
 21
-23.20272430685317
 31
0.0
  0
LINE
  5
246
330
1E
100
AcDbEntity
  8
1
 62
     7
100
AcDbLine
 10
15.10999995494534
 20
-24.25032486540519
 30
0.0
 11
15.10999995494534
 21
-23.40272430685316
 31
0.0
  0
LINE
  5
247
330
1E
100
AcDbEntity
  8
1
 62
     7
100
AcDbLine
 10
15.10999995494534
 20
-24.25032486540519
 30
0.0
 11
14.60999995494534
 21
-24.53899999999999
 31
0.0
  0
LINE
  5
248
330
1E
100
AcDbEntity
  8
1
  6
DIVIDE
 62
     4
100
AcDbLine
 10
17.09999999990668
 20
19.6171372114382
 30
0.0
 11
17.09999999990668
 21
26.5
 31
0.0
  0
LINE
  5
249
330
1E
100
AcDbEntity
  8
1
  6
DIVIDE
 62
     4
100
AcDbLine
 10
17.09999999990668
 20
26.5
 30
0.0
 11
15.59999999990669
 21
26.5
 31
0.0
  0
LINE
  5
24A
330
1E
100
AcDbEntity
  8
1
  6
DIVIDE
 62
     4
100
AcDbLine
 10
15.59999999990669
 20
-26.5
 30
0.0
 11
17.09999999990668
 21
-26.5
 31
0.0
  0
LINE
  5
24B
330
1E
100
AcDbEntity
  8
1
  6
DIVIDE
 62
     4
100
AcDbLine
 10
17.09999999990668
 20
-26.5
 30
0.0
 11
17.09999999990668
 21
-19.6171372114382
 31
0.0
  0
LINE
  5
24C
330
1E
100
AcDbEntity
  8
1
  6
PHANTOM
 62
     4
100
AcDbLine
 10
-11.39999999996438
 20
-22.5
 30
0.0
 11
-11.39999999996438
 21
-35.00000000000005
 31
0.0
  0
LINE
  5
24D
330
1E
100
AcDbEntity
  8
1
  6
PHANTOM
 62
     4
100
AcDbLine
 10
-1.699999999964347
 20
-22.5
 30
0.0
 11
-11.39999999996438
 21
-22.5
 31
0.0
  0
LINE
  5
24E
330
1E
100
AcDbEntity
  8
1
  6
PHANTOM
 62
     4
100
AcDbLine
 10
-11.39999999996438
 20
35.00000000000005
 30
0.0
 11
-11.39999999996438
 21
22.5
 31
0.0
  0
LINE
  5
24F
330
1E
100
AcDbEntity
  8
1
  6
PHANTOM
 62
     4
100
AcDbLine
 10
-11.39999999996438
 20
22.5
 30
0.0
 11
-1.699999999964347
 21
22.5
 31
0.0
  0
LINE
  5
250
330
1E
100
AcDbEntity
  8
1
 62
     7
100
AcDbLine
 10
-13.39999999996439
 20
18.32
 30
0.0
 11
-13.39999999998886
 21
44.70301372262953
 31
0.0
  0
LINE
  5
251
330
1E
100
AcDbEntity
  8
1
 62
     7
100
AcDbLine
 10
-10.70099999998467
 20
18.32
 30
0.0
 11
-10.70099999998467
 21
34.80301372263369
 31
0.0
  0
ARC
  5
256
330
1E
100
AcDbEntity
  8
1
 62
     7
100
AcDbCircle
 10
12.00000000003536
 20
-29.39698627736621
 30
0.0
 40
0.0999999999999979
100
AcDbArc
 50
270.0
 51
0.0
  0
ARC
  5
257
330
1E
100
AcDbEntity
  8
1
 62
     7
100
AcDbCircle
 10
12.00000000003536
 20
-32.5969862773662
 30
0.0
 40
0.0999999999999091
100
AcDbArc
 50
0.0
 51
90.0
  0
ARC
  5
258
330
1E
100
AcDbEntity
  8
1
 62
     7
100
AcDbCircle
 10
-13.29999999998472
 20
-43.59698627736611
 30
0.0
 40
0.0999999999999944
100
AcDbArc
 50
90.0
 51
180.0
  0
ARC
  5
259
330
1E
100
AcDbEntity
  8
1
 62
     7
100
AcDbCircle
 10
-13.29999999998472
 20
-40.39698627736613
 30
0.0
 40
0.1000000000000192
100
AcDbArc
 50
180.0
 51
270.0
  0
ARC
  5
25A
330
1E
100
AcDbEntity
  8
1
 62
     7
100
AcDbCircle
 10
93.64347208129435
 20
0.0030137226336819
 30
0.0
 40
22.79499999999982
100
AcDbArc
 50
79.73895468522695
 51
84.60887140172998
  0
ARC
  5
25B
330
1E
100
AcDbEntity
  8
1
 62
     7
100
AcDbCircle
 10
93.64347208129435
 20
21.18801372263368
 30
0.0
 40
2.619999999999841
100
AcDbArc
 50
317.2040421973707
 51
35.17094663346628
  0
ARC
  5
25C
330
1E
100
AcDbEntity
  8
1
 62
     7
100
AcDbCircle
 10
93.64347208129435
 20
0.0030137226336819
 30
0.0
 40
19.50000000000039
100
AcDbArc
 50
80.00578710323805
 51
84.34203898371912
  0
ARC
  5
25D
330
1E
100
AcDbEntity
  8
1
 62
     7
100
AcDbCircle
 10
99.35911667825633
 20
20.40241645509667
 30
0.0
 40
2.620000000000563
100
AcDbArc
 50
129.1768794535053
 51
207.1437838895711
  0
ARC
  5
25E
330
1E
100
AcDbEntity
  8
1
 62
     7
100
AcDbCircle
 10
93.64347208129435
 20
0.0030137226336819
 30
0.0
 40
22.79499999999991
100
AcDbArc
 50
64.08678077218168
 51
68.95669748868716
  0
ARC
  5
25F
330
1E
100
AcDbEntity
  8
1
 62
     7
100
AcDbCircle
 10
99.35911667825633
 20
20.40241645509667
 30
0.0
 40
2.619999999999344
100
AcDbArc
 50
301.551868284316
 51
19.51877272042429
  0
ARC
  5
260
330
1E
100
AcDbEntity
  8
1
 62
     7
100
AcDbCircle
 10
93.64347208129435
 20
0.0030137226336819
 30
0.0
 40
19.50000000000046
100
AcDbArc
 50
64.35361319019356
 51
68.68986507067646
  0
ARC
  5
261
330
1E
100
AcDbEntity
  8
1
 62
     7
100
AcDbCircle
 10
104.6508580627954
 20
18.10388880795168
 30
0.0
 40
2.619999999999268
100
AcDbArc
 50
113.5247055404585
 51
191.4916099765499
  0
ARC
  5
262
330
1E
100
AcDbEntity
  8
1
 62
     7
100
AcDbCircle
 10
93.64347208129435
 20
0.0030137226336819
 30
0.0
 40
22.79500000000048
100
AcDbArc
 50
48.43460685914026
 51
53.30452357564486
  0
ARC
  5
263
330
1E
100
AcDbEntity
  8
1
 62
     7
100
AcDbCircle
 10
104.6508580627954
 20
18.10388880795168
 30
0.0
 40
2.620000000000569
100
AcDbArc
 50
285.899694371272
 51
3.866598807376196
  0
ARC
  5
264
330
1E
100
AcDbEntity
  8
1
 62
     7
100
AcDbCircle
 10
93.64347208129435
 20
0.0030137226336819
 30
0.0
 40
19.50000000000057
100
AcDbArc
 50
48.70143927714982
 51
53.03769115763168
  0
ARC
  5
265
330
1E
100
AcDbEntity
  8
1
 62
     7
100
AcDbCircle
 10
109.1262319845262
 20
14.46290206172067
 30
0.0
 40
2.620000000000875
100
AcDbArc
 50
97.872531627401
 51
175.839436063489
  0
ARC
  5
266
330
1E
100
AcDbEntity
  8
1
 62
     7
100
AcDbCircle
 10
93.64347208129435
 20
0.0030137226336819
 30
0.0
 40
22.79500000000062
100
AcDbArc
 50
32.78243294609639
 51
37.65234966260143
  0
ARC
  5
267
330
1E
100
AcDbEntity
  8
1
 62
     7
100
AcDbCircle
 10
109.1262319845262
 20
14.46290206172067
 30
0.0
 40
2.61999999999951
100
AcDbArc
 50
270.2475204582544
 51
348.2144248943475
  0
ARC
  5
268
330
1E
100
AcDbEntity
  8
1
 62
     7
100
AcDbCircle
 10
93.64347208129435
 20
0.0030137226336819
 30
0.0
 40
19.50000000000035
100
AcDbArc
 50
33.04926536410679
 51
37.38551724458808
  0
ARC
  5
269
330
1E
100
AcDbEntity
  8
1
 62
     7
100
AcDbCircle
 10
112.4533204331482
 20
9.749491546968682
 30
0.0
 40
2.620000000000187
100
AcDbArc
 50
82.22035771434649
 51
160.1872621504601
  0
ARC
  5
26A
330
1E
100
AcDbEntity
  8
1
 62
     7
100
AcDbCircle
 10
93.64347208129435
 20
0.0030137226336819
 30
0.0
 40
22.79499999999982
100
AcDbArc
 50
17.13025903305205
 51
22.0001757495563
  0
ARC
  5
26B
330
1E
100
AcDbEntity
  8
1
 62
     7
100
AcDbCircle
 10
112.4533204331482
 20
9.749491546968682
 30
0.0
 40
2.619999999999809
100
AcDbArc
 50
254.5953465452061
 51
332.5622509812891
  0
ARC
  5
26C
330
1E
100
AcDbEntity
  8
1
 62
     7
100
AcDbCircle
 10
93.64347208129435
 20
0.0030137226336819
 30
0.0
 40
19.50000000000063
100
AcDbArc
 50
17.39709145106486
 51
21.73334333154642
  0
ARC
  5
26D
330
1E
100
AcDbEntity
  8
1
 62
     7
100
AcDbCircle
 10
114.3853684788443
 20
4.313229359153681
 30
0.0
 40
2.619999999999966
100
AcDbArc
 50
66.56818380132003
 51
144.5350882373948
  0
ARC
  5
26E
330
1E
100
AcDbEntity
  8
1
 62
     7
100
AcDbCircle
 10
93.64347208129435
 20
0.0030137226336819
 30
0.0
 40
22.79499999999989
100
AcDbArc
 50
1.478085120008983
 51
6.348001836514852
  0
ARC
  5
26F
330
1E
100
AcDbEntity
  8
1
 62
     7
100
AcDbCircle
 10
114.3853684788443
 20
4.313229359153681
 30
0.0
 40
2.619999999999648
100
AcDbArc
 50
238.9431726321559
 51
316.9100770682531
  0
ARC
  5
270
330
1E
100
AcDbEntity
  8
1
 62
     7
100
AcDbCircle
 10
93.64347208129435
 20
0.0030137226336819
 30
0.0
 40
19.50000000000001
100
AcDbArc
 50
1.744917538020088
 51
6.08116941850185
  0
ARC
  5
271
330
1E
100
AcDbEntity
  8
1
 62
     7
100
AcDbCircle
 10
114.7790849565963
 20
-1.442701804496323
 30
0.0
 40
2.619999999999409
100
AcDbArc
 50
50.91600988827741
 51
128.8829143243834
  0
ARC
  5
272
330
1E
100
AcDbEntity
  8
1
 62
     7
100
AcDbCircle
 10
93.64347208129435
 20
0.0030137226336819
 30
0.0
 40
22.79500000000039
100
AcDbArc
 50
345.8259112069672
 51
350.6958279234711
  0
ARC
  5
273
330
1E
100
AcDbEntity
  8
1
 62
     7
100
AcDbCircle
 10
114.7790849565963
 20
-1.442701804496323
 30
0.0
 40
2.620000000000073
100
AcDbArc
 50
223.2909987191109
 51
301.2579031552041
  0
ARC
  5
274
330
1E
100
AcDbEntity
  8
1
 62
     7
100
AcDbCircle
 10
93.64347208129435
 20
0.0030137226336819
 30
0.0
 40
19.49999999999971
100
AcDbArc
 50
346.0927436249789
 51
350.4289955054593
  0
ARC
  5
275
330
1E
100
AcDbEntity
  8
1
 62
     7
100
AcDbCircle
 10
113.6052697163812
 20
-7.091410861208316
 30
0.0
 40
2.62000000000095
100
AcDbArc
 50
35.26383597522753
 51
113.2307404113184
  0
ARC
  5
276
330
1E
100
AcDbEntity
  8
1
 62
     7
100
AcDbCircle
 10
93.64347208129435
 20
0.0030137226336819
 30
0.0
 40
22.79499999999996
100
AcDbArc
 50
330.1737372939231
 51
335.0436540104282
  0
ARC
  5
277
330
1E
100
AcDbEntity
  8
1
 62
     7
100
AcDbCircle
 10
113.6052697163812
 20
-7.091410861208316
 30
0.0
 40
2.619999999999576
100
AcDbArc
 50
207.6388248060692
 51
285.6057292421776
  0
ARC
  5
278
330
1E
100
AcDbEntity
  8
1
 62
     7
100
AcDbCircle
 10
93.64347208129435
 20
0.0030137226336819
 30
0.0
 40
19.5000000000002
100
AcDbArc
 50
330.4405697119345
 51
334.7768215924157
  0
ARC
  5
279
330
1E
100
AcDbEntity
  8
1
 62
     7
100
AcDbCircle
 10
110.9509792647203
 20
-12.21395890136951
 30
0.0
 40
2.620000000000593
100
AcDbArc
 50
19.61166206218907
 51
97.57856649826834
  0
ARC
  5
27A
330
1E
100
AcDbEntity
  8
1
 62
     7
100
AcDbCircle
 10
93.64347208129435
 20
0.0030137226336819
 30
0.0
 40
22.79500000000008
100
AcDbArc
 50
314.5215633808798
 51
319.3914800973846
  0
ARC
  5
27B
330
1E
100
AcDbEntity
  8
1
 62
     7
100
AcDbCircle
 10
110.9509792647203
 20
-12.21395890136951
 30
0.0
 40
2.61999999999944
100
AcDbArc
 50
191.9866508930254
 51
269.9535553291369
  0
ARC
  5
27C
330
1E
100
AcDbEntity
  8
1
 62
     7
100
AcDbCircle
 10
93.64347208129435
 20
0.0030137226336819
 30
0.0
 40
19.49999999999965
100
AcDbArc
 50
314.7883957988907
 51
319.1246476793721
  0
ARC
  5
27D
330
1E
100
AcDbEntity
  8
1
 62
     7
100
AcDbCircle
 10
107.0130701818422
 20
-16.43042997093922
 30
0.0
 40
2.620000000000054
100
AcDbArc
 50
3.959488149147741
 51
81.92639258525069
  0
ARC
  5
27E
330
1E
100
AcDbEntity
  8
1
 62
     7
100
AcDbCircle
 10
93.64347208129435
 20
0.0030137226336819
 30
0.0
 40
22.79499999999966
100
AcDbArc
 50
298.8693894678347
 51
303.7393061843412
  0
ARC
  5
27F
330
1E
100
AcDbEntity
  8
1
 62
     7
100
AcDbCircle
 10
107.0130701818422
 20
-16.43042997093922
 30
0.0
 40
2.62000000000029
100
AcDbArc
 50
176.3344769799797
 51
254.3013814160749
  0
ARC
  5
280
330
1E
100
AcDbEntity
  8
1
 62
     7
100
AcDbCircle
 10
93.64347208129435
 20
0.0030137226336819
 30
0.0
 40
19.49999999999975
100
AcDbArc
 50
299.1362218858471
 51
303.4724737663283
  0
ARC
  5
281
330
1E
100
AcDbEntity
  8
1
 62
     7
100
AcDbCircle
 10
102.0835991696873
 20
-19.42810769975912
 30
0.0
 40
2.61999999999954
100
AcDbArc
 50
348.3073142361008
 51
66.27421867220011
  0
ARC
  5
282
330
1E
100
AcDbEntity
  8
1
 62
     7
100
AcDbCircle
 10
93.64347208129435
 20
0.0030137226336819
 30
0.0
 40
22.79499999999971
100
AcDbArc
 50
283.2172155547916
 51
288.0871322712973
  0
ARC
  5
283
330
1E
100
AcDbEntity
  8
1
 62
     7
100
AcDbCircle
 10
102.0835991696873
 20
-19.42810769975912
 30
0.0
 40
2.619999999999765
100
AcDbArc
 50
160.6823030669351
 51
238.6492075030328
  0
ARC
  5
284
330
1E
100
AcDbEntity
  8
1
 62
     7
100
AcDbCircle
 10
93.64347208129435
 20
0.0030137226336819
 30
0.0
 40
19.49999999999971
100
AcDbArc
 50
283.4840479728033
 51
287.8202998532856
  0
ARC
  5
285
330
1E
100
AcDbEntity
  8
1
 62
     7
100
AcDbCircle
 10
96.52816254239827
 20
-20.98466804414572
 30
0.0
 40
2.620000000000131
100
AcDbArc
 50
332.6551403230597
 51
50.62204475914978
  0
ARC
  5
286
330
1E
100
AcDbEntity
  8
1
 62
     7
100
AcDbCircle
 10
93.64347208129435
 20
0.0030137226336819
 30
0.0
 40
22.79499999999973
100
AcDbArc
 50
267.5650416417478
 51
272.4349583582543
  0
ARC
  5
287
330
1E
100
AcDbEntity
  8
1
 62
     7
100
AcDbCircle
 10
96.52816254239827
 20
-20.98466804414572
 30
0.0
 40
2.619999999999726
100
AcDbArc
 50
145.0301291538907
 51
222.9970335899998
  0
ARC
  5
288
330
1E
100
AcDbEntity
  8
1
 62
     7
100
AcDbCircle
 10
93.64347208129435
 20
0.0030137226336819
 30
0.0
 40
19.4999999999998
100
AcDbArc
 50
267.8318740597615
 51
272.1681259402411
  0
ARC
  5
289
330
1E
100
AcDbEntity
  8
1
 62
     7
100
AcDbCircle
 10
90.75878162019035
 20
-20.98466804414572
 30
0.0
 40
2.620000000000095
100
AcDbArc
 50
317.0029664100154
 51
34.96987084609651
  0
ARC
  5
28A
330
1E
100
AcDbEntity
  8
1
 62
     7
100
AcDbCircle
 10
93.64347208129435
 20
0.0030137226336819
 30
0.0
 40
22.79499999999976
100
AcDbArc
 50
251.9128677287052
 51
256.7827844452107
  0
ARC
  5
28B
330
1E
100
AcDbEntity
  8
1
 62
     7
100
AcDbCircle
 10
90.75878162019035
 20
-20.98466804414572
 30
0.0
 40
2.620000000000048
100
AcDbArc
 50
129.3779552408516
 51
207.3448596769524
  0
ARC
  5
28C
330
1E
100
AcDbEntity
  8
1
 62
     7
100
AcDbCircle
 10
93.64347208129435
 20
0.0030137226336819
 30
0.0
 40
19.49999999999972
100
AcDbArc
 50
252.1797001467169
 51
256.5159520271963
  0
ARC
  5
28D
330
1E
100
AcDbEntity
  8
1
 62
     7
100
AcDbCircle
 10
85.20334499290232
 20
-19.42810769975912
 30
0.0
 40
2.620000000000018
100
AcDbArc
 50
301.3507924969661
 51
19.3176969330647
  0
ARC
  5
28E
330
1E
100
AcDbEntity
  8
1
 62
     7
100
AcDbCircle
 10
93.64347208129435
 20
0.0030137226336819
 30
0.0
 40
22.7949999999998
100
AcDbArc
 50
236.260693815661
 51
241.1306105321652
  0
ARC
  5
28F
330
1E
100
AcDbEntity
  8
1
 62
     7
100
AcDbCircle
 10
85.20334499290232
 20
-19.42810769975912
 30
0.0
 40
2.620000000000281
100
AcDbArc
 50
113.725781327818
 51
191.6926857638991
  0
ARC
  5
290
330
1E
100
AcDbEntity
  8
1
 62
     7
100
AcDbCircle
 10
93.64347208129435
 20
0.0030137226336819
 30
0.0
 40
19.49999999999951
100
AcDbArc
 50
236.527526233674
 51
240.8637781141529
  0
ARC
  5
291
330
1E
100
AcDbEntity
  8
1
 62
     7
100
AcDbCircle
 10
80.27387398074735
 20
-16.43042997093922
 30
0.0
 40
2.620000000000081
100
AcDbArc
 50
285.6986185839218
 51
3.665523020017996
  0
ARC
  5
292
330
1E
100
AcDbEntity
  8
1
 62
     7
100
AcDbCircle
 10
93.64347208129435
 20
0.0030137226336819
 30
0.0
 40
22.79499999999971
100
AcDbArc
 50
220.6085199026174
 51
225.4784366191223
  0
ARC
  5
293
330
1E
100
AcDbEntity
  8
1
 62
     7
100
AcDbCircle
 10
80.27387398074735
 20
-16.43042997093922
 30
0.0
 40
2.62000000000008
100
AcDbArc
 50
98.07360741477147
 51
176.0405118508588
  0
ARC
  5
294
330
1E
100
AcDbEntity
  8
1
 62
     7
100
AcDbCircle
 10
93.64347208129435
 20
0.0030137226336819
 30
0.0
 40
19.49999999999945
100
AcDbArc
 50
220.8753523206299
 51
225.2116042011095
  0
ARC
  5
295
330
1E
100
AcDbEntity
  8
1
 62
     7
100
AcDbCircle
 10
76.33596489786828
 20
-12.21395890136961
 30
0.0
 40
2.620000000000035
100
AcDbArc
 50
270.0464446708859
 51
348.0133491069793
  0
ARC
  5
296
330
1E
100
AcDbEntity
  8
1
 62
     7
100
AcDbCircle
 10
93.64347208129435
 20
0.0030137226336819
 30
0.0
 40
22.79499999999972
100
AcDbArc
 50
204.956345989575
 51
209.8262627060794
  0
ARC
  5
297
330
1E
100
AcDbEntity
  8
1
 62
     7
100
AcDbCircle
 10
76.33596489786828
 20
-12.21395890136961
 30
0.0
 40
2.620000000000096
100
AcDbArc
 50
82.4214335017098
 51
160.3883379378135
  0
ARC
  5
298
330
1E
100
AcDbEntity
  8
1
 62
     7
100
AcDbCircle
 10
93.64347208129435
 20
0.0030137226336819
 30
0.0
 40
19.49999999999916
100
AcDbArc
 50
205.2231784075853
 51
209.5594302880668
  0
ARC
  5
299
330
1E
100
AcDbEntity
  8
1
 62
     7
100
AcDbCircle
 10
73.68167444620734
 20
-7.091410861208316
 30
0.0
 40
2.62000000000062
100
AcDbArc
 50
254.3942707578497
 51
332.3611751939405
  0
ARC
  5
29A
330
1E
100
AcDbEntity
  8
1
 62
     7
100
AcDbCircle
 10
93.64347208129435
 20
0.0030137226336819
 30
0.0
 40
22.79499999999942
100
AcDbArc
 50
189.3041720765293
 51
194.1740887930357
  0
ARC
  5
29B
330
1E
100
AcDbEntity
  8
1
 62
     7
100
AcDbCircle
 10
73.68167444620734
 20
-7.091410861208316
 30
0.0
 40
2.619999999999401
100
AcDbArc
 50
66.76925958867267
 51
144.7361640247781
  0
ARC
  5
29C
330
1E
100
AcDbEntity
  8
1
 62
     7
100
AcDbCircle
 10
93.64347208129435
 20
0.0030137226336819
 30
0.0
 40
19.49999999999932
100
AcDbArc
 50
189.571004494541
 51
193.9072563750237
  0
ARC
  5
29D
330
1E
100
AcDbEntity
  8
1
 62
     7
100
AcDbCircle
 10
72.50785920599333
 20
-1.442701804496323
 30
0.0
 40
2.620000000000074
100
AcDbArc
 50
238.7420968447966
 51
316.70900128089
  0
ARC
  5
29E
330
1E
100
AcDbEntity
  8
1
 62
     7
100
AcDbCircle
 10
93.64347208129435
 20
0.0030137226336819
 30
0.0
 40
22.79499999999968
100
AcDbArc
 50
173.6519981634876
 51
178.5219148799909
  0
ARC
  5
29F
330
1E
100
AcDbEntity
  8
1
 62
     7
100
AcDbCircle
 10
72.50785920599333
 20
-1.442701804496323
 30
0.0
 40
2.619999999999063
100
AcDbArc
 50
51.11708567563429
 51
129.0839901117397
  0
ARC
  5
2A0
330
1E
100
AcDbEntity
  8
1
 62
     7
100
AcDbCircle
 10
93.64347208129435
 20
0.0030137226336819
 30
0.0
 40
19.50000000000037
100
AcDbArc
 50
173.9188305814981
 51
178.2550824619798
  0
ARC
  5
2A1
330
1E
100
AcDbEntity
  8
1
 62
     7
100
AcDbCircle
 10
72.90157568374434
 20
4.313229359153681
 30
0.0
 40
2.620000000000022
100
AcDbArc
 50
223.0899229317625
 51
301.0568273678433
  0
ARC
  5
2A2
330
1E
100
AcDbEntity
  8
1
 62
     7
100
AcDbCircle
 10
93.64347208129435
 20
0.0030137226336819
 30
0.0
 40
22.79499999999961
100
AcDbArc
 50
157.9998242504429
 51
162.869740966948
  0
ARC
  5
2A3
330
1E
100
AcDbEntity
  8
1
 62
     7
100
AcDbCircle
 10
72.90157568374434
 20
4.313229359153681
 30
0.0
 40
2.620000000000673
100
AcDbArc
 50
35.46491176259259
 51
113.431816198681
  0
ARC
  5
2A4
330
1E
100
AcDbEntity
  8
1
 62
     7
100
AcDbCircle
 10
93.64347208129435
 20
0.0030137226336819
 30
0.0
 40
19.50000000000003
100
AcDbArc
 50
158.2666566684563
 51
162.6029085489343
  0
ARC
  5
2A5
330
1E
100
AcDbEntity
  8
1
 62
     7
100
AcDbCircle
 10
74.83362372944032
 20
9.749491546968682
 30
0.0
 40
2.6200000000001
100
AcDbArc
 50
207.437749018721
 51
285.4046534547883
  0
ARC
  5
2A6
330
1E
100
AcDbEntity
  8
1
 62
     7
100
AcDbCircle
 10
93.64347208129435
 20
0.0030137226336819
 30
0.0
 40
22.79500000000018
100
AcDbArc
 50
142.3476503373986
 51
147.2175670539044
  0
ARC
  5
2A7
330
1E
100
AcDbEntity
  8
1
 62
     7
100
AcDbCircle
 10
74.83362372944032
 20
9.749491546968682
 30
0.0
 40
2.620000000000079
100
AcDbArc
 50
19.81273784953217
 51
97.7796422856352
  0
ARC
  5
2A8
330
1E
100
AcDbEntity
  8
1
 62
     7
100
AcDbCircle
 10
93.64347208129435
 20
0.0030137226336819
 30
0.0
 40
19.49999999999985
100
AcDbArc
 50
142.6144827554101
 51
146.9507346358916
  0
ARC
  5
2A9
330
1E
100
AcDbEntity
  8
1
 62
     7
100
AcDbCircle
 10
78.16071217806234
 20
14.46290206172067
 30
0.0
 40
2.61999999999978
100
AcDbArc
 50
191.7855751056523
 51
269.7524795417681
  0
ARC
  5
2AA
330
1E
100
AcDbEntity
  8
1
 62
     7
100
AcDbCircle
 10
93.64347208129435
 20
0.0030137226336819
 30
0.0
 40
22.79500000000037
100
AcDbArc
 50
126.6954764243554
 51
131.5653931408614
  0
ARC
  5
2AB
330
1E
100
AcDbEntity
  8
1
 62
     7
100
AcDbCircle
 10
78.16071217806234
 20
14.46290206172067
 30
0.0
 40
2.62000000000031
100
AcDbArc
 50
4.160563936509246
 51
82.1274683725954
  0
ARC
  5
2AC
330
1E
100
AcDbEntity
  8
1
 62
     7
100
AcDbCircle
 10
93.64347208129435
 20
0.0030137226336819
 30
0.0
 40
19.50000000000003
100
AcDbArc
 50
126.9623088423685
 51
131.298560722848
  0
ARC
  5
2AD
330
1E
100
AcDbEntity
  8
1
 62
     7
100
AcDbCircle
 10
82.63608609979428
 20
18.10388880795168
 30
0.0
 40
2.62000000000049
100
AcDbArc
 50
176.1334011926253
 51
254.1003056287056
  0
ARC
  5
2AE
330
1E
100
AcDbEntity
  8
1
 62
     7
100
AcDbCircle
 10
93.64347208129435
 20
0.0030137226336819
 30
0.0
 40
22.79499999999988
100
AcDbArc
 50
111.0433025113132
 51
115.9132192278184
  0
ARC
  5
2AF
330
1E
100
AcDbEntity
  8
1
 62
     7
100
AcDbCircle
 10
82.63608609979428
 20
18.10388880795168
 30
0.0
 40
2.619999999999951
100
AcDbArc
 50
348.5083900234497
 51
66.47529445956198
  0
ARC
  5
2B0
330
1E
100
AcDbEntity
  8
1
 62
     7
100
AcDbCircle
 10
93.64347208129435
 20
0.0030137226336819
 30
0.0
 40
19.50000000000006
100
AcDbArc
 50
111.3101349293239
 51
115.6463868098041
  0
ARC
  5
2B1
330
1E
100
AcDbEntity
  8
1
 62
     7
100
AcDbCircle
 10
87.9278274843333
 20
20.40241645509667
 30
0.0
 40
2.620000000000543
100
AcDbArc
 50
160.4812272795834
 51
238.4481317156645
  0
ARC
  5
2B2
330
1E
100
AcDbEntity
  8
1
 62
     7
100
AcDbCircle
 10
93.64347208129435
 20
21.18801372263368
 30
0.0
 40
2.619999999999651
100
AcDbArc
 50
144.8290533665223
 51
222.7959578026275
  0
ARC
  5
2B3
330
1E
100
AcDbEntity
  8
1
 62
     7
100
AcDbCircle
 10
93.64347208129435
 20
0.0030137226336819
 30
0.0
 40
19.50000000000012
100
AcDbArc
 50
95.65796101628123
 51
99.99421289676227
  0
ARC
  5
2B4
330
1E
100
AcDbEntity
  8
1
 62
     7
100
AcDbCircle
 10
87.9278274843333
 20
20.40241645509667
 30
0.0
 40
2.619999999999231
100
AcDbArc
 50
332.8562161104186
 51
50.82312054651197
  0
ARC
  5
2B5
330
1E
100
AcDbEntity
  8
1
 62
     7
100
AcDbCircle
 10
93.64347208129435
 20
0.0030137226336819
 30
0.0
 40
22.79500000000023
100
AcDbArc
 50
95.39112859826778
 51
100.2610453147732
  0
ARC
  5
2B6
330
1E
100
AcDbEntity
  8
0
 62
     7
100
AcDbCircle
 10
96.30347269661832
 20
-12.42198608992308
 30
0.0
 40
0.699999989498231
100
AcDbArc
 50
270.0000000008188
 51
0.0000000000645562
  0
ARC
  5
2B7
330
1E
100
AcDbEntity
  8
0
 62
     7
100
AcDbCircle
 10
97.70347267558737
 20
-10.99775034886332
 30
0.0
 40
0.6999999894874223
100
AcDbArc
 50
109.2696388775582
 51
180.0
  0
ARC
  5
2B8
330
1E
100
AcDbEntity
  8
0
 62
     7
100
AcDbCircle
 10
93.64347273657632
 20
0.6155137141896319
 30
0.0
 40
11.60249982571139
100
AcDbArc
 50
289.2696388779483
 51
90.0
  0
ARC
  5
2B9
330
1E
100
AcDbEntity
  8
0
 62
     7
100
AcDbCircle
 10
90.98347277654932
 20
-12.42198608992229
 30
0.0
 40
0.6999999894810572
100
AcDbArc
 50
180.0
 51
269.9999999985297
  0
ARC
  5
2BA
330
1E
100
AcDbEntity
  8
0
 62
     7
100
AcDbCircle
 10
89.58347279757333
 20
-10.99775034886991
 30
0.0
 40
0.699999989494927
100
AcDbArc
 50
0.0000000005394221
 51
70.73036112247672
  0
ARC
  5
2BB
330
1E
100
AcDbEntity
  8
0
 62
     7
100
AcDbCircle
 10
93.64347273657632
 20
0.6155137141896319
 30
0.0
 40
11.60249982567609
100
AcDbArc
 50
90.0
 51
250.7303611220979
  0
ARC
  5
2BC
330
1E
100
AcDbEntity
  8
1
 62
     7
100
AcDbCircle
 10
93.64347273673329
 20
0.0030137226336535
 30
0.0
 40
4.49999993254994
100
AcDbArc
 50
270.000000008811
 51
70.52877938200386
  0
ARC
  5
2BD
330
1E
100
AcDbEntity
  8
1
 62
     7
100
AcDbCircle
 10
93.64347273673329
 20
0.0030137226336535
 30
0.0
 40
4.499999932357921
100
AcDbArc
 50
109.4712206402077
 51
270.000000008811
  0
ARC
  5
2BE
330
1E
100
AcDbEntity
  8
1
 62
     7
100
AcDbCircle
 10
93.64347208129435
 20
21.18801372263368
 30
0.0
 40
2.381250000000458
100
AcDbArc
 50
117.8210529528942
 51
243.9177547106284
  0
ARC
  5
2BF
330
1E
100
AcDbEntity
  8
1
 62
     7
100
AcDbCircle
 10
93.64347208129435
 20
21.18801372263368
 30
0.0
 40
2.381250000000054
100
AcDbArc
 50
296.082245289369
 51
62.17894704710815
  0
ARC
  5
2C0
330
1E
100
AcDbEntity
  8
1
 62
     7
100
AcDbCircle
 10
87.9278274843333
 20
20.40241645509667
 30
0.0
 40
2.381250000000576
100
AcDbArc
 50
133.4732268659325
 51
259.5699286236774
  0
ARC
  5
2C1
330
1E
100
AcDbEntity
  8
1
 62
     7
100
AcDbCircle
 10
82.63608609979428
 20
18.10388880795168
 30
0.0
 40
2.381250000000068
100
AcDbArc
 50
149.1254007789968
 51
275.222102536706
  0
ARC
  5
2C2
330
1E
100
AcDbEntity
  8
1
 62
     7
100
AcDbCircle
 10
78.16071217806234
 20
14.46290206172067
 30
0.0
 40
2.381249999999719
100
AcDbArc
 50
164.7775746920215
 51
290.8742764497811
  0
ARC
  5
2C3
330
1E
100
AcDbEntity
  8
1
 62
     7
100
AcDbCircle
 10
74.83362372944032
 20
9.749491546968682
 30
0.0
 40
2.381250000000365
100
AcDbArc
 50
180.4297486050771
 51
306.5264503628013
  0
ARC
  5
2C4
330
1E
100
AcDbEntity
  8
1
 62
     7
100
AcDbCircle
 10
72.90157568374434
 20
4.313229359153681
 30
0.0
 40
2.381249999999309
100
AcDbArc
 50
196.0819225181041
 51
322.1786242758646
  0
ARC
  5
2C5
330
1E
100
AcDbEntity
  8
1
 62
     7
100
AcDbCircle
 10
72.50785920599333
 20
-1.442701804496323
 30
0.0
 40
2.381250000000663
100
AcDbArc
 50
211.734096431161
 51
337.8307981888973
  0
ARC
  5
2C6
330
1E
100
AcDbEntity
  8
1
 62
     7
100
AcDbCircle
 10
73.68167444620734
 20
-7.091410861208316
 30
0.0
 40
2.38125000000024
100
AcDbArc
 50
227.3862703441987
 51
353.482972101948
  0
ARC
  5
2C7
330
1E
100
AcDbEntity
  8
1
 62
     7
100
AcDbCircle
 10
76.33596489786828
 20
-12.21395890136961
 30
0.0
 40
2.381250000000104
100
AcDbArc
 50
243.0384442572361
 51
9.135146014984197
  0
ARC
  5
2C8
330
1E
100
AcDbEntity
  8
1
 62
     7
100
AcDbCircle
 10
80.27387398074735
 20
-16.43042997093922
 30
0.0
 40
2.381249999999981
100
AcDbArc
 50
258.6906181702924
 51
24.78731992803052
  0
ARC
  5
2C9
330
1E
100
AcDbEntity
  8
1
 62
     7
100
AcDbCircle
 10
85.20334499290232
 20
-19.42810769975912
 30
0.0
 40
2.381249999999965
100
AcDbArc
 50
274.34279208331
 51
40.43949384108302
  0
ARC
  5
2CA
330
1E
100
AcDbEntity
  8
1
 62
     7
100
AcDbCircle
 10
90.75878162019035
 20
-20.98466804414572
 30
0.0
 40
2.381250000000143
100
AcDbArc
 50
289.9949659963838
 51
56.0916677541202
  0
ARC
  5
2CB
330
1E
100
AcDbEntity
  8
1
 62
     7
100
AcDbCircle
 10
96.52816254239827
 20
-20.98466804414572
 30
0.0
 40
2.381249999999885
100
AcDbArc
 50
305.6471399094106
 51
71.74384166715684
  0
ARC
  5
2CC
330
1E
100
AcDbEntity
  8
1
 62
     7
100
AcDbCircle
 10
102.0835991696873
 20
-19.42810769975912
 30
0.0
 40
2.381249999999649
100
AcDbArc
 50
321.2993138224551
 51
87.3960155801938
  0
ARC
  5
2CD
330
1E
100
AcDbEntity
  8
1
 62
     7
100
AcDbCircle
 10
107.0130701818422
 20
-16.43042997093922
 30
0.0
 40
2.381249999999365
100
AcDbArc
 50
336.9514877354977
 51
103.0481894932633
  0
ARC
  5
2CE
330
1E
100
AcDbEntity
  8
1
 62
     7
100
AcDbCircle
 10
110.9509792647203
 20
-12.21395890136951
 30
0.0
 40
2.381250000000744
100
AcDbArc
 50
352.6036616485482
 51
118.7003634062818
  0
ARC
  5
2CF
330
1E
100
AcDbEntity
  8
1
 62
     7
100
AcDbCircle
 10
113.6052697163812
 20
-7.091410861208316
 30
0.0
 40
2.381250000000139
100
AcDbArc
 50
8.255835561577823
 51
134.3525373193322
  0
ARC
  5
2D0
330
1E
100
AcDbEntity
  8
1
 62
     7
100
AcDbCircle
 10
114.7790849565963
 20
-1.442701804496323
 30
0.0
 40
2.381249999999636
100
AcDbArc
 50
23.90800947462467
 51
150.004711232394
  0
ARC
  5
2D1
330
1E
100
AcDbEntity
  8
1
 62
     7
100
AcDbCircle
 10
114.3853684788443
 20
4.313229359153681
 30
0.0
 40
2.381250000000163
100
AcDbArc
 50
39.56018338768002
 51
165.6568851454194
  0
ARC
  5
2D2
330
1E
100
AcDbEntity
  8
1
 62
     7
100
AcDbCircle
 10
112.4533204331482
 20
9.749491546968682
 30
0.0
 40
2.381250000000106
100
AcDbArc
 50
55.21235730070353
 51
181.3090590584813
  0
ARC
  5
2D3
330
1E
100
AcDbEntity
  8
1
 62
     7
100
AcDbCircle
 10
109.1262319845262
 20
14.46290206172067
 30
0.0
 40
2.381250000000393
100
AcDbArc
 50
70.86453121375581
 51
196.9612329714896
  0
ARC
  5
2D4
330
1E
100
AcDbEntity
  8
1
 62
     7
100
AcDbCircle
 10
104.6508580627954
 20
18.10388880795168
 30
0.0
 40
2.381249999999729
100
AcDbArc
 50
86.51670512682366
 51
212.6134068845609
  0
ARC
  5
2D5
330
1E
100
AcDbEntity
  8
1
 62
     7
100
AcDbCircle
 10
99.35911667825633
 20
20.40241645509667
 30
0.0
 40
2.381250000000694
100
AcDbArc
 50
102.1688790398626
 51
228.2655807975863
  0
ARC
  5
2D6
330
1E
100
AcDbEntity
  8
1
 62
     7
100
AcDbCircle
 10
87.9278274843333
 20
20.40241645509667
 30
0.0
 40
2.381249999999464
100
AcDbArc
 50
311.7344192024136
 51
77.83112096016136
  0
ARC
  5
2D7
330
1E
100
AcDbEntity
  8
1
 62
     7
100
AcDbCircle
 10
82.63608609979428
 20
18.10388880795168
 30
0.0
 40
2.381250000000068
100
AcDbArc
 50
327.3865931154389
 51
93.48329487320295
  0
ARC
  5
2D8
330
1E
100
AcDbEntity
  8
1
 62
     7
100
AcDbCircle
 10
78.16071217806234
 20
14.46290206172067
 30
0.0
 40
2.381249999999881
100
AcDbArc
 50
343.0387670285106
 51
109.1354687862209
  0
ARC
  5
2D9
330
1E
100
AcDbEntity
  8
1
 62
     7
100
AcDbCircle
 10
74.83362372944032
 20
9.749491546968682
 30
0.0
 40
2.381249999999766
100
AcDbArc
 50
358.6909409415186
 51
124.7876426992779
  0
ARC
  5
2DA
330
1E
100
AcDbEntity
  8
1
 62
     7
100
AcDbCircle
 10
72.90157568374434
 20
4.313229359153681
 30
0.0
 40
2.381250000000235
100
AcDbArc
 50
14.34311485457988
 51
140.4398166123197
  0
ARC
  5
2DB
330
1E
100
AcDbEntity
  8
1
 62
     7
100
AcDbCircle
 10
72.50785920599333
 20
-1.442701804496323
 30
0.0
 40
2.381249999999145
100
AcDbArc
 50
29.99528876761839
 51
156.0919905253849
  0
ARC
  5
2DC
330
1E
100
AcDbEntity
  8
1
 62
     7
100
AcDbCircle
 10
73.68167444620734
 20
-7.091410861208316
 30
0.0
 40
2.381249999999403
100
AcDbArc
 50
45.64746268066797
 51
171.7441644384221
  0
ARC
  5
2DD
330
1E
100
AcDbEntity
  8
1
 62
     7
100
AcDbCircle
 10
76.33596489786828
 20
-12.21395890136961
 30
0.0
 40
2.381249999999961
100
AcDbArc
 50
61.2996365937179
 51
187.3963383514528
  0
ARC
  5
2DE
330
1E
100
AcDbEntity
  8
1
 62
     7
100
AcDbCircle
 10
80.27387398074735
 20
-16.43042997093922
 30
0.0
 40
2.381249999999953
100
AcDbArc
 50
76.95181050676007
 51
203.0485122644928
  0
ARC
  5
2DF
330
1E
100
AcDbEntity
  8
1
 62
     7
100
AcDbCircle
 10
85.20334499290232
 20
-19.42810769975912
 30
0.0
 40
2.38124999999999
100
AcDbArc
 50
92.60398441980452
 51
218.7006861775317
  0
ARC
  5
2E0
330
1E
100
AcDbEntity
  8
1
 62
     7
100
AcDbCircle
 10
90.75878162019035
 20
-20.98466804414572
 30
0.0
 40
2.381249999999953
100
AcDbArc
 50
108.2561583328439
 51
234.352860090588
  0
ARC
  5
2E1
330
1E
100
AcDbEntity
  8
1
 62
     7
100
AcDbCircle
 10
96.52816254239827
 20
-20.98466804414572
 30
0.0
 40
2.381249999999782
100
AcDbArc
 50
123.908332245881
 51
250.0050340036393
  0
ARC
  5
2E2
330
1E
100
AcDbEntity
  8
1
 62
     7
100
AcDbCircle
 10
102.0835991696873
 20
-19.42810769975912
 30
0.0
 40
2.381250000000076
100
AcDbArc
 50
139.5605061589303
 51
265.6572079166656
  0
ARC
  5
2E3
330
1E
100
AcDbEntity
  8
1
 62
     7
100
AcDbCircle
 10
107.0130701818422
 20
-16.43042997093922
 30
0.0
 40
2.381250000000595
100
AcDbArc
 50
155.2126800719793
 51
281.3093818297069
  0
ARC
  5
2E4
330
1E
100
AcDbEntity
  8
1
 62
     7
100
AcDbCircle
 10
110.9509792647203
 20
-12.21395890136951
 30
0.0
 40
2.381249999999311
100
AcDbArc
 50
170.8648539850144
 51
296.9615557427646
  0
ARC
  5
2E5
330
1E
100
AcDbEntity
  8
1
 62
     7
100
AcDbCircle
 10
113.6052697163812
 20
-7.091410861208316
 30
0.0
 40
2.381249999999794
100
AcDbArc
 50
186.5170278980523
 51
312.6137296558005
  0
ARC
  5
2E6
330
1E
100
AcDbEntity
  8
1
 62
     7
100
AcDbCircle
 10
114.7790849565963
 20
-1.442701804496323
 30
0.0
 40
2.381250000000798
100
AcDbArc
 50
202.1692018111156
 51
328.2659035688283
  0
ARC
  5
2E7
330
1E
100
AcDbEntity
  8
1
 62
     7
100
AcDbCircle
 10
114.3853684788443
 20
4.313229359153681
 30
0.0
 40
2.381249999999921
100
AcDbArc
 50
217.8213757241346
 51
343.9180774819028
  0
ARC
  5
2E8
330
1E
100
AcDbEntity
  8
1
 62
     7
100
AcDbCircle
 10
112.4533204331482
 20
9.749491546968682
 30
0.0
 40
2.381250000000526
100
AcDbArc
 50
233.4735496371986
 51
359.5702513949227
  0
ARC
  5
2E9
330
1E
100
AcDbEntity
  8
1
 62
     7
100
AcDbCircle
 10
109.1262319845262
 20
14.46290206172067
 30
0.0
 40
2.381249999999351
100
AcDbArc
 50
249.1257235502408
 51
15.22242530797875
  0
ARC
  5
2EA
330
1E
100
AcDbEntity
  8
1
 62
     7
100
AcDbCircle
 10
104.6508580627954
 20
18.10388880795168
 30
0.0
 40
2.381250000000683
100
AcDbArc
 50
264.7778974632684
 51
30.87459922101684
  0
ARC
  5
2EB
330
1E
100
AcDbEntity
  8
1
 62
     7
100
AcDbCircle
 10
99.35911667825633
 20
20.40241645509667
 30
0.0
 40
2.381249999999879
100
AcDbArc
 50
280.4300713763225
 51
46.52677313406726
  0
ARC
  5
2EC
330
1E
100
AcDbEntity
  8
1
 62
     7
100
AcDbCircle
 10
-9.25099999998474
 20
25.98701372263369
 30
0.0
 40
1.44999999999993
100
AcDbArc
 50
180.0
 51
270.0
  0
ARC
  5
2ED
330
1E
100
AcDbEntity
  8
1
 62
     7
100
AcDbCircle
 10
-10.90099999998471
 20
34.80301372263369
 30
0.0
 40
0.200000000000049
100
AcDbArc
 50
0.0
 51
90.0
  0
ARC
  5
2EE
330
1E
100
AcDbEntity
  8
1
 62
     7
100
AcDbCircle
 10
-9.25099999998474
 20
-25.98098627736621
 30
0.0
 40
1.449999999999977
100
AcDbArc
 50
90.0
 51
180.0
  0
ARC
  5
2EF
330
1E
100
AcDbEntity
  8
1
 62
     7
100
AcDbCircle
 10
-10.90099999998471
 20
-34.79698627736621
 30
0.0
 40
0.1999999999999957
100
AcDbArc
 50
270.0
 51
0.0
  0
ARC
  5
2F0
330
1E
100
AcDbEntity
  8
1
 62
     7
100
AcDbCircle
 10
1.658352546262465
 20
44.88500000000004
 30
0.0
 40
19.95343732314051
100
AcDbArc
 50
268.9364811659426
 51
284.3508219469608
  0
ARC
  5
2F1
330
1E
100
AcDbEntity
  8
1
 62
     7
100
AcDbCircle
 10
1.658352546262464
 20
-44.88500000000001
 30
0.0
 40
19.95343732314043
100
AcDbArc
 50
75.72270353486409
 51
91.06351883405745
  0
CIRCLE
  5
2F2
330
1E
100
AcDbEntity
  8
1
 62
     7
100
AcDbCircle
 10
-117.0550080993367
 20
29.70149853246869
 30
0.0
 40
2.75
  0
CIRCLE
  5
2F3
330
1E
100
AcDbEntity
  8
1
 62
     7
100
AcDbCircle
 10
-117.0550080993367
 20
29.70149853246869
 30
0.0
 40
2.403589838486099
  0
CIRCLE
  5
2F4
330
1E
100
AcDbEntity
  8
1
 62
     7
100
AcDbCircle
 10
-117.0550080993367
 20
-29.6954710872011
 30
0.0
 40
2.403589838486099
  0
CIRCLE
  5
2F5
330
1E
100
AcDbEntity
  8
1
 62
     7
100
AcDbCircle
 10
-117.0550080993367
 20
-29.6954710872011
 30
0.0
 40
2.75
  0
CIRCLE
  5
2F6
330
1E
100
AcDbEntity
  8
1
 62
     7
100
AcDbCircle
 10
-57.65803847966664
 20
-29.69547108720101
 30
0.0
 40
2.403589838485906
  0
CIRCLE
  5
2F7
330
1E
100
AcDbEntity
  8
1
 62
     7
100
AcDbCircle
 10
-57.65803847966664
 20
-29.69547108720101
 30
0.0
 40
2.75
  0
CIRCLE
  5
2F8
330
1E
100
AcDbEntity
  8
1
 62
     7
100
AcDbCircle
 10
-57.65803847966664
 20
29.70149853246869
 30
0.0
 40
2.403589838485906
  0
CIRCLE
  5
2F9
330
1E
100
AcDbEntity
  8
1
 62
     7
100
AcDbCircle
 10
-57.65803847966664
 20
29.70149853246869
 30
0.0
 40
2.75
  0
CIRCLE
  5
2FA
330
1E
100
AcDbEntity
  8
0
 62
     7
100
AcDbCircle
 10
95.49847270870829
 20
-11.44198610468404
 30
0.0
 40
0.6999999894829898
  0
CIRCLE
  5
2FB
330
1E
100
AcDbEntity
  8
0
 62
     7
100
AcDbCircle
 10
91.7884727644523
 20
-11.44198610468404
 30
0.0
 40
0.699999989480034
  0
CIRCLE
  5
2FC
330
1E
100
AcDbEntity
  8
1
 62
     7
100
AcDbCircle
 10
93.64347273673329
 20
0.0030137226336535
 30
0.0
 40
13.99999978978398
  0
CIRCLE
  5
2FD
330
1E
100
AcDbEntity
  8
1
 62
     7
100
AcDbCircle
 10
93.64347273673329
 20
0.0030137226336535
 30
0.0
 40
10.49999984236199
  0
CIRCLE
  5
2FE
330
1E
100
AcDbEntity
  8
1
 62
     7
100
AcDbCircle
 10
93.64347208129435
 20
0.0030137226336819
 30
0.0
 40
24.53649999999993
  0
CIRCLE
  5
2FF
330
1E
100
AcDbEntity
  8
1
 62
     7
100
AcDbCircle
 10
93.64347208129435
 20
0.0030137226336819
 30
0.0
 40
23.31750000000003
  0
CIRCLE
  5
300
330
1E
100
AcDbEntity
  8
1
 62
     7
100
AcDbCircle
 10
93.64347208129435
 20
0.0030137226336819
 30
0.0
 40
17.77999999999994
  0
CIRCLE
  5
301
330
1E
100
AcDbEntity
  8
1
 62
     7
100
AcDbCircle
 10
93.64347208129435
 20
0.0030137226336819
 30
0.0
 40
19.07499999999993
  0
CIRCLE
  5
302
330
1E
100
AcDbEntity
  8
1
 62
     7
100
AcDbCircle
 10
63.23912838879426
 20
6.050813705133677
 30
0.0
 40
2.749999999999993
  0
CIRCLE
  5
303
330
1E
100
AcDbEntity
  8
1
 62
     7
100
AcDbCircle
 10
63.23912838879426
 20
6.050813705133677
 30
0.0
 40
2.403589838486019
  0
CIRCLE
  5
304
330
1E
100
AcDbEntity
  8
1
 62
     7
100
AcDbCircle
 10
87.59567209879435
 20
-30.40132996986621
 30
0.0
 40
2.75
  0
CIRCLE
  5
305
330
1E
100
AcDbEntity
  8
1
 62
     7
100
AcDbCircle
 10
87.59567209879435
 20
-30.40132996986621
 30
0.0
 40
2.403589838485914
  0
CIRCLE
  5
306
330
1E
100
AcDbEntity
  8
1
 62
     7
100
AcDbCircle
 10
124.0478157737944
 20
-6.044786259866313
 30
0.0
 40
2.403589838486909
  0
CIRCLE
  5
307
330
1E
100
AcDbEntity
  8
1
 62
     7
100
AcDbCircle
 10
124.0478157737944
 20
-6.044786259866313
 30
0.0
 40
2.75
  0
CIRCLE
  5
308
330
1E
100
AcDbEntity
  8
1
 62
     7
100
AcDbCircle
 10
99.69127206379427
 20
30.40735741513367
 30
0.0
 40
2.750000000000043
  0
CIRCLE
  5
309
330
1E
100
AcDbEntity
  8
1
 62
     7
100
AcDbCircle
 10
99.69127206379427
 20
30.40735741513367
 30
0.0
 40
2.403589838486042
  0
CIRCLE
  5
30A
330
1E
100
AcDbEntity
  8
1
  6
CENTER
 62
     3
100
AcDbCircle
 10
-87.35652328950164
 20
0.0030137226336819
 30
0.0
 40
42.0
  0
CIRCLE
  5
30B
330
1E
100
AcDbEntity
  8
1
 62
     7
100
AcDbCircle
 10
-87.35652328950164
 20
42.00301372263368
 30
0.0
 40
1.75
  0
CIRCLE
  5
30C
330
1E
100
AcDbEntity
  8
1
 62
     7
100
AcDbCircle
 10
-108.3565232895016
 20
36.37608068158068
 30
0.0
 40
1.75
  0
CIRCLE
  5
30D
330
1E
100
AcDbEntity
  8
1
 62
     7
100
AcDbCircle
 10
-123.7295902484486
 20
21.00301372263368
 30
0.0
 40
1.75
  0
CIRCLE
  5
30E
330
1E
100
AcDbEntity
  8
1
 62
     7
100
AcDbCircle
 10
-129.3565232895015
 20
0.0030137226336819
 30
0.0
 40
1.750000000000014
  0
CIRCLE
  5
30F
330
1E
100
AcDbEntity
  8
1
 62
     7
100
AcDbCircle
 10
-123.7295902484486
 20
-20.99698627736612
 30
0.0
 40
1.75
  0
CIRCLE
  5
310
330
1E
100
AcDbEntity
  8
1
 62
     7
100
AcDbCircle
 10
-108.3565232895016
 20
-36.37005323631252
 30
0.0
 40
1.75
  0
CIRCLE
  5
311
330
1E
100
AcDbEntity
  8
1
 62
     7
100
AcDbCircle
 10
-87.35652328950164
 20
-41.99698627736601
 30
0.0
 40
1.75
  0
CIRCLE
  5
312
330
1E
100
AcDbEntity
  8
1
 62
     7
100
AcDbCircle
 10
-66.35652328950164
 20
-36.37005323631242
 30
0.0
 40
1.75
  0
CIRCLE
  5
313
330
1E
100
AcDbEntity
  8
1
 62
     7
100
AcDbCircle
 10
-50.98345633055567
 20
-20.99698627736592
 30
0.0
 40
1.75
  0
CIRCLE
  5
314
330
1E
100
AcDbEntity
  8
1
 62
     7
100
AcDbCircle
 10
-45.35652328950163
 20
0.0030137226336819
 30
0.0
 40
1.75
  0
CIRCLE
  5
315
330
1E
100
AcDbEntity
  8
1
 62
     7
100
AcDbCircle
 10
-50.98345633055567
 20
21.00301372263368
 30
0.0
 40
1.75
  0
CIRCLE
  5
316
330
1E
100
AcDbEntity
  8
1
 62
     7
100
AcDbCircle
 10
-66.35652328950164
 20
36.37608068158068
 30
0.0
 40
1.75
  0
CIRCLE
  5
317
330
1E
100
AcDbEntity
  8
1
  6
CENTER
 62
     3
100
AcDbCircle
 10
93.64347208129435
 20
0.0030137226336819
 30
0.0
 40
31.00000000000004
  0
CIRCLE
  5
318
330
1E
100
AcDbEntity
  8
1
 62
     3
100
AcDbCircle
 10
93.64347208129435
 20
31.00301372263368
 30
0.0
 40
1.5
  0
CIRCLE
  5
319
330
1E
100
AcDbEntity
  8
1
 62
     7
100
AcDbCircle
 10
93.64347208129435
 20
31.00301372263368
 30
0.0
 40
1.199999999999932
  0
CIRCLE
  5
31A
330
1E
100
AcDbEntity
  8
1
 62
     3
100
AcDbCircle
 10
105.5066584846122
 20
28.64327923048367
 30
0.0
 40
1.5
  0
CIRCLE
  5
31B
330
1E
100
AcDbEntity
  8
1
 62
     7
100
AcDbCircle
 10
105.5066584846122
 20
28.64327923048367
 30
0.0
 40
1.200000000000003
  0
CIRCLE
  5
31C
330
1E
100
AcDbEntity
  8
1
 62
     7
100
AcDbCircle
 10
93.64347208129435
 20
31.00301372263368
 30
0.0
 40
1.75
  0
CIRCLE
  5
31D
330
1E
100
AcDbEntity
  8
1
 62
     7
100
AcDbCircle
 10
105.5066584846122
 20
28.64327923048367
 30
0.0
 40
1.75
  0
CIRCLE
  5
31E
330
1E
100
AcDbEntity
  8
1
 62
     3
100
AcDbCircle
 10
81.78028567797628
 20
28.64327923048367
 30
0.0
 40
1.5
  0
CIRCLE
  5
31F
330
1E
100
AcDbEntity
  8
1
 62
     7
100
AcDbCircle
 10
81.78028567797628
 20
28.64327923048367
 30
0.0
 40
1.200000000000044
  0
CIRCLE
  5
320
330
1E
100
AcDbEntity
  8
1
 62
     7
100
AcDbCircle
 10
81.78028567797628
 20
28.64327923048367
 30
0.0
 40
1.75
  0
CIRCLE
  5
321
330
1E
100
AcDbEntity
  8
1
 62
     3
100
AcDbCircle
 10
71.72316186451133
 20
21.92332393941669
 30
0.0
 40
1.5
  0
CIRCLE
  5
322
330
1E
100
AcDbEntity
  8
1
 62
     7
100
AcDbCircle
 10
71.72316186451133
 20
21.92332393941669
 30
0.0
 40
1.199999999999932
  0
CIRCLE
  5
323
330
1E
100
AcDbEntity
  8
1
 62
     7
100
AcDbCircle
 10
71.72316186451133
 20
21.92332393941669
 30
0.0
 40
1.75
  0
CIRCLE
  5
324
330
1E
100
AcDbEntity
  8
1
 62
     3
100
AcDbCircle
 10
65.00320657344435
 20
11.86620012595167
 30
0.0
 40
1.5
  0
CIRCLE
  5
325
330
1E
100
AcDbEntity
  8
1
 62
     7
100
AcDbCircle
 10
65.00320657344435
 20
11.86620012595167
 30
0.0
 40
1.199999999999932
  0
CIRCLE
  5
326
330
1E
100
AcDbEntity
  8
1
 62
     7
100
AcDbCircle
 10
65.00320657344435
 20
11.86620012595167
 30
0.0
 40
1.75
  0
CIRCLE
  5
327
330
1E
100
AcDbEntity
  8
1
 62
     3
100
AcDbCircle
 10
62.64347208129436
 20
0.0030137226336819
 30
0.0
 40
1.5
  0
CIRCLE
  5
328
330
1E
100
AcDbEntity
  8
1
 62
     7
100
AcDbCircle
 10
62.64347208129436
 20
0.0030137226336819
 30
0.0
 40
1.199999999999925
  0
CIRCLE
  5
329
330
1E
100
AcDbEntity
  8
1
 62
     7
100
AcDbCircle
 10
62.64347208129436
 20
0.0030137226336819
 30
0.0
 40
1.75
  0
CIRCLE
  5
32A
330
1E
100
AcDbEntity
  8
1
 62
     3
100
AcDbCircle
 10
65.00320657344435
 20
-11.86017268068402
 30
0.0
 40
1.5
  0
CIRCLE
  5
32B
330
1E
100
AcDbEntity
  8
1
 62
     7
100
AcDbCircle
 10
65.00320657344435
 20
-11.86017268068402
 30
0.0
 40
1.199999999999932
  0
CIRCLE
  5
32C
330
1E
100
AcDbEntity
  8
1
 62
     7
100
AcDbCircle
 10
65.00320657344435
 20
-11.86017268068402
 30
0.0
 40
1.75
  0
CIRCLE
  5
32D
330
1E
100
AcDbEntity
  8
1
 62
     3
100
AcDbCircle
 10
71.72316186451133
 20
-21.9172964941493
 30
0.0
 40
1.5
  0
CIRCLE
  5
32E
330
1E
100
AcDbEntity
  8
1
 62
     7
100
AcDbCircle
 10
71.72316186451133
 20
-21.9172964941493
 30
0.0
 40
1.199999999999932
  0
CIRCLE
  5
32F
330
1E
100
AcDbEntity
  8
1
 62
     7
100
AcDbCircle
 10
71.72316186451133
 20
-21.9172964941493
 30
0.0
 40
1.75
  0
CIRCLE
  5
330
330
1E
100
AcDbEntity
  8
1
 62
     3
100
AcDbCircle
 10
81.78028567797628
 20
-28.63725178521642
 30
0.0
 40
1.5
  0
CIRCLE
  5
331
330
1E
100
AcDbEntity
  8
1
 62
     7
100
AcDbCircle
 10
81.78028567797628
 20
-28.63725178521642
 30
0.0
 40
1.200000000000044
  0
CIRCLE
  5
332
330
1E
100
AcDbEntity
  8
1
 62
     7
100
AcDbCircle
 10
81.78028567797628
 20
-28.63725178521642
 30
0.0
 40
1.75
  0
CIRCLE
  5
333
330
1E
100
AcDbEntity
  8
1
 62
     3
100
AcDbCircle
 10
93.64347208129435
 20
-30.99698627736662
 30
0.0
 40
1.5
  0
CIRCLE
  5
334
330
1E
100
AcDbEntity
  8
1
 62
     7
100
AcDbCircle
 10
93.64347208129435
 20
-30.99698627736662
 30
0.0
 40
1.199999999999932
  0
CIRCLE
  5
335
330
1E
100
AcDbEntity
  8
1
 62
     7
100
AcDbCircle
 10
93.64347208129435
 20
-30.99698627736662
 30
0.0
 40
1.75
  0
CIRCLE
  5
336
330
1E
100
AcDbEntity
  8
1
 62
     3
100
AcDbCircle
 10
105.5066584846122
 20
-28.63725178521662
 30
0.0
 40
1.5
  0
CIRCLE
  5
337
330
1E
100
AcDbEntity
  8
1
 62
     7
100
AcDbCircle
 10
105.5066584846122
 20
-28.63725178521662
 30
0.0
 40
1.200000000000003
  0
CIRCLE
  5
338
330
1E
100
AcDbEntity
  8
1
 62
     7
100
AcDbCircle
 10
105.5066584846122
 20
-28.63725178521662
 30
0.0
 40
1.75
  0
CIRCLE
  5
339
330
1E
100
AcDbEntity
  8
1
 62
     3
100
AcDbCircle
 10
115.5637822980773
 20
-21.91729649414962
 30
0.0
 40
1.5
  0
CIRCLE
  5
33A
330
1E
100
AcDbEntity
  8
1
 62
     7
100
AcDbCircle
 10
115.5637822980773
 20
-21.91729649414962
 30
0.0
 40
1.200000000000003
  0
CIRCLE
  5
33B
330
1E
100
AcDbEntity
  8
1
 62
     7
100
AcDbCircle
 10
115.5637822980773
 20
-21.91729649414962
 30
0.0
 40
1.75
  0
CIRCLE
  5
33C
330
1E
100
AcDbEntity
  8
1
 62
     3
100
AcDbCircle
 10
122.2837375891443
 20
-11.8601726806844
 30
0.0
 40
1.5
  0
CIRCLE
  5
33D
330
1E
100
AcDbEntity
  8
1
 62
     7
100
AcDbCircle
 10
122.2837375891443
 20
-11.8601726806844
 30
0.0
 40
1.200000000000003
  0
CIRCLE
  5
33E
330
1E
100
AcDbEntity
  8
1
 62
     7
100
AcDbCircle
 10
122.2837375891443
 20
-11.8601726806844
 30
0.0
 40
1.75
  0
CIRCLE
  5
33F
330
1E
100
AcDbEntity
  8
1
 62
     3
100
AcDbCircle
 10
124.6434720812944
 20
0.0030137226336819
 30
0.0
 40
1.500000000000895
  0
CIRCLE
  5
340
330
1E
100
AcDbEntity
  8
1
 62
     7
100
AcDbCircle
 10
124.6434720812944
 20
0.0030137226336819
 30
0.0
 40
1.200000000000897
  0
CIRCLE
  5
341
330
1E
100
AcDbEntity
  8
1
 62
     7
100
AcDbCircle
 10
124.6434720812944
 20
0.0030137226336819
 30
0.0
 40
1.75
  0
CIRCLE
  5
342
330
1E
100
AcDbEntity
  8
1
 62
     3
100
AcDbCircle
 10
122.2837375891453
 20
11.86620012595167
 30
0.0
 40
1.5
  0
CIRCLE
  5
343
330
1E
100
AcDbEntity
  8
1
 62
     7
100
AcDbCircle
 10
122.2837375891453
 20
11.86620012595167
 30
0.0
 40
1.200000000000003
  0
CIRCLE
  5
344
330
1E
100
AcDbEntity
  8
1
 62
     7
100
AcDbCircle
 10
122.2837375891453
 20
11.86620012595167
 30
0.0
 40
1.75
  0
CIRCLE
  5
345
330
1E
100
AcDbEntity
  8
1
 62
     3
100
AcDbCircle
 10
115.5637822980782
 20
21.92332393941669
 30
0.0
 40
1.5
  0
CIRCLE
  5
346
330
1E
100
AcDbEntity
  8
1
 62
     7
100
AcDbCircle
 10
115.5637822980782
 20
21.92332393941669
 30
0.0
 40
1.200000000000102
  0
CIRCLE
  5
347
330
1E
100
AcDbEntity
  8
1
 62
     7
100
AcDbCircle
 10
115.5637822980782
 20
21.92332393941669
 30
0.0
 40
1.75
  0
CIRCLE
  5
348
330
1E
100
AcDbEntity
  8
1
 62
     7
100
AcDbCircle
 10
124.0478157737944
 20
-6.044786259866313
 30
0.0
 40
3.25
  0
CIRCLE
  5
349
330
1E
100
AcDbEntity
  8
1
 62
     7
100
AcDbCircle
 10
99.69127206379427
 20
30.40735741513367
 30
0.0
 40
3.250000000000043
  0
CIRCLE
  5
34A
330
1E
100
AcDbEntity
  8
1
 62
     7
100
AcDbCircle
 10
63.23912838879426
 20
6.050813705133677
 30
0.0
 40
3.249999999999993
  0
CIRCLE
  5
34B
330
1E
100
AcDbEntity
  8
1
 62
     7
100
AcDbCircle
 10
87.59567209879435
 20
-30.40132996986621
 30
0.0
 40
3.25
  0
CIRCLE
  5
34C
330
1E
100
AcDbEntity
  8
1
 62
     7
100
AcDbCircle
 10
-87.35652328950164
 20
0.0030137226336819
 30
0.0
 40
35.0
  0
CIRCLE
  5
34D
330
1E
100
AcDbEntity
  8
1
 62
     7
100
AcDbCircle
 10
-87.35652328950164
 20
0.0030137226336819
 30
0.0
 40
45.0
  0
CIRCLE
  5
34E
330
1E
100
AcDbEntity
  8
1
 62
     7
100
AcDbCircle
 10
-87.35652328950164
 20
0.0030137226336819
 30
0.0
 40
24.53399999999998
  0
CIRCLE
  5
34F
330
1E
100
AcDbEntity
  8
1
 62
     7
100
AcDbCircle
 10
93.64347208129435
 20
0.0030137226336819
 30
0.0
 40
24.89999999999993
  0
CIRCLE
  5
350
330
1E
100
AcDbEntity
  8
1
 62
     7
100
AcDbCircle
 10
93.64347208129435
 20
0.0030137226336819
 30
0.0
 40
25.59999999999994
  0
CIRCLE
  5
351
330
1E
100
AcDbEntity
  8
1
 62
     7
100
AcDbCircle
 10
93.64347208129435
 20
0.0030137226336819
 30
0.0
 40
34.99999947439895
  0
CIRCLE
  5
352
330
1E
100
AcDbEntity
  8
1
 62
     7
100
AcDbCircle
 10
11.48999995494535
 20
21.18250000000002
 30
0.0
 40
2.281250000000029
  0
CIRCLE
  5
353
330
1E
100
AcDbEntity
  8
1
 62
     7
100
AcDbCircle
 10
11.48999995494535
 20
-21.18250000000002
 30
0.0
 40
2.281250000000029
  0
LWPOLYLINE
  5
354
330
1E
100
AcDbEntity
  8
1
 62
     7
100
AcDbPolyline
 90
       54
 70
     1
 43
0.0
 10
-9.555627293955081
 20
36.3086868895399
 42
0.022888302325293
 10
-9.493358909222523
 20
36.32419454116942
 42
0.0512492529493461
 10
-9.430244429920088
 20
36.35072763924749
 42
0.0033157639732988
 10
-9.368144440706778
 20
36.38789489051356
 42
0.0561873912563455
 10
-9.25696859445796
 20
36.48581231594085
 42
0.0499230027425693
 10
-9.202382302569526
 20
36.55122521081819
 42
0.0020750221393706
 10
-9.151379737170984
 20
36.62529035895692
 42
0.036513608748767
 10
-9.065168907773585
 20
36.7882118064176
 42
0.0329354909043826
 10
-9.026365132192257
 20
36.88367198697938
 42
0.00092302816457
 10
-8.992499587180365
 20
36.9846815274894
 42
0.0269985404804109
 10
-8.941093722045442
 20
37.19491917110696
 42
0.0254428184955656
 10
-8.922481704840096
 20
37.3082629243102
 42
0.000258355155897
 10
-8.90939361737149
 20
37.42364801193764
 42
0.0237077340508715
 10
-8.899708335827055
 20
37.65687949946601
 42
0.0234535546260066
 10
-8.911873540970162
 20
37.88999479119329
 42
0.0235992426135898
 10
-8.926188035595608
 20
38.00523415826896
 42
0.0005524899779939
 10
-8.946004437479613
 20
38.11837355808625
 42
0.026144378125341
 10
-8.999643321774831
 20
38.32805259818252
 42
0.027401188488933
 10
-9.034581211558032
 20
38.42869625804493
 42
0.0014193878240463
 10
-9.074398033886131
 20
38.52373835257125
 42
0.0346970373950899
 10
-9.162336695224876
 20
38.68573371358512
 42
0.0377838918855835
 10
-9.21412407629109
 20
38.75925224871979
 42
0.0028442048690604
 10
-9.269402962432303
 20
38.82408090615884
 42
0.053329392604935
 10
-9.381613895748245
 20
38.92081041270061
 42
0.0597402896365108
 10
-9.444105655253503
 20
38.95731511405406
 42
0.0025606467708233
 10
-9.507498750769235
 20
38.98317547430235
 42
0.0774643109253169
 10
-9.633842206760402
 20
39.00301372263368
 42
0.0775388519329427
 10
-9.759967532903901
 20
38.98183290409796
 42
0.076790213510134
 10
-9.823082012206336
 20
38.95529980601989
 42
0.0033157639732759
 10
-9.885182001419645
 20
38.91813255475381
 42
0.0561873912562509
 10
-9.996357847668463
 20
38.82021512932652
 42
0.0499230027392162
 10
-10.05094413955688
 20
38.75480223444919
 42
0.0020750221393957
 10
-10.10194670495544
 20
38.68073708631044
 42
0.0365136087488219
 10
-10.18815753435283
 20
38.51781563884978
 42
0.032935490904821
 10
-10.22696130993416
 20
38.422355458288
 42
0.0009230281645953
 10
-10.26082685494605
 20
38.32134591777795
 42
0.0269985404803973
 10
-10.31223272008098
 20
38.11110827416042
 42
0.0254428184955908
 10
-10.33084473728633
 20
37.99776452095717
 42
0.0002583551558898
 10
-10.34393282475493
 20
37.88237943332971
 42
0.0237077340508705
 10
-10.35361810629937
 20
37.64914794580139
 42
0.0234535546259945
 10
-10.34145290115626
 20
37.41603265407408
 42
0.0235992426144156
 10
-10.32713840653081
 20
37.3007932869984
 42
0.0005524899779684
 10
-10.30732200464681
 20
37.18765388718111
 42
0.0261443781253413
 10
-10.25368312035159
 20
36.97797484708486
 42
0.0274011884889453
 10
-10.21874523056839
 20
36.87733118722245
 42
0.0014193878240726
 10
-10.1789284082403
 20
36.78228909269614
 42
0.0346970373951035
 10
-10.09098974690155
 20
36.62029373168224
 42
0.0377838918872951
 10
-10.03920236583533
 20
36.54677519654759
 42
0.0028442048691723
 10
-9.983923479694118
 20
36.48194653910854
 42
0.0533293926048935
 10
-9.87171254637818
 20
36.38521703256675
 42
0.0597402896378834
 10
-9.809220786872916
 20
36.34871233121331
 42
0.0025606467708233
 10
-9.745827691357183
 20
36.32285197096503
 42
0.0774643109253169
 10
-9.619484235366018
 20
36.30301372263368
 10
-9.555627293955081
 20
36.3086868895399
  0
LWPOLYLINE
  5
38C
330
1E
100
AcDbEntity
  8
1
 62
     7
100
AcDbPolyline
 90
       54
 70
     1
 43
0.0
 10
8.530205196523713
 20
28.40022818084553
 42
-0.0237272737708879
 10
8.560230997932753
 20
28.39237914666174
 42
-0.0544101231922726
 10
8.590859518916229
 20
28.37873664893057
 42
-0.003935695659109
 10
8.621038796542071
 20
28.35951692398138
 42
-0.0567034997516643
 10
8.674670003537956
 20
28.30923147811761
 42
-0.0493802496343555
 10
8.701248261689958
 20
28.2753595741855
 42
-0.0022016048325439
 10
8.726079037795056
 20
28.23700192206468
 42
-0.0350547980408466
 10
8.767961535663109
 20
28.15296497698481
 42
-0.0313036808239734
 10
8.78694943644372
 20
28.10350600704847
 42
-0.0009271866806456
 10
8.803551714876032
 20
28.05117845725037
 42
-0.0253296539697861
 10
8.828853258697547
 20
27.94242768954789
 42
-0.0237722861791877
 10
8.838125882180865
 20
27.88368189202213
 42
-0.0002541325818508
 10
8.844733950223982
 20
27.82388168057861
 42
-0.0220690772436683
 10
8.850000732177187
 20
27.70301351987121
 42
-0.0218192616554572
 10
8.84473395022367
 20
27.58214535916382
 42
-0.0219571341516659
 10
8.838125882180394
 20
27.52234514772032
 42
-0.0005474945947147
 10
8.82885325869692
 20
27.46359935019456
 42
-0.024475878063211
 10
8.80355171487513
 20
27.35484858249218
 42
-0.0257120887190063
 10
8.786949436442679
 20
27.30252103269412
 42
-0.0014570545260365
 10
8.767961535661942
 20
27.25306206275782
 42
-0.0331493616755585
 10
8.726079037793672
 20
27.16902511767807
 42
-0.0362963358611176
 10
8.701248261688473
 20
27.1306674655573
 42
-0.003166802108629
 10
8.674670003536384
 20
27.09679556162527
 42
-0.0533828791412802
 10
8.62103879654037
 20
27.04651011576164
 42
-0.0605275101850893
 10
8.590859518914477
 20
27.02729039081253
 42
-0.0032556935588228
 10
8.560230997930966
 20
27.01364789308143
 42
-0.0825023288701342
 10
8.499339274896245
 20
27.00301331710964
 42
-0.0826173308624613
 10
8.438447551861548
 20
27.01364789308158
 42
-0.0815094155380688
 10
8.407819030878075
 20
27.02729039081277
 42
-0.0039356956592122
 10
8.377639753252235
 20
27.04651011576194
 42
-0.0567034997517508
 10
8.324008546256347
 20
27.09679556162571
 42
-0.0493802496358997
 10
8.297430288104347
 20
27.13066746555782
 42
-0.0022016048325752
 10
8.272599511999249
 20
27.16902511767867
 42
-0.0350547980409073
 10
8.230717014131196
 20
27.25306206275851
 42
-0.0313036808240047
 10
8.211729113350587
 20
27.30252103269487
 42
-0.0009271866807145
 10
8.195126834918276
 20
27.35484858249298
 42
-0.0253296539697995
 10
8.169825291096758
 20
27.46359935019543
 42
-0.0237722861801576
 10
8.160552667613439
 20
27.5223451477212
 42
-0.0002541325818146
 10
8.153944599570321
 20
27.58214535916472
 42
-0.0220690772436484
 10
8.148677817617116
 20
27.70301351987212
 42
-0.0218192616554998
 10
8.153944599570637
 20
27.8238816805795
 42
-0.0219571341546171
 10
8.160552667613909
 20
27.88368189202302
 42
-0.0005474945946847
 10
8.169825291097383
 20
27.94242768954877
 42
-0.0244758780632084
 10
8.195126834919177
 20
28.05117845725114
 42
-0.0257120887189951
 10
8.211729113351625
 20
28.10350600704921
 42
-0.001457054526011
 10
8.230717014132363
 20
28.15296497698551
 42
-0.0331493616755417
 10
8.272599512000631
 20
28.23700192206526
 42
-0.03629633586171
 10
8.297430288105832
 20
28.27535957418603
 42
-0.0031668021085772
 10
8.324008546257919
 20
28.30923147811805
 42
-0.0533828791411447
 10
8.377639753253937
 20
28.3595169239817
 42
-0.0605275101830005
 10
8.407819030879828
 20
28.37873664893081
 42
-0.0032556935587449
 10
8.438447551863339
 20
28.39237914666192
 42
-0.0825023288700806
 10
8.499339274898062
 20
28.40301372263369
 10
8.530205196523713
 20
28.40022818084553
  0
LWPOLYLINE
  5
3C4
330
1E
100
AcDbEntity
  8
1
 62
     7
100
AcDbPolyline
 90
       54
 70
     1
 43
0.0
 10
8.530205196523713
 20
-28.39420073557817
 42
0.0237272737707772
 10
8.560230997932753
 20
-28.38635170139439
 42
0.0544101231920939
 10
8.590859518916229
 20
-28.37270920366321
 42
0.0039356956591928
 10
8.621038796542071
 20
-28.35348947871403
 42
0.0567034997516292
 10
8.674670003537956
 20
-28.30320403285025
 42
0.0493802496344063
 10
8.701248261689958
 20
-28.26933212891814
 42
0.0022016048325861
 10
8.726079037795056
 20
-28.2309744767973
 42
0.0350547980408668
 10
8.767961535663109
 20
-28.14693753171746
 42
0.0313036808239734
 10
8.78694943644372
 20
-28.09747856178111
 42
0.0009271866806448
 10
8.803551714876032
 20
-28.04515101198299
 42
0.0253296539697951
 10
8.828853258697547
 20
-27.93640024428052
 42
0.0237722861791877
 10
8.838125882180865
 20
-27.87765444675477
 42
0.0002541325818508
 10
8.844733950223982
 20
-27.81785423531125
 42
0.0220690772436631
 10
8.850000732177187
 20
-27.69698607460384
 42
0.0218192616554598
 10
8.84473395022367
 20
-27.57611791389647
 42
0.0219571341516659
 10
8.838125882180394
 20
-27.51631770245296
 42
0.0005474945947145
 10
8.82885325869692
 20
-27.45757190492722
 42
0.0244758780632038
 10
8.80355171487513
 20
-27.34882113722482
 42
0.0257120887190063
 10
8.786949436442679
 20
-27.29649358742676
 42
0.0014570545260125
 10
8.767961535661942
 20
-27.24703461749046
 42
0.0331493616755385
 10
8.726079037793672
 20
-27.16299767241071
 42
0.036296335860464
 10
8.701248261688473
 20
-27.12464002028993
 42
0.003166802108626
 10
8.674670003536384
 20
-27.09076811635791
 42
0.0533828791412507
 10
8.62103879654037
 20
-27.04048267049428
 42
0.0605275101839454
 10
8.590859518914477
 20
-27.02126294554517
 42
0.0032556935588265
 10
8.560230997930966
 20
-27.00762044781407
 42
0.0825023288701342
 10
8.499339274896245
 20
-26.99698587184228
 42
0.0826173308624613
 10
8.438447551861548
 20
-27.00762044781421
 42
0.0815094155429464
 10
8.407819030878075
 20
-27.02126294554539
 42
0.0039356956592066
 10
8.377639753252235
 20
-27.04048267049458
 42
0.0567034997516748
 10
8.324008546256347
 20
-27.09076811635835
 42
0.0493802496350557
 10
8.297430288104347
 20
-27.12464002029046
 42
0.0022016048326175
 10
8.272599511999249
 20
-27.1629976724113
 42
0.0350547980408702
 10
8.230717014131196
 20
-27.24703461749116
 42
0.0313036808240047
 10
8.211729113350587
 20
-27.29649358742751
 42
0.0009271866807145
 10
8.195126834918276
 20
-27.34882113722562
 42
0.0253296539697995
 10
8.169825291096758
 20
-27.45757190492807
 42
0.0237722861801296
 10
8.160552667613439
 20
-27.51631770245383
 42
0.0002541325818145
 10
8.153944599570321
 20
-27.57611791389736
 42
0.0220690772436471
 10
8.148677817617116
 20
-27.69698607460476
 42
0.0218192616554998
 10
8.153944599570637
 20
-27.81785423531214
 42
0.0219571341541763
 10
8.160552667613909
 20
-27.87765444675565
 42
0.0005474945946754
 10
8.169825291097383
 20
-27.93640024428139
 42
0.024475878063194
 10
8.195126834919177
 20
-28.04515101198379
 42
0.0257120887190146
 10
8.211729113351625
 20
-28.09747856178185
 42
0.0014570545260351
 10
8.230717014132363
 20
-28.14693753171814
 42
0.0331493616755555
 10
8.272599512000631
 20
-28.2309744767979
 42
0.0362963358624057
 10
8.297430288105832
 20
-28.26933212891867
 42
0.0031668021086281
 10
8.324008546257919
 20
-28.3032040328507
 42
0.0533828791412443
 10
8.377639753253937
 20
-28.35348947871432
 42
0.0605275101829172
 10
8.407819030879828
 20
-28.37270920366344
 42
0.0032556935587486
 10
8.438447551863339
 20
-28.38635170139454
 42
0.0825023288700245
 10
8.499339274898062
 20
-28.39698627736632
 10
8.530205196523713
 20
-28.39420073557817
  0
LWPOLYLINE
  5
3FC
330
1E
100
AcDbEntity
  8
1
 62
     7
100
AcDbPolyline
 90
       54
 70
     1
 43
0.0
 10
-9.555627293955081
 20
-36.30265944427255
 42
-0.0228883023254979
 10
-9.493358909222523
 20
-36.31816709590206
 42
-0.0512492529493461
 10
-9.430244429920088
 20
-36.34470019398013
 42
-0.0033157639733036
 10
-9.368144440706778
 20
-36.38186744524618
 42
-0.0561873912563097
 10
-9.25696859445796
 20
-36.47978487067347
 42
-0.04992300274053
 10
-9.202382302569526
 20
-36.54519776555082
 42
-0.002075022139418
 10
-9.151379737170984
 20
-36.61926291368954
 42
-0.0365136087488065
 10
-9.065168907773585
 20
-36.78218436115024
 42
-0.0329354909050608
 10
-9.026365132192257
 20
-36.87764454171202
 42
-0.0009230281645692
 10
-8.992499587180365
 20
-36.97865408222206
 42
-0.0269985404804207
 10
-8.941093722045442
 20
-37.1888917258396
 42
-0.0254428184960997
 10
-8.922481704840096
 20
-37.30223547904282
 42
-0.000258355155883
 10
-8.90939361737149
 20
-37.41762056667027
 42
-0.0237077340508675
 10
-8.899708335827055
 20
-37.65085205419864
 42
-0.0234535546260067
 10
-8.911873540970162
 20
-37.88396734592592
 42
-0.0235992426135973
 10
-8.926188035595608
 20
-37.99920671300157
 42
-0.0005524899779939
 10
-8.946004437479613
 20
-38.11234611281888
 42
-0.0261443781253329
 10
-8.999643321774831
 20
-38.32202515291514
 42
-0.0274011884895504
 10
-9.034581211558032
 20
-38.42266881277757
 42
-0.0014193878240729
 10
-9.074398033886131
 20
-38.51771090730387
 42
-0.0346970373950715
 10
-9.162336695224876
 20
-38.67970626831775
 42
-0.0377838918863631
 10
-9.21412407629109
 20
-38.75322480345244
 42
-0.0028442048691145
 10
-9.269402962432303
 20
-38.81805346089148
 42
-0.0533293926049711
 10
-9.381613895748245
 20
-38.91478296743324
 42
-0.0597402896378884
 10
-9.444105655253503
 20
-38.9512876687867
 42
-0.0025606467709225
 10
-9.507498750769235
 20
-38.97714802903499
 42
-0.0774643109253713
 10
-9.633842206760402
 20
-38.99698627736631
 42
-0.0775388519329427
 10
-9.759967532903901
 20
-38.9758054588306
 42
-0.076790213510134
 10
-9.823082012206336
 20
-38.94927236075253
 42
-0.0033157639733649
 10
-9.885182001419645
 20
-38.91210510948645
 42
-0.0561873912563226
 10
-9.996357847668463
 20
-38.81418768405914
 42
-0.0499230027413088
 10
-10.05094413955688
 20
-38.74877478918181
 42
-0.0020750221393535
 10
-10.10194670495544
 20
-38.67470964104308
 42
-0.0365136087488399
 10
-10.18815753435283
 20
-38.51178819358242
 42
-0.0329354909061774
 10
-10.22696130993416
 20
-38.41632801302063
 42
-0.0009230281645741
 10
-10.26082685494605
 20
-38.31531847251057
 42
-0.0269985404803798
 10
-10.31223272008098
 20
-38.10508082889304
 42
-0.0254428184955808
 10
-10.33084473728633
 20
-37.99173707568982
 42
-0.0002583551558967
 10
-10.34393282475493
 20
-37.87635198806235
 42
-0.0237077340508705
 10
-10.35361810629937
 20
-37.64312050053402
 42
-0.0234535546259945
 10
-10.34145290115626
 20
-37.41000520880672
 42
-0.0235992426149792
 10
-10.32713840653081
 20
-37.29476584173105
 42
-0.0005524899779791
 10
-10.30732200464681
 20
-37.18162644191375
 42
-0.0261443781253394
 10
-10.25368312035159
 20
-36.97194740181749
 42
-0.0274011884889234
 10
-10.21874523056839
 20
-36.87130374195506
 42
-0.0014193878240715
 10
-10.1789284082403
 20
-36.77626164742877
 42
-0.0346970373951067
 10
-10.09098974690155
 20
-36.6142662864149
 42
-0.0377838918872497
 10
-10.03920236583533
 20
-36.54074775128021
 42
-0.0028442048691154
 10
-9.983923479694118
 20
-36.47591909384118
 42
-0.0533293926048264
 10
-9.87171254637818
 20
-36.37918958729939
 42
-0.0597402896364215
 10
-9.809220786872916
 20
-36.34268488594595
 42
-0.0025606467707272
 10
-9.745827691357183
 20
-36.31682452569765
 42
-0.0774643109253169
 10
-9.619484235366018
 20
-36.29698627736633
 10
-9.555627293955081
 20
-36.30265944427253
  0
ARC
  5
434
330
1E
100
AcDbEntity
  8
1
 62
     7
100
AcDbCircle
 10
-9.199999999964393
 20
26.13500000000003
 30
0.0
 40
1.20104121494643
100
AcDbArc
 50
182.3859440070738
 51
272.3859440303887
  0
ARC
  5
435
330
1E
100
AcDbEntity
  8
1
 62
     7
100
AcDbCircle
 10
-9.199999999964393
 20
-26.13500000000001
 30
0.0
 40
1.20104121494643
100
AcDbArc
 50
87.61405596961116
 51
182.385944007069
  0
TEXT
  5
43A
330
1E
100
AcDbEntity
  8
1
 62
     0
100
AcDbText
 10
72.14458979990173
 20
-79.21986446554104
 30
0.0
 40
3.5
  1
SHF-20-XXX-2SO.dxf
 41
0.9
100
AcDbText
  0
TEXT
  5
43B
330
1E
100
AcDbEntity
  8
1
 62
     0
100
AcDbText
 10
-49.12207872240905
 20
-67.54418488857242
 30
0.0
 40
2.799999999999999
  1
REMARKS:  M.H.C = MINIMUM HOUSING CLEARANCE
 41
0.9
 72
     1
 11
0.857921277591048
 21
-66.14418488857241
 31
0.0
100
AcDbText
 73
     2
  0
TEXT
  5
43F
330
1E
100
AcDbEntity
  8
1
 62
     3
100
AcDbText
 10
-125.8312078258501
 20
-110.9336400062005
 30
0.0
 40
2.1
  1
 
 41
0.9
100
AcDbText
  0
DIMENSION
  5
446
330
1E
100
AcDbEntity
  8
1
  6
Continuous
 62
     2
100
AcDbDimension
  2
*D0
 10
-13.39999999996439
 20
12.2876840942782
 30
0.0
 11
-19.121440841073
 21
14.53768409427819
 31
0.0
 71
     5
 42
-1.0
  3
DMST_1
100
AcDbAlignedDimension
 13
-11.39999999996438
 23
22.5
 33
0.0
 14
-13.39999999996439
 24
18.32
 34
0.0
100
AcDbRotatedDimension
  0
DIMENSION
  5
447
330
1E
100
AcDbEntity
  8
1
  6
Continuous
 62
     2
100
AcDbDimension
  2
*D1
 10
-27.0474200768488
 20
22.5
 30
0.0
 11
-29.3286700768488
 21
1.665047049015939
 31
0.0
  1
M.H.C <>
 71
     5
 42
-1.0
  3
DMST_1
100
AcDbAlignedDimension
 13
-11.39999999996438
 23
-22.5
 33
0.0
 14
-11.39999999996438
 24
22.5
 34
0.0
 50
90.0
100
AcDbRotatedDimension
  0
DIMENSION
  5
448
330
1E
100
AcDbEntity
  8
1
  6
Continuous
 62
     2
100
AcDbDimension
  2
*D2
 10
40.1000000000356
 20
-26.5
 30
0.0
 11
37.81875000003561
 21
-0.0117001362589804
 31
0.0
  1
M.H.C <>
 71
     5
 42
-1.0
  3
DMST_1
100
AcDbAlignedDimension
 13
17.09999999990668
 23
26.5
 33
0.0
 14
17.09999999990668
 24
-26.5
 34
0.0
 50
90.0
100
AcDbRotatedDimension
  0
DIMENSION
  5
449
330
1E
100
AcDbEntity
  8
1
  6
Continuous
 62
     2
100
AcDbDimension
  2
*D3
 10
17.09999999990668
 20
-51.05
 30
0.0
 11
31.4524516579129
 21
-48.76875
 31
0.0
  1
M.H.C <>
 71
     5
 42
-1.0
  3
DMST_1
100
AcDbAlignedDimension
 13
15.60000000004333
 23
-34.59698575771501
 33
0.0
 14
17.09999999990668
 24
-26.5
 34
0.0
100
AcDbRotatedDimension
  0
INSERT
  5
456
330
1E
100
AcDbEntity
  8
0
100
AcDbBlockReference
  2
NTC
 10
-146.2705227267842
 20
-106.1935839572259
 30
0.0
 41
0.4407507478048273
 42
0.4407507478048273
 43
0.4407507478048273
  0
INSERT
  5
4C5
330
1E
100
AcDbEntity
  8
0
100
AcDbBlockReference
  2
HD logo-new
 10
29.97782315166631
 20
-131.9442060576435
 30
0.0
 41
0.8
 42
0.8
 43
0.8
  0
INSERT
  5
4CF
330
1E
100
AcDbEntity
  8
0
100
AcDbBlockReference
  2
HD LLC
 10
109.3993195111937
 20
-138.773444749991
 30
0.0
 41
0.6800000000000001
 42
0.6800000000000001
 43
0.6800000000000001
  0
ENDSEC
  0
SECTION
  2
OBJECTS
  0
DICTIONARY
  5
C
330
0
100
AcDbDictionary
281
     1
  3
ACAD_GROUP
350
D
  3
ACAD_LAYOUT
350
19
  3
ACAD_MLINESTYLE
350
16
  3
ACAD_PLOTSETTINGS
350
18
  3
ACAD_PLOTSTYLENAME
350
E
  3
AcDbVariableDictionary
350
4D0
  0
DICTIONARY
  5
D
102
{ACAD_REACTORS
330
C
102
}
330
C
100
AcDbDictionary
281
     1
  0
DICTIONARY
  5
19
102
{ACAD_REACTORS
330
C
102
}
330
C
100
AcDbDictionary
281
     1
  3
Layout1
350
1D
  3
Model
350
21
  0
DICTIONARY
  5
16
102
{ACAD_REACTORS
330
C
102
}
330
C
100
AcDbDictionary
281
     1
  3
Standard
350
17
  0
DICTIONARY
  5
18
102
{ACAD_REACTORS
330
C
102
}
330
C
100
AcDbDictionary
281
     1
  0
ACDBDICTIONARYWDFLT
  5
E
102
{ACAD_REACTORS
330
C
102
}
330
C
100
AcDbDictionary
281
     1
  3
Normal
350
F
100
AcDbDictionaryWithDefault
340
F
  0
DICTIONARY
  5
4D0
102
{ACAD_REACTORS
330
C
102
}
330
C
100
AcDbDictionary
281
     1
  3
DIMASSOC
350
4D1
  0
LAYOUT
  5
1D
102
{ACAD_REACTORS
330
19
102
}
330
19
100
AcDbPlotSettings
  1

  2
\\SERVER9\HP LaserJet 5100 PCL 5e
  4

  6

 40
0.0
 41
0.0
 42
0.0
 43
0.0
 44
0.0
 45
0.0
 46
0.0
 47
0.0
 48
0.0
 49
0.0
140
0.0
141
0.0
142
1.0
143
1.0
 70
   688
 72
     0
 73
     0
 74
     5
  7

 75
    16
147
1.0
148
0.0
149
0.0
100
AcDbLayout
  1
Layout1
 70
     1
 71
     1
 10
0.0
 20
0.0
 11
12.0
 21
9.0
 12
0.0
 22
0.0
 32
0.0
 14
1.000000000000000E+20
 24
1.000000000000000E+20
 34
1.000000000000000E+20
 15
-1.000000000000000E+20
 25
-1.000000000000000E+20
 35
-1.000000000000000E+20
146
0.0
 13
0.0
 23
0.0
 33
0.0
 16
1.0
 26
0.0
 36
0.0
 17
0.0
 27
1.0
 37
0.0
 76
     0
330
1A
  0
LAYOUT
  5
21
102
{ACAD_REACTORS
330
19
102
}
330
19
100
AcDbPlotSettings
  1

  2
\\SERVER9\HP LaserJet 5100 PCL 5e
  4

  6

 40
0.0
 41
0.0
 42
0.0
 43
0.0
 44
0.0
 45
0.0
 46
0.0
 47
0.0
 48
0.0
 49
0.0
140
0.0
141
0.0
142
1.0
143
1.0
 70
  1712
 72
     0
 73
     0
 74
     0
  7

 75
     0
147
1.0
148
0.0
149
0.0
100
AcDbLayout
  1
Model
 70
     1
 71
     0
 10
0.0
 20
0.0
 11
12.0
 21
9.0
 12
0.0
 22
0.0
 32
0.0
 14
0.0
 24
0.0
 34
0.0
 15
0.0
 25
0.0
 35
0.0
146
0.0
 13
0.0
 23
0.0
 33
0.0
 16
1.0
 26
0.0
 36
0.0
 17
0.0
 27
1.0
 37
0.0
 76
     0
330
1E
  0
MLINESTYLE
  5
17
102
{ACAD_REACTORS
330
16
102
}
330
16
100
AcDbMlineStyle
  2
STANDARD
 70
     0
  3

 62
   256
 51
90.0
 52
90.0
 71
     2
 49
0.5
 62
   256
  6
BYLAYER
 49
-0.5
 62
   256
  6
BYLAYER
  0
ACDBPLACEHOLDER
  5
F
102
{ACAD_REACTORS
330
E
102
}
330
E
  0
DICTIONARYVAR
  5
4D1
102
{ACAD_REACTORS
330
4D0
102
}
330
4D0
100
DictionaryVariables
280
     0
  1
1
  0
ENDSEC
  0
EOF
