  0
SECTION
  2
HEADER
  9
$ACADVER
  1
AC1015
  9
$ACADMAINTVER
 70
    13
  9
$DWGCODEPAGE
  3
ANSI_1252
  9
$INSBASE
 10
0.0
 20
0.0
 30
0.0
  9
$EXTMIN
 10
-237.8504026602275
 20
-228.1172785245426
 30
-0.0015258207003583
  9
$EXTMAX
 10
167.7222190578086
 20
77.02817011382342
 30
0.0000000349246037
  9
$LIMMIN
 10
-216.2828864916106
 20
-177.4447699051914
  9
$LIMMAX
 10
167.7104996155804
 20
77.02040386052101
  9
$ORTHOMODE
 70
     0
  9
$REGENMODE
 70
     1
  9
$FILLMODE
 70
     1
  9
$QTEXTMODE
 70
     0
  9
$MIRRTEXT
 70
     1
  9
$LTSCALE
 40
1.0
  9
$ATTMODE
 70
     1
  9
$TEXTSIZE
 40
3.5
  9
$TRACEWID
 40
0.5
  9
$TEXTSTYLE
  7
STANDARD
  9
$CLAYER
  8
0
  9
$CELTYPE
  6
ByLayer
  9
$CECOLOR
 62
   256
  9
$CELTSCALE
 40
1.0
  9
$DISPSILH
 70
     0
  9
$DIMSCALE
 40
1.0
  9
$DIMASZ
 40
0.18
  9
$DIMEXO
 40
0.0625
  9
$DIMDLI
 40
0.38
  9
$DIMRND
 40
0.0
  9
$DIMDLE
 40
0.0
  9
$DIMEXE
 40
0.18
  9
$DIMTP
 40
0.0
  9
$DIMTM
 40
0.0
  9
$DIMTXT
 40
0.18
  9
$DIMCEN
 40
0.09
  9
$DIMTSZ
 40
0.0
  9
$DIMTOL
 70
     0
  9
$DIMLIM
 70
     0
  9
$DIMTIH
 70
     1
  9
$DIMTOH
 70
     1
  9
$DIMSE1
 70
     0
  9
$DIMSE2
 70
     0
  9
$DIMTAD
 70
     0
  9
$DIMZIN
 70
     0
  9
$DIMBLK
  1

  9
$DIMASO
 70
     1
  9
$DIMSHO
 70
     1
  9
$DIMPOST
  1

  9
$DIMAPOST
  1

  9
$DIMALT
 70
     0
  9
$DIMALTD
 70
     2
  9
$DIMALTF
 40
25.4
  9
$DIMLFAC
 40
1.0
  9
$DIMTOFL
 70
     0
  9
$DIMTVP
 40
0.0
  9
$DIMTIX
 70
     0
  9
$DIMSOXD
 70
     0
  9
$DIMSAH
 70
     0
  9
$DIMBLK1
  1

  9
$DIMBLK2
  1

  9
$DIMSTYLE
  2
DMST_1
  9
$DIMCLRD
 70
     0
  9
$DIMCLRE
 70
     0
  9
$DIMCLRT
 70
     0
  9
$DIMTFAC
 40
1.0
  9
$DIMGAP
 40
0.09
  9
$DIMJUST
 70
     0
  9
$DIMSD1
 70
     0
  9
$DIMSD2
 70
     0
  9
$DIMTOLJ
 70
     1
  9
$DIMTZIN
 70
     0
  9
$DIMALTZ
 70
     0
  9
$DIMALTTZ
 70
     0
  9
$DIMUPT
 70
     0
  9
$DIMDEC
 70
     4
  9
$DIMTDEC
 70
     4
  9
$DIMALTU
 70
     2
  9
$DIMALTTD
 70
     2
  9
$DIMTXSTY
  7
STANDARD
  9
$DIMAUNIT
 70
     0
  9
$DIMADEC
 70
     0
  9
$DIMALTRND
 40
0.0
  9
$DIMAZIN
 70
     0
  9
$DIMDSEP
 70
    46
  9
$DIMATFIT
 70
     3
  9
$DIMFRAC
 70
     0
  9
$DIMLDRBLK
  1

  9
$DIMLUNIT
 70
     2
  9
$DIMLWD
 70
    -2
  9
$DIMLWE
 70
    -2
  9
$DIMTMOVE
 70
     0
  9
$LUNITS
 70
     2
  9
$LUPREC
 70
     4
  9
$SKETCHINC
 40
0.1
  9
$FILLETRAD
 40
2.0
  9
$AUNITS
 70
     0
  9
$AUPREC
 70
     0
  9
$MENU
  1
ACAD
  9
$ELEVATION
 40
0.0
  9
$PELEVATION
 40
0.0
  9
$THICKNESS
 40
0.0
  9
$LIMCHECK
 70
     0
  9
$CHAMFERA
 40
0.0
  9
$CHAMFERB
 40
0.0
  9
$CHAMFERC
 40
0.0
  9
$CHAMFERD
 40
0.0
  9
$SKPOLY
 70
     0
  9
$TDCREATE
 40
2453872.623772604
  9
$TDUCREATE
 40
2453872.790439270
  9
$TDUPDATE
 40
2453872.625245764
  9
$TDUUPDATE
 40
2453872.791912430
  9
$TDINDWG
 40
0.0014731597
  9
$TDUSRTIMER
 40
0.0014731597
  9
$USRTIMER
 70
     1
  9
$ANGBASE
 50
0.0
  9
$ANGDIR
 70
     0
  9
$PDMODE
 70
     0
  9
$PDSIZE
 40
0.0
  9
$PLINEWID
 40
0.0
  9
$SPLFRAME
 70
     0
  9
$SPLINETYPE
 70
     6
  9
$SPLINESEGS
 70
     8
  9
$HANDSEED
  5
45D
  9
$SURFTAB1
 70
     6
  9
$SURFTAB2
 70
     6
  9
$SURFTYPE
 70
     6
  9
$SURFU
 70
     6
  9
$SURFV
 70
     6
  9
$UCSBASE
  2

  9
$UCSNAME
  2

  9
$UCSORG
 10
0.0
 20
0.0
 30
0.0
  9
$UCSXDIR
 10
1.0
 20
0.0
 30
0.0
  9
$UCSYDIR
 10
0.0
 20
1.0
 30
0.0
  9
$UCSORTHOREF
  2

  9
$UCSORTHOVIEW
 70
     0
  9
$UCSORGTOP
 10
0.0
 20
0.0
 30
0.0
  9
$UCSORGBOTTOM
 10
0.0
 20
0.0
 30
0.0
  9
$UCSORGLEFT
 10
0.0
 20
0.0
 30
0.0
  9
$UCSORGRIGHT
 10
0.0
 20
0.0
 30
0.0
  9
$UCSORGFRONT
 10
0.0
 20
0.0
 30
0.0
  9
$UCSORGBACK
 10
0.0
 20
0.0
 30
0.0
  9
$PUCSBASE
  2

  9
$PUCSNAME
  2

  9
$PUCSORG
 10
0.0
 20
0.0
 30
0.0
  9
$PUCSXDIR
 10
1.0
 20
0.0
 30
0.0
  9
$PUCSYDIR
 10
0.0
 20
1.0
 30
0.0
  9
$PUCSORTHOREF
  2

  9
$PUCSORTHOVIEW
 70
     0
  9
$PUCSORGTOP
 10
0.0
 20
0.0
 30
0.0
  9
$PUCSORGBOTTOM
 10
0.0
 20
0.0
 30
0.0
  9
$PUCSORGLEFT
 10
0.0
 20
0.0
 30
0.0
  9
$PUCSORGRIGHT
 10
0.0
 20
0.0
 30
0.0
  9
$PUCSORGFRONT
 10
0.0
 20
0.0
 30
0.0
  9
$PUCSORGBACK
 10
0.0
 20
0.0
 30
0.0
  9
$USERI1
 70
     0
  9
$USERI2
 70
     0
  9
$USERI3
 70
     0
  9
$USERI4
 70
     0
  9
$USERI5
 70
     0
  9
$USERR1
 40
0.0
  9
$USERR2
 40
0.0
  9
$USERR3
 40
0.0
  9
$USERR4
 40
0.0
  9
$USERR5
 40
0.0
  9
$WORLDVIEW
 70
     1
  9
$SHADEDGE
 70
     3
  9
$SHADEDIF
 70
    70
  9
$TILEMODE
 70
     1
  9
$MAXACTVP
 70
    64
  9
$PINSBASE
 10
0.0
 20
0.0
 30
0.0
  9
$PLIMCHECK
 70
     0
  9
$PEXTMIN
 10
1.000000000000000E+20
 20
1.000000000000000E+20
 30
1.000000000000000E+20
  9
$PEXTMAX
 10
-1.000000000000000E+20
 20
-1.000000000000000E+20
 30
-1.000000000000000E+20
  9
$PLIMMIN
 10
0.0
 20
0.0
  9
$PLIMMAX
 10
12.0
 20
9.0
  9
$UNITMODE
 70
     0
  9
$VISRETAIN
 70
     1
  9
$PLINEGEN
 70
     0
  9
$PSLTSCALE
 70
     1
  9
$TREEDEPTH
 70
  3020
  9
$CMLSTYLE
  2
Standard
  9
$CMLJUST
 70
     0
  9
$CMLSCALE
 40
1.0
  9
$PROXYGRAPHICS
 70
     1
  9
$MEASUREMENT
 70
     0
  9
$CELWEIGHT
370
    -1
  9
$ENDCAPS
280
     0
  9
$JOINSTYLE
280
     0
  9
$LWDISPLAY
290
     0
  9
$INSUNITS
 70
     0
  9
$HYPERLINKBASE
  1

  9
$STYLESHEET
  1

  9
$XEDIT
290
     1
  9
$CEPSNTYPE
380
     0
  9
$PSTYLEMODE
290
     1
  9
$FINGERPRINTGUID
  2
{5E9A4A99-D7D2-4ABB-99A0-8FBEAFD9F5CB}
  9
$VERSIONGUID
  2
{3990DC87-EF1F-4FFF-9981-83DC71B60553}
  9
$EXTNAMES
290
     1
  9
$PSVPSCALE
 40
0.0
  9
$OLESTARTUP
290
     0
  0
ENDSEC
  0
SECTION
  2
CLASSES
  0
CLASS
  1
ACDBDICTIONARYWDFLT
  2
AcDbDictionaryWithDefault
  3
AutoCAD 2000
 90
        0
280
     0
281
     0
  0
CLASS
  1
ACDBPLACEHOLDER
  2
AcDbPlaceHolder
  3
AutoCAD 2000
 90
        0
280
     0
281
     0
  0
CLASS
  1
LAYOUT
  2
AcDbLayout
  3
AutoCAD 2000
 90
        0
280
     0
281
     0
  0
CLASS
  1
DICTIONARYVAR
  2
AcDbDictionaryVar
  3
AutoCAD 2000
 90
        0
280
     0
281
     0
  0
ENDSEC
  0
SECTION
  2
TABLES
  0
TABLE
  2
VPORT
  5
8
330
0
100
AcDbSymbolTable
 70
     2
  0
VPORT
  5
45C
330
8
100
AcDbSymbolTableRecord
100
AcDbViewportTableRecord
  2
*Active
 70
     0
 10
0.0
 20
0.0
 11
1.0
 21
1.0
 12
-24.28619299098787
 22
-50.7266579574437
 13
0.0
 23
0.0
 14
1.0
 24
1.0
 15
0.0
 25
0.0
 16
0.0
 26
0.0
 36
1.0
 17
0.0
 27
0.0
 37
0.0
 40
385.5101603493343
 41
1.182835820895522
 42
50.0
 43
0.0
 44
0.0
 50
0.0
 51
0.0
 71
     0
 72
   100
 73
     1
 74
     1
 75
     0
 76
     0
 77
     0
 78
     0
281
     0
 65
     1
110
0.0
120
0.0
130
0.0
111
1.0
121
0.0
131
0.0
112
0.0
122
1.0
132
0.0
 79
     0
146
0.0
  0
ENDTAB
  0
TABLE
  2
LTYPE
  5
5
330
0
100
AcDbSymbolTable
 70
     9
  0
LTYPE
  5
13
330
5
100
AcDbSymbolTableRecord
100
AcDbLinetypeTableRecord
  2
ByBlock
 70
     0
  3

 72
    65
 73
     0
 40
0.0
  0
LTYPE
  5
14
330
5
100
AcDbSymbolTableRecord
100
AcDbLinetypeTableRecord
  2
ByLayer
 70
     0
  3

 72
    65
 73
     0
 40
0.0
  0
LTYPE
  5
15
330
5
100
AcDbSymbolTableRecord
100
AcDbLinetypeTableRecord
  2
CONTINUOUS
 70
     0
  3
Solid line
 72
    65
 73
     0
 40
0.0
  0
LTYPE
  5
23
330
5
100
AcDbSymbolTableRecord
100
AcDbLinetypeTableRecord
  2
BORDER
 70
     0
  3
__ __ . __ __ .
 72
    65
 73
     6
 40
17.68390593914696
 49
5.052544554041988
 74
     0
 49
-2.526272277020995
 74
     0
 49
5.052544554041988
 74
     0
 49
-2.526272277020995
 74
     0
 49
0.0
 74
     0
 49
-2.526272277020995
 74
     0
  0
LTYPE
  5
24
330
5
100
AcDbSymbolTableRecord
100
AcDbLinetypeTableRecord
  2
CENTER
 70
     0
  3
____ _ ____ _
 72
    65
 73
     4
 40
20.21017821616795
 49
12.63136138510497
 74
     0
 49
-2.526272277020995
 74
     0
 49
2.526272277020995
 74
     0
 49
-2.526272277020995
 74
     0
  0
LTYPE
  5
25
330
5
100
AcDbSymbolTableRecord
100
AcDbLinetypeTableRecord
  2
DASHDOT
 70
     0
  3
__ . __ . __ .
 72
    65
 73
     4
 40
10.10508910808397
 49
5.052544554041988
 74
     0
 49
-2.526272277020995
 74
     0
 49
0.0
 74
     0
 49
-2.526272277020995
 74
     0
  0
LTYPE
  5
26
330
5
100
AcDbSymbolTableRecord
100
AcDbLinetypeTableRecord
  2
DASHED
 70
     0
  3
__ __ __ __ __
 72
    65
 73
     2
 40
7.578816831062983
 49
5.052544554041988
 74
     0
 49
-2.526272277020995
 74
     0
  0
LTYPE
  5
27
330
5
100
AcDbSymbolTableRecord
100
AcDbLinetypeTableRecord
  2
DIVIDE
 70
     0
  3
__ . . __ . . 
 72
    65
 73
     6
 40
12.63136138510497
 49
5.052544554041988
 74
     0
 49
-2.526272277020995
 74
     0
 49
0.0
 74
     0
 49
-2.526272277020995
 74
     0
 49
0.0
 74
     0
 49
-2.526272277020995
 74
     0
  0
LTYPE
  5
28
330
5
100
AcDbSymbolTableRecord
100
AcDbLinetypeTableRecord
  2
DOT
 70
     0
  3
..............
 72
    65
 73
     4
 40
5.052544554041988
 49
0.0
 74
     0
 49
-2.526272277020995
 74
     0
 49
0.0
 74
     0
 49
-2.526272277020995
 74
     0
  0
LTYPE
  5
29
330
5
100
AcDbSymbolTableRecord
100
AcDbLinetypeTableRecord
  2
HIDDEN
 70
     0
  3
_ _ _ _ _ _ _
 72
    65
 73
     2
 40
3.789408415531491
 49
2.526272277020995
 74
     0
 49
-1.263136138510497
 74
     0
  0
LTYPE
  5
2A
330
5
100
AcDbSymbolTableRecord
100
AcDbLinetypeTableRecord
  2
PHANTOM
 70
     0
  3
_____ _ _ _____ _ _ 
 72
    65
 73
     6
 40
25.26272277020995
 49
12.63136138510497
 74
     0
 49
-2.526272277020995
 74
     0
 49
2.526272277020995
 74
     0
 49
-2.526272277020995
 74
     0
 49
2.526272277020995
 74
     0
 49
-2.526272277020995
 74
     0
  0
ENDTAB
  0
TABLE
  2
LAYER
  5
2
330
0
100
AcDbSymbolTable
 70
     3
  0
LAYER
  5
10
330
2
100
AcDbSymbolTableRecord
100
AcDbLayerTableRecord
  2
0
 70
     0
 62
     7
  6
CONTINUOUS
370
    -3
390
F
  0
LAYER
  5
2B
330
2
100
AcDbSymbolTableRecord
100
AcDbLayerTableRecord
  2
1
 70
     0
 62
     7
  6
CONTINUOUS
370
    -3
390
F
  0
LAYER
  5
449
330
2
100
AcDbSymbolTableRecord
100
AcDbLayerTableRecord
  2
LAYER_1
 70
     0
 62
     5
  6
CONTINUOUS
370
    -3
390
F
  0
ENDTAB
  0
TABLE
  2
STYLE
  5
3
330
0
100
AcDbSymbolTable
 70
     4
  0
STYLE
  5
11
330
3
100
AcDbSymbolTableRecord
100
AcDbTextStyleTableRecord
  2
STANDARD
 70
     0
 40
0.0
 41
1.0
 50
0.0
 71
     0
 42
3.5
  3
txt
  4

  0
STYLE
  5
2C
330
3
100
AcDbSymbolTableRecord
100
AcDbTextStyleTableRecord
  2
SIMPLEX
 70
     0
 40
0.0
 41
1.0
 50
0.0
 71
     0
 42
3.5
  3
simplex
  4

  0
STYLE
  5
2D
330
3
100
AcDbSymbolTableRecord
100
AcDbTextStyleTableRecord
  2
COMPLEX
 70
     0
 40
0.0
 41
1.0
 50
0.0
 71
     0
 42
3.5
  3
complex
  4

  0
STYLE
  5
2E
330
3
100
AcDbSymbolTableRecord
100
AcDbTextStyleTableRecord
  2
ITALIC
 70
     0
 40
0.0
 41
1.0
 50
0.0
 71
     0
 42
3.5
  3
italic
  4

  0
ENDTAB
  0
TABLE
  2
VIEW
  5
6
330
0
100
AcDbSymbolTable
 70
     0
  0
ENDTAB
  0
TABLE
  2
UCS
  5
7
330
0
100
AcDbSymbolTable
 70
     0
  0
ENDTAB
  0
TABLE
  2
APPID
  5
9
330
0
100
AcDbSymbolTable
 70
     1
  0
APPID
  5
12
330
9
100
AcDbSymbolTableRecord
100
AcDbRegAppTableRecord
  2
ACAD
 70
     0
  0
ENDTAB
  0
TABLE
  2
DIMSTYLE
  5
A
330
0
100
AcDbSymbolTable
 70
     2
100
AcDbDimStyleTable
 71
     0
  0
DIMSTYLE
105
22
102
{ACAD_REACTORS
330
3D0
330
3D1
330
3D2
330
3D3
102
}
330
A
100
AcDbSymbolTableRecord
100
AcDbDimStyleTableRecord
  2
DMST_1
 70
     0
 41
4.5
 42
1.0
 43
7.0
 44
1.0
 73
     0
 74
     0
 77
     1
 78
     9
140
4.5
141
0.0
176
     2
177
     2
178
     2
279
     2
340
11
  0
DIMSTYLE
105
3D9
330
A
100
AcDbSymbolTableRecord
100
AcDbDimStyleTableRecord
  2
Standard
 70
     0
340
11
  0
ENDTAB
  0
TABLE
  2
BLOCK_RECORD
  5
1
330
0
100
AcDbSymbolTable
 70
    24
  0
BLOCK_RECORD
  5
1E
330
1
100
AcDbSymbolTableRecord
100
AcDbBlockTableRecord
  2
*Model_Space
340
21
  0
BLOCK_RECORD
  5
1A
330
1
100
AcDbSymbolTableRecord
100
AcDbBlockTableRecord
  2
*Paper_Space
340
1D
  0
BLOCK_RECORD
  5
34
330
1
100
AcDbSymbolTableRecord
100
AcDbBlockTableRecord
  2
*D0
340
0
  0
BLOCK_RECORD
  5
40
330
1
100
AcDbSymbolTableRecord
100
AcDbBlockTableRecord
  2
*D1
340
0
  0
BLOCK_RECORD
  5
4A
330
1
100
AcDbSymbolTableRecord
100
AcDbBlockTableRecord
  2
*D2
340
0
  0
BLOCK_RECORD
  5
54
330
1
100
AcDbSymbolTableRecord
100
AcDbBlockTableRecord
  2
*D3
340
0
  0
BLOCK_RECORD
  5
3D4
330
1
100
AcDbSymbolTableRecord
100
AcDbBlockTableRecord
  2
NTC
340
0
310
2800000020000000200000000100080000000000000400000000000000000000000000000000000000000000000080000080000000808000800000008000800080800000C0C0C000C0DCC000F0CAA6000020400000206000002080000020A0000020C0000020E00000400000004020000040400000406000004080000040A0
310
000040C0000040E00000600000006020000060400000606000006080000060A0000060C0000060E00000800000008020000080400000806000008080000080A0000080C0000080E00000A0000000A0200000A0400000A0600000A0800000A0A00000A0C00000A0E00000C0000000C0200000C0400000C0600000C0800000C0
310
A00000C0C00000C0E00000E0000000E0200000E0400000E0600000E0800000E0A00000E0C00000E0E00040000000400020004000400040006000400080004000A0004000C0004000E00040200000402020004020400040206000402080004020A0004020C0004020E000404000004040200040404000404060004040800040
310
40A0004040C0004040E00040600000406020004060400040606000406080004060A0004060C0004060E00040800000408020004080400040806000408080004080A0004080C0004080E00040A0000040A0200040A0400040A0600040A0800040A0A00040A0C00040A0E00040C0000040C0200040C0400040C0600040C08000
310
40C0A00040C0C00040C0E00040E0000040E0200040E0400040E0600040E0800040E0A00040E0C00040E0E00080000000800020008000400080006000800080008000A0008000C0008000E00080200000802020008020400080206000802080008020A0008020C0008020E00080400000804020008040400080406000804080
310
008040A0008040C0008040E00080600000806020008060400080606000806080008060A0008060C0008060E00080800000808020008080400080806000808080008080A0008080C0008080E00080A0000080A0200080A0400080A0600080A0800080A0A00080A0C00080A0E00080C0000080C0200080C0400080C0600080C0
310
800080C0A00080C0C00080C0E00080E0000080E0200080E0400080E0600080E0800080E0A00080E0C00080E0E000C0000000C0002000C0004000C0006000C0008000C000A000C000C000C000E000C0200000C0202000C0204000C0206000C0208000C020A000C020C000C020E000C0400000C0402000C0404000C0406000C0
310
408000C040A000C040C000C040E000C0600000C0602000C0604000C0606000C0608000C060A000C060C000C060E000C0800000C0802000C0804000C0806000C0808000C080A000C080C000C080E000C0A00000C0A02000C0A04000C0A06000C0A08000C0A0A000C0A0C000C0A0E000C0C00000C0C02000C0C04000C0C06000
310
C0C08000C0C0A000F0FBFF00A4A0A000808080000000FF0000FF000000FFFF00FF000000FF00FF00FFFF0000FFFFFF00FFFFFFFFFFFFFFFFFFFFFFFFFFFFFFFFFFFFFFFFFFFFFFFFFFFFFFFFFFFFFFFFFFFFFFFFFFFFFFFFFFFFFFFFFFFFFFFFFFFFFFFFFFFFFFFFFFFFFFFFFFFFFFFFFFFFFFFFFFFFFFFFFFFFFFFFFFFFFF
310
FFFFFFFFFFFFFFFFFFFFFFFFFFFFFFFFFFFFFFFFFFFFFFFFFFFFFFFFFFFFFFFFFFFFFFFFFFFFFFFFFFFFFFFFFFFFFFFFFFFFFFFFFFFFFFFFFFFFFFFFFFFFFFFFFFFFFFFFFFFFFFFFFFFFFFFFFFFFFFFFFFFFFFFFFFFFFFFFFFFFFFFFFFFFFFFFFFFFFFFFFFFFFFFFFFFFFFFFFFFFFFFFFFFFFFFFFFFFFFFFFFFFFFFFFFFFFF
310
FFFFFFFFFFFFFFFFFFFFFFFFFFFFFFFFFFFFFFFFFFFFFFFFFFFFFFFFFFFFFFFFFFFFFFFFFFFFFFFFFFFFFFFFFFFFFFFFFFFFFFFFFFFFFFFFFFFFFFFFFFFFFFFFFFFFFFFFFFFFFFFFFFFFFFFFFFFFFFFFFFFFFFFFFFFFFFFFFFFFFFFFFFFFFFFFFFFFFFFFFFFFFFFFFFFFFFFFFFFFFFFFFFFFFFFFFFFFFFFFFFFFFFFFFFFFFF
310
FFFFFFFFFFFFFFFFFFFFFFFFFFFFFFFFFFFFFFFF000000000000000000000000000000000000000000000000000000000000FFFF00FF0000000000000000FFFFFFFFFFFFFFFFFFFFFFFFFFFFFFFFFFFFFF00FFFF00FF0000000000000000FFFFFFFFFFFFFFFFFFFFFFFFFFFFFFFFFFFFFF00FFFF00FF000000000000000000
310
00000000000000000000000000FFFFFFFFFF00FFFF00FF0000000000000000000000000000000000000000000000000000FF00FFFF00FF0000000000000000000000000000000000000000000000000000FF00FFFF00FF0000000000000000000000000000000000000000000000000000FF00FFFF00FF0000000000000000
310
00000000000000000000000000000000FFFFFF00FFFF00FF0000000000FFFFFFFFFFFFFFFFFFFFFFFFFFFFFFFFFFFFFFFFFFFF00FFFF000000000000000000000000000000000000000000000000000000000000FFFFFFFFFFFFFFFFFFFFFFFFFFFFFFFFFFFFFFFFFFFFFFFFFFFFFFFFFFFFFFFFFFFFFFFFFFFFFFFFFFFFFF
310
FFFFFFFFFFFFFFFFFFFFFFFFFFFFFFFFFFFFFFFFFFFFFFFFFFFFFFFFFFFFFFFFFFFFFFFFFFFFFFFFFFFFFFFFFFFFFFFFFFFFFFFFFFFFFFFFFFFFFFFFFFFFFFFFFFFFFFFFFFFFFFFFFFFFFFFFFFFFFFFFFFFFFFFFFFFFFFFFFFFFFFFFFFFFFFFFFFFFFFFFFFFFFFFFFFFFFFFFFFFFFFFFFFFFFFFFFFFFFFFFFFFFFFFFFFFFFF
310
FFFFFFFFFFFFFFFFFFFFFFFFFFFFFFFFFFFFFFFFFFFFFFFFFFFFFFFFFFFFFFFFFFFFFFFFFFFFFFFFFFFFFFFFFFFFFFFFFFFFFFFFFFFFFFFFFFFFFFFFFFFFFFFFFFFFFFFFFFFFFFFFFFFFFFFFFFFFFFFFFFFFFFFFFFFFFFFFFFFFFFFFFFFFFFFFFFFFFFFFFFFFFFFFFFFFFFFFFFFFFFFFFFFFFFFFFFFFFFFFFFFFFFFFFFFFFF
310
FFFFFFFFFFFFFFFFFFFFFFFFFFFFFFFFFFFFFFFFFFFFFFFFFFFFFFFFFFFFFFFFFFFFFFFFFFFFFFFFFFFFFFFFFFFFFFFFFFFFFFFFFFFFFFFF
102
{BLKREFS
331
3DB
331
3E0
102
}
  0
BLOCK_RECORD
  5
3E1
330
1
100
AcDbSymbolTableRecord
100
AcDbBlockTableRecord
  2
AI9-BLK14
340
0
310
2800000020000000200000000100080000000000000400000000000000000000000000000000000000000000000080000080000000808000800000008000800080800000C0C0C000C0DCC000F0CAA6000020400000206000002080000020A0000020C0000020E00000400000004020000040400000406000004080000040A0
310
000040C0000040E00000600000006020000060400000606000006080000060A0000060C0000060E00000800000008020000080400000806000008080000080A0000080C0000080E00000A0000000A0200000A0400000A0600000A0800000A0A00000A0C00000A0E00000C0000000C0200000C0400000C0600000C0800000C0
310
A00000C0C00000C0E00000E0000000E0200000E0400000E0600000E0800000E0A00000E0C00000E0E00040000000400020004000400040006000400080004000A0004000C0004000E00040200000402020004020400040206000402080004020A0004020C0004020E000404000004040200040404000404060004040800040
310
40A0004040C0004040E00040600000406020004060400040606000406080004060A0004060C0004060E00040800000408020004080400040806000408080004080A0004080C0004080E00040A0000040A0200040A0400040A0600040A0800040A0A00040A0C00040A0E00040C0000040C0200040C0400040C0600040C08000
310
40C0A00040C0C00040C0E00040E0000040E0200040E0400040E0600040E0800040E0A00040E0C00040E0E00080000000800020008000400080006000800080008000A0008000C0008000E00080200000802020008020400080206000802080008020A0008020C0008020E00080400000804020008040400080406000804080
310
008040A0008040C0008040E00080600000806020008060400080606000806080008060A0008060C0008060E00080800000808020008080400080806000808080008080A0008080C0008080E00080A0000080A0200080A0400080A0600080A0800080A0A00080A0C00080A0E00080C0000080C0200080C0400080C0600080C0
310
800080C0A00080C0C00080C0E00080E0000080E0200080E0400080E0600080E0800080E0A00080E0C00080E0E000C0000000C0002000C0004000C0006000C0008000C000A000C000C000C000E000C0200000C0202000C0204000C0206000C0208000C020A000C020C000C020E000C0400000C0402000C0404000C0406000C0
310
408000C040A000C040C000C040E000C0600000C0602000C0604000C0606000C0608000C060A000C060C000C060E000C0800000C0802000C0804000C0806000C0808000C080A000C080C000C080E000C0A00000C0A02000C0A04000C0A06000C0A08000C0A0A000C0A0C000C0A0E000C0C00000C0C02000C0C04000C0C06000
310
C0C08000C0C0A000F0FBFF00A4A0A000808080000000FF0000FF000000FFFF00FF000000FF00FF00FFFF0000FFFFFF00FF00FFFFFFFF00FFFFFFFFFFFFFFFFFFFFFFFFFFFFFFFFFFFFFFFFFFFFFFFFFFFF00FFFFFFFF00FFFFFFFFFFFFFFFFFFFFFFFFFFFFFFFFFFFFFFFFFFFFFFFFFFFF00FFFFFFFF00FFFFFFFFFFFFFFFF
310
FFFFFFFFFFFFFFFFFFFFFFFFFFFFFFFFFFFF00FFFFFFFF00FFFFFFFFFFFFFFFFFFFFFFFFFFFFFFFFFFFFFFFFFFFFFFFFFFFF00FFFFFFFF00FFFFFFFFFFFFFFFFFFFFFFFFFFFFFFFFFFFFFFFFFFFFFFFFFFFF00FFFFFFFF00FFFFFFFFFFFFFFFFFFFFFFFFFFFFFFFFFFFFFFFFFFFFFFFFFFFF00FFFFFFFF00FFFFFFFFFFFFFF
310
FFFFFFFFFFFFFFFFFFFFFFFFFFFFFFFFFFFFFF00FFFFFFFF00FFFFFFFFFFFFFFFFFFFFFFFFFFFFFFFFFFFFFFFFFFFFFFFFFFFF00FFFFFFFF00FFFFFFFFFFFFFFFFFFFFFFFFFFFFFFFFFFFFFFFFFFFFFFFFFFFF00FFFFFFFF00FFFFFFFFFFFFFFFFFFFFFFFFFFFFFFFFFFFFFFFFFFFFFFFFFFFF00FFFFFFFF00FFFFFFFFFFFF
310
FFFFFFFFFFFFFFFFFFFFFFFFFFFFFFFFFFFFFFFF00FFFFFFFF00FFFFFFFFFFFFFFFFFFFFFFFFFFFFFFFFFFFFFFFFFFFFFFFFFFFF00FFFFFFFF00FFFFFFFFFFFFFFFFFFFFFFFFFFFFFFFFFFFFFFFFFFFFFFFFFFFF00FFFFFFFF0000000000000000000000000000000000000000000000000000FF00FFFFFFFFFFFFFFFFFFFF
310
FFFFFFFFFFFFFFFFFFFFFFFFFFFFFFFFFFFFFFFFFF00FFFFFFFFFFFFFFFFFFFFFFFFFFFFFFFFFFFFFFFFFFFFFFFFFFFFFFFFFFFFFF00FFFFFFFFFFFFFFFFFFFFFFFFFFFFFFFFFFFFFFFFFFFFFFFFFFFFFFFFFFFFFF00FFFFFFFFFFFFFFFFFFFFFFFFFFFFFFFFFFFFFFFFFFFFFFFFFFFFFFFFFF00FF00000000000000000000
310
0000000000000000000000000000000000000000FFFFFFFFFFFFFFFFFFFFFFFFFFFFFFFFFFFFFFFFFFFFFFFFFFFFFFFFFFFFFFFFFFFFFFFFFFFFFFFFFFFFFFFFFFFFFFFFFFFFFFFFFFFFFFFFFFFFFFFFFFFFFFFFFFFFFFFFFFFFFFFFFFFFFFFFFFFFFFFFFFFFFFFFFFFFFFFFFFFFFFFFFFFFFFFFFFFFFFFFFFFFFFFFFFFFFF
310
FFFFFFFFFFFFFFFFFFFFFFFFFFFFFFFFFFFFFFFFFFFFFFFFFFFFFFFFFFFFFFFFFFFFFFFFFFFFFFFFFFFFFFFFFFFFFFFFFFFFFFFFFFFFFFFFFFFFFFFFFFFFFFFFFFFFFFFFFFFFFFFFFFFFFFFFFFFFFFFFFFFFFFFFFFFFFFFFFFFFFFFFFFFFFFFFFFFFFFFFFFFFFFFFFFFFFFFFFFFFFFFFFFFFFFFFFFFFFFFFFFFFFFFFFFFFFF
310
FFFFFFFFFFFFFFFFFFFFFFFFFFFFFFFFFFFFFFFFFFFFFFFFFFFFFFFFFFFFFFFFFFFFFFFFFFFFFFFFFFFFFFFFFFFFFFFFFFFFFFFFFFFFFFFFFFFFFFFFFFFFFFFFFFFFFFFFFFFFFFFFFFFFFFFFFFFFFFFFFFFFFFFFFFFFFFFFFFFFFFFFFFFFFFFFFFFFFFFFFFFFFFFFFFFFFFFFFFFFFFFFFFFFFFFFFFFFFFFFFFFFFFFFFFFFFF
310
FFFFFFFFFFFFFFFFFFFFFFFFFFFFFFFFFFFFFFFFFFFFFFFFFFFFFFFFFFFFFFFFFFFFFFFFFFFFFFFFFFFFFFFFFFFFFFFFFFFFFFFFFFFFFFFF
102
{BLKREFS
331
422
102
}
  0
BLOCK_RECORD
  5
3E6
330
1
100
AcDbSymbolTableRecord
100
AcDbBlockTableRecord
  2
AI9-BLK13
340
0
310
2800000020000000200000000100080000000000000400000000000000000000000000000000000000000000000080000080000000808000800000008000800080800000C0C0C000C0DCC000F0CAA6000020400000206000002080000020A0000020C0000020E00000400000004020000040400000406000004080000040A0
310
000040C0000040E00000600000006020000060400000606000006080000060A0000060C0000060E00000800000008020000080400000806000008080000080A0000080C0000080E00000A0000000A0200000A0400000A0600000A0800000A0A00000A0C00000A0E00000C0000000C0200000C0400000C0600000C0800000C0
310
A00000C0C00000C0E00000E0000000E0200000E0400000E0600000E0800000E0A00000E0C00000E0E00040000000400020004000400040006000400080004000A0004000C0004000E00040200000402020004020400040206000402080004020A0004020C0004020E000404000004040200040404000404060004040800040
310
40A0004040C0004040E00040600000406020004060400040606000406080004060A0004060C0004060E00040800000408020004080400040806000408080004080A0004080C0004080E00040A0000040A0200040A0400040A0600040A0800040A0A00040A0C00040A0E00040C0000040C0200040C0400040C0600040C08000
310
40C0A00040C0C00040C0E00040E0000040E0200040E0400040E0600040E0800040E0A00040E0C00040E0E00080000000800020008000400080006000800080008000A0008000C0008000E00080200000802020008020400080206000802080008020A0008020C0008020E00080400000804020008040400080406000804080
310
008040A0008040C0008040E00080600000806020008060400080606000806080008060A0008060C0008060E00080800000808020008080400080806000808080008080A0008080C0008080E00080A0000080A0200080A0400080A0600080A0800080A0A00080A0C00080A0E00080C0000080C0200080C0400080C0600080C0
310
800080C0A00080C0C00080C0E00080E0000080E0200080E0400080E0600080E0800080E0A00080E0C00080E0E000C0000000C0002000C0004000C0006000C0008000C000A000C000C000C000E000C0200000C0202000C0204000C0206000C0208000C020A000C020C000C020E000C0400000C0402000C0404000C0406000C0
310
408000C040A000C040C000C040E000C0600000C0602000C0604000C0606000C0608000C060A000C060C000C060E000C0800000C0802000C0804000C0806000C0808000C080A000C080C000C080E000C0A00000C0A02000C0A04000C0A06000C0A08000C0A0A000C0A0C000C0A0E000C0C00000C0C02000C0C04000C0C06000
310
C0C08000C0C0A000F0FBFF00A4A0A000808080000000FF0000FF000000FFFF00FF000000FF00FF00FFFF0000FFFFFF00FFFFFFFFFFFFFFFFFFFFFFFFFFFFFFFFFFFFFFFFFFFFFFFFFFFFFFFFFFFFFFFFFFFFFFFFFFFFFFFFFFFFFF0000FFFFFFFFFFFF0000FFFFFFFFFFFFFFFFFFFFFFFFFFFFFFFFFFFFFFFFFFFF0000FFFF
310
FFFFFFFF0000FFFFFFFFFFFFFFFFFFFFFFFFFFFFFFFFFFFFFFFFFFFF0000FFFFFFFFFFFF0000FFFFFFFFFFFFFFFFFFFFFFFFFFFFFFFFFFFFFFFFFFFF0000FFFFFFFFFFFF0000FFFFFFFFFFFFFFFFFFFFFFFFFFFFFFFFFFFFFFFFFFFF0000FFFFFFFFFFFF0000FFFFFFFFFFFFFFFFFFFFFFFFFFFFFFFFFFFFFFFFFFFF0000FF
310
FFFFFFFFFF0000FFFFFFFFFFFFFFFFFFFFFFFFFFFFFFFFFFFFFFFFFFFF0000FFFFFFFFFFFF0000FFFFFFFFFFFFFFFFFFFFFFFFFFFFFFFFFFFFFFFFFFFF0000FFFFFFFFFFFF0000FFFFFFFFFFFFFFFFFFFFFFFFFFFFFFFFFFFFFFFFFFFF0000FFFFFFFFFFFF0000FFFFFFFFFFFFFFFFFFFFFFFFFFFFFFFFFFFFFFFFFFFF0000
310
FFFFFFFFFFFF0000FFFFFFFFFFFFFFFFFFFFFFFFFFFFFFFFFFFFFFFFFFFF0000FFFFFFFFFFFF0000FFFFFFFFFFFFFFFFFFFFFFFFFFFFFFFFFFFFFFFFFFFF0000FFFFFFFFFFFF0000FFFFFFFFFFFFFFFFFFFFFFFFFFFFFFFFFFFFFFFFFFFF0000FFFFFFFFFFFF0000FFFFFFFFFFFFFFFFFFFFFFFFFFFFFFFFFFFFFFFFFFFF00
310
00FFFFFFFFFFFF0000FFFFFFFFFFFFFFFFFFFFFFFFFFFFFFFFFFFFFFFFFFFF00000000000000000000FFFFFFFFFFFFFFFFFFFFFFFFFFFFFFFFFFFFFFFFFFFF00FFFFFFFFFFFFFFFF00FFFFFFFFFFFFFFFFFFFFFFFFFFFFFFFFFFFFFFFFFFFF00FFFFFFFFFFFFFFFF00FFFFFFFFFFFFFFFFFFFFFFFFFFFFFFFFFFFFFFFFFFFF
310
00000000000000000000FFFFFFFFFFFFFFFFFFFFFFFFFFFFFFFFFFFFFFFFFFFF0000FFFFFFFFFFFF0000FFFFFFFFFFFFFFFFFFFFFFFFFFFFFFFFFFFFFFFFFFFF0000FFFFFFFFFFFF0000FFFFFFFFFFFFFFFFFFFFFFFFFFFFFFFFFFFFFFFFFFFF0000FFFFFFFFFFFF0000FFFFFFFFFFFFFFFFFFFFFFFFFFFFFFFFFFFFFFFFFF
310
FF0000FFFFFFFFFFFF0000FFFFFFFFFFFFFFFFFFFFFFFFFFFFFFFFFFFFFFFFFFFF0000FFFFFFFFFFFF0000FFFFFFFFFFFFFFFFFFFFFFFFFFFFFFFFFFFFFFFFFFFF0000FFFFFFFFFFFF0000FFFFFFFFFFFFFFFFFFFFFFFFFFFFFFFFFFFFFFFFFFFF0000FFFFFFFFFFFF0000FFFFFFFFFFFFFFFFFFFFFFFFFFFFFFFFFFFFFFFF
310
FFFF0000FFFFFFFFFFFF0000FFFFFFFFFFFFFFFFFFFFFFFFFFFFFFFFFFFFFFFFFFFF0000FFFFFFFFFFFF0000FFFFFFFFFFFFFFFFFFFFFFFFFFFFFFFFFFFFFFFFFFFF0000FFFFFFFFFFFF0000FFFFFFFFFFFFFFFFFFFFFFFFFFFFFFFFFFFFFFFFFFFF0000FFFFFFFFFFFF0000FFFFFFFFFFFFFFFFFFFFFFFFFFFFFFFFFFFFFF
310
FFFFFF0000FFFFFFFFFFFF0000FFFFFFFFFFFFFFFFFFFFFFFFFFFFFFFFFFFFFFFFFFFFFFFFFFFFFFFFFFFFFFFFFFFFFFFFFFFFFFFFFFFFFF
102
{BLKREFS
331
423
102
}
  0
BLOCK_RECORD
  5
3EB
330
1
100
AcDbSymbolTableRecord
100
AcDbBlockTableRecord
  2
AI9-BLK11
340
0
310
2800000020000000200000000100080000000000000400000000000000000000000000000000000000000000000080000080000000808000800000008000800080800000C0C0C000C0DCC000F0CAA6000020400000206000002080000020A0000020C0000020E00000400000004020000040400000406000004080000040A0
310
000040C0000040E00000600000006020000060400000606000006080000060A0000060C0000060E00000800000008020000080400000806000008080000080A0000080C0000080E00000A0000000A0200000A0400000A0600000A0800000A0A00000A0C00000A0E00000C0000000C0200000C0400000C0600000C0800000C0
310
A00000C0C00000C0E00000E0000000E0200000E0400000E0600000E0800000E0A00000E0C00000E0E00040000000400020004000400040006000400080004000A0004000C0004000E00040200000402020004020400040206000402080004020A0004020C0004020E000404000004040200040404000404060004040800040
310
40A0004040C0004040E00040600000406020004060400040606000406080004060A0004060C0004060E00040800000408020004080400040806000408080004080A0004080C0004080E00040A0000040A0200040A0400040A0600040A0800040A0A00040A0C00040A0E00040C0000040C0200040C0400040C0600040C08000
310
40C0A00040C0C00040C0E00040E0000040E0200040E0400040E0600040E0800040E0A00040E0C00040E0E00080000000800020008000400080006000800080008000A0008000C0008000E00080200000802020008020400080206000802080008020A0008020C0008020E00080400000804020008040400080406000804080
310
008040A0008040C0008040E00080600000806020008060400080606000806080008060A0008060C0008060E00080800000808020008080400080806000808080008080A0008080C0008080E00080A0000080A0200080A0400080A0600080A0800080A0A00080A0C00080A0E00080C0000080C0200080C0400080C0600080C0
310
800080C0A00080C0C00080C0E00080E0000080E0200080E0400080E0600080E0800080E0A00080E0C00080E0E000C0000000C0002000C0004000C0006000C0008000C000A000C000C000C000E000C0200000C0202000C0204000C0206000C0208000C020A000C020C000C020E000C0400000C0402000C0404000C0406000C0
310
408000C040A000C040C000C040E000C0600000C0602000C0604000C0606000C0608000C060A000C060C000C060E000C0800000C0802000C0804000C0806000C0808000C080A000C080C000C080E000C0A00000C0A02000C0A04000C0A06000C0A08000C0A0A000C0A0C000C0A0E000C0C00000C0C02000C0C04000C0C06000
310
C0C08000C0C0A000F0FBFF00A4A0A000808080000000FF0000FF000000FFFF00FF000000FF00FF00FFFF0000FFFFFF00FFFFFFFFFFFFFFFFFFFFFFFFFFFFFFFFFFFFFFFFFFFFFFFFFFFFFFFFFFFFFFFFFFFFFFFFFFFFFFFFFFFFFFFFFFFF00000000FFFFFFFFFFFFFFFFFFFFFF000000FFFFFFFFFFFFFFFFFFFFFFFFFFFF00
310
FFFF00FFFFFFFFFFFFFFFFFFFFFF00FFFFFFFFFFFFFFFFFFFFFFFFFFFFFFFF00FFFF00FFFFFFFFFFFFFFFFFFFFFF00FFFFFFFFFFFFFFFFFFFFFFFFFFFFFFFF00FFFF00FFFFFFFFFFFFFFFFFFFFFF00FFFFFFFFFFFFFFFFFFFFFFFFFFFFFFFF00FFFF00FFFFFFFFFFFFFFFFFFFFFF00FFFFFFFFFFFFFFFFFFFFFFFFFFFFFFFF
310
00FFFF00FFFFFFFFFFFFFFFFFFFFFF00FFFFFFFFFFFFFFFFFFFFFFFFFFFFFFFF00FFFF00FFFFFFFFFFFFFFFFFFFFFF00FFFFFFFFFFFFFFFFFFFFFFFFFFFFFFFF00FFFF00FFFFFFFFFFFFFFFFFFFFFF00FFFFFFFFFFFFFFFFFFFFFFFFFFFFFFFF00FFFF00FFFFFFFFFFFFFFFFFFFFFF00FFFFFFFFFFFFFFFFFFFFFFFFFFFFFF
310
FF00FFFF00FFFFFFFFFFFFFFFFFFFFFF00FFFFFFFFFFFFFFFFFFFFFFFFFFFFFFFF00FFFF00FFFFFFFFFFFFFFFFFFFFFF00FFFFFFFFFFFFFFFFFFFFFFFFFFFFFFFF00FFFF00FFFFFFFFFFFFFFFFFFFFFF00FFFFFFFFFFFFFFFFFFFFFFFFFFFFFFFF00FFFF00FFFFFFFFFFFFFFFFFFFFFF00FFFFFFFFFFFFFFFFFFFFFFFFFFFF
310
FFFF00FFFF00FFFFFFFFFFFFFFFFFFFFFF00FFFFFFFFFFFFFFFFFFFFFFFFFFFFFFFF00FFFF00FFFFFFFFFFFFFFFFFFFFFF00FFFFFFFFFFFFFFFFFFFFFFFFFFFFFFFF00FFFF00FFFFFFFFFFFFFFFFFFFFFF00FFFFFFFFFFFFFFFFFFFFFFFFFFFFFFFF00FFFF00FFFFFFFFFFFFFFFFFFFF00FFFFFFFFFFFFFFFFFFFFFFFFFFFF
310
FFFFFF00FFFF00FFFFFFFFFFFFFFFFFFFF00FFFFFFFFFFFFFFFFFFFFFFFFFFFFFFFFFF00FFFF00FFFFFFFFFFFFFFFFFFFF00FFFFFFFFFFFFFFFFFFFFFFFFFFFFFFFFFF00FFFF00FFFFFFFFFFFFFFFFFFFF00FFFFFFFFFFFFFFFFFFFFFFFFFFFFFFFFFF00FFFF00FFFFFFFFFFFFFFFFFFFF00FFFFFFFFFFFFFFFFFFFFFFFFFF
310
FFFFFFFF00FFFF00FFFFFFFFFFFFFFFFFF0000FFFF00FFFFFFFFFFFFFFFFFFFFFFFFFFFF00FFFF00FFFFFFFFFFFFFFFF0000FFFFFF00FFFFFFFFFFFFFFFFFFFFFFFFFFFF00FFFF00000000000000000000FFFFFFFF00FFFFFFFFFFFFFFFFFFFFFFFFFFFF00FFFFFFFFFFFFFFFFFFFFFFFFFFFFFF00FFFFFFFFFFFFFFFFFFFF
310
FFFFFFFFFF00FFFFFFFFFFFFFFFFFFFFFFFFFFFF00FFFFFFFFFFFFFFFFFFFFFFFFFFFFFFFF00FFFFFFFFFFFFFFFFFFFFFFFFFFFF00FFFFFFFFFFFFFFFFFFFFFFFFFFFFFFFF00FFFFFFFFFFFFFFFFFFFFFFFFFFFFFF00FFFFFFFFFFFFFFFFFFFFFFFFFFFFFF00FFFFFFFFFFFFFFFFFFFFFFFFFFFFFF00FFFFFFFFFFFFFFFFFF
310
FFFFFFFFFFFF00FFFF00000000000000000000FFFFFFFF00FFFFFFFFFFFFFFFFFFFFFFFFFFFF00FFFF00FFFFFFFFFFFFFFFFFF0000FFFF00
102
{BLKREFS
331
424
102
}
  0
BLOCK_RECORD
  5
3F0
330
1
100
AcDbSymbolTableRecord
100
AcDbBlockTableRecord
  2
AI9-BLK10
340
0
310
2800000020000000200000000100080000000000000400000000000000000000000000000000000000000000000080000080000000808000800000008000800080800000C0C0C000C0DCC000F0CAA6000020400000206000002080000020A0000020C0000020E00000400000004020000040400000406000004080000040A0
310
000040C0000040E00000600000006020000060400000606000006080000060A0000060C0000060E00000800000008020000080400000806000008080000080A0000080C0000080E00000A0000000A0200000A0400000A0600000A0800000A0A00000A0C00000A0E00000C0000000C0200000C0400000C0600000C0800000C0
310
A00000C0C00000C0E00000E0000000E0200000E0400000E0600000E0800000E0A00000E0C00000E0E00040000000400020004000400040006000400080004000A0004000C0004000E00040200000402020004020400040206000402080004020A0004020C0004020E000404000004040200040404000404060004040800040
310
40A0004040C0004040E00040600000406020004060400040606000406080004060A0004060C0004060E00040800000408020004080400040806000408080004080A0004080C0004080E00040A0000040A0200040A0400040A0600040A0800040A0A00040A0C00040A0E00040C0000040C0200040C0400040C0600040C08000
310
40C0A00040C0C00040C0E00040E0000040E0200040E0400040E0600040E0800040E0A00040E0C00040E0E00080000000800020008000400080006000800080008000A0008000C0008000E00080200000802020008020400080206000802080008020A0008020C0008020E00080400000804020008040400080406000804080
310
008040A0008040C0008040E00080600000806020008060400080606000806080008060A0008060C0008060E00080800000808020008080400080806000808080008080A0008080C0008080E00080A0000080A0200080A0400080A0600080A0800080A0A00080A0C00080A0E00080C0000080C0200080C0400080C0600080C0
310
800080C0A00080C0C00080C0E00080E0000080E0200080E0400080E0600080E0800080E0A00080E0C00080E0E000C0000000C0002000C0004000C0006000C0008000C000A000C000C000C000E000C0200000C0202000C0204000C0206000C0208000C020A000C020C000C020E000C0400000C0402000C0404000C0406000C0
310
408000C040A000C040C000C040E000C0600000C0602000C0604000C0606000C0608000C060A000C060C000C060E000C0800000C0802000C0804000C0806000C0808000C080A000C080C000C080E000C0A00000C0A02000C0A04000C0A06000C0A08000C0A0A000C0A0C000C0A0E000C0C00000C0C02000C0C04000C0C06000
310
C0C08000C0C0A000F0FBFF00A4A0A000808080000000FF0000FF000000FFFF00FF000000FF00FF00FFFF0000FFFFFF00FFFFFFFFFFFFFFFFFFFFFFFFFFFFFFFF00FFFFFFFFFFFFFFFFFFFFFFFF00FFFFFFFFFFFFFFFFFFFFFFFFFFFFFFFFFFFF00FFFFFFFFFFFFFFFFFFFFFF00FFFFFFFFFFFFFFFFFFFFFFFFFFFFFFFFFFFF
310
FF00FFFFFFFFFFFFFFFFFFFFFF00FFFFFFFFFFFFFFFFFFFFFFFFFFFFFFFFFFFFFF00FFFFFFFFFFFFFFFFFFFFFF00FFFFFFFFFFFFFFFFFFFFFFFFFFFFFFFFFFFFFF00FFFFFFFFFFFFFFFFFFFFFF00FFFFFFFFFFFFFFFFFFFFFFFFFFFFFFFFFFFFFF00FFFFFFFFFFFFFFFFFFFFFF00FFFFFFFFFFFFFFFFFFFFFFFFFFFFFFFFFF
310
FFFF00FFFFFFFFFFFFFFFFFFFFFF00FFFFFFFFFFFFFFFFFFFFFFFFFFFFFFFFFFFFFF00FFFFFFFFFFFFFFFFFFFF00FFFFFFFFFFFFFFFFFFFFFFFFFFFFFFFFFFFFFFFF00FFFFFFFFFFFFFFFFFFFF00FFFFFFFFFFFFFFFFFFFFFFFFFFFFFFFFFFFFFFFF00FFFFFFFFFFFFFFFFFFFF00FFFFFFFFFFFFFFFFFFFFFFFFFFFFFFFFFF
310
FFFFFF00FFFFFFFFFFFFFFFFFFFF00FFFFFFFFFFFFFFFFFFFFFFFFFFFFFFFFFFFFFFFF00FFFFFFFFFFFFFFFFFFFF00FFFFFFFFFFFFFFFFFFFFFFFFFFFFFFFFFFFFFFFF00FFFFFFFFFFFFFFFFFFFF00FFFFFFFFFFFFFFFFFFFFFFFFFFFFFFFFFFFFFFFF00FFFFFFFFFFFFFFFFFF00FFFFFFFFFFFFFFFFFFFFFFFFFFFFFFFFFF
310
FFFFFFFF00FFFFFFFFFFFFFFFFFF00FFFFFFFFFFFFFFFFFFFFFFFFFFFFFFFFFFFFFFFFFF00FFFFFFFFFFFFFFFFFF00FFFFFFFFFFFFFFFFFFFFFFFFFFFFFFFFFFFFFFFFFF0000000000000000000000FFFFFFFFFFFFFFFFFFFFFFFFFFFFFFFFFFFFFFFFFFFFFFFFFFFFFFFFFFFFFFFFFFFFFFFFFFFFFFFFFFFFFFFFFFFFFFFF
310
FFFFFFFFFFFFFFFFFFFFFFFFFFFFFFFFFFFFFFFFFFFFFFFFFFFFFFFFFFFFFFFFFFFFFFFFFFFFFFFFFFFFFFFFFFFFFFFFFFFFFFFFFFFFFFFFFFFFFFFFFFFFFFFFFFFFFFFFFFFFFFFFFFFFFFFFFFFFFFFFFFFFFFFFFFFFFFFFFFFFFFFFFFFFFFFFFFFFFFFFFFFFFFFFFFFFFFFFFFFFFFFFFFFFFFFFFFFFFFFFFFFFFFFFFFFFFF
310
FFFFFFFFFFFFFFFFFFFFFFFFFFFFFFFFFFFFFFFFFFFFFFFFFFFFFFFFFFFFFFFFFFFFFFFFFFFFFFFFFFFFFFFFFFFFFFFFFFFFFFFFFFFFFFFFFFFFFFFFFFFFFFFFFFFFFFFFFFFFFFFFFFFFFFFFFFFFFFFFFFFFFFFFFFFFFFFFFFFFFFFFFFFFFFFFFFFFFFFFFFFFFFFFFFFFFFFFFFFFFFFFFFFFFFFFFFFFFFFFFFFFFFFFFFFFFF
310
FFFFFFFFFFFFFFFFFFFFFFFFFFFFFFFFFFFFFFFFFFFFFFFFFFFFFFFFFFFFFFFFFFFFFFFFFFFFFFFFFFFFFFFFFFFFFFFFFFFFFFFFFFFFFFFFFFFFFFFFFFFFFFFFFFFFFFFFFFFFFFFFFFFFFFFFFFFFFFFFFFFFFFFFFFFFFFFFFFFFFFFFFFFFFFFFFFFFFFFFFFFFFFFFFFFFFFFFFFFFFFFFFFFFFFFFFFFFFFFFFFFFFFFFFFFFFF
310
FFFFFFFFFFFFFFFFFFFFFFFFFFFFFFFFFFFFFFFFFFFFFFFFFFFFFFFFFFFFFFFFFFFFFFFFFFFFFFFFFFFFFFFFFFFFFFFFFFFFFFFFFFFFFFFF
102
{BLKREFS
331
425
102
}
  0
BLOCK_RECORD
  5
3F4
330
1
100
AcDbSymbolTableRecord
100
AcDbBlockTableRecord
  2
AI9-BLK9
340
0
310
2800000020000000200000000100080000000000000400000000000000000000000000000000000000000000000080000080000000808000800000008000800080800000C0C0C000C0DCC000F0CAA6000020400000206000002080000020A0000020C0000020E00000400000004020000040400000406000004080000040A0
310
000040C0000040E00000600000006020000060400000606000006080000060A0000060C0000060E00000800000008020000080400000806000008080000080A0000080C0000080E00000A0000000A0200000A0400000A0600000A0800000A0A00000A0C00000A0E00000C0000000C0200000C0400000C0600000C0800000C0
310
A00000C0C00000C0E00000E0000000E0200000E0400000E0600000E0800000E0A00000E0C00000E0E00040000000400020004000400040006000400080004000A0004000C0004000E00040200000402020004020400040206000402080004020A0004020C0004020E000404000004040200040404000404060004040800040
310
40A0004040C0004040E00040600000406020004060400040606000406080004060A0004060C0004060E00040800000408020004080400040806000408080004080A0004080C0004080E00040A0000040A0200040A0400040A0600040A0800040A0A00040A0C00040A0E00040C0000040C0200040C0400040C0600040C08000
310
40C0A00040C0C00040C0E00040E0000040E0200040E0400040E0600040E0800040E0A00040E0C00040E0E00080000000800020008000400080006000800080008000A0008000C0008000E00080200000802020008020400080206000802080008020A0008020C0008020E00080400000804020008040400080406000804080
310
008040A0008040C0008040E00080600000806020008060400080606000806080008060A0008060C0008060E00080800000808020008080400080806000808080008080A0008080C0008080E00080A0000080A0200080A0400080A0600080A0800080A0A00080A0C00080A0E00080C0000080C0200080C0400080C0600080C0
310
800080C0A00080C0C00080C0E00080E0000080E0200080E0400080E0600080E0800080E0A00080E0C00080E0E000C0000000C0002000C0004000C0006000C0008000C000A000C000C000C000E000C0200000C0202000C0204000C0206000C0208000C020A000C020C000C020E000C0400000C0402000C0404000C0406000C0
310
408000C040A000C040C000C040E000C0600000C0602000C0604000C0606000C0608000C060A000C060C000C060E000C0800000C0802000C0804000C0806000C0808000C080A000C080C000C080E000C0A00000C0A02000C0A04000C0A06000C0A08000C0A0A000C0A0C000C0A0E000C0C00000C0C02000C0C04000C0C06000
310
C0C08000C0C0A000F0FBFF00A4A0A000808080000000FF0000FF000000FFFF00FF000000FF00FF00FFFF0000FFFFFF00FFFFFFFFFFFFFFFFFFFFFFFFFFFFFFFFFFFFFFFFFFFFFFFFFFFFFFFFFFFFFFFFFFFFFFFFFFFFFFFFFFFFFFFFFFFFFF0000FFFFFFFFFFFFFFFFFFFFFFFFFFFFFFFFFFFFFFFFFFFFFFFFFFFFFFFF0000
310
FF0000FFFFFFFFFFFFFFFFFFFFFFFFFFFFFFFFFFFFFFFFFFFFFFFFFFFFFF00FFFFFF0000FFFFFFFFFFFFFFFFFFFFFFFFFFFFFFFFFFFFFFFFFFFFFFFFFFFF00FFFFFFFF0000FFFFFFFFFFFFFFFFFFFFFFFFFFFFFFFFFFFFFFFFFFFFFFFF00FF00000000FF00FFFFFFFFFFFFFFFFFFFFFFFFFFFFFFFFFFFFFFFFFFFFFFFF0000
310
00FFFF00FF00FFFFFFFFFFFFFFFFFFFFFFFFFFFFFFFFFFFFFFFFFFFFFFFF0000FFFFFFFF0000FFFFFFFFFFFFFFFFFFFFFFFFFFFFFFFFFFFFFFFFFFFFFFFF0000FFFFFFFF0000FFFFFFFFFFFFFFFFFFFFFFFFFFFFFFFFFFFFFFFFFFFFFF00FF00FFFFFFFF00FF00FFFFFFFFFFFFFFFFFFFFFFFFFFFFFFFFFFFFFFFFFFFF0000
310
FFFFFFFFFF00FF00FFFFFFFFFFFFFFFFFFFFFFFFFFFFFFFFFFFFFFFFFFFF0000FFFFFFFFFFFF0000FFFFFFFFFFFFFFFFFFFFFFFFFFFFFFFFFFFFFFFFFFFF0000FFFFFFFFFFFF0000FFFFFFFFFFFFFFFFFFFFFFFFFFFFFFFFFFFFFFFFFFFF0000FFFFFFFFFFFF0000FFFFFFFFFFFFFFFFFFFFFFFFFFFFFFFFFFFFFFFFFFFF00
310
00FFFFFFFFFFFF0000FFFFFFFFFFFFFFFFFFFFFFFFFFFFFFFFFFFFFFFFFFFF0000FFFFFFFFFFFF0000FFFFFFFFFFFFFFFFFFFFFFFFFFFFFFFFFFFFFFFFFFFF0000FFFFFFFFFFFF0000FFFFFFFFFFFFFFFFFFFFFFFFFFFFFFFFFFFFFFFFFFFF0000FFFFFFFFFFFF0000FFFFFFFFFFFFFFFFFFFFFFFFFFFFFFFFFFFFFFFFFFFF
310
0000FFFFFFFFFFFF0000FFFFFFFFFFFFFFFFFFFFFFFFFFFFFFFFFFFFFFFFFFFF0000FFFFFFFFFFFF0000FFFFFFFFFFFFFFFFFFFFFFFFFFFFFFFFFFFFFFFFFFFF0000FFFFFFFFFFFF0000FFFFFFFFFFFFFFFFFFFFFFFFFFFFFFFFFFFFFFFFFFFF00FF00FFFFFFFF00FF00FFFFFFFFFFFFFFFFFFFFFFFFFFFFFFFFFFFFFFFFFF
310
FF00FF00FFFFFFFF00FF00FFFFFFFFFFFFFFFFFFFFFFFFFFFFFFFFFFFFFFFFFFFF00FF00FFFFFFFF00FF00FFFFFFFFFFFFFFFFFFFFFFFFFFFFFFFFFFFFFFFFFFFFFF0000FFFFFFFF0000FFFFFFFFFFFFFFFFFFFFFFFFFFFFFFFFFFFFFFFFFFFFFFFF00FF00FFFF00FF00FFFFFFFFFFFFFFFFFFFFFFFFFFFFFFFFFFFFFFFFFF
310
FFFFFF00FF00000000FF00FFFFFFFFFFFFFFFFFFFFFFFFFFFFFFFFFFFFFFFFFFFFFFFFFF00FFFFFFFF0000FFFFFFFFFFFFFFFFFFFFFFFFFFFFFFFFFFFFFFFFFFFFFFFFFF00FFFFFFFF00FFFFFFFFFFFFFFFFFFFFFFFFFFFFFFFFFFFFFFFFFFFFFFFFFFFFFF00000000FFFFFFFFFFFFFFFFFFFFFFFFFFFFFFFFFFFFFFFFFFFF
310
FFFFFFFFFFFFFF0000FFFFFFFFFFFFFFFFFFFFFFFFFFFFFFFFFFFFFFFFFFFFFFFFFFFFFFFFFFFFFFFFFFFFFFFFFFFFFFFFFFFFFFFFFFFFFF
102
{BLKREFS
331
426
102
}
  0
BLOCK_RECORD
  5
3F9
330
1
100
AcDbSymbolTableRecord
100
AcDbBlockTableRecord
  2
AI9-BLK8
340
0
310
2800000020000000200000000100080000000000000400000000000000000000000000000000000000000000000080000080000000808000800000008000800080800000C0C0C000C0DCC000F0CAA6000020400000206000002080000020A0000020C0000020E00000400000004020000040400000406000004080000040A0
310
000040C0000040E00000600000006020000060400000606000006080000060A0000060C0000060E00000800000008020000080400000806000008080000080A0000080C0000080E00000A0000000A0200000A0400000A0600000A0800000A0A00000A0C00000A0E00000C0000000C0200000C0400000C0600000C0800000C0
310
A00000C0C00000C0E00000E0000000E0200000E0400000E0600000E0800000E0A00000E0C00000E0E00040000000400020004000400040006000400080004000A0004000C0004000E00040200000402020004020400040206000402080004020A0004020C0004020E000404000004040200040404000404060004040800040
310
40A0004040C0004040E00040600000406020004060400040606000406080004060A0004060C0004060E00040800000408020004080400040806000408080004080A0004080C0004080E00040A0000040A0200040A0400040A0600040A0800040A0A00040A0C00040A0E00040C0000040C0200040C0400040C0600040C08000
310
40C0A00040C0C00040C0E00040E0000040E0200040E0400040E0600040E0800040E0A00040E0C00040E0E00080000000800020008000400080006000800080008000A0008000C0008000E00080200000802020008020400080206000802080008020A0008020C0008020E00080400000804020008040400080406000804080
310
008040A0008040C0008040E00080600000806020008060400080606000806080008060A0008060C0008060E00080800000808020008080400080806000808080008080A0008080C0008080E00080A0000080A0200080A0400080A0600080A0800080A0A00080A0C00080A0E00080C0000080C0200080C0400080C0600080C0
310
800080C0A00080C0C00080C0E00080E0000080E0200080E0400080E0600080E0800080E0A00080E0C00080E0E000C0000000C0002000C0004000C0006000C0008000C000A000C000C000C000E000C0200000C0202000C0204000C0206000C0208000C020A000C020C000C020E000C0400000C0402000C0404000C0406000C0
310
408000C040A000C040C000C040E000C0600000C0602000C0604000C0606000C0608000C060A000C060C000C060E000C0800000C0802000C0804000C0806000C0808000C080A000C080C000C080E000C0A00000C0A02000C0A04000C0A06000C0A08000C0A0A000C0A0C000C0A0E000C0C00000C0C02000C0C04000C0C06000
310
C0C08000C0C0A000F0FBFF00A4A0A000808080000000FF0000FF000000FFFF00FF000000FF00FF00FFFF0000FFFFFF00FFFFFFFFFFFFFFFFFFFFFFFFFFFFFFFFFFFFFFFFFFFFFFFFFFFFFFFFFFFFFFFFFFFFFFFFFFFFFFFFFFFFFF0000FFFFFFFFFFFF0000FFFFFFFFFFFFFFFFFFFFFFFFFFFFFFFFFFFFFFFFFFFF0000FFFF
310
FFFFFFFF0000FFFFFFFFFFFFFFFFFFFFFFFFFFFFFFFFFFFFFFFFFFFF0000FFFFFFFFFF00FF00FFFFFFFFFFFFFFFFFFFFFFFFFFFFFFFFFFFFFFFFFFFF0000FFFFFFFFFF00FF00FFFFFFFFFFFFFFFFFFFFFFFFFFFFFFFFFFFFFFFFFFFF0000FFFFFFFFFF00FF00FFFFFFFFFFFFFFFFFFFFFFFFFFFFFFFFFFFFFFFFFFFF0000FF
310
FFFFFF00FFFF00FFFFFFFFFFFFFFFFFFFFFFFFFFFFFFFFFFFFFFFFFFFF0000FFFFFFFF00FF0000FFFFFFFFFFFFFFFFFFFFFFFFFFFFFFFFFFFFFFFFFFFF0000FFFFFFFF00FF0000FFFFFFFFFFFFFFFFFFFFFFFFFFFFFFFFFFFFFFFFFFFF0000FFFFFFFF00000000FFFFFFFFFFFFFFFFFFFFFFFFFFFFFFFFFFFFFFFFFFFF0000
310
FFFFFF00FF000000FFFFFFFFFFFFFFFFFFFFFFFFFFFFFFFFFFFFFFFFFFFF0000FFFFFF00FF000000FFFFFFFFFFFFFFFFFFFFFFFFFFFFFFFFFFFFFFFFFFFF0000FFFFFF00FF000000FFFFFFFFFFFFFFFFFFFFFFFFFFFFFFFFFFFFFFFFFFFF0000FFFF00FF00FF0000FFFFFFFFFFFFFFFFFFFFFFFFFFFFFFFFFFFFFFFFFFFF00
310
00FFFF00FF00FF0000FFFFFFFFFFFFFFFFFFFFFFFFFFFFFFFFFFFFFFFFFFFF0000FFFF00FF00FF0000FFFFFFFFFFFFFFFFFFFFFFFFFFFFFFFFFFFFFFFFFFFF0000FF00FFFF00FF0000FFFFFFFFFFFFFFFFFFFFFFFFFFFFFFFFFFFFFFFFFFFF0000FF00FF00FFFF0000FFFFFFFFFFFFFFFFFFFFFFFFFFFFFFFFFFFFFFFFFFFF
310
0000FF00FF00FFFF0000FFFFFFFFFFFFFFFFFFFFFFFFFFFFFFFFFFFFFFFFFFFF0000FF00FF00FFFF0000FFFFFFFFFFFFFFFFFFFFFFFFFFFFFFFFFFFFFFFFFFFF000000FFFF00FFFF0000FFFFFFFFFFFFFFFFFFFFFFFFFFFFFFFFFFFFFFFFFFFF000000FF00FFFFFF0000FFFFFFFFFFFFFFFFFFFFFFFFFFFFFFFFFFFFFFFFFF
310
FF000000FF00FFFFFF0000FFFFFFFFFFFFFFFFFFFFFFFFFFFFFFFFFFFFFFFFFFFF0000FFFF00FFFFFF0000FFFFFFFFFFFFFFFFFFFFFFFFFFFFFFFFFFFFFFFFFFFF0000FFFF00FFFFFF0000FFFFFFFFFFFFFFFFFFFFFFFFFFFFFFFFFFFFFFFFFFFF00FFFF00FFFFFFFF0000FFFFFFFFFFFFFFFFFFFFFFFFFFFFFFFFFFFFFFFF
310
FFFF00FFFF00FFFFFFFF0000FFFFFFFFFFFFFFFFFFFFFFFFFFFFFFFFFFFFFFFFFFFF00FFFF00FFFFFFFF0000FFFFFFFFFFFFFFFFFFFFFFFFFFFFFFFFFFFFFFFFFFFF00FFFF00FFFFFFFF0000FFFFFFFFFFFFFFFFFFFFFFFFFFFFFFFFFFFFFFFFFFFF00FF00FFFFFFFFFF0000FFFFFFFFFFFFFFFFFFFFFFFFFFFFFFFFFFFFFF
310
FFFFFF000000FFFFFFFFFF0000FFFFFFFFFFFFFFFFFFFFFFFFFFFFFFFFFFFFFFFFFFFFFFFFFFFFFFFFFFFFFFFFFFFFFFFFFFFFFFFFFFFFFF
102
{BLKREFS
331
427
102
}
  0
BLOCK_RECORD
  5
3FE
330
1
100
AcDbSymbolTableRecord
100
AcDbBlockTableRecord
  2
AI9-BLK7
340
0
310
2800000020000000200000000100080000000000000400000000000000000000000000000000000000000000000080000080000000808000800000008000800080800000C0C0C000C0DCC000F0CAA6000020400000206000002080000020A0000020C0000020E00000400000004020000040400000406000004080000040A0
310
000040C0000040E00000600000006020000060400000606000006080000060A0000060C0000060E00000800000008020000080400000806000008080000080A0000080C0000080E00000A0000000A0200000A0400000A0600000A0800000A0A00000A0C00000A0E00000C0000000C0200000C0400000C0600000C0800000C0
310
A00000C0C00000C0E00000E0000000E0200000E0400000E0600000E0800000E0A00000E0C00000E0E00040000000400020004000400040006000400080004000A0004000C0004000E00040200000402020004020400040206000402080004020A0004020C0004020E000404000004040200040404000404060004040800040
310
40A0004040C0004040E00040600000406020004060400040606000406080004060A0004060C0004060E00040800000408020004080400040806000408080004080A0004080C0004080E00040A0000040A0200040A0400040A0600040A0800040A0A00040A0C00040A0E00040C0000040C0200040C0400040C0600040C08000
310
40C0A00040C0C00040C0E00040E0000040E0200040E0400040E0600040E0800040E0A00040E0C00040E0E00080000000800020008000400080006000800080008000A0008000C0008000E00080200000802020008020400080206000802080008020A0008020C0008020E00080400000804020008040400080406000804080
310
008040A0008040C0008040E00080600000806020008060400080606000806080008060A0008060C0008060E00080800000808020008080400080806000808080008080A0008080C0008080E00080A0000080A0200080A0400080A0600080A0800080A0A00080A0C00080A0E00080C0000080C0200080C0400080C0600080C0
310
800080C0A00080C0C00080C0E00080E0000080E0200080E0400080E0600080E0800080E0A00080E0C00080E0E000C0000000C0002000C0004000C0006000C0008000C000A000C000C000C000E000C0200000C0202000C0204000C0206000C0208000C020A000C020C000C020E000C0400000C0402000C0404000C0406000C0
310
408000C040A000C040C000C040E000C0600000C0602000C0604000C0606000C0608000C060A000C060C000C060E000C0800000C0802000C0804000C0806000C0808000C080A000C080C000C080E000C0A00000C0A02000C0A04000C0A06000C0A08000C0A0A000C0A0C000C0A0E000C0C00000C0C02000C0C04000C0C06000
310
C0C08000C0C0A000F0FBFF00A4A0A000808080000000FF0000FF000000FFFF00FF000000FF00FF00FFFF0000FFFFFF00FFFFFFFFFFFFFFFFFFFFFFFFFFFFFFFFFFFFFFFFFFFFFFFFFFFFFFFFFFFFFFFFFFFFFFFFFFFFFFFFFFFFFFFFFFFFFF0000FFFFFFFFFFFFFFFFFFFFFFFFFFFFFFFFFFFFFFFFFFFFFFFFFFFFFFFFFFFF
310
0000FFFFFFFFFFFFFFFFFFFFFFFFFFFFFFFFFFFFFFFFFFFFFFFFFFFFFFFFFFFF0000FFFFFFFFFFFFFFFFFFFFFFFFFFFFFFFFFFFFFFFFFFFFFFFFFFFFFFFFFFFF0000FFFFFFFFFFFFFFFFFFFFFFFFFFFFFFFFFFFFFFFFFFFFFFFFFFFFFFFFFFFF0000FFFFFFFFFFFFFFFFFFFFFFFFFFFFFFFFFFFFFFFFFFFFFFFFFFFFFFFFFF
310
FF0000FFFFFFFFFFFFFFFFFFFFFFFFFFFFFFFFFFFFFFFFFFFFFFFFFFFFFFFFFFFF0000FFFFFFFFFFFFFFFFFFFFFFFFFFFFFFFFFFFFFFFFFFFFFFFFFFFFFFFFFFFF0000FFFFFFFFFFFFFFFFFFFFFFFFFFFFFFFFFFFFFFFFFFFFFFFFFFFFFFFFFFFF0000FFFFFFFFFFFFFFFFFFFFFFFFFFFFFFFFFFFFFFFFFFFFFFFFFFFFFFFF
310
FFFF0000FFFFFFFFFFFFFFFFFFFFFFFFFFFFFFFFFFFFFFFFFFFFFFFFFFFFFFFFFFFF0000FFFFFFFFFFFFFFFFFFFFFFFFFFFFFFFFFFFFFFFFFFFFFFFFFFFFFFFFFFFF0000FFFFFFFFFFFFFFFFFFFFFFFFFFFFFFFFFFFFFFFFFFFFFFFFFFFFFFFFFFFF0000FFFFFFFFFFFFFFFFFFFFFFFFFFFFFFFFFFFFFFFFFFFFFFFFFFFFFF
310
FFFFFF0000FFFFFFFFFFFFFFFFFFFFFFFFFFFFFFFFFFFFFFFFFFFFFFFFFFFFFFFFFFFF0000FFFFFFFFFFFFFFFFFFFFFFFFFFFFFFFFFFFFFFFFFFFFFFFFFFFFFFFFFFFF0000FFFFFFFFFFFFFFFFFFFFFFFFFFFFFFFFFFFFFFFFFFFFFFFFFFFFFFFFFFFF0000FFFFFFFFFFFFFFFFFFFFFFFFFFFFFFFFFFFFFFFFFFFFFFFFFFFF
310
FFFFFFFF0000FFFFFFFFFFFFFFFFFFFFFFFFFFFFFFFFFFFFFFFFFFFFFFFFFFFFFFFFFFFF0000FFFFFFFFFFFFFFFFFFFFFFFFFFFFFFFFFFFFFFFFFFFFFFFFFFFFFFFFFFFF0000FFFFFFFFFFFFFFFFFFFFFFFFFFFFFFFFFFFFFFFFFFFFFFFFFFFFFFFFFFFF0000FFFFFFFFFFFFFFFFFFFFFFFFFFFFFFFFFFFFFFFFFFFFFFFFFF
310
FFFFFFFFFF0000FFFFFFFFFFFFFFFFFFFFFFFFFFFFFFFFFFFFFFFFFFFFFFFFFFFFFFFFFFFF0000FFFFFFFFFFFFFFFFFFFFFFFFFFFFFFFFFFFFFFFFFFFFFFFFFFFFFFFFFFFF0000FFFFFFFFFFFFFFFFFFFFFFFFFFFFFFFFFFFFFFFFFFFFFFFFFFFFFFFFFFFF0000FFFFFFFFFFFFFFFFFFFFFFFFFFFFFFFFFFFFFFFFFFFFFFFF
310
FFFFFFFFFFFF0000FFFFFFFFFFFFFFFFFFFFFFFFFFFFFFFFFFFFFFFFFFFFFFFFFFFFFFFFFFFF0000FFFFFFFFFFFFFFFFFFFFFFFFFFFFFFFFFFFFFFFFFFFFFFFFFFFFFFFFFFFF0000FFFFFFFFFFFFFFFFFFFFFFFFFFFFFFFFFFFFFFFFFFFFFFFFFFFFFFFFFFFF0000FFFFFFFFFFFFFFFFFFFFFFFFFFFFFFFFFFFFFFFFFFFFFF
310
FFFFFFFFFFFFFF0000FFFFFFFFFFFFFFFFFFFFFFFFFFFFFFFFFFFFFFFFFFFFFFFFFFFFFFFFFFFFFFFFFFFFFFFFFFFFFFFFFFFFFFFFFFFFFF
102
{BLKREFS
331
428
102
}
  0
BLOCK_RECORD
  5
403
330
1
100
AcDbSymbolTableRecord
100
AcDbBlockTableRecord
  2
AI9-BLK6
340
0
310
2800000020000000200000000100080000000000000400000000000000000000000000000000000000000000000080000080000000808000800000008000800080800000C0C0C000C0DCC000F0CAA6000020400000206000002080000020A0000020C0000020E00000400000004020000040400000406000004080000040A0
310
000040C0000040E00000600000006020000060400000606000006080000060A0000060C0000060E00000800000008020000080400000806000008080000080A0000080C0000080E00000A0000000A0200000A0400000A0600000A0800000A0A00000A0C00000A0E00000C0000000C0200000C0400000C0600000C0800000C0
310
A00000C0C00000C0E00000E0000000E0200000E0400000E0600000E0800000E0A00000E0C00000E0E00040000000400020004000400040006000400080004000A0004000C0004000E00040200000402020004020400040206000402080004020A0004020C0004020E000404000004040200040404000404060004040800040
310
40A0004040C0004040E00040600000406020004060400040606000406080004060A0004060C0004060E00040800000408020004080400040806000408080004080A0004080C0004080E00040A0000040A0200040A0400040A0600040A0800040A0A00040A0C00040A0E00040C0000040C0200040C0400040C0600040C08000
310
40C0A00040C0C00040C0E00040E0000040E0200040E0400040E0600040E0800040E0A00040E0C00040E0E00080000000800020008000400080006000800080008000A0008000C0008000E00080200000802020008020400080206000802080008020A0008020C0008020E00080400000804020008040400080406000804080
310
008040A0008040C0008040E00080600000806020008060400080606000806080008060A0008060C0008060E00080800000808020008080400080806000808080008080A0008080C0008080E00080A0000080A0200080A0400080A0600080A0800080A0A00080A0C00080A0E00080C0000080C0200080C0400080C0600080C0
310
800080C0A00080C0C00080C0E00080E0000080E0200080E0400080E0600080E0800080E0A00080E0C00080E0E000C0000000C0002000C0004000C0006000C0008000C000A000C000C000C000E000C0200000C0202000C0204000C0206000C0208000C020A000C020C000C020E000C0400000C0402000C0404000C0406000C0
310
408000C040A000C040C000C040E000C0600000C0602000C0604000C0606000C0608000C060A000C060C000C060E000C0800000C0802000C0804000C0806000C0808000C080A000C080C000C080E000C0A00000C0A02000C0A04000C0A06000C0A08000C0A0A000C0A0C000C0A0E000C0C00000C0C02000C0C04000C0C06000
310
C0C08000C0C0A000F0FBFF00A4A0A000808080000000FF0000FF000000FFFF00FF000000FF00FF00FFFF0000FFFFFF00FFFFFFFFFFFFFFFFFFFFFFFF00FFFFFFFFFFFFFF00FFFFFFFFFFFFFFFFFFFFFFFFFFFFFFFFFFFFFFFFFFFFFF00FFFFFFFFFFFFFF00FFFFFFFFFFFFFFFFFFFFFFFFFFFFFFFFFFFFFFFFFFFFFF00FFFF
310
FFFFFFFFFF00FFFFFFFFFFFFFFFFFFFFFFFFFFFFFFFFFFFFFFFFFFFF00FFFFFFFFFFFFFFFF00FFFFFFFFFFFFFFFFFFFFFFFFFFFFFFFFFFFFFFFFFFFF00FFFFFFFFFFFFFF00FFFFFFFFFFFFFFFFFFFFFFFFFFFFFFFFFFFFFFFFFFFFFF00FFFFFFFFFFFFFF00FFFFFFFFFFFFFFFFFFFFFFFFFFFFFFFFFFFFFFFFFFFF00FFFFFF
310
FFFFFFFFFF00FFFFFFFFFFFFFFFFFFFFFFFFFFFFFFFFFFFFFFFFFFFF00FFFFFFFFFFFFFF00FFFFFFFFFFFFFFFFFFFFFFFFFFFFFFFFFFFFFFFFFFFF00FFFFFFFFFFFFFFFF00FFFFFFFFFFFFFFFFFFFFFFFFFFFFFFFFFFFFFFFFFF00FFFFFFFFFFFFFFFFFF00FFFFFFFFFFFFFFFFFFFFFFFFFFFFFFFFFFFFFFFF00FFFFFFFFFF
310
FFFFFFFFFF00FFFFFFFFFFFFFFFFFFFFFFFFFFFFFFFFFFFFFF00FFFFFFFFFFFFFFFFFFFF00FFFFFFFFFFFFFFFFFFFFFFFFFFFFFFFFFFFF0000FFFFFFFFFFFFFFFFFFFFFF00FFFFFFFFFFFFFFFFFFFFFFFFFFFF00000000FFFFFFFFFFFFFFFFFFFFFFFFFF00FFFFFFFFFFFFFFFFFFFFFFFFFFFFFFFFFFFFFFFFFFFFFFFFFFFF
310
FFFFFFFF00FFFFFFFFFFFFFFFFFFFFFFFFFFFFFFFFFFFFFFFFFFFFFFFFFFFFFFFFFFFFFF00FFFFFFFFFFFFFFFFFFFFFFFFFFFFFFFFFFFFFFFFFFFFFFFFFFFFFFFFFFFFFF00FFFFFFFFFFFFFFFFFFFFFFFFFFFFFFFFFFFFFFFFFFFFFFFFFFFFFFFFFFFF00FFFFFFFFFFFFFFFFFFFFFFFFFFFFFFFFFFFFFFFFFFFFFFFFFFFFFF
310
FFFFFFFF00FFFFFFFFFFFFFFFFFFFFFFFFFFFFFFFFFFFFFFFFFFFFFFFFFFFFFFFFFFFF00FFFFFFFFFFFFFFFFFFFFFFFFFFFFFFFFFFFFFFFFFFFFFFFFFFFFFFFFFFFF00FFFFFFFFFFFFFFFFFFFFFFFFFFFFFFFFFFFFFFFFFFFFFFFFFFFFFFFFFFFF00FFFFFFFFFFFFFFFFFFFFFFFFFFFFFFFFFFFFFFFFFFFFFFFFFFFFFFFFFF
310
FF00FFFFFFFFFFFFFFFFFFFFFFFFFFFFFFFFFFFFFFFFFFFFFFFFFFFFFFFFFFFFFF00FFFFFFFFFFFFFFFFFFFFFFFFFFFFFFFFFFFFFFFFFFFFFFFFFFFFFFFFFFFF00FFFFFFFFFFFFFFFFFFFFFFFFFFFFFFFFFFFFFFFFFFFFFFFFFFFFFFFFFF0000FFFFFFFFFFFFFFFFFFFFFFFFFFFFFFFFFFFFFFFFFFFFFFFFFFFFFFFF0000FF
310
FFFFFFFFFFFFFFFFFFFFFFFFFFFFFFFFFFFFFFFFFFFFFFFFFF00000000FFFFFFFFFFFFFFFFFFFFFFFFFFFFFFFFFFFFFFFFFFFFFFFFFFFF0000FFFFFFFFFFFFFFFFFFFFFFFFFFFFFFFFFFFFFFFFFFFFFFFFFFFFFFFFFFFFFFFFFFFFFFFFFFFFFFFFFFFFFFFFFFFFFFFFFFFFFFFFFFFFFFFFFFFFFFFFFFFFFFFFFFFFFFFFFFFF
310
FFFFFFFFFFFFFFFFFFFFFFFFFFFFFFFFFFFFFFFFFFFFFFFFFFFFFFFFFFFFFFFFFFFFFFFFFFFFFFFFFFFFFFFFFFFFFFFFFFFFFFFFFFFFFFFF
102
{BLKREFS
331
429
102
}
  0
BLOCK_RECORD
  5
407
330
1
100
AcDbSymbolTableRecord
100
AcDbBlockTableRecord
  2
AI9-BLK5
340
0
310
2800000020000000200000000100080000000000000400000000000000000000000000000000000000000000000080000080000000808000800000008000800080800000C0C0C000C0DCC000F0CAA6000020400000206000002080000020A0000020C0000020E00000400000004020000040400000406000004080000040A0
310
000040C0000040E00000600000006020000060400000606000006080000060A0000060C0000060E00000800000008020000080400000806000008080000080A0000080C0000080E00000A0000000A0200000A0400000A0600000A0800000A0A00000A0C00000A0E00000C0000000C0200000C0400000C0600000C0800000C0
310
A00000C0C00000C0E00000E0000000E0200000E0400000E0600000E0800000E0A00000E0C00000E0E00040000000400020004000400040006000400080004000A0004000C0004000E00040200000402020004020400040206000402080004020A0004020C0004020E000404000004040200040404000404060004040800040
310
40A0004040C0004040E00040600000406020004060400040606000406080004060A0004060C0004060E00040800000408020004080400040806000408080004080A0004080C0004080E00040A0000040A0200040A0400040A0600040A0800040A0A00040A0C00040A0E00040C0000040C0200040C0400040C0600040C08000
310
40C0A00040C0C00040C0E00040E0000040E0200040E0400040E0600040E0800040E0A00040E0C00040E0E00080000000800020008000400080006000800080008000A0008000C0008000E00080200000802020008020400080206000802080008020A0008020C0008020E00080400000804020008040400080406000804080
310
008040A0008040C0008040E00080600000806020008060400080606000806080008060A0008060C0008060E00080800000808020008080400080806000808080008080A0008080C0008080E00080A0000080A0200080A0400080A0600080A0800080A0A00080A0C00080A0E00080C0000080C0200080C0400080C0600080C0
310
800080C0A00080C0C00080C0E00080E0000080E0200080E0400080E0600080E0800080E0A00080E0C00080E0E000C0000000C0002000C0004000C0006000C0008000C000A000C000C000C000E000C0200000C0202000C0204000C0206000C0208000C020A000C020C000C020E000C0400000C0402000C0404000C0406000C0
310
408000C040A000C040C000C040E000C0600000C0602000C0604000C0606000C0608000C060A000C060C000C060E000C0800000C0802000C0804000C0806000C0808000C080A000C080C000C080E000C0A00000C0A02000C0A04000C0A06000C0A08000C0A0A000C0A0C000C0A0E000C0C00000C0C02000C0C04000C0C06000
310
C0C08000C0C0A000F0FBFF00A4A0A000808080000000FF0000FF000000FFFF00FF000000FF00FF00FFFF0000FFFFFF00FFFFFFFFFFFFFFFFFFFFFFFFFFFFFFFFFFFFFFFFFFFFFFFFFFFFFFFFFFFFFFFFFFFFFFFFFFFFFFFF000000000000000000000000000000000000000000000000FFFFFFFFFFFFFFFF00FFFFFFFFFFFF
310
FFFFFFFFFFFFFFFFFFFFFFFFFFFFFFFFFFFFFFFFFFFFFFFFFF00FFFFFFFFFFFFFFFFFFFFFFFFFFFFFFFFFFFFFFFFFFFFFFFFFFFFFFFFFFFFFF00FFFFFFFFFFFFFFFFFFFFFFFFFFFFFFFFFFFFFFFFFFFFFFFFFFFFFFFFFFFFFF00FFFFFFFFFFFFFFFFFFFFFFFFFFFFFFFFFFFFFFFFFFFFFFFFFFFFFFFFFFFFFF00FFFFFFFFFF
310
FFFFFFFFFFFFFFFFFFFFFFFFFFFFFFFFFFFFFFFFFFFFFFFFFFFF00FFFFFFFFFFFFFFFFFFFFFFFFFFFFFFFFFFFFFFFFFFFFFFFFFFFFFFFFFFFFFF00FFFFFFFFFFFFFFFFFFFFFFFFFFFFFFFFFFFFFFFFFFFFFFFFFFFFFFFFFFFFFF00FFFFFFFFFFFFFFFFFFFFFFFFFFFFFFFFFFFFFFFFFFFFFFFFFFFFFFFFFFFFFF00FFFFFFFF
310
FFFFFFFFFFFFFFFFFFFFFFFFFFFFFFFFFFFFFFFFFFFFFFFFFFFFFF00FFFFFFFFFFFFFFFFFFFFFFFFFFFFFFFFFFFFFFFFFFFFFFFFFFFFFFFFFFFFFF00FFFFFFFFFFFFFFFFFFFFFFFFFFFFFFFFFFFFFFFFFFFFFFFFFFFFFFFFFFFFFF00FFFFFFFFFFFFFFFFFFFFFFFFFFFFFFFFFFFFFFFFFFFFFFFFFFFFFFFFFFFFFF00FFFFFF
310
FFFFFFFFFFFFFFFFFFFFFFFFFFFFFFFFFFFFFFFFFFFFFFFFFFFFFFFF00FFFFFFFFFFFFFFFFFFFFFFFFFFFFFFFFFFFFFFFFFFFFFFFFFFFFFFFFFFFFFF00FFFFFFFFFFFFFFFFFFFFFFFFFFFFFFFFFFFFFFFFFFFFFFFFFFFFFFFFFFFFFF00FFFFFFFFFFFFFFFFFFFFFFFFFFFFFFFFFFFFFFFFFFFFFFFFFFFFFFFFFFFFFF00FFFF
310
FFFFFFFFFFFFFFFFFFFFFFFFFFFFFFFFFFFFFFFFFFFFFFFFFFFFFFFFFF00FFFFFFFFFFFFFFFFFFFFFFFFFFFFFFFFFFFFFFFFFFFFFFFFFFFFFFFFFFFFFF00FFFFFFFFFFFFFFFFFFFFFFFFFFFFFFFFFFFFFFFFFFFFFFFFFFFFFFFFFFFFFF00FFFFFFFFFFFFFFFFFFFFFFFFFFFFFFFFFFFFFFFFFFFFFFFFFFFFFFFFFFFFFF00FF
310
FFFFFFFFFFFFFFFFFFFFFFFFFFFFFFFFFFFFFFFFFFFFFFFFFFFFFFFFFFFF00FFFFFFFFFFFFFFFFFFFFFFFFFFFFFFFFFFFFFFFFFFFFFFFFFFFFFFFFFFFFFF00FFFFFFFFFFFFFFFFFFFFFFFFFFFFFFFFFFFFFFFFFFFFFFFFFFFFFFFFFFFFFF00FFFFFFFFFFFFFFFFFFFFFFFFFFFFFFFFFFFFFFFFFFFFFFFFFFFFFFFFFFFFFF00
310
FFFFFFFFFFFFFFFFFFFFFFFFFFFFFFFFFFFFFFFFFFFFFFFFFFFFFFFFFFFFFF00FFFFFFFFFFFFFFFFFFFFFFFFFFFFFFFFFFFFFFFFFFFFFFFFFFFFFFFFFFFFFF00FFFFFFFFFFFFFFFFFFFFFFFFFFFFFFFFFFFFFFFFFFFFFFFFFFFFFFFFFFFFFF00FFFFFFFFFFFFFFFFFFFFFFFFFFFFFFFFFFFFFFFFFFFFFFFFFFFFFFFFFFFFFF
310
00FFFFFFFFFFFFFFFFFFFFFFFFFFFF000000000000000000FFFFFFFFFFFFFFFF00FFFFFFFFFFFFFFFFFFFFFFFFFFFF00FFFFFFFFFFFFFFFF
102
{BLKREFS
331
42A
102
}
  0
BLOCK_RECORD
  5
40C
330
1
100
AcDbSymbolTableRecord
100
AcDbBlockTableRecord
  2
AI9-BLK4
340
0
310
2800000020000000200000000100080000000000000400000000000000000000000000000000000000000000000080000080000000808000800000008000800080800000C0C0C000C0DCC000F0CAA6000020400000206000002080000020A0000020C0000020E00000400000004020000040400000406000004080000040A0
310
000040C0000040E00000600000006020000060400000606000006080000060A0000060C0000060E00000800000008020000080400000806000008080000080A0000080C0000080E00000A0000000A0200000A0400000A0600000A0800000A0A00000A0C00000A0E00000C0000000C0200000C0400000C0600000C0800000C0
310
A00000C0C00000C0E00000E0000000E0200000E0400000E0600000E0800000E0A00000E0C00000E0E00040000000400020004000400040006000400080004000A0004000C0004000E00040200000402020004020400040206000402080004020A0004020C0004020E000404000004040200040404000404060004040800040
310
40A0004040C0004040E00040600000406020004060400040606000406080004060A0004060C0004060E00040800000408020004080400040806000408080004080A0004080C0004080E00040A0000040A0200040A0400040A0600040A0800040A0A00040A0C00040A0E00040C0000040C0200040C0400040C0600040C08000
310
40C0A00040C0C00040C0E00040E0000040E0200040E0400040E0600040E0800040E0A00040E0C00040E0E00080000000800020008000400080006000800080008000A0008000C0008000E00080200000802020008020400080206000802080008020A0008020C0008020E00080400000804020008040400080406000804080
310
008040A0008040C0008040E00080600000806020008060400080606000806080008060A0008060C0008060E00080800000808020008080400080806000808080008080A0008080C0008080E00080A0000080A0200080A0400080A0600080A0800080A0A00080A0C00080A0E00080C0000080C0200080C0400080C0600080C0
310
800080C0A00080C0C00080C0E00080E0000080E0200080E0400080E0600080E0800080E0A00080E0C00080E0E000C0000000C0002000C0004000C0006000C0008000C000A000C000C000C000E000C0200000C0202000C0204000C0206000C0208000C020A000C020C000C020E000C0400000C0402000C0404000C0406000C0
310
408000C040A000C040C000C040E000C0600000C0602000C0604000C0606000C0608000C060A000C060C000C060E000C0800000C0802000C0804000C0806000C0808000C080A000C080C000C080E000C0A00000C0A02000C0A04000C0A06000C0A08000C0A0A000C0A0C000C0A0E000C0C00000C0C02000C0C04000C0C06000
310
C0C08000C0C0A000F0FBFF00A4A0A000808080000000FF0000FF000000FFFF00FF000000FF00FF00FFFF0000FFFFFF00FFFFFFFFFFFFFFFFFFFFFFFFFFFFFFFFFFFFFFFFFFFFFFFFFFFFFFFFFFFFFFFFFFFFFFFFFFFFFFFFFFFFFFFFFFFF00000000FFFFFFFFFFFFFFFFFFFFFF000000FFFFFFFFFFFFFFFFFFFFFFFFFFFF00
310
FFFF00FFFFFFFFFFFFFFFFFFFFFF00FFFFFFFFFFFFFFFFFFFFFFFFFFFFFFFF00FFFF00FFFFFFFFFFFFFFFFFFFFFF00FFFFFFFFFFFFFFFFFFFFFFFFFFFFFFFF00FFFF00FFFFFFFFFFFFFFFFFFFFFF00FFFFFFFFFFFFFFFFFFFFFFFFFFFFFFFF00FFFF00FFFFFFFFFFFFFFFFFFFFFF00FFFFFFFFFFFFFFFFFFFFFFFFFFFFFFFF
310
00FFFF00FFFFFFFFFFFFFFFFFFFFFF00FFFFFFFFFFFFFFFFFFFFFFFFFFFFFFFF00FFFF00FFFFFFFFFFFFFFFFFFFFFF00FFFFFFFFFFFFFFFFFFFFFFFFFFFFFFFF00FFFF00FFFFFFFFFFFFFFFFFFFFFF00FFFFFFFFFFFFFFFFFFFFFFFFFFFFFFFF00FFFF00FFFFFFFFFFFFFFFFFFFFFF00FFFFFFFFFFFFFFFFFFFFFFFFFFFFFF
310
FF00FFFF00FFFFFFFFFFFFFFFFFFFFFF00FFFFFFFFFFFFFFFFFFFFFFFFFFFFFFFF00FFFF00FFFFFFFFFFFFFFFFFFFFFF00FFFFFFFFFFFFFFFFFFFFFFFFFFFFFFFF00FFFF00FFFFFFFFFFFFFFFFFFFFFF00FFFFFFFFFFFFFFFFFFFFFFFFFFFFFFFF00FFFF00FFFFFFFFFFFFFFFFFFFFFF00FFFFFFFFFFFFFFFFFFFFFFFFFFFF
310
FFFF00FFFF00FFFFFFFFFFFFFFFFFFFFFF00FFFFFFFFFFFFFFFFFFFFFFFFFFFFFFFF00FFFF00FFFFFFFFFFFFFFFFFFFFFF00FFFFFFFFFFFFFFFFFFFFFFFFFFFFFFFF00FFFF00FFFFFFFFFFFFFFFFFFFFFF00FFFFFFFFFFFFFFFFFFFFFFFFFFFFFFFF00FFFF00FFFFFFFFFFFFFFFFFFFF00FFFFFFFFFFFFFFFFFFFFFFFFFFFF
310
FFFFFF00FFFF00FFFFFFFFFFFFFFFFFFFF00FFFFFFFFFFFFFFFFFFFFFFFFFFFFFFFFFF00FFFF00FFFFFFFFFFFFFFFFFFFF00FFFFFFFFFFFFFFFFFFFFFFFFFFFFFFFFFF00FFFF00FFFFFFFFFFFFFFFFFFFF00FFFFFFFFFFFFFFFFFFFFFFFFFFFFFFFFFF00FFFF00FFFFFFFFFFFFFFFFFFFF00FFFFFFFFFFFFFFFFFFFFFFFFFF
310
FFFFFFFF00FFFF00FFFFFFFFFFFFFFFFFF0000FFFF00FFFFFFFFFFFFFFFFFFFFFFFFFFFF00FFFF00FFFFFFFFFFFFFFFF0000FFFFFF00FFFFFFFFFFFFFFFFFFFFFFFFFFFF00FFFF00000000000000000000FFFFFFFF00FFFFFFFFFFFFFFFFFFFFFFFFFFFF00FFFFFFFFFFFFFFFFFFFFFFFFFFFFFF00FFFFFFFFFFFFFFFFFFFF
310
FFFFFFFFFF00FFFFFFFFFFFFFFFFFFFFFFFFFFFF00FFFFFFFFFFFFFFFFFFFFFFFFFFFFFFFF00FFFFFFFFFFFFFFFFFFFFFFFFFFFF00FFFFFFFFFFFFFFFFFFFFFFFFFFFFFFFF00FFFFFFFFFFFFFFFFFFFFFFFFFFFFFF00FFFFFFFFFFFFFFFFFFFFFFFFFFFFFF00FFFFFFFFFFFFFFFFFFFFFFFFFFFFFF00FFFFFFFFFFFFFFFFFF
310
FFFFFFFFFFFF00FFFF00000000000000000000FFFFFFFF00FFFFFFFFFFFFFFFFFFFFFFFFFFFF00FFFF00FFFFFFFFFFFFFFFFFF0000FFFF00
102
{BLKREFS
331
42B
102
}
  0
BLOCK_RECORD
  5
411
330
1
100
AcDbSymbolTableRecord
100
AcDbBlockTableRecord
  2
AI9-BLK3
340
0
310
2800000020000000200000000100080000000000000400000000000000000000000000000000000000000000000080000080000000808000800000008000800080800000C0C0C000C0DCC000F0CAA6000020400000206000002080000020A0000020C0000020E00000400000004020000040400000406000004080000040A0
310
000040C0000040E00000600000006020000060400000606000006080000060A0000060C0000060E00000800000008020000080400000806000008080000080A0000080C0000080E00000A0000000A0200000A0400000A0600000A0800000A0A00000A0C00000A0E00000C0000000C0200000C0400000C0600000C0800000C0
310
A00000C0C00000C0E00000E0000000E0200000E0400000E0600000E0800000E0A00000E0C00000E0E00040000000400020004000400040006000400080004000A0004000C0004000E00040200000402020004020400040206000402080004020A0004020C0004020E000404000004040200040404000404060004040800040
310
40A0004040C0004040E00040600000406020004060400040606000406080004060A0004060C0004060E00040800000408020004080400040806000408080004080A0004080C0004080E00040A0000040A0200040A0400040A0600040A0800040A0A00040A0C00040A0E00040C0000040C0200040C0400040C0600040C08000
310
40C0A00040C0C00040C0E00040E0000040E0200040E0400040E0600040E0800040E0A00040E0C00040E0E00080000000800020008000400080006000800080008000A0008000C0008000E00080200000802020008020400080206000802080008020A0008020C0008020E00080400000804020008040400080406000804080
310
008040A0008040C0008040E00080600000806020008060400080606000806080008060A0008060C0008060E00080800000808020008080400080806000808080008080A0008080C0008080E00080A0000080A0200080A0400080A0600080A0800080A0A00080A0C00080A0E00080C0000080C0200080C0400080C0600080C0
310
800080C0A00080C0C00080C0E00080E0000080E0200080E0400080E0600080E0800080E0A00080E0C00080E0E000C0000000C0002000C0004000C0006000C0008000C000A000C000C000C000E000C0200000C0202000C0204000C0206000C0208000C020A000C020C000C020E000C0400000C0402000C0404000C0406000C0
310
408000C040A000C040C000C040E000C0600000C0602000C0604000C0606000C0608000C060A000C060C000C060E000C0800000C0802000C0804000C0806000C0808000C080A000C080C000C080E000C0A00000C0A02000C0A04000C0A06000C0A08000C0A0A000C0A0C000C0A0E000C0C00000C0C02000C0C04000C0C06000
310
C0C08000C0C0A000F0FBFF00A4A0A000808080000000FF0000FF000000FFFF00FF000000FF00FF00FFFF0000FFFFFF00FFFFFFFFFFFFFFFFFFFFFFFFFFFFFFFFFFFFFFFFFFFFFFFFFFFFFFFFFFFFFFFFFFFFFFFFFFFFFFFFFFFFFFFFFFFFFF0000FFFFFFFFFFFFFFFFFFFFFFFFFFFFFFFFFFFFFFFFFFFFFFFFFFFFFFFFFFFF
310
0000FFFFFFFFFFFFFFFFFFFFFFFFFFFFFFFFFFFFFFFFFFFFFFFFFFFFFFFFFFFF0000FFFFFFFFFFFFFFFFFFFFFFFFFFFFFFFFFFFFFFFFFFFFFFFFFFFFFFFFFFFF0000FFFFFFFFFFFFFFFFFFFFFFFFFFFFFFFFFFFFFFFFFFFFFFFFFFFFFFFFFFFF0000FFFFFFFFFFFFFFFFFFFFFFFFFFFFFFFFFFFFFFFFFFFFFFFFFFFFFFFFFF
310
FF0000FFFFFFFFFFFFFFFFFFFFFFFFFFFFFFFFFFFFFFFFFFFFFFFFFFFFFFFFFFFF0000FFFFFFFFFFFFFFFFFFFFFFFFFFFFFFFFFFFFFFFFFFFFFFFFFFFFFFFFFFFF0000FFFFFFFFFFFFFFFFFFFFFFFFFFFFFFFFFFFFFFFFFFFFFFFFFFFFFFFFFFFF0000FFFFFFFFFFFFFFFFFFFFFFFFFFFFFFFFFFFFFFFFFFFFFFFFFFFFFFFF
310
FFFF0000FFFFFFFFFFFFFFFFFFFFFFFFFFFFFFFFFFFFFFFFFFFFFFFFFFFFFFFFFFFF0000FFFFFFFFFFFFFFFFFFFFFFFFFFFFFFFFFFFFFFFFFFFFFFFFFFFFFFFFFFFF0000FFFFFFFFFFFFFFFFFFFFFFFFFFFFFFFFFFFFFFFFFFFFFFFFFFFFFFFFFFFF0000FFFFFFFFFFFFFFFFFFFFFFFFFFFFFFFFFFFFFFFFFFFFFFFFFFFFFF
310
FFFFFF0000FFFFFFFFFFFFFFFFFFFFFFFFFFFFFFFFFFFFFFFFFFFFFFFFFFFFFFFFFFFF0000FFFFFFFFFFFFFFFFFFFFFFFFFFFFFFFFFFFFFFFFFFFFFFFFFFFFFFFFFFFF0000FFFFFFFFFFFFFFFFFFFFFFFFFFFFFFFFFFFFFFFFFFFFFFFFFFFFFFFFFFFF0000FFFFFFFFFFFFFFFFFFFFFFFFFFFFFFFFFFFFFFFFFFFFFFFFFFFF
310
FFFFFFFF0000FFFFFFFFFFFFFFFFFFFFFFFFFFFFFFFFFFFFFFFFFFFFFFFFFFFFFFFFFFFF0000FFFFFFFFFFFFFFFFFFFFFFFFFFFFFFFFFFFFFFFFFFFFFFFFFFFFFFFFFFFF0000FFFFFFFFFFFFFFFFFFFFFFFFFFFFFFFFFFFFFFFFFFFFFFFFFFFFFFFFFFFF0000FFFFFFFFFFFFFFFFFFFFFFFFFFFFFFFFFFFFFFFFFFFFFFFFFF
310
FFFFFFFFFF0000FFFFFFFFFFFFFFFFFFFFFFFFFFFFFFFFFFFFFFFFFFFFFFFFFFFFFFFFFFFF0000FFFFFFFFFFFFFFFFFFFFFFFFFFFFFFFFFFFFFFFFFFFFFFFFFFFFFFFFFFFF0000FFFFFFFFFFFFFFFFFFFFFFFFFFFFFFFFFFFFFFFFFFFFFFFFFFFFFFFFFFFF0000FFFFFFFFFFFFFFFFFFFFFFFFFFFFFFFFFFFFFFFFFFFFFFFF
310
FFFFFFFFFFFF0000FFFFFFFFFFFFFFFFFFFFFFFFFFFFFFFFFFFFFFFFFFFFFFFFFFFFFFFFFFFF0000FFFFFFFFFFFFFFFFFFFFFFFFFFFFFFFFFFFFFFFFFFFFFFFFFFFFFFFFFFFF0000FFFFFFFFFFFFFFFFFFFFFFFFFFFFFFFFFFFFFFFFFFFFFFFFFFFFFFFFFFFF0000FFFFFFFFFFFFFFFFFFFFFFFFFFFFFFFFFFFFFFFFFFFFFF
310
FFFFFFFFFFFFFF0000FFFFFFFFFFFFFFFFFFFFFFFFFFFFFFFFFFFFFFFFFFFFFFFFFFFFFFFFFFFFFFFFFFFFFFFFFFFFFFFFFFFFFFFFFFFFFF
102
{BLKREFS
331
42C
102
}
  0
BLOCK_RECORD
  5
416
330
1
100
AcDbSymbolTableRecord
100
AcDbBlockTableRecord
  2
AI9-BLK2
340
0
310
2800000020000000200000000100080000000000000400000000000000000000000000000000000000000000000080000080000000808000800000008000800080800000C0C0C000C0DCC000F0CAA6000020400000206000002080000020A0000020C0000020E00000400000004020000040400000406000004080000040A0
310
000040C0000040E00000600000006020000060400000606000006080000060A0000060C0000060E00000800000008020000080400000806000008080000080A0000080C0000080E00000A0000000A0200000A0400000A0600000A0800000A0A00000A0C00000A0E00000C0000000C0200000C0400000C0600000C0800000C0
310
A00000C0C00000C0E00000E0000000E0200000E0400000E0600000E0800000E0A00000E0C00000E0E00040000000400020004000400040006000400080004000A0004000C0004000E00040200000402020004020400040206000402080004020A0004020C0004020E000404000004040200040404000404060004040800040
310
40A0004040C0004040E00040600000406020004060400040606000406080004060A0004060C0004060E00040800000408020004080400040806000408080004080A0004080C0004080E00040A0000040A0200040A0400040A0600040A0800040A0A00040A0C00040A0E00040C0000040C0200040C0400040C0600040C08000
310
40C0A00040C0C00040C0E00040E0000040E0200040E0400040E0600040E0800040E0A00040E0C00040E0E00080000000800020008000400080006000800080008000A0008000C0008000E00080200000802020008020400080206000802080008020A0008020C0008020E00080400000804020008040400080406000804080
310
008040A0008040C0008040E00080600000806020008060400080606000806080008060A0008060C0008060E00080800000808020008080400080806000808080008080A0008080C0008080E00080A0000080A0200080A0400080A0600080A0800080A0A00080A0C00080A0E00080C0000080C0200080C0400080C0600080C0
310
800080C0A00080C0C00080C0E00080E0000080E0200080E0400080E0600080E0800080E0A00080E0C00080E0E000C0000000C0002000C0004000C0006000C0008000C000A000C000C000C000E000C0200000C0202000C0204000C0206000C0208000C020A000C020C000C020E000C0400000C0402000C0404000C0406000C0
310
408000C040A000C040C000C040E000C0600000C0602000C0604000C0606000C0608000C060A000C060C000C060E000C0800000C0802000C0804000C0806000C0808000C080A000C080C000C080E000C0A00000C0A02000C0A04000C0A06000C0A08000C0A0A000C0A0C000C0A0E000C0C00000C0C02000C0C04000C0C06000
310
C0C08000C0C0A000F0FBFF00A4A0A000808080000000FF0000FF000000FFFF00FF000000FF00FF00FFFF0000FFFFFF00FFFFFFFFFFFFFFFFFFFFFFFFFFFFFFFFFFFFFFFFFFFFFFFFFFFFFFFFFFFFFFFFFFFFFFFFFFFFFFFFFFFFFFFFFFFFFF0000FFFFFFFFFFFFFFFFFFFFFFFFFFFFFFFFFFFFFFFFFFFFFFFFFFFFFFFFFFFF
310
0000FFFFFFFFFFFFFFFFFFFFFFFFFFFFFFFFFFFFFFFFFFFFFFFFFFFFFFFFFFFF0000FFFFFFFFFFFFFFFFFFFFFFFFFFFFFFFFFFFFFFFFFFFFFFFFFFFFFFFFFF00FFFF00FFFFFFFFFFFFFFFFFFFFFFFFFFFFFFFFFFFFFFFFFFFFFFFFFFFFFFFF00FFFF00FFFFFFFFFFFFFFFFFFFFFFFFFFFFFFFFFFFFFFFFFFFFFFFFFFFFFFFF
310
00FF0000FFFFFFFFFFFFFFFFFFFFFFFFFFFFFFFFFFFFFFFFFFFFFFFFFFFFFFFF00FF0000FFFFFFFFFFFFFFFFFFFFFFFFFFFFFFFFFFFFFFFFFFFFFFFFFFFFFFFF00FF0000FFFFFFFFFFFFFFFFFFFFFFFFFFFFFFFFFFFFFFFFFFFFFFFFFFFFFFFF00000000FFFFFFFFFFFFFFFFFFFFFFFFFFFFFFFFFFFFFFFFFFFFFFFFFFFFFF
310
00FF00FF0000FFFFFFFFFFFFFFFFFFFFFFFFFFFFFFFFFFFFFFFFFFFFFFFFFFFF00FF00FF0000FFFFFFFFFFFFFFFFFFFFFFFFFFFFFFFFFFFFFFFFFFFFFFFFFFFF00FF00FF0000FFFFFFFFFFFFFFFFFFFFFFFFFFFFFFFFFFFFFFFFFFFFFFFFFFFF00FF00FF0000FFFFFFFFFFFFFFFFFFFFFFFFFFFFFFFFFFFFFFFFFFFFFFFFFF
310
FF00FF00FF0000FFFFFFFFFFFFFFFFFFFFFFFFFFFFFFFFFFFFFFFFFFFFFFFFFFFF0000FFFF0000FFFFFFFFFFFFFFFFFFFFFFFFFFFFFFFFFFFFFFFFFFFFFFFFFF00FF00FFFF00FF00FFFFFFFFFFFFFFFFFFFFFFFFFFFFFFFFFFFFFFFFFFFFFFFF00FF00FFFF00FF00FFFFFFFFFFFFFFFFFFFFFFFFFFFFFFFFFFFFFFFFFFFFFF
310
FF00FF00FFFFFF0000FFFFFFFFFFFFFFFFFFFFFFFFFFFFFFFFFFFFFFFFFFFFFFFF00FF00FFFFFF0000FFFFFFFFFFFFFFFFFFFFFFFFFFFFFFFFFFFFFFFFFFFFFFFF00FF00FFFFFF0000FFFFFFFFFFFFFFFFFFFFFFFFFFFFFFFFFFFFFFFFFFFFFFFF0000FFFFFFFF0000FFFFFFFFFFFFFFFFFFFFFFFFFFFFFFFFFFFFFFFFFFFF
310
FF00FF00FFFFFFFF00FF00FFFFFFFFFFFFFFFFFFFFFFFFFFFFFFFFFFFFFFFFFFFF00FF00FFFFFFFF00FF00FFFFFFFFFFFFFFFFFFFFFFFFFFFFFFFFFFFFFFFFFFFF00FF00FFFFFFFF00FF00FFFFFFFFFFFFFFFFFFFFFFFFFFFFFFFFFFFFFFFFFFFF00FF00FFFFFFFF00FF00FFFFFFFFFFFFFFFFFFFFFFFFFFFFFFFFFFFFFFFF
310
FFFF00FF00FFFFFFFFFF0000FFFFFFFFFFFFFFFFFFFFFFFFFFFFFFFFFFFFFFFFFFFF0000FFFFFFFFFFFF0000FFFFFFFFFFFFFFFFFFFFFFFFFFFFFFFFFFFFFFFFFF00FF00FFFFFFFFFFFF00FF00FFFFFFFFFFFFFFFFFFFFFFFFFFFFFFFFFFFFFFFF00FF00FFFFFFFFFFFF00FF00FFFFFFFFFFFFFFFFFFFFFFFFFFFFFFFFFFFF
310
FFFF000000FFFFFFFFFFFF000000FFFFFFFFFFFFFFFFFFFFFFFFFFFFFFFFFFFFFFFFFFFFFFFFFFFFFFFFFFFFFFFFFFFFFFFFFFFFFFFFFFFF
102
{BLKREFS
331
42D
102
}
  0
BLOCK_RECORD
  5
41B
330
1
100
AcDbSymbolTableRecord
100
AcDbBlockTableRecord
  2
AI9-BLK1
340
0
310
2800000020000000200000000100080000000000000400000000000000000000000000000000000000000000000080000080000000808000800000008000800080800000C0C0C000C0DCC000F0CAA6000020400000206000002080000020A0000020C0000020E00000400000004020000040400000406000004080000040A0
310
000040C0000040E00000600000006020000060400000606000006080000060A0000060C0000060E00000800000008020000080400000806000008080000080A0000080C0000080E00000A0000000A0200000A0400000A0600000A0800000A0A00000A0C00000A0E00000C0000000C0200000C0400000C0600000C0800000C0
310
A00000C0C00000C0E00000E0000000E0200000E0400000E0600000E0800000E0A00000E0C00000E0E00040000000400020004000400040006000400080004000A0004000C0004000E00040200000402020004020400040206000402080004020A0004020C0004020E000404000004040200040404000404060004040800040
310
40A0004040C0004040E00040600000406020004060400040606000406080004060A0004060C0004060E00040800000408020004080400040806000408080004080A0004080C0004080E00040A0000040A0200040A0400040A0600040A0800040A0A00040A0C00040A0E00040C0000040C0200040C0400040C0600040C08000
310
40C0A00040C0C00040C0E00040E0000040E0200040E0400040E0600040E0800040E0A00040E0C00040E0E00080000000800020008000400080006000800080008000A0008000C0008000E00080200000802020008020400080206000802080008020A0008020C0008020E00080400000804020008040400080406000804080
310
008040A0008040C0008040E00080600000806020008060400080606000806080008060A0008060C0008060E00080800000808020008080400080806000808080008080A0008080C0008080E00080A0000080A0200080A0400080A0600080A0800080A0A00080A0C00080A0E00080C0000080C0200080C0400080C0600080C0
310
800080C0A00080C0C00080C0E00080E0000080E0200080E0400080E0600080E0800080E0A00080E0C00080E0E000C0000000C0002000C0004000C0006000C0008000C000A000C000C000C000E000C0200000C0202000C0204000C0206000C0208000C020A000C020C000C020E000C0400000C0402000C0404000C0406000C0
310
408000C040A000C040C000C040E000C0600000C0602000C0604000C0606000C0608000C060A000C060C000C060E000C0800000C0802000C0804000C0806000C0808000C080A000C080C000C080E000C0A00000C0A02000C0A04000C0A06000C0A08000C0A0A000C0A0C000C0A0E000C0C00000C0C02000C0C04000C0C06000
310
C0C08000C0C0A000F0FBFF00A4A0A000808080000000FF0000FF000000FFFF00FF000000FF00FF00FFFF0000FFFFFF00FFFFFFFFFFFFFFFFFFFFFFFFFFFFFFFFFFFFFFFFFFFFFFFFFFFFFFFFFFFFFFFFFFFFFFFFFFFFFFFFFFFFFF00000000000000000000FFFFFFFFFFFFFFFFFFFFFFFFFFFFFFFFFFFFFFFFFFFF00FFFFFF
310
FFFFFFFFFF00FFFFFFFFFFFFFFFFFFFFFFFFFFFFFFFFFFFFFFFFFFFF00FFFFFFFFFFFFFFFF00FFFFFFFFFFFFFFFFFFFFFFFFFFFFFFFFFFFFFFFFFFFF00FFFFFFFFFFFFFFFF00FFFFFFFFFFFFFFFFFFFFFFFFFFFFFFFFFFFFFFFFFFFF00FF0000000000000000FFFFFFFFFFFFFFFFFFFFFFFFFFFFFFFFFFFFFFFFFFFF00FF00
310
FFFFFFFFFFFFFFFFFFFFFFFFFFFFFFFFFFFFFFFFFFFFFFFFFFFFFFFFFF00FF00FFFFFFFFFFFFFFFFFFFFFFFFFFFFFFFFFFFFFFFFFFFFFFFFFFFFFFFFFF00FF00FFFFFFFFFFFFFFFFFFFFFFFFFFFFFFFFFFFFFFFFFFFFFFFFFFFFFFFFFF00FF00FFFFFFFFFFFFFFFFFFFFFFFFFFFFFFFFFFFFFFFFFFFFFFFFFFFFFFFFFF00FF
310
00FFFFFFFFFFFFFFFFFFFFFFFFFFFFFFFFFFFFFFFFFFFFFFFFFFFFFFFFFF00FF00FFFFFFFFFFFFFFFFFFFFFFFFFFFFFFFFFFFFFFFFFFFFFFFFFFFFFFFFFF00FF00FFFFFFFFFFFFFFFFFFFFFFFFFFFFFFFFFFFFFFFFFFFFFFFFFFFFFFFFFF00FF00FFFFFFFFFFFFFFFFFFFFFFFFFFFFFFFFFFFFFFFFFFFFFFFFFFFFFFFFFF00
310
FF00000000000000FFFFFFFFFFFFFFFFFFFFFFFFFFFFFFFFFFFFFFFFFFFFFF00FFFFFFFFFFFFFF00FFFFFFFFFFFFFFFFFFFFFFFFFFFFFFFFFFFFFFFFFFFFFF00FFFFFFFFFFFFFF00FFFFFFFFFFFFFFFFFFFFFFFFFFFFFFFFFFFFFFFFFFFFFF00FFFFFFFFFFFFFF00FFFFFFFFFFFFFFFFFFFFFFFFFFFFFFFFFFFFFFFFFFFFFF
310
00FF00000000000000FFFFFFFFFFFFFFFFFFFFFFFFFFFFFFFFFFFFFFFFFFFFFF00FF00FFFFFFFFFFFFFFFFFFFFFFFFFFFFFFFFFFFFFFFFFFFFFFFFFFFFFFFFFF00FF00FFFFFFFFFFFFFFFFFFFFFFFFFFFFFFFFFFFFFFFFFFFFFFFFFFFFFFFFFF00FF00FFFFFFFFFFFFFFFFFFFFFFFFFFFFFFFFFFFFFFFFFFFFFFFFFFFFFFFF
310
FF00FF00FFFFFFFFFFFFFFFFFFFFFFFFFFFFFFFFFFFFFFFFFFFFFFFFFFFFFFFFFF00FF00FFFFFFFFFFFFFFFFFFFFFFFFFFFFFFFFFFFFFFFFFFFFFFFFFFFFFFFFFF00FF00FFFFFFFFFFFFFFFFFFFFFFFFFFFFFFFFFFFFFFFFFFFFFFFFFFFFFFFFFF00FF00FFFFFFFFFFFFFFFFFFFFFFFFFFFFFFFFFFFFFFFFFFFFFFFFFFFFFF
310
FFFF00FF0000000000000000FFFFFFFFFFFFFFFFFFFFFFFFFFFFFFFFFFFFFFFFFFFF00FFFFFFFFFFFFFFFF00FFFFFFFFFFFFFFFFFFFFFFFFFFFFFFFFFFFFFFFFFFFF00FFFFFFFFFFFFFFFF00FFFFFFFFFFFFFFFFFFFFFFFFFFFFFFFFFFFFFFFFFFFF00FFFFFFFFFFFFFFFF00FFFFFFFFFFFFFFFFFFFFFFFFFFFFFFFFFFFFFF
310
FFFFFF00000000000000000000FFFFFFFFFFFFFFFFFFFFFFFFFFFFFFFFFFFFFFFFFFFFFFFFFFFFFFFFFFFFFFFFFFFFFFFFFFFFFFFFFFFFFF
102
{BLKREFS
331
42E
102
}
  0
BLOCK_RECORD
  5
420
330
1
100
AcDbSymbolTableRecord
100
AcDbBlockTableRecord
  2
HD_LLC_logo_OT5
340
0
310
2800000020000000200000000100080000000000000400000000000000000000000000000000000000000000000080000080000000808000800000008000800080800000C0C0C000C0DCC000F0CAA6000020400000206000002080000020A0000020C0000020E00000400000004020000040400000406000004080000040A0
310
000040C0000040E00000600000006020000060400000606000006080000060A0000060C0000060E00000800000008020000080400000806000008080000080A0000080C0000080E00000A0000000A0200000A0400000A0600000A0800000A0A00000A0C00000A0E00000C0000000C0200000C0400000C0600000C0800000C0
310
A00000C0C00000C0E00000E0000000E0200000E0400000E0600000E0800000E0A00000E0C00000E0E00040000000400020004000400040006000400080004000A0004000C0004000E00040200000402020004020400040206000402080004020A0004020C0004020E000404000004040200040404000404060004040800040
310
40A0004040C0004040E00040600000406020004060400040606000406080004060A0004060C0004060E00040800000408020004080400040806000408080004080A0004080C0004080E00040A0000040A0200040A0400040A0600040A0800040A0A00040A0C00040A0E00040C0000040C0200040C0400040C0600040C08000
310
40C0A00040C0C00040C0E00040E0000040E0200040E0400040E0600040E0800040E0A00040E0C00040E0E00080000000800020008000400080006000800080008000A0008000C0008000E00080200000802020008020400080206000802080008020A0008020C0008020E00080400000804020008040400080406000804080
310
008040A0008040C0008040E00080600000806020008060400080606000806080008060A0008060C0008060E00080800000808020008080400080806000808080008080A0008080C0008080E00080A0000080A0200080A0400080A0600080A0800080A0A00080A0C00080A0E00080C0000080C0200080C0400080C0600080C0
310
800080C0A00080C0C00080C0E00080E0000080E0200080E0400080E0600080E0800080E0A00080E0C00080E0E000C0000000C0002000C0004000C0006000C0008000C000A000C000C000C000E000C0200000C0202000C0204000C0206000C0208000C020A000C020C000C020E000C0400000C0402000C0404000C0406000C0
310
408000C040A000C040C000C040E000C0600000C0602000C0604000C0606000C0608000C060A000C060C000C060E000C0800000C0802000C0804000C0806000C0808000C080A000C080C000C080E000C0A00000C0A02000C0A04000C0A06000C0A08000C0A0A000C0A0C000C0A0E000C0C00000C0C02000C0C04000C0C06000
310
C0C08000C0C0A000F0FBFF00A4A0A000808080000000FF0000FF000000FFFF00FF000000FF00FF00FFFF0000FFFFFF00FFFFFFFFFFFFFFFFFFFFFFFFFFFFFFFFFFFFFFFFFFFFFFFFFFFFFFFFFFFFFFFFFFFFFFFFFFFFFFFFFFFFFFFFFFFFFFFFFFFFFFFFFFFFFFFFFFFFFFFFFFFFFFFFFFFFFFFFFFFFFFFFFFFFFFFFFFFFFF
310
FFFFFFFFFFFFFFFFFFFFFFFFFFFFFFFFFFFFFFFFFFFFFFFFFFFFFFFFFFFFFFFFFFFFFFFFFFFFFFFFFFFFFFFFFFFFFFFFFFFFFFFFFFFFFFFFFFFFFFFFFFFFFFFFFFFFFFFFFFFFFFFFFFFFFFFFFFFFFFFFFFFFFFFFFFFFFFFFFFFFFFFFFFFFFFFFFFFFFFFFFFFFFFFFFFFFFFFFFFFFFFFFFFFFFFFFFFFFFFFFFFFFFFFFFFFFFF
310
FFFFFFFFFFFFFFFFFFFFFFFFFFFFFFFFFFFFFFFFFFFFFFFFFFFFFFFFFFFFFFFFFFFFFFFFFFFFFFFFFFFFFFFFFFFFFFFFFFFFFFFFFFFFFFFFFFFFFFFFFFFFFFFFFFFFFFFFFFFFFFFFFFFFFFFFFFFFFFFFFFFFFFFFFFFFFFFFFFFFFFFFFFFFFFFFFFFFFFFFFFFFFFFFFFFFFFFFFFFFFFFFFFFFFFFFFFFFFFFFFFFFFFFFFFFFFF
310
FFFFFFFFFFFFFFFFFFFFFFFFFFFFFFFFFFFFFFFFFFFFFFFFFFFFFFFFFFFFFFFFFFFFFFFFFFFFFFFFFFFFFFFFFFFFFFFFFFFFFFFF0000000000000000000000000000000000000000000000000000000000FFFFFF0000000000000000000000000000000000FFFFFFFFFFFFFFFFFFFF0000FFFFFF0000000000000000000000
310
00000000000000FFFFFFFFFFFFFFFFFFFF0000FFFF000000000000000000000000000000000000FFFFFF00000000FFFFFF0000FFFF00FFFFFFFFFFFF00FFFFFF00FFFFFFFFFF00FFFFFF0000000000FFFF0000FFFF00FFFFFFFFFFFF00FFFFFF00FFFFFFFFFF00FFFFFF00FFFF0000FFFF0000FFFF00FFFFFFFFFFFF00FFFF
310
00FFFFFFFFFFFF00FFFFFF00FFFF0000FFFF0000FFFF0000000000FFFF00000000FFFFFF00000000FFFFFF00000000FFFFFF0000FFFFFFFFFFFF00FFFFFFFFFFFFFFFFFF00FFFFFFFFFFFFFFFFFFFFFFFFFF0000FFFFFFFFFFFF00FFFFFFFFFFFFFFFFFF00FFFFFFFFFFFFFFFFFFFFFFFFFF0000FFFFFFFFFFFF00FFFFFFFF
310
FFFFFFFFFF00FFFFFFFFFFFFFFFFFFFFFFFF0000FFFFFF0000000000FFFF00000000FFFFFF0000000000000000000000000000FFFFFFFF00FFFFFFFFFFFF00FFFF00FFFFFFFFFFFF00FFFFFFFFFFFFFFFFFFFFFFFFFFFF00FFFFFFFFFFFF00FFFFFF00FFFFFFFFFF00FFFFFFFFFFFFFFFFFFFFFFFFFFFF0000000000000000
310
FFFFFF00000000000000FFFFFFFFFFFFFFFFFFFFFFFFFFFFFFFFFFFFFFFFFFFFFFFFFFFFFFFFFFFFFFFFFFFFFFFFFFFFFFFFFFFFFFFFFFFFFFFFFFFFFFFFFFFFFFFFFFFFFFFFFFFFFFFFFFFFFFFFFFFFFFFFFFFFFFFFFFFFFFFFFFFFFFFFFFFFFFFFFFFFFFFFFFFFFFFFFFFFFFFFFFFFFFFFFFFFFFFFFFFFFFFFFFFFFFFFFF
310
FFFFFFFFFFFFFFFFFFFFFFFFFFFFFFFFFFFFFFFFFFFFFFFFFFFFFFFFFFFFFFFFFFFFFFFFFFFFFFFFFFFFFFFFFFFFFFFFFFFFFFFFFFFFFFFF
102
{BLKREFS
331
446
102
}
  0
BLOCK_RECORD
  5
445
330
1
100
AcDbSymbolTableRecord
100
AcDbBlockTableRecord
  2
HD logo-new
340
0
310
2800000020000000200000000100080000000000000400000000000000000000000000000000000000000000000080000080000000808000800000008000800080800000C0C0C000C0DCC000F0CAA6000020400000206000002080000020A0000020C0000020E00000400000004020000040400000406000004080000040A0
310
000040C0000040E00000600000006020000060400000606000006080000060A0000060C0000060E00000800000008020000080400000806000008080000080A0000080C0000080E00000A0000000A0200000A0400000A0600000A0800000A0A00000A0C00000A0E00000C0000000C0200000C0400000C0600000C0800000C0
310
A00000C0C00000C0E00000E0000000E0200000E0400000E0600000E0800000E0A00000E0C00000E0E00040000000400020004000400040006000400080004000A0004000C0004000E00040200000402020004020400040206000402080004020A0004020C0004020E000404000004040200040404000404060004040800040
310
40A0004040C0004040E00040600000406020004060400040606000406080004060A0004060C0004060E00040800000408020004080400040806000408080004080A0004080C0004080E00040A0000040A0200040A0400040A0600040A0800040A0A00040A0C00040A0E00040C0000040C0200040C0400040C0600040C08000
310
40C0A00040C0C00040C0E00040E0000040E0200040E0400040E0600040E0800040E0A00040E0C00040E0E00080000000800020008000400080006000800080008000A0008000C0008000E00080200000802020008020400080206000802080008020A0008020C0008020E00080400000804020008040400080406000804080
310
008040A0008040C0008040E00080600000806020008060400080606000806080008060A0008060C0008060E00080800000808020008080400080806000808080008080A0008080C0008080E00080A0000080A0200080A0400080A0600080A0800080A0A00080A0C00080A0E00080C0000080C0200080C0400080C0600080C0
310
800080C0A00080C0C00080C0E00080E0000080E0200080E0400080E0600080E0800080E0A00080E0C00080E0E000C0000000C0002000C0004000C0006000C0008000C000A000C000C000C000E000C0200000C0202000C0204000C0206000C0208000C020A000C020C000C020E000C0400000C0402000C0404000C0406000C0
310
408000C040A000C040C000C040E000C0600000C0602000C0604000C0606000C0608000C060A000C060C000C060E000C0800000C0802000C0804000C0806000C0808000C080A000C080C000C080E000C0A00000C0A02000C0A04000C0A06000C0A08000C0A0A000C0A0C000C0A0E000C0C00000C0C02000C0C04000C0C06000
310
C0C08000C0C0A000F0FBFF00A4A0A000808080000000FF0000FF000000FFFF00FF000000FF00FF00FFFF0000FFFFFF00FFFFFFFFFFFFFFFFFFFFFFFFFFFFFFFFFFFFFFFFFFFFFFFFFFFFFFFFFFFFFFFFFFFFFFFFFFFFFFFFFFFFFFFFFFFFFFFFFFFFFFFFFFFFFFFFFFFFFFFFFFFFFFFFFFFFFFFFFFFFFFFFFFFFFFFFFFFFFF
310
FFFFFFFFFFFFFFFFFFFFFFFFFFFFFFFFFFFFFFFFFFFFFFFFFFFFFFFFFFFFFFFFFFFFFFFFFFFFFFFFFFFFFFFFFFFFFFFFFFFFFFFFFFFFFFFFFFFFFFFFFFFFFFFFFFFFFFFFFFFFFFFFFFFFFFFFFFFFFFFFFFFFFFFFFFFFFFFFFFFFFFFFFFFFFFFFFFFFFFFFFFFFFFFFFFFFFFFFFFFFFFFFFFFFFFFFFFFFFFFFFFFFFFFFFFFFFF
310
FFFFFFFFFFFFFFFFFFFFFFFFFFFFFFFFFFFFFFFFFFFFFFFFFFFFFFFFFFFFFFFFFFFFFFFFFFFFFFFFFFFFFFFFFFFFFFFFFFFFFFFFFFFFFFFFFFFFFFFFFFFFFFFFFFFFFFFFFFFFFFFFFFFFFFFFFFFFFFFFFFFFFFFFFFFFFFFFFFFFFFFFFFFFFFFFFFFFFFFFFFFFFFFFFFFFFFFFFFFFFFFFFFFFFFFFFFFFFFFFFFFFFFFFFFFFFF
310
FFFFFFFFFFFFFFFFFFFFFFFFFFFFFFFFFFFFFFFFFFFFFFFFFFFFFFFFFFFFFFFFFFFFFFFFFFFFFFFFFFFFFFFFFFFFFFFFFFFFFFFF0000000000000000000000000000000000000000000000000000000000FFFFFF0000000000000000000000000000000000FFFFFFFFFFFFFFFFFFFF0000FFFFFF0000000000000000000000
310
00000000000000FFFFFFFFFFFFFFFFFFFF0000FFFF000000000000000000000000000000000000FFFFFF00000000FFFFFF0000FFFF00FFFFFFFFFFFF00FFFFFF00FFFFFFFFFF00FFFFFF0000000000FFFF0000FFFF00FFFFFFFFFFFF00FFFFFF00FFFFFFFFFF00FFFFFF00FFFF0000FFFF0000FFFF00FFFFFFFFFFFF00FFFF
310
00FFFFFFFFFFFF00FFFFFF00FFFF0000FFFF0000FFFF0000000000FFFF00000000FFFFFF00000000FFFFFF00000000FFFFFF0000FFFFFFFFFFFF00FFFFFFFFFFFFFFFFFF00FFFFFFFFFFFFFFFFFFFFFFFFFF0000FFFFFFFFFFFF00FFFFFFFFFFFFFFFFFF00FFFFFFFFFFFFFFFFFFFFFFFFFF0000FFFFFFFFFFFF00FFFFFFFF
310
FFFFFFFFFF00FFFFFFFFFFFFFFFFFFFFFFFF0000FFFFFF0000000000FFFF00000000FFFFFF0000000000000000000000000000FFFFFFFF00FFFFFFFFFFFF00FFFF00FFFFFFFFFFFF00FFFFFFFFFFFFFFFFFFFFFFFFFFFF00FFFFFFFFFFFF00FFFFFF00FFFFFFFFFF00FFFFFFFFFFFFFFFFFFFFFFFFFFFF0000000000000000
310
FFFFFF00000000000000FFFFFFFFFFFFFFFFFFFFFFFFFFFFFFFFFFFFFFFFFFFFFFFFFFFFFFFFFFFFFFFFFFFFFFFFFFFFFFFFFFFFFFFFFFFFFFFFFFFFFFFFFFFFFFFFFFFFFFFFFFFFFFFFFFFFFFFFFFFFFFFFFFFFFFFFFFFFFFFFFFFFFFFFFFFFFFFFFFFFFFFFFFFFFFFFFFFFFFFFFFFFFFFFFFFFFFFFFFFFFFFFFFFFFFFFFF
310
FFFFFFFFFFFFFFFFFFFFFFFFFFFFFFFFFFFFFFFFFFFFFFFFFFFFFFFFFFFFFFFFFFFFFFFFFFFFFFFFFFFFFFFFFFFFFFFFFFFFFFFFFFFFFFFF
102
{BLKREFS
331
44B
331
44F
102
}
  0
BLOCK_RECORD
  5
450
330
1
100
AcDbSymbolTableRecord
100
AcDbBlockTableRecord
  2
HD LLC
340
0
310
2800000020000000200000000100080000000000000400000000000000000000000000000000000000000000000080000080000000808000800000008000800080800000C0C0C000C0DCC000F0CAA6000020400000206000002080000020A0000020C0000020E00000400000004020000040400000406000004080000040A0
310
000040C0000040E00000600000006020000060400000606000006080000060A0000060C0000060E00000800000008020000080400000806000008080000080A0000080C0000080E00000A0000000A0200000A0400000A0600000A0800000A0A00000A0C00000A0E00000C0000000C0200000C0400000C0600000C0800000C0
310
A00000C0C00000C0E00000E0000000E0200000E0400000E0600000E0800000E0A00000E0C00000E0E00040000000400020004000400040006000400080004000A0004000C0004000E00040200000402020004020400040206000402080004020A0004020C0004020E000404000004040200040404000404060004040800040
310
40A0004040C0004040E00040600000406020004060400040606000406080004060A0004060C0004060E00040800000408020004080400040806000408080004080A0004080C0004080E00040A0000040A0200040A0400040A0600040A0800040A0A00040A0C00040A0E00040C0000040C0200040C0400040C0600040C08000
310
40C0A00040C0C00040C0E00040E0000040E0200040E0400040E0600040E0800040E0A00040E0C00040E0E00080000000800020008000400080006000800080008000A0008000C0008000E00080200000802020008020400080206000802080008020A0008020C0008020E00080400000804020008040400080406000804080
310
008040A0008040C0008040E00080600000806020008060400080606000806080008060A0008060C0008060E00080800000808020008080400080806000808080008080A0008080C0008080E00080A0000080A0200080A0400080A0600080A0800080A0A00080A0C00080A0E00080C0000080C0200080C0400080C0600080C0
310
800080C0A00080C0C00080C0E00080E0000080E0200080E0400080E0600080E0800080E0A00080E0C00080E0E000C0000000C0002000C0004000C0006000C0008000C000A000C000C000C000E000C0200000C0202000C0204000C0206000C0208000C020A000C020C000C020E000C0400000C0402000C0404000C0406000C0
310
408000C040A000C040C000C040E000C0600000C0602000C0604000C0606000C0608000C060A000C060C000C060E000C0800000C0802000C0804000C0806000C0808000C080A000C080C000C080E000C0A00000C0A02000C0A04000C0A06000C0A08000C0A0A000C0A0C000C0A0E000C0C00000C0C02000C0C04000C0C06000
310
C0C08000C0C0A000F0FBFF00A4A0A000808080000000FF0000FF000000FFFF00FF000000FF00FF00FFFF0000FFFFFF00FFFFFFFFFFFFFFFFFFFFFFFFFFFFFFFFFFFFFFFFFFFFFFFFFFFFFFFFFFFFFFFFFFFFFFFFFFFFFFFFFFFFFFFFFFFFFFFFFFFFFFFFFFFFFFFFFFFFFFFFFFFFFFFFFFFFFFFFFFFFFFFFFFFFFFFFFFFFFF
310
FFFFFFFFFFFFFFFFFFFFFFFFFFFFFFFFFFFFFFFFFFFFFFFFFFFFFFFFFFFFFFFFFFFFFFFFFFFFFFFFFFFFFFFFFFFFFFFFFFFFFFFFFFFFFFFFFFFFFFFFFFFFFFFFFFFFFFFFFFFFFFFFFFFFFFFFFFFFFFFFFFFFFFFFFFFFFFFFFFFFFFFFFFFFFFFFFFFFFFFFFFFFFFFFFFFFFFFFFFFFFFFFFFFFFFFFFFFFFFFFFFFFFFFFFFFFFF
310
FFFFFFFFFFFFFFFFFFFFFFFFFFFFFFFFFFFFFFFFFFFFFFFFFFFFFFFFFFFFFFFFFFFFFFFFFFFFFFFFFFFFFFFFFFFFFFFFFFFFFFFFFFFFFFFFFFFFFFFFFFFFFFFFFFFFFFFFFFFFFFFFFFFFFFFFFFFFFFFFFFFFFFFFFFFFFFFFFFFFFFFFFFFFFFFFFFFFFFFFFFFFFFFFFFFFFFFFFFFFFFFFFFFFFFFFFFFFFFFFFFFFFFFFFFFFFF
310
FFFFFFFFFFFFFFFFFFFFFFFFFFFFFFFFFFFFFFFFFFFFFFFFFFFFFFFFFFFFFFFFFFFFFFFFFFFFFFFFFFFFFFFFFFFFFFFFFFFFFFFFFFFFFFFFFFFFFFFFFFFFFFFFFFFFFFFFFFFFFFFFFFFFFFFFFFFFFFFFFFFFFFFFFFFFFFFFFFFFFFFFFFFFFFFFFFFFFFFFFFFFFFFFFFFFFFFFFFFFFFFFFFFFFFFFFFFFFFFFFFFFFFFFFFFF00
310
000000000000000000FFFFFFFFFFFFFFFFFFFFFFFFFFFFFFFFFFFFFFFFFFFF00000000000000000000FFFFFFFFFFFFFFFFFFFFFFFFFFFFFFFFFFFFFFFFFFFF00000000000000000000FFFFFFFFFFFFFFFFFFFFFFFFFFFFFFFFFFFFFFFFFFFF00000000000000000000FFFFFFFFFFFFFFFFFFFFFFFFFFFFFFFFFFFFFFFFFFFF
310
FFFFFFFFFFFFFFFFFFFFFFFFFFFFFFFFFFFFFFFFFFFFFFFFFFFFFFFFFFFFFFFFFFFFFFFFFFFFFFFFFFFFFFFFFFFFFFFFFFFFFFFFFFFFFFFFFFFFFFFFFFFFFFFFFFFFFFFFFFFFFFFFFFFFFFFFFFFFFFFFFFFFFFFFFFFFFFFFFFFFFFFFFFFFFFFFFFFFFFFFFFFFFFFFFFFFFFFFFFFFFFFFFFFFFFFFFFFFFFFFFFFFFFFFFFFFFF
310
FFFFFFFFFFFFFFFFFFFFFFFFFFFFFFFFFFFFFFFFFFFFFFFFFFFFFFFFFFFFFFFFFFFFFFFFFFFFFFFFFFFFFFFFFFFFFFFFFFFFFFFFFFFFFFFFFFFFFFFFFFFFFFFFFFFFFFFFFFFFFFFFFFFFFFFFFFFFFFFFFFFFFFFFFFFFFFFFFFFFFFFFFFFFFFFFFFFFFFFFFFFFFFFFFFFFFFFFFFFFFFFFFFFFFFFFFFFFFFFFFFFFFFFFFFFFFF
310
FFFFFFFFFFFFFFFFFFFFFFFFFFFFFFFFFFFFFFFFFFFFFFFFFFFFFFFFFFFFFFFFFFFFFFFFFFFFFFFFFFFFFFFFFFFFFFFFFFFFFFFFFFFFFFFFFFFFFFFFFFFFFFFFFFFFFFFFFFFFFFFFFFFFFFFFFFFFFFFFFFFFFFFFFFFFFFFFFFFFFFFFFFFFFFFFFFFFFFFFFFFFFFFFFFFFFFFFFFFFFFFFFFFFFFFFFFFFFFFFFFFFFFFFFFFFFF
310
FFFFFFFFFFFFFFFFFFFFFFFFFFFFFFFFFFFFFFFFFFFFFFFFFFFFFFFFFFFFFFFFFFFFFFFFFFFFFFFFFFFFFFFFFFFFFFFFFFFFFFFFFFFFFFFF
102
{BLKREFS
331
455
331
459
102
}
  0
ENDTAB
  0
ENDSEC
  0
SECTION
  2
BLOCKS
  0
BLOCK
  5
1F
330
1E
100
AcDbEntity
  8
0
100
AcDbBlockBegin
  2
*Model_Space
 70
     0
 10
0.0
 20
0.0
 30
0.0
  3
*Model_Space
  1

  0
ENDBLK
  5
20
330
1E
100
AcDbEntity
  8
0
100
AcDbBlockEnd
  0
BLOCK
  5
1B
330
1A
100
AcDbEntity
 67
     1
  8
0
100
AcDbBlockBegin
  2
*Paper_Space
 70
     0
 10
0.0
 20
0.0
 30
0.0
  3
*Paper_Space
  1

  0
ENDBLK
  5
1C
330
1A
100
AcDbEntity
 67
     1
  8
0
100
AcDbBlockEnd
  0
BLOCK
  5
35
330
34
100
AcDbEntity
  8
1
100
AcDbBlockBegin
  2
*D0
 70
     1
 10
0.0
 20
0.0
 30
0.0
  3
*D0
  1

  0
LINE
  5
36
330
34
100
AcDbEntity
  8
1
 62
     2
100
AcDbLine
 10
0.9999998649697872
 20
-74.4887071840448
 30
0.0
 11
9.999999864969787
 21
-74.4887071840448
 31
0.0
  0
LINE
  5
37
330
34
100
AcDbEntity
  8
1
 62
     2
100
AcDbLine
 10
9.999999864969787
 20
-74.4887071840448
 30
0.0
 11
11.4999998652621
 21
-74.4887071840448
 31
0.0
  0
LINE
  5
38
330
34
100
AcDbEntity
  8
1
 62
     2
100
AcDbLine
 10
11.4999998652621
 20
-74.4887071840448
 30
0.0
 11
48.05459548725099
 21
-74.4887071840448
 31
0.0
  0
LINE
  5
39
330
34
100
AcDbEntity
  8
1
 62
     2
100
AcDbLine
 10
9.999999864969787
 20
-55.59999917974557
 30
0.0
 11
9.999999864969787
 21
-75.48870718404479
 31
0.0
  0
LINE
  5
3A
330
34
100
AcDbEntity
  8
1
 62
     2
100
AcDbLine
 10
11.4999998652621
 20
-44.0
 30
0.0
 11
11.4999998652621
 21
-75.48870718404479
 31
0.0
  0
SOLID
  5
3B
330
34
100
AcDbEntity
  8
1
 62
     2
100
AcDbTrace
 10
9.999999864969787
 20
-74.4887071840448
 30
0.0
 11
5.499999864969787
 21
-75.0737071840448
 31
0.0
 12
5.499999864969787
 22
-73.9037071840448
 32
0.0
 13
5.499999864969787
 23
-73.9037071840448
 33
0.0
  0
SOLID
  5
3C
330
34
100
AcDbEntity
  8
1
 62
     2
100
AcDbTrace
 10
11.4999998652621
 20
-74.4887071840448
 30
0.0
 11
15.99999986526211
 21
-73.9037071840448
 31
0.0
 12
15.99999986526211
 22
-75.0737071840448
 32
0.0
 13
15.99999986526211
 23
-75.0737071840448
 33
0.0
  0
TEXT
  5
3D
330
34
100
AcDbEntity
  8
1
 62
     2
100
AcDbText
 10
41.079595487251
 20
-73.3762071840448
 30
0.0
 40
4.5
  1
1.5
 41
0.9
100
AcDbText
  0
TEXT
  5
3E
330
34
100
AcDbEntity
  8
1
 62
     2
100
AcDbText
 10
19.029595487251
 20
-73.3762071840448
 30
0.0
 40
4.5
  1
M.H.C 
 41
0.9
100
AcDbText
  0
ENDBLK
  5
3F
330
34
100
AcDbEntity
  8
0
100
AcDbBlockEnd
  0
BLOCK
  5
41
330
40
100
AcDbEntity
  8
1
100
AcDbBlockBegin
  2
*D1
 70
     1
 10
0.0
 20
0.0
 30
0.0
  3
*D1
  1

  0
LINE
  5
42
330
40
100
AcDbEntity
  8
1
 62
     2
100
AcDbLine
 10
37.88725806446164
 20
-43.0
 30
0.0
 11
37.88725806446164
 21
43.0
 31
0.0
  0
LINE
  5
43
330
40
100
AcDbEntity
  8
1
 62
     2
100
AcDbLine
 10
12.49999986526211
 20
-43.0
 30
0.0
 11
38.88725806446164
 21
-43.0
 31
0.0
  0
LINE
  5
44
330
40
100
AcDbEntity
  8
1
 62
     2
100
AcDbLine
 10
12.49999986526211
 20
43.0
 30
0.0
 11
38.88725806446164
 21
43.0
 31
0.0
  0
SOLID
  5
45
330
40
100
AcDbEntity
  8
1
 62
     2
100
AcDbTrace
 10
37.88725806446164
 20
-43.0
 30
0.0
 11
37.30225806446163
 21
-38.5
 31
0.0
 12
38.47225806446164
 22
-38.5
 32
0.0
 13
38.47225806446164
 23
-38.5
 33
0.0
  0
SOLID
  5
46
330
40
100
AcDbEntity
  8
1
 62
     2
100
AcDbTrace
 10
37.88725806446164
 20
43.0
 30
0.0
 11
38.47225806446164
 21
38.5
 31
0.0
 12
37.30225806446163
 22
38.5
 32
0.0
 13
37.30225806446163
 23
38.5
 33
0.0
  0
TEXT
  5
47
330
40
100
AcDbEntity
  8
1
 62
     2
100
AcDbText
 10
36.77475806446164
 20
6.845279117218803
 30
0.0
 40
4.5
  1
86
 50
90.0
 41
0.9
100
AcDbText
  0
TEXT
  5
48
330
40
100
AcDbEntity
  8
1
 62
     2
100
AcDbText
 10
36.77475806446164
 20
-15.2047208827812
 30
0.0
 40
4.5
  1
M.H.C 
 50
90.0
 41
0.9
100
AcDbText
  0
ENDBLK
  5
49
330
40
100
AcDbEntity
  8
0
100
AcDbBlockEnd
  0
BLOCK
  5
4B
330
4A
100
AcDbEntity
  8
1
100
AcDbBlockBegin
  2
*D2
 70
     1
 10
0.0
 20
0.0
 30
0.0
  3
*D2
  1

  0
LINE
  5
4C
330
4A
100
AcDbEntity
  8
1
 62
     2
100
AcDbLine
 10
-52.0000001347379
 20
-36.49999999998284
 30
0.0
 11
-52.0000001347379
 21
36.5
 31
0.0
  0
LINE
  5
4D
330
4A
100
AcDbEntity
  8
1
 62
     2
100
AcDbLine
 10
-31.00000013474993
 20
-36.49999999998284
 30
0.0
 11
-53.0000001347379
 21
-36.49999999998284
 31
0.0
  0
LINE
  5
4E
330
4A
100
AcDbEntity
  8
1
 62
     2
100
AcDbLine
 10
-31.00000013473789
 20
36.5
 30
0.0
 11
-53.0000001347379
 21
36.5
 31
0.0
  0
SOLID
  5
4F
330
4A
100
AcDbEntity
  8
1
 62
     2
100
AcDbTrace
 10
-52.0000001347379
 20
-36.49999999998284
 30
0.0
 11
-52.5850001347379
 21
-31.99999999998284
 31
0.0
 12
-51.4150001347379
 22
-31.99999999998284
 32
0.0
 13
-51.4150001347379
 23
-31.99999999998284
 33
0.0
  0
SOLID
  5
50
330
4A
100
AcDbEntity
  8
1
 62
     2
100
AcDbTrace
 10
-52.0000001347379
 20
36.5
 30
0.0
 11
-51.4150001347379
 21
32.0
 31
0.0
 12
-52.5850001347379
 22
32.0
 32
0.0
 13
-52.5850001347379
 23
32.0
 33
0.0
  0
TEXT
  5
51
330
4A
100
AcDbEntity
  8
1
 62
     2
100
AcDbText
 10
-53.1125001347379
 20
10.78029393311277
 30
0.0
 40
4.5
  1
73
 50
90.0
 41
0.9
100
AcDbText
  0
TEXT
  5
52
330
4A
100
AcDbEntity
  8
1
 62
     2
100
AcDbText
 10
-53.1125001347379
 20
-11.26970606688722
 30
0.0
 40
4.5
  1
M.H.C 
 50
90.0
 41
0.9
100
AcDbText
  0
ENDBLK
  5
53
330
4A
100
AcDbEntity
  8
0
100
AcDbBlockEnd
  0
BLOCK
  5
55
330
54
100
AcDbEntity
  8
1
100
AcDbBlockBegin
  2
*D3
 70
     1
 10
0.0
 20
0.0
 30
0.0
  3
*D3
  1

  0
LINE
  5
56
330
54
100
AcDbEntity
  8
1
 62
     2
100
AcDbLine
 10
-21.00000013473788
 20
21.1472383611381
 30
0.0
 11
-30.00000013473789
 21
21.1472383611381
 31
0.0
  0
LINE
  5
57
330
54
100
AcDbEntity
  8
1
 62
     2
100
AcDbLine
 10
-32.00000013467398
 20
21.1472383611381
 30
0.0
 11
-30.00000013473789
 21
21.1472383611381
 31
0.0
  0
LINE
  5
58
330
54
100
AcDbEntity
  8
1
 62
     2
100
AcDbLine
 10
-32.00000013467398
 20
21.1472383611381
 30
0.0
 11
-43.58222942023539
 21
21.1472383611381
 31
0.0
  0
LINE
  5
59
330
54
100
AcDbEntity
  8
1
 62
     2
100
AcDbLine
 10
-32.00000013467398
 20
30.1893533874938
 30
0.0
 11
-32.00000013467398
 21
20.1472383611381
 31
0.0
  0
LINE
  5
5A
330
54
100
AcDbEntity
  8
1
 62
     2
100
AcDbLine
 10
-30.00000013473789
 20
35.5
 30
0.0
 11
-30.00000013473789
 21
20.1472383611381
 31
0.0
  0
SOLID
  5
5B
330
54
100
AcDbEntity
  8
1
 62
     2
100
AcDbTrace
 10
-32.00000013467398
 20
21.1472383611381
 30
0.0
 11
-36.50000013467397
 21
20.56223836113809
 31
0.0
 12
-36.50000013467397
 22
21.7322383611381
 32
0.0
 13
-36.50000013467397
 23
21.7322383611381
 33
0.0
  0
SOLID
  5
5C
330
54
100
AcDbEntity
  8
1
 62
     2
100
AcDbTrace
 10
-30.00000013473789
 20
21.1472383611381
 30
0.0
 11
-25.50000013473789
 21
21.7322383611381
 31
0.0
 12
-25.50000013473789
 22
20.56223836113809
 32
0.0
 13
-25.50000013473789
 23
20.56223836113809
 33
0.0
  0
TEXT
  5
5D
330
54
100
AcDbEntity
  8
1
 62
     2
100
AcDbText
 10
-43.58222942023539
 20
22.14723836113809
 30
0.0
 40
4.5
  1
2
 41
0.9
100
AcDbText
  0
ENDBLK
  5
5E
330
54
100
AcDbEntity
  8
0
100
AcDbBlockEnd
  0
BLOCK
  5
3D7
330
3D4
100
AcDbEntity
  8
0
100
AcDbBlockBegin
  2
NTC
 70
     0
 10
0.0
 20
0.0
 30
0.0
  3
NTC
  1

  0
LWPOLYLINE
  5
3D5
330
3D4
100
AcDbEntity
  8
0
100
AcDbPolyline
 90
        8
 70
     1
 43
0.0
 10
4.581008201925953
 20
-10.78862239032818
 10
319.3921777697513
 20
-10.78862239032818
 42
-0.4142135623730951
 10
324.9046777697513
 20
-16.30112239032816
 10
324.9046777697513
 20
-117.4075202476924
 42
-0.4142135623730951
 10
319.3921777697513
 20
-122.9200202476925
 10
4.581008201925838
 20
-122.9200202476925
 42
-0.4142135623730951
 10
-0.9314917980741483
 20
-117.4075202476924
 10
-0.9314917980740915
 20
-16.30112239032816
 42
-0.4142135623730951
  0
MTEXT
  5
3D6
330
3D4
100
AcDbEntity
  8
0
  6
Continuous
370
    30
100
AcDbMText
 10
21.65307678143926
 20
-17.4535155144544
 30
0.0
 40
8.75
 41
294.5432999999998
 71
     1
 72
     5
  3
{\fTxt|b1|i0|c0|p2;Notice:\P\Ftxt.shx;\H0.5714x;All specifications and dimensions shown in the drawing are subject to change without notice. This drawing is the property of Harmonic Drive LLC.   This data is believed to be accurate, however, Harmonic
  1
 Drive LLC assumes no liability for any errors or omissions in the specifications, models, or drawings.\P\PHarmonic Drive LLC\PTel: 800-921-3332\Pwww.harmonicdrive.net}
 73
     1
 44
1.0
  0
ENDBLK
  5
3D8
330
3D4
100
AcDbEntity
  8
0
100
AcDbBlockEnd
  0
BLOCK
  5
3E4
330
3E1
100
AcDbEntity
  8
0
 62
     7
100
AcDbBlockBegin
  2
AI9-BLK14
 70
     0
 10
0.0
 20
0.0
 30
0.0
  3
AI9-BLK14
  1

  0
SPLINE
  5
3E2
330
3E1
100
AcDbEntity
  8
LAYER_1
 62
     7
100
AcDbSpline
210
0.0
220
0.0
230
1.0
 70
    11
 71
     3
 72
    23
 73
    19
 74
     0
 42
0.0000000001
 43
0.0000000001
 40
0.0
 40
0.0
 40
0.0
 40
0.0
 40
1.0
 40
1.0
 40
1.0
 40
2.0
 40
2.0
 40
2.0
 40
3.0
 40
3.0
 40
3.0
 40
4.0
 40
4.0
 40
4.0
 40
5.0
 40
5.0
 40
5.0
 40
6.0
 40
6.0
 40
6.0
 40
6.0
 10
-10.90321044921874
 20
10.88107571072048
 30
0.0
 10
-10.90321044921874
 20
10.88107571072048
 30
0.0
 10
-10.90321044921874
 20
-10.88107571072048
 30
0.0
 10
-10.90321044921874
 20
-10.88107571072048
 30
0.0
 10
-10.90321044921874
 20
-10.88107571072048
 30
0.0
 10
1.752692328559025
 20
-10.88107571072048
 30
0.0
 10
1.752692328559025
 20
-10.88107571072048
 30
0.0
 10
3.280592176649305
 20
-10.88107571072048
 30
0.0
 10
10.90321044921874
 20
-10.32383151584201
 30
0.0
 10
10.90321044921874
 20
0.6792867024739583
 30
0.0
 10
10.90321044921874
 20
10.61700914171006
 30
0.0
 10
2.773129611545138
 20
10.87952541775172
 30
0.0
 10
2.691136338975693
 20
10.88090345594618
 30
0.0
 10
2.691136338975693
 20
10.88090345594618
 30
0.0
 10
-9.903099229600693
 20
10.88107571072048
 30
0.0
 10
-9.903099229600693
 20
10.88107571072048
 30
0.0
 10
-9.903099229600693
 20
10.88107571072048
 30
0.0
 10
-10.90321044921874
 20
10.88107571072048
 30
0.0
 10
-10.90321044921874
 20
10.88107571072048
 30
0.0
  0
SPLINE
  5
3E3
330
3E1
100
AcDbEntity
  8
LAYER_1
 62
     7
100
AcDbSpline
210
0.0
220
0.0
230
1.0
 70
    11
 71
     3
 72
    20
 73
    16
 74
     0
 42
0.0000000001
 43
0.0000000001
 40
0.0
 40
0.0
 40
0.0
 40
0.0
 40
1.0
 40
1.0
 40
1.0
 40
2.0
 40
2.0
 40
2.0
 40
3.0
 40
3.0
 40
3.0
 40
4.0
 40
4.0
 40
4.0
 40
5.0
 40
5.0
 40
5.0
 40
5.0
 10
2.672877332899305
 20
8.881197781032986
 30
0.0
 10
2.905421278211805
 20
8.874307590060762
 30
0.0
 10
8.902988009982637
 20
8.616442192925347
 30
0.0
 10
8.902988009982637
 20
0.6792867024739583
 30
0.0
 10
8.902988009982637
 20
-8.191661919487842
 30
0.0
 10
3.430109320746526
 20
-8.881197781032986
 30
0.0
 10
1.752692328559025
 20
-8.881197781032986
 30
0.0
 10
1.752692328559025
 20
-8.881197781032986
 30
0.0
 10
-7.231427680121528
 20
-8.881197781032986
 30
0.0
 10
-8.902988009982637
 20
-8.881197781032986
 30
0.0
 10
-8.902988009982637
 20
-7.174497477213541
 30
0.0
 10
-8.902988009982637
 20
7.174497477213541
 30
0.0
 10
-8.902988009982637
 20
8.881197781032986
 30
0.0
 10
-7.208690049913191
 20
8.881197781032986
 30
0.0
 10
2.672877332899305
 20
8.881197781032986
 30
0.0
 10
2.672877332899305
 20
8.881197781032986
 30
0.0
  0
ENDBLK
  5
3E5
330
3E1
100
AcDbEntity
  8
0
100
AcDbBlockEnd
  0
BLOCK
  5
3E9
330
3E6
100
AcDbEntity
  8
0
 62
     7
100
AcDbBlockBegin
  2
AI9-BLK13
 70
     0
 10
0.0
 20
0.0
 30
0.0
  3
AI9-BLK13
  1

  0
LWPOLYLINE
  5
3E7
330
3E6
100
AcDbEntity
  8
LAYER_1
 62
     7
100
AcDbPolyline
 90
       12
 70
     1
 43
0.0
 10
-3.792361111111107
 20
10.7376736111111
 10
-2.469444444444443
 20
10.7376736111111
 10
-2.469444444444443
 20
1.874131944444444
 10
2.469444444444443
 20
1.874131944444444
 10
2.469444444444443
 20
10.7376736111111
 10
3.792361111111107
 20
10.7376736111111
 10
3.792361111111107
 20
-10.7376736111111
 10
2.469444444444443
 20
-10.7376736111111
 10
2.469444444444443
 20
-0.6835069444444444
 10
-2.469444444444443
 20
-0.6835069444444444
 10
-2.469444444444443
 20
-10.7376736111111
 10
-3.792361111111107
 20
-10.7376736111111
  0
HATCH
  5
3E8
330
3E6
100
AcDbEntity
  8
LAYER_1
 62
     7
100
AcDbHatch
 10
0.0
 20
0.0
 30
0.0
210
0.0
220
0.0
230
1.0
  2
SOLID
 70
     1
 71
     0
 91
        1
 92
        3
 72
     0
 73
     1
 93
       12
 10
-3.792361111111107
 20
10.7376736111111
 10
-2.469444444444443
 20
10.7376736111111
 10
-2.469444444444443
 20
1.874131944444444
 10
2.469444444444443
 20
1.874131944444444
 10
2.469444444444443
 20
10.7376736111111
 10
3.792361111111107
 20
10.7376736111111
 10
3.792361111111107
 20
-10.7376736111111
 10
2.469444444444443
 20
-10.7376736111111
 10
2.469444444444443
 20
-0.6835069444444444
 10
-2.469444444444443
 20
-0.6835069444444444
 10
-2.469444444444443
 20
-10.7376736111111
 10
-3.792361111111107
 20
-10.7376736111111
 97
        0
 75
     2
 76
     1
 98
        1
 10
0.0
 20
0.0
  0
ENDBLK
  5
3EA
330
3E6
100
AcDbEntity
  8
0
100
AcDbBlockEnd
  0
BLOCK
  5
3EE
330
3EB
100
AcDbEntity
  8
0
 62
     7
100
AcDbBlockBegin
  2
AI9-BLK11
 70
     0
 10
0.0
 20
0.0
 30
0.0
  3
AI9-BLK11
  1

  0
SPLINE
  5
3EC
330
3EB
100
AcDbEntity
  8
LAYER_1
 62
     7
100
AcDbSpline
210
0.0
220
0.0
230
1.0
 70
    11
 71
     3
 72
    26
 73
    22
 74
     0
 42
0.0000000001
 43
0.0000000001
 40
0.0
 40
0.0
 40
0.0
 40
0.0
 40
1.0
 40
1.0
 40
1.0
 40
2.0
 40
2.0
 40
2.0
 40
3.0
 40
3.0
 40
3.0
 40
4.0
 40
4.0
 40
4.0
 40
5.0
 40
5.0
 40
5.0
 40
6.0
 40
6.0
 40
6.0
 40
7.0
 40
7.0
 40
7.0
 40
7.0
 10
-2.645833333333333
 20
0.9039930555555551
 30
0.0
 10
-2.645833333333333
 20
0.9039930555555551
 30
0.0
 10
-2.645833333333333
 20
8.180034722222217
 30
0.0
 10
-2.645833333333333
 20
8.180034722222217
 30
0.0
 10
-2.645833333333333
 20
8.180034722222217
 30
0.0
 10
0.465087890625
 20
8.180034722222217
 30
0.0
 10
0.465087890625
 20
8.180034722222217
 30
0.0
 10
0.9026150173611108
 20
8.180034722222217
 30
0.0
 10
1.24988064236111
 20
8.034651692708331
 30
0.0
 10
1.506884765625
 20
7.745263671874997
 30
0.0
 10
2.001600477430554
 20
7.194048394097221
 30
0.0
 10
2.248958333333332
 20
6.160519748263887
 30
0.0
 10
2.248958333333332
 20
4.643299696180553
 30
0.0
 10
2.248958333333332
 20
3.232188585069443
 30
0.0
 10
2.072569444444444
 20
2.256537543402775
 30
0.0
 10
1.720480685763888
 20
1.715657552083333
 30
0.0
 10
1.368391927083333
 20
1.174088541666665
 30
0.0
 10
0.8929687499999998
 20
0.9039930555555551
 30
0.0
 10
0.2942111545138888
 20
0.9039930555555551
 30
0.0
 10
0.2942111545138888
 20
0.9039930555555551
 30
0.0
 10
-2.645833333333333
 20
0.9039930555555551
 30
0.0
 10
-2.645833333333333
 20
0.9039930555555551
 30
0.0
  0
SPLINE
  5
3ED
330
3EB
100
AcDbEntity
  8
LAYER_1
 62
     7
100
AcDbSpline
210
0.0
220
0.0
230
1.0
 70
    11
 71
     3
 72
    68
 73
    64
 74
     0
 42
0.0000000001
 43
0.0000000001
 40
0.0
 40
0.0
 40
0.0
 40
0.0
 40
1.0
 40
1.0
 40
1.0
 40
2.0
 40
2.0
 40
2.0
 40
3.0
 40
3.0
 40
3.0
 40
4.0
 40
4.0
 40
4.0
 40
5.0
 40
5.0
 40
5.0
 40
6.0
 40
6.0
 40
6.0
 40
7.0
 40
7.0
 40
7.0
 40
8.0
 40
8.0
 40
8.0
 40
9.0
 40
9.0
 40
9.0
 40
10.0
 40
10.0
 40
10.0
 40
11.0
 40
11.0
 40
11.0
 40
12.0
 40
12.0
 40
12.0
 40
13.0
 40
13.0
 40
13.0
 40
14.0
 40
14.0
 40
14.0
 40
15.0
 40
15.0
 40
15.0
 40
16.0
 40
16.0
 40
16.0
 40
17.0
 40
17.0
 40
17.0
 40
18.0
 40
18.0
 40
18.0
 40
19.0
 40
19.0
 40
19.0
 40
20.0
 40
20.0
 40
20.0
 40
21.0
 40
21.0
 40
21.0
 40
21.0
 10
-3.968749999999998
 20
-10.7376736111111
 30
0.0
 10
-3.968749999999998
 20
-10.7376736111111
 30
0.0
 10
-2.645833333333333
 20
-10.7376736111111
 30
0.0
 10
-2.645833333333333
 20
-10.7376736111111
 30
0.0
 10
-2.645833333333333
 20
-10.7376736111111
 30
0.0
 10
-2.645833333333333
 20
-1.521354166666665
 30
0.0
 10
-2.645833333333333
 20
-1.521354166666665
 30
0.0
 10
-2.645833333333333
 20
-1.521354166666665
 30
0.0
 10
0.2390896267361111
 20
-1.521354166666665
 30
0.0
 10
0.2390896267361111
 20
-1.521354166666665
 30
0.0
 10
0.7599880642361111
 20
-1.521354166666665
 30
0.0
 10
1.143771701388887
 20
-1.65295681423611
 30
0.0
 10
1.390440538194444
 20
-1.916162109374999
 30
0.0
 10
1.816254340277773
 20
-2.39434136284722
 30
0.0
 10
2.04363064236111
 20
-3.335541449652775
 30
0.0
 10
2.072569444444444
 20
-4.739762369791666
 30
0.0
 10
2.072569444444444
 20
-4.739762369791666
 30
0.0
 10
2.160763888888888
 20
-8.324039713541665
 30
0.0
 10
2.160763888888888
 20
-8.324039713541665
 30
0.0
 10
2.18005642361111
 20
-9.163264973958332
 30
0.0
 10
2.202794053819443
 20
-9.728949652777775
 30
0.0
 10
2.227598741319444
 20
-10.02109374999998
 30
0.0
 10
2.252403428819443
 20
-10.31392686631944
 30
0.0
 10
2.28892144097222
 20
-10.55301649305555
 30
0.0
 10
2.33853081597222
 20
-10.7376736111111
 30
0.0
 10
2.33853081597222
 20
-10.7376736111111
 30
0.0
 10
3.968749999999998
 20
-10.7376736111111
 30
0.0
 10
3.968749999999998
 20
-10.7376736111111
 30
0.0
 10
3.968749999999998
 20
-10.7376736111111
 30
0.0
 10
3.968749999999998
 20
-10.25260416666666
 30
0.0
 10
3.968749999999998
 20
-10.25260416666666
 30
0.0
 10
3.766867404513888
 20
-10.05830078125
 30
0.0
 10
3.625618489583333
 20
-9.621462673611112
 30
0.0
 10
3.545692274305555
 20
-8.942089843749997
 30
0.0
 10
3.49470486111111
 20
-8.543836805555555
 30
0.0
 10
3.459564887152775
 20
-7.937499999999999
 30
0.0
 10
3.439583333333333
 20
-7.121701388888887
 30
0.0
 10
3.439583333333333
 20
-7.121701388888887
 30
0.0
 10
3.395486111111106
 20
-4.232644314236106
 30
0.0
 10
3.395486111111106
 20
-4.232644314236106
 30
0.0
 10
3.375504557291666
 20
-2.981385633680555
 30
0.0
 10
3.26870659722222
 20
-2.077392578125
 30
0.0
 10
3.075781249999999
 20
-1.522043185763888
 30
0.0
 10
2.882166883680555
 20
-0.9666937934027776
 30
0.0
 10
2.592089843749999
 20
-0.5188313802083333
 30
0.0
 10
2.204861111111104
 20
-0.1770779079861111
 30
0.0
 10
2.63618706597222
 20
0.3197048611111111
 30
0.0
 10
2.971739366319443
 20
0.9770290798611107
 30
0.0
 10
3.211518012152775
 20
1.79558376736111
 30
0.0
 10
3.451296657986107
 20
2.613449435763888
 30
0.0
 10
3.571874999999999
 20
3.66558159722222
 30
0.0
 10
3.571874999999999
 20
4.951291232638888
 30
0.0
 10
3.571874999999999
 20
7.415912543402777
 30
0.0
 10
3.124701605902775
 20
9.106076388888887
 30
0.0
 10
2.231043836805555
 20
10.02178276909722
 30
0.0
 10
1.759754774305553
 20
10.498583984375
 30
0.0
 10
1.163753255208332
 20
10.7376736111111
 30
0.0
 10
0.443039279513889
 20
10.7376736111111
 30
0.0
 10
0.443039279513889
 20
10.7376736111111
 30
0.0
 10
-3.968749999999998
 20
10.7376736111111
 30
0.0
 10
-3.968749999999998
 20
10.7376736111111
 30
0.0
 10
-3.968749999999998
 20
10.7376736111111
 30
0.0
 10
-3.968749999999998
 20
-10.7376736111111
 30
0.0
 10
-3.968749999999998
 20
-10.7376736111111
 30
0.0
  0
ENDBLK
  5
3EF
330
3EB
100
AcDbEntity
  8
0
100
AcDbBlockEnd
  0
BLOCK
  5
3F2
330
3F0
100
AcDbEntity
  8
0
 62
     7
100
AcDbBlockBegin
  2
AI9-BLK10
 70
     0
 10
0.0
 20
0.0
 30
0.0
  3
AI9-BLK10
  1

  0
SPLINE
  5
3F1
330
3F0
100
AcDbEntity
  8
LAYER_1
 62
     7
100
AcDbSpline
210
0.0
220
0.0
230
1.0
 70
    11
 71
     3
 72
    59
 73
    55
 74
     0
 42
0.0000000001
 43
0.0000000001
 40
0.0
 40
0.0
 40
0.0
 40
0.0
 40
1.0
 40
1.0
 40
1.0
 40
2.0
 40
2.0
 40
2.0
 40
3.0
 40
3.0
 40
3.0
 40
4.0
 40
4.0
 40
4.0
 40
5.0
 40
5.0
 40
5.0
 40
6.0
 40
6.0
 40
6.0
 40
7.0
 40
7.0
 40
7.0
 40
8.0
 40
8.0
 40
8.0
 40
9.0
 40
9.0
 40
9.0
 40
10.0
 40
10.0
 40
10.0
 40
11.0
 40
11.0
 40
11.0
 40
12.0
 40
12.0
 40
12.0
 40
13.0
 40
13.0
 40
13.0
 40
14.0
 40
14.0
 40
14.0
 40
15.0
 40
15.0
 40
15.0
 40
16.0
 40
16.0
 40
16.0
 40
17.0
 40
17.0
 40
17.0
 40
18.0
 40
18.0
 40
18.0
 40
18.0
 10
-4.652256944444443
 20
10.7376736111111
 30
0.0
 10
-4.652256944444443
 20
10.7376736111111
 30
0.0
 10
-2.798795572916666
 20
10.7376736111111
 30
0.0
 10
-2.798795572916666
 20
10.7376736111111
 30
0.0
 10
-2.798795572916666
 20
10.7376736111111
 30
0.0
 10
0.0
 20
-7.419357638888887
 30
0.0
 10
0.0
 20
-7.419357638888887
 30
0.0
 10
0.0
 20
-7.419357638888887
 30
0.0
 10
2.793283420138888
 20
10.7376736111111
 30
0.0
 10
2.793283420138888
 20
10.7376736111111
 30
0.0
 10
2.793283420138888
 20
10.7376736111111
 30
0.0
 10
4.652256944444443
 20
10.7376736111111
 30
0.0
 10
4.652256944444443
 20
10.7376736111111
 30
0.0
 10
4.652256944444443
 20
10.7376736111111
 30
0.0
 10
4.652256944444443
 20
-10.7376736111111
 30
0.0
 10
4.652256944444443
 20
-10.7376736111111
 30
0.0
 10
4.652256944444443
 20
-10.7376736111111
 30
0.0
 10
3.41753472222222
 20
-10.7376736111111
 30
0.0
 10
3.41753472222222
 20
-10.7376736111111
 30
0.0
 10
3.41753472222222
 20
-10.7376736111111
 30
0.0
 10
3.41753472222222
 20
1.936832682291665
 30
0.0
 10
3.41753472222222
 20
1.936832682291665
 30
0.0
 10
3.41753472222222
 20
2.375048828124999
 30
0.0
 10
3.424424913194443
 20
3.101274956597221
 30
0.0
 10
3.439583333333333
 20
4.11482204861111
 30
0.0
 10
3.454052734374998
 20
5.128369140624998
 30
0.0
 10
3.461631944444443
 20
6.214952256944441
 30
0.0
 10
3.461631944444443
 20
7.375260416666666
 30
0.0
 10
3.461631944444443
 20
7.375260416666666
 30
0.0
 10
0.6538791232638889
 20
-10.7376736111111
 30
0.0
 10
0.6538791232638889
 20
-10.7376736111111
 30
0.0
 10
0.6538791232638889
 20
-10.7376736111111
 30
0.0
 10
-0.6628363715277778
 20
-10.7376736111111
 30
0.0
 10
-0.6628363715277778
 20
-10.7376736111111
 30
0.0
 10
-0.6628363715277778
 20
-10.7376736111111
 30
0.0
 10
-3.461631944444443
 20
7.375260416666666
 30
0.0
 10
-3.461631944444443
 20
7.375260416666666
 30
0.0
 10
-3.461631944444443
 20
7.375260416666666
 30
0.0
 10
-3.461631944444443
 20
6.717247178819441
 30
0.0
 10
-3.461631944444443
 20
6.717247178819441
 30
0.0
 10
-3.461631944444443
 20
6.190836588541666
 30
0.0
 10
-3.45474175347222
 20
5.389507378472222
 30
0.0
 10
-3.439583333333333
 20
4.312570529513888
 30
0.0
 10
-3.425113932291666
 20
3.235633680555555
 30
0.0
 10
-3.41753472222222
 20
2.44395073784722
 30
0.0
 10
-3.41753472222222
 20
1.936832682291665
 30
0.0
 10
-3.41753472222222
 20
1.936832682291665
 30
0.0
 10
-3.41753472222222
 20
-10.7376736111111
 30
0.0
 10
-3.41753472222222
 20
-10.7376736111111
 30
0.0
 10
-3.41753472222222
 20
-10.7376736111111
 30
0.0
 10
-4.652256944444443
 20
-10.7376736111111
 30
0.0
 10
-4.652256944444443
 20
-10.7376736111111
 30
0.0
 10
-4.652256944444443
 20
-10.7376736111111
 30
0.0
 10
-4.652256944444443
 20
10.7376736111111
 30
0.0
 10
-4.652256944444443
 20
10.7376736111111
 30
0.0
  0
ENDBLK
  5
3F3
330
3F0
100
AcDbEntity
  8
0
100
AcDbBlockEnd
  0
BLOCK
  5
3F7
330
3F4
100
AcDbEntity
  8
0
 62
     7
100
AcDbBlockBegin
  2
AI9-BLK9
 70
     0
 10
0.0
 20
0.0
 30
0.0
  3
AI9-BLK9
  1

  0
SPLINE
  5
3F5
330
3F4
100
AcDbEntity
  8
LAYER_1
 62
     7
100
AcDbSpline
210
0.0
220
0.0
230
1.0
 70
    11
 71
     3
 72
    29
 73
    25
 74
     0
 42
0.0000000001
 43
0.0000000001
 40
0.0
 40
0.0
 40
0.0
 40
0.0
 40
1.0
 40
1.0
 40
1.0
 40
2.0
 40
2.0
 40
2.0
 40
3.0
 40
3.0
 40
3.0
 40
4.0
 40
4.0
 40
4.0
 40
5.0
 40
5.0
 40
5.0
 40
6.0
 40
6.0
 40
6.0
 40
7.0
 40
7.0
 40
7.0
 40
8.0
 40
8.0
 40
8.0
 40
8.0
 10
0.0668348524305556
 20
-8.753298611111111
 30
0.0
 10
-0.9067491319444444
 20
-8.753298611111111
 30
0.0
 10
-1.60954861111111
 20
-7.936810980902778
 30
0.0
 10
-2.041563585069444
 20
-6.30383572048611
 30
0.0
 10
-2.474267578124999
 20
-4.670860460069443
 30
0.0
 10
-2.689930555555555
 20
-2.664436848958333
 30
0.0
 10
-2.689930555555555
 20
-0.28525390625
 30
0.0
 10
-2.689930555555555
 20
2.68855251736111
 30
0.0
 10
-2.439127604166666
 20
4.938199869791666
 30
0.0
 10
-1.937521701388888
 20
6.464377170138886
 30
0.0
 10
-1.43591579861111
 20
7.989865451388887
 30
0.0
 10
-0.7827256944444444
 20
8.753298611111111
 30
0.0
 10
0.0220486111111111
 20
8.753298611111111
 30
0.0
 10
0.8468044704861108
 20
8.753298611111111
 30
0.0
 10
1.49792751736111
 20
7.982975260416663
 30
0.0
 10
1.974728732638888
 20
6.442328559027776
 30
0.0
 10
2.451529947916665
 20
4.901681857638886
 30
0.0
 10
2.689930555555555
 20
2.868386501736111
 30
0.0
 10
2.689930555555555
 20
0.3438205295138888
 30
0.0
 10
2.689930555555555
 20
-2.045697699652774
 30
0.0
 10
2.483224826388884
 20
-4.15891927083333
 30
0.0
 10
2.071191406249999
 20
-5.996533203124998
 30
0.0
 10
1.65915798611111
 20
-7.834836154513887
 30
0.0
 10
0.9908094618055557
 20
-8.753298611111111
 30
0.0
 10
0.0668348524305556
 20
-8.753298611111111
 30
0.0
  0
SPLINE
  5
3F6
330
3F4
100
AcDbEntity
  8
LAYER_1
 62
     7
100
AcDbSpline
210
0.0
220
0.0
230
1.0
 70
    11
 71
     3
 72
    29
 73
    25
 74
     0
 42
0.0000000001
 43
0.0000000001
 40
0.0
 40
0.0
 40
0.0
 40
0.0
 40
1.0
 40
1.0
 40
1.0
 40
2.0
 40
2.0
 40
2.0
 40
3.0
 40
3.0
 40
3.0
 40
4.0
 40
4.0
 40
4.0
 40
5.0
 40
5.0
 40
5.0
 40
6.0
 40
6.0
 40
6.0
 40
7.0
 40
7.0
 40
7.0
 40
8.0
 40
8.0
 40
8.0
 40
8.0
 10
-0.0289388020833333
 20
11.35503472222222
 30
0.0
 10
-1.317404513888887
 20
11.35503472222222
 30
0.0
 10
-2.28892144097222
 20
10.02798394097222
 30
0.0
 10
-2.94280056423611
 20
7.374571397569441
 30
0.0
 10
-3.450607638888888
 20
5.30613606770833
 30
0.0
 10
-3.704166666666666
 20
2.81877712673611
 30
0.0
 10
-3.704166666666666
 20
-0.0881944444444445
 30
0.0
 10
-3.704166666666666
 20
-3.307291666666666
 30
0.0
 10
-3.406510416666666
 20
-5.97035047743055
 30
0.0
 10
-2.811197916666666
 20
-8.077370876736106
 30
0.0
 10
-2.147672526041664
 20
-10.26293945312499
 30
0.0
 10
-1.229899088541666
 20
-11.35503472222222
 30
0.0
 10
-0.0585666232638889
 20
-11.35503472222222
 30
0.0
 10
1.20027126736111
 20
-11.35503472222222
 30
0.0
 10
2.166276041666665
 20
-10.10653211805555
 30
0.0
 10
2.840136718749998
 20
-7.609526909722221
 30
0.0
 10
3.416156684027776
 20
-5.483213975694441
 30
0.0
 10
3.704166666666666
 20
-2.814643012152775
 30
0.0
 10
3.704166666666666
 20
0.3948079427083333
 30
0.0
 10
3.704166666666666
 20
3.360346137152776
 30
0.0
 10
3.449918619791666
 20
5.793961588541666
 30
0.0
 10
2.94280056423611
 20
7.696343315972222
 30
0.0
 10
2.298567708333333
 20
10.13547092013888
 30
0.0
 10
1.307758246527777
 20
11.35503472222222
 30
0.0
 10
-0.0289388020833333
 20
11.35503472222222
 30
0.0
  0
ENDBLK
  5
3F8
330
3F4
100
AcDbEntity
  8
0
100
AcDbBlockEnd
  0
BLOCK
  5
3FC
330
3F9
100
AcDbEntity
  8
0
 62
     7
100
AcDbBlockBegin
  2
AI9-BLK8
 70
     0
 10
0.0
 20
0.0
 30
0.0
  3
AI9-BLK8
  1

  0
LWPOLYLINE
  5
3FA
330
3F9
100
AcDbEntity
  8
LAYER_1
 62
     7
100
AcDbPolyline
 90
       10
 70
     1
 43
0.0
 10
-3.792361111111107
 20
10.7376736111111
 10
-2.268939887152773
 20
10.7376736111111
 10
2.557638888888888
 20
-6.505718315972222
 10
2.557638888888888
 20
10.7376736111111
 10
3.792361111111107
 20
10.7376736111111
 10
3.792361111111107
 20
-10.7376736111111
 10
2.32612847222222
 20
-10.7376736111111
 10
-2.557638888888888
 20
6.549815538194441
 10
-2.557638888888888
 20
-10.7376736111111
 10
-3.792361111111107
 20
-10.7376736111111
  0
HATCH
  5
3FB
330
3F9
100
AcDbEntity
  8
LAYER_1
 62
     7
100
AcDbHatch
 10
0.0
 20
0.0
 30
0.0
210
0.0
220
0.0
230
1.0
  2
SOLID
 70
     1
 71
     0
 91
        1
 92
        3
 72
     0
 73
     1
 93
       10
 10
-3.792361111111107
 20
10.7376736111111
 10
-2.268939887152773
 20
10.7376736111111
 10
2.557638888888888
 20
-6.505718315972222
 10
2.557638888888888
 20
10.7376736111111
 10
3.792361111111107
 20
10.7376736111111
 10
3.792361111111107
 20
-10.7376736111111
 10
2.32612847222222
 20
-10.7376736111111
 10
-2.557638888888888
 20
6.549815538194441
 10
-2.557638888888888
 20
-10.7376736111111
 10
-3.792361111111107
 20
-10.7376736111111
 97
        0
 75
     2
 76
     1
 98
        1
 10
0.0
 20
0.0
  0
ENDBLK
  5
3FD
330
3F9
100
AcDbEntity
  8
0
100
AcDbBlockEnd
  0
BLOCK
  5
401
330
3FE
100
AcDbEntity
  8
0
 62
     7
100
AcDbBlockBegin
  2
AI9-BLK7
 70
     0
 10
0.0
 20
0.0
 30
0.0
  3
AI9-BLK7
  1

  0
LWPOLYLINE
  5
3FF
330
3FE
100
AcDbEntity
  8
LAYER_1
 62
     7
100
AcDbPolyline
 90
        4
 70
     1
 43
0.0
 10
-0.6614583333333333
 20
10.7376736111111
 10
0.6614583333333333
 20
10.7376736111111
 10
0.6614583333333333
 20
-10.7376736111111
 10
-0.6614583333333333
 20
-10.7376736111111
  0
HATCH
  5
400
330
3FE
100
AcDbEntity
  8
LAYER_1
 62
     7
100
AcDbHatch
 10
0.0
 20
0.0
 30
0.0
210
0.0
220
0.0
230
1.0
  2
SOLID
 70
     1
 71
     0
 91
        1
 92
        3
 72
     0
 73
     1
 93
        4
 10
-0.6614583333333333
 20
10.7376736111111
 10
0.6614583333333333
 20
10.7376736111111
 10
0.6614583333333333
 20
-10.7376736111111
 10
-0.6614583333333333
 20
-10.7376736111111
 97
        0
 75
     2
 76
     1
 98
        1
 10
0.0
 20
0.0
  0
ENDBLK
  5
402
330
3FE
100
AcDbEntity
  8
0
100
AcDbBlockEnd
  0
BLOCK
  5
405
330
403
100
AcDbEntity
  8
0
 62
     7
100
AcDbBlockBegin
  2
AI9-BLK6
 70
     0
 10
0.0
 20
0.0
 30
0.0
  3
AI9-BLK6
  1

  0
SPLINE
  5
404
330
403
100
AcDbEntity
  8
LAYER_1
 62
     7
100
AcDbSpline
210
0.0
220
0.0
230
1.0
 70
    11
 71
     3
 72
    59
 73
    55
 74
     0
 42
0.0000000001
 43
0.0000000001
 40
0.0
 40
0.0
 40
0.0
 40
0.0
 40
1.0
 40
1.0
 40
1.0
 40
2.0
 40
2.0
 40
2.0
 40
3.0
 40
3.0
 40
3.0
 40
4.0
 40
4.0
 40
4.0
 40
5.0
 40
5.0
 40
5.0
 40
6.0
 40
6.0
 40
6.0
 40
7.0
 40
7.0
 40
7.0
 40
8.0
 40
8.0
 40
8.0
 40
9.0
 40
9.0
 40
9.0
 40
10.0
 40
10.0
 40
10.0
 40
11.0
 40
11.0
 40
11.0
 40
12.0
 40
12.0
 40
12.0
 40
13.0
 40
13.0
 40
13.0
 40
14.0
 40
14.0
 40
14.0
 40
15.0
 40
15.0
 40
15.0
 40
16.0
 40
16.0
 40
16.0
 40
17.0
 40
17.0
 40
17.0
 40
18.0
 40
18.0
 40
18.0
 40
18.0
 10
3.062689887152775
 20
9.168088107638887
 30
0.0
 10
3.735172526041666
 20
7.739062499999997
 30
0.0
 10
4.110687934027776
 20
6.116422526041666
 30
0.0
 10
4.189236111111108
 20
4.299479166666666
 30
0.0
 10
4.189236111111108
 20
4.299479166666666
 30
0.0
 10
2.866319444444443
 20
4.299479166666666
 30
0.0
 10
2.866319444444443
 20
4.299479166666666
 30
0.0
 10
2.720936414930555
 20
5.667871093749997
 30
0.0
 10
2.435682508680555
 20
6.752387152777776
 30
0.0
 10
2.009868706597218
 20
7.553027343749997
 30
0.0
 10
1.584054904513888
 20
8.352978515624997
 30
0.0
 10
0.9839192708333332
 20
8.753298611111111
 30
0.0
 10
0.2101508246527778
 20
8.753298611111111
 30
0.0
 10
-0.7386284722222222
 20
8.753298611111111
 30
0.0
 10
-1.503439670138888
 20
8.010536024305555
 30
0.0
 10
-2.083593749999999
 20
6.526388888888886
 30
0.0
 10
-2.664436848958333
 20
5.042241753472221
 30
0.0
 10
-2.954513888888888
 20
2.767100694444443
 30
0.0
 10
-2.954513888888888
 20
-0.2990342881944444
 30
0.0
 10
-2.954513888888888
 20
-2.811197916666666
 30
0.0
 10
-2.693375651041666
 20
-4.847938368055555
 30
0.0
 10
-2.17041015625
 20
-6.409944661458332
 30
0.0
 10
-1.648133680555553
 20
-7.972639973958332
 30
0.0
 10
-0.8640299479166666
 20
-8.753298611111111
 30
0.0
 10
0.1812120225694444
 20
-8.753298611111111
 30
0.0
 10
1.138948567708333
 20
-8.753298611111111
 30
0.0
 10
1.865174696180553
 20
-7.927853732638887
 30
0.0
 10
2.359201388888884
 20
-6.275585937499998
 30
0.0
 10
2.62998589409722
 20
-5.406043836805555
 30
0.0
 10
2.828423394097221
 20
-4.262272135416666
 30
0.0
 10
2.954513888888888
 20
-2.844270833333331
 30
0.0
 10
2.954513888888888
 20
-2.844270833333331
 30
0.0
 10
4.277430555555555
 20
-2.844270833333331
 30
0.0
 10
4.277430555555555
 20
-2.844270833333331
 30
0.0
 10
4.169943576388888
 20
-5.109765624999996
 30
0.0
 10
3.795117187499998
 20
-7.009391276041665
 30
0.0
 10
3.151573350694443
 20
-8.542458767361106
 30
0.0
 10
2.381249999999999
 20
-10.38834092881943
 30
0.0
 10
1.347721354166665
 20
-11.3109375
 30
0.0
 10
0.0509874131944445
 20
-11.3109375
 30
0.0
 10
-1.07004665798611
 20
-11.3109375
 30
0.0
 10
-2.010557725694444
 20
-10.55577256944443
 30
0.0
 10
-2.771234809027776
 20
-9.04475368923611
 30
0.0
 10
-3.775824652777775
 20
-7.046598307291666
 30
0.0
 10
-4.277430555555555
 20
-3.961170789930555
 30
0.0
 10
-4.277430555555555
 20
0.2115288628472222
 30
0.0
 10
-4.277430555555555
 20
3.379638671874998
 30
0.0
 10
-3.902604166666666
 20
5.977929687499997
 30
0.0
 10
-3.151573350694443
 20
8.005712890624996
 30
0.0
 10
-2.333018663194443
 20
10.20919596354165
 30
0.0
 10
-1.20647243923611
 20
11.3109375
 30
0.0
 10
0.2266872829861111
 20
11.3109375
 30
0.0
 10
1.444873046875
 20
11.3109375
 30
0.0
 10
2.390207248263884
 20
10.59642469618055
 30
0.0
 10
3.062689887152775
 20
9.168088107638887
 30
0.0
  0
ENDBLK
  5
406
330
403
100
AcDbEntity
  8
0
100
AcDbBlockEnd
  0
BLOCK
  5
40A
330
407
100
AcDbEntity
  8
0
 62
     7
100
AcDbBlockBegin
  2
AI9-BLK5
 70
     0
 10
0.0
 20
0.0
 30
0.0
  3
AI9-BLK5
  1

  0
SPLINE
  5
408
330
407
100
AcDbEntity
  8
LAYER_1
 62
     7
100
AcDbSpline
210
0.0
220
0.0
230
1.0
 70
    11
 71
     3
 72
    32
 73
    28
 74
     0
 42
0.0000000001
 43
0.0000000001
 40
0.0
 40
0.0
 40
0.0
 40
0.0
 40
1.0
 40
1.0
 40
1.0
 40
2.0
 40
2.0
 40
2.0
 40
3.0
 40
3.0
 40
3.0
 40
4.0
 40
4.0
 40
4.0
 40
5.0
 40
5.0
 40
5.0
 40
6.0
 40
6.0
 40
6.0
 40
7.0
 40
7.0
 40
7.0
 40
8.0
 40
8.0
 40
8.0
 40
9.0
 40
9.0
 40
9.0
 40
9.0
 10
-2.62378472222222
 20
-8.268229166666666
 30
0.0
 10
-2.62378472222222
 20
-8.268229166666666
 30
0.0
 10
-2.62378472222222
 20
8.180034722222217
 30
0.0
 10
-2.62378472222222
 20
8.180034722222217
 30
0.0
 10
-2.62378472222222
 20
8.180034722222217
 30
0.0
 10
-0.3376193576388888
 20
8.180034722222217
 30
0.0
 10
-0.3376193576388888
 20
8.180034722222217
 30
0.0
 10
0.6972873263888888
 20
8.180034722222217
 30
0.0
 10
1.449007161458333
 20
7.445540364583332
 30
0.0
 10
1.918918185763885
 20
5.977929687499997
 30
0.0
 10
2.388829210069443
 20
4.510319010416666
 30
0.0
 10
2.62378472222222
 20
2.449462890624999
 30
0.0
 10
2.62378472222222
 20
-0.204638671875
 30
0.0
 10
2.62378472222222
 20
-0.8950358072916666
 30
0.0
 10
2.590022786458332
 20
-1.643310546874999
 30
0.0
 10
2.523187934027772
 20
-2.45015190972222
 30
0.0
 10
2.408121744791666
 20
-3.80200737847222
 30
0.0
 10
2.226220703124999
 20
-4.909950086805555
 30
0.0
 10
1.976795789930553
 20
-5.774669053819441
 30
0.0
 10
1.659847005208333
 20
-6.853672960069442
 30
0.0
 10
1.252636718749998
 20
-7.583344184027778
 30
0.0
 10
0.7544759114583333
 20
-7.962304687499997
 30
0.0
 10
0.4664659288194444
 20
-8.166254340277777
 30
0.0
 10
0.1074869791666666
 20
-8.268229166666666
 30
0.0
 10
-0.3231499565972222
 20
-8.268229166666666
 30
0.0
 10
-0.3231499565972222
 20
-8.268229166666666
 30
0.0
 10
-2.62378472222222
 20
-8.268229166666666
 30
0.0
 10
-2.62378472222222
 20
-8.268229166666666
 30
0.0
  0
SPLINE
  5
409
330
407
100
AcDbEntity
  8
LAYER_1
 62
     7
100
AcDbSpline
210
0.0
220
0.0
230
1.0
 70
    11
 71
     3
 72
    26
 73
    22
 74
     0
 42
0.0000000001
 43
0.0000000001
 40
0.0
 40
0.0
 40
0.0
 40
0.0
 40
1.0
 40
1.0
 40
1.0
 40
2.0
 40
2.0
 40
2.0
 40
3.0
 40
3.0
 40
3.0
 40
4.0
 40
4.0
 40
4.0
 40
5.0
 40
5.0
 40
5.0
 40
6.0
 40
6.0
 40
6.0
 40
7.0
 40
7.0
 40
7.0
 40
7.0
 10
-3.946701388888888
 20
-10.7376736111111
 30
0.0
 10
-3.946701388888888
 20
-10.7376736111111
 30
0.0
 10
-0.0943956163194444
 20
-10.7376736111111
 30
0.0
 10
-0.0943956163194444
 20
-10.7376736111111
 30
0.0
 10
1.546847873263885
 20
-10.7376736111111
 30
0.0
 10
2.705777994791666
 20
-9.11021050347222
 30
0.0
 10
3.381705729166666
 20
-5.854595269097222
 30
0.0
 10
3.757910156249999
 20
-4.01284722222222
 30
0.0
 10
3.946701388888888
 20
-1.951991102430555
 30
0.0
 10
3.946701388888888
 20
0.328662109375
 30
0.0
 10
3.946701388888888
 20
3.281797960069443
 30
0.0
 10
3.622862413194443
 20
5.703700086805552
 30
0.0
 10
2.976562499999998
 20
7.594368489583332
 30
0.0
 10
2.25171440972222
 20
9.689675564236106
 30
0.0
 10
1.233344184027777
 20
10.7376736111111
 30
0.0
 10
-0.0799262152777778
 20
10.7376736111111
 30
0.0
 10
-0.0799262152777778
 20
10.7376736111111
 30
0.0
 10
-3.946701388888888
 20
10.7376736111111
 30
0.0
 10
-3.946701388888888
 20
10.7376736111111
 30
0.0
 10
-3.946701388888888
 20
10.7376736111111
 30
0.0
 10
-3.946701388888888
 20
-10.7376736111111
 30
0.0
 10
-3.946701388888888
 20
-10.7376736111111
 30
0.0
  0
ENDBLK
  5
40B
330
407
100
AcDbEntity
  8
0
100
AcDbBlockEnd
  0
BLOCK
  5
40F
330
40C
100
AcDbEntity
  8
0
 62
     7
100
AcDbBlockBegin
  2
AI9-BLK4
 70
     0
 10
0.0
 20
0.0
 30
0.0
  3
AI9-BLK4
  1

  0
SPLINE
  5
40D
330
40C
100
AcDbEntity
  8
LAYER_1
 62
     7
100
AcDbSpline
210
0.0
220
0.0
230
1.0
 70
    11
 71
     3
 72
    26
 73
    22
 74
     0
 42
0.0000000001
 43
0.0000000001
 40
0.0
 40
0.0
 40
0.0
 40
0.0
 40
1.0
 40
1.0
 40
1.0
 40
2.0
 40
2.0
 40
2.0
 40
3.0
 40
3.0
 40
3.0
 40
4.0
 40
4.0
 40
4.0
 40
5.0
 40
5.0
 40
5.0
 40
6.0
 40
6.0
 40
6.0
 40
7.0
 40
7.0
 40
7.0
 40
7.0
 10
-2.645833333333333
 20
0.9039930555555551
 30
0.0
 10
-2.645833333333333
 20
0.9039930555555551
 30
0.0
 10
-2.645833333333333
 20
8.180034722222217
 30
0.0
 10
-2.645833333333333
 20
8.180034722222217
 30
0.0
 10
-2.645833333333333
 20
8.180034722222217
 30
0.0
 10
0.465087890625
 20
8.180034722222217
 30
0.0
 10
0.465087890625
 20
8.180034722222217
 30
0.0
 10
0.9026150173611108
 20
8.180034722222217
 30
0.0
 10
1.24988064236111
 20
8.034651692708331
 30
0.0
 10
1.506884765625
 20
7.745263671874997
 30
0.0
 10
2.001600477430554
 20
7.194048394097221
 30
0.0
 10
2.248958333333332
 20
6.160519748263887
 30
0.0
 10
2.248958333333332
 20
4.643299696180553
 30
0.0
 10
2.248958333333332
 20
3.232188585069443
 30
0.0
 10
2.072569444444444
 20
2.256537543402775
 30
0.0
 10
1.720480685763888
 20
1.715657552083333
 30
0.0
 10
1.368391927083333
 20
1.174088541666665
 30
0.0
 10
0.8929687499999998
 20
0.9039930555555551
 30
0.0
 10
0.2942111545138888
 20
0.9039930555555551
 30
0.0
 10
0.2942111545138888
 20
0.9039930555555551
 30
0.0
 10
-2.645833333333333
 20
0.9039930555555551
 30
0.0
 10
-2.645833333333333
 20
0.9039930555555551
 30
0.0
  0
SPLINE
  5
40E
330
40C
100
AcDbEntity
  8
LAYER_1
 62
     7
100
AcDbSpline
210
0.0
220
0.0
230
1.0
 70
    11
 71
     3
 72
    68
 73
    64
 74
     0
 42
0.0000000001
 43
0.0000000001
 40
0.0
 40
0.0
 40
0.0
 40
0.0
 40
1.0
 40
1.0
 40
1.0
 40
2.0
 40
2.0
 40
2.0
 40
3.0
 40
3.0
 40
3.0
 40
4.0
 40
4.0
 40
4.0
 40
5.0
 40
5.0
 40
5.0
 40
6.0
 40
6.0
 40
6.0
 40
7.0
 40
7.0
 40
7.0
 40
8.0
 40
8.0
 40
8.0
 40
9.0
 40
9.0
 40
9.0
 40
10.0
 40
10.0
 40
10.0
 40
11.0
 40
11.0
 40
11.0
 40
12.0
 40
12.0
 40
12.0
 40
13.0
 40
13.0
 40
13.0
 40
14.0
 40
14.0
 40
14.0
 40
15.0
 40
15.0
 40
15.0
 40
16.0
 40
16.0
 40
16.0
 40
17.0
 40
17.0
 40
17.0
 40
18.0
 40
18.0
 40
18.0
 40
19.0
 40
19.0
 40
19.0
 40
20.0
 40
20.0
 40
20.0
 40
21.0
 40
21.0
 40
21.0
 40
21.0
 10
-3.968749999999998
 20
-10.7376736111111
 30
0.0
 10
-3.968749999999998
 20
-10.7376736111111
 30
0.0
 10
-2.645833333333333
 20
-10.7376736111111
 30
0.0
 10
-2.645833333333333
 20
-10.7376736111111
 30
0.0
 10
-2.645833333333333
 20
-10.7376736111111
 30
0.0
 10
-2.645833333333333
 20
-1.521354166666665
 30
0.0
 10
-2.645833333333333
 20
-1.521354166666665
 30
0.0
 10
-2.645833333333333
 20
-1.521354166666665
 30
0.0
 10
0.2390896267361111
 20
-1.521354166666665
 30
0.0
 10
0.2390896267361111
 20
-1.521354166666665
 30
0.0
 10
0.7599880642361111
 20
-1.521354166666665
 30
0.0
 10
1.143771701388887
 20
-1.65295681423611
 30
0.0
 10
1.390440538194444
 20
-1.916162109374999
 30
0.0
 10
1.816254340277773
 20
-2.39434136284722
 30
0.0
 10
2.04363064236111
 20
-3.335541449652775
 30
0.0
 10
2.072569444444444
 20
-4.739762369791666
 30
0.0
 10
2.072569444444444
 20
-4.739762369791666
 30
0.0
 10
2.160763888888888
 20
-8.324039713541665
 30
0.0
 10
2.160763888888888
 20
-8.324039713541665
 30
0.0
 10
2.18005642361111
 20
-9.163264973958332
 30
0.0
 10
2.202794053819443
 20
-9.728949652777775
 30
0.0
 10
2.227598741319444
 20
-10.02109374999998
 30
0.0
 10
2.252403428819443
 20
-10.31392686631944
 30
0.0
 10
2.28892144097222
 20
-10.55301649305555
 30
0.0
 10
2.33853081597222
 20
-10.7376736111111
 30
0.0
 10
2.33853081597222
 20
-10.7376736111111
 30
0.0
 10
3.968749999999998
 20
-10.7376736111111
 30
0.0
 10
3.968749999999998
 20
-10.7376736111111
 30
0.0
 10
3.968749999999998
 20
-10.7376736111111
 30
0.0
 10
3.968749999999998
 20
-10.25260416666666
 30
0.0
 10
3.968749999999998
 20
-10.25260416666666
 30
0.0
 10
3.766867404513888
 20
-10.05830078125
 30
0.0
 10
3.625618489583333
 20
-9.621462673611112
 30
0.0
 10
3.545692274305555
 20
-8.942089843749997
 30
0.0
 10
3.49470486111111
 20
-8.543836805555555
 30
0.0
 10
3.459564887152775
 20
-7.937499999999999
 30
0.0
 10
3.439583333333333
 20
-7.121701388888887
 30
0.0
 10
3.439583333333333
 20
-7.121701388888887
 30
0.0
 10
3.395486111111106
 20
-4.232644314236106
 30
0.0
 10
3.395486111111106
 20
-4.232644314236106
 30
0.0
 10
3.375504557291666
 20
-2.981385633680555
 30
0.0
 10
3.26870659722222
 20
-2.077392578125
 30
0.0
 10
3.075781249999999
 20
-1.522043185763888
 30
0.0
 10
2.882166883680555
 20
-0.9666937934027776
 30
0.0
 10
2.592089843749999
 20
-0.5188313802083333
 30
0.0
 10
2.204861111111104
 20
-0.1770779079861111
 30
0.0
 10
2.63618706597222
 20
0.3197048611111111
 30
0.0
 10
2.971739366319443
 20
0.9770290798611107
 30
0.0
 10
3.211518012152775
 20
1.79558376736111
 30
0.0
 10
3.451296657986107
 20
2.613449435763888
 30
0.0
 10
3.571874999999999
 20
3.66558159722222
 30
0.0
 10
3.571874999999999
 20
4.951291232638888
 30
0.0
 10
3.571874999999999
 20
7.415912543402777
 30
0.0
 10
3.124701605902775
 20
9.106076388888887
 30
0.0
 10
2.231043836805555
 20
10.02178276909722
 30
0.0
 10
1.759754774305553
 20
10.498583984375
 30
0.0
 10
1.163753255208332
 20
10.7376736111111
 30
0.0
 10
0.443039279513889
 20
10.7376736111111
 30
0.0
 10
0.443039279513889
 20
10.7376736111111
 30
0.0
 10
-3.968749999999998
 20
10.7376736111111
 30
0.0
 10
-3.968749999999998
 20
10.7376736111111
 30
0.0
 10
-3.968749999999998
 20
10.7376736111111
 30
0.0
 10
-3.968749999999998
 20
-10.7376736111111
 30
0.0
 10
-3.968749999999998
 20
-10.7376736111111
 30
0.0
  0
ENDBLK
  5
410
330
40C
100
AcDbEntity
  8
0
100
AcDbBlockEnd
  0
BLOCK
  5
414
330
411
100
AcDbEntity
  8
0
 62
     7
100
AcDbBlockBegin
  2
AI9-BLK3
 70
     0
 10
0.0
 20
0.0
 30
0.0
  3
AI9-BLK3
  1

  0
LWPOLYLINE
  5
412
330
411
100
AcDbEntity
  8
LAYER_1
 62
     7
100
AcDbPolyline
 90
        4
 70
     1
 43
0.0
 10
-0.6613722059461809
 20
10.7376736111111
 10
0.6613722059461809
 20
10.7376736111111
 10
0.6613722059461809
 20
-10.7376736111111
 10
-0.6613722059461809
 20
-10.7376736111111
  0
HATCH
  5
413
330
411
100
AcDbEntity
  8
LAYER_1
 62
     7
100
AcDbHatch
 10
0.0
 20
0.0
 30
0.0
210
0.0
220
0.0
230
1.0
  2
SOLID
 70
     1
 71
     0
 91
        1
 92
        3
 72
     0
 73
     1
 93
        4
 10
-0.6613722059461809
 20
10.7376736111111
 10
0.6613722059461809
 20
10.7376736111111
 10
0.6613722059461809
 20
-10.7376736111111
 10
-0.6613722059461809
 20
-10.7376736111111
 97
        0
 75
     2
 76
     1
 98
        1
 10
0.0
 20
0.0
  0
ENDBLK
  5
415
330
411
100
AcDbEntity
  8
0
100
AcDbBlockEnd
  0
BLOCK
  5
419
330
416
100
AcDbEntity
  8
0
 62
     7
100
AcDbBlockBegin
  2
AI9-BLK2
 70
     0
 10
0.0
 20
0.0
 30
0.0
  3
AI9-BLK2
  1

  0
LWPOLYLINE
  5
417
330
416
100
AcDbEntity
  8
LAYER_1
 62
     7
100
AcDbPolyline
 90
        7
 70
     1
 43
0.0
 10
-2.785704210069443
 20
10.7376736111111
 10
0.0
 20
-7.550960286458332
 10
2.771234809027776
 20
10.7376736111111
 10
4.233333333333331
 20
10.7376736111111
 10
0.6910861545138888
 20
-10.7376736111111
 10
-0.7055555555555558
 20
-10.7376736111111
 10
-4.233333333333331
 20
10.7376736111111
  0
HATCH
  5
418
330
416
100
AcDbEntity
  8
LAYER_1
 62
     7
100
AcDbHatch
 10
0.0
 20
0.0
 30
0.0
210
0.0
220
0.0
230
1.0
  2
SOLID
 70
     1
 71
     0
 91
        1
 92
        3
 72
     0
 73
     1
 93
        7
 10
-2.785704210069443
 20
10.7376736111111
 10
0.0
 20
-7.550960286458332
 10
2.771234809027776
 20
10.7376736111111
 10
4.233333333333331
 20
10.7376736111111
 10
0.6910861545138888
 20
-10.7376736111111
 10
-0.7055555555555558
 20
-10.7376736111111
 10
-4.233333333333331
 20
10.7376736111111
 97
        0
 75
     2
 76
     1
 98
        1
 10
0.0
 20
0.0
  0
ENDBLK
  5
41A
330
416
100
AcDbEntity
  8
0
100
AcDbBlockEnd
  0
BLOCK
  5
41E
330
41B
100
AcDbEntity
  8
0
 62
     7
100
AcDbBlockBegin
  2
AI9-BLK1
 70
     0
 10
0.0
 20
0.0
 30
0.0
  3
AI9-BLK1
  1

  0
LWPOLYLINE
  5
41C
330
41B
100
AcDbEntity
  8
LAYER_1
 62
     7
100
AcDbPolyline
 90
       12
 70
     1
 43
0.0
 10
-3.571874999999999
 20
10.7376736111111
 10
3.483680555555555
 20
10.7376736111111
 10
3.483680555555555
 20
8.091840277777777
 10
-2.248958333333332
 20
8.091840277777777
 10
-2.248958333333332
 20
1.565451388888888
 10
3.042708333333333
 20
1.565451388888888
 10
3.042708333333333
 20
-0.9039930555555551
 10
-2.248958333333332
 20
-0.9039930555555551
 10
-2.248958333333332
 20
-8.180034722222217
 10
3.571874999999999
 20
-8.180034722222217
 10
3.571874999999999
 20
-10.7376736111111
 10
-3.571874999999999
 20
-10.7376736111111
  0
HATCH
  5
41D
330
41B
100
AcDbEntity
  8
LAYER_1
 62
     7
100
AcDbHatch
 10
0.0
 20
0.0
 30
0.0
210
0.0
220
0.0
230
1.0
  2
SOLID
 70
     1
 71
     0
 91
        1
 92
        3
 72
     0
 73
     1
 93
       12
 10
-3.571874999999999
 20
10.7376736111111
 10
3.483680555555555
 20
10.7376736111111
 10
3.483680555555555
 20
8.091840277777777
 10
-2.248958333333332
 20
8.091840277777777
 10
-2.248958333333332
 20
1.565451388888888
 10
3.042708333333333
 20
1.565451388888888
 10
3.042708333333333
 20
-0.9039930555555551
 10
-2.248958333333332
 20
-0.9039930555555551
 10
-2.248958333333332
 20
-8.180034722222217
 10
3.571874999999999
 20
-8.180034722222217
 10
3.571874999999999
 20
-10.7376736111111
 10
-3.571874999999999
 20
-10.7376736111111
 97
        0
 75
     2
 76
     1
 98
        1
 10
0.0
 20
0.0
  0
ENDBLK
  5
41F
330
41B
100
AcDbEntity
  8
0
100
AcDbBlockEnd
  0
BLOCK
  5
443
330
420
100
AcDbEntity
  8
0
100
AcDbBlockBegin
  2
HD_LLC_logo_OT5
 70
     0
 10
0.0
 20
0.0
 30
0.0
  3
HD_LLC_logo_OT5
  1

  0
SPLINE
  5
421
102
{ACAD_REACTORS
330
441
102
}
330
420
100
AcDbEntity
  8
LAYER_1
 62
     7
100
AcDbSpline
210
0.0
220
0.0
230
1.0
 70
    11
 71
     3
 72
   113
 73
   109
 74
     0
 42
0.0000000001
 43
0.0000000001
 40
0.0
 40
0.0
 40
0.0
 40
0.0
 40
1.0
 40
1.0
 40
1.0
 40
2.0
 40
2.0
 40
2.0
 40
3.0
 40
3.0
 40
3.0
 40
4.0
 40
4.0
 40
4.0
 40
5.0
 40
5.0
 40
5.0
 40
6.0
 40
6.0
 40
6.0
 40
7.0
 40
7.0
 40
7.0
 40
8.0
 40
8.0
 40
8.0
 40
9.0
 40
9.0
 40
9.0
 40
10.0
 40
10.0
 40
10.0
 40
11.0
 40
11.0
 40
11.0
 40
12.0
 40
12.0
 40
12.0
 40
13.0
 40
13.0
 40
13.0
 40
14.0
 40
14.0
 40
14.0
 40
15.0
 40
15.0
 40
15.0
 40
16.0
 40
16.0
 40
16.0
 40
17.0
 40
17.0
 40
17.0
 40
18.0
 40
18.0
 40
18.0
 40
19.0
 40
19.0
 40
19.0
 40
20.0
 40
20.0
 40
20.0
 40
21.0
 40
21.0
 40
21.0
 40
22.0
 40
22.0
 40
22.0
 40
23.0
 40
23.0
 40
23.0
 40
24.0
 40
24.0
 40
24.0
 40
25.0
 40
25.0
 40
25.0
 40
26.0
 40
26.0
 40
26.0
 40
27.0
 40
27.0
 40
27.0
 40
28.0
 40
28.0
 40
28.0
 40
29.0
 40
29.0
 40
29.0
 40
30.0
 40
30.0
 40
30.0
 40
31.0
 40
31.0
 40
31.0
 40
32.0
 40
32.0
 40
32.0
 40
33.0
 40
33.0
 40
33.0
 40
34.0
 40
34.0
 40
34.0
 40
35.0
 40
35.0
 40
35.0
 40
36.0
 40
36.0
 40
36.0
 40
36.0
 10
193.3039632161458
 20
186.1548733181423
 30
0.0
 10
193.3039632161458
 20
186.1860514322916
 30
0.0
 10
193.3039632161458
 20
219.6932223849826
 30
0.0
 10
193.3039632161458
 20
219.6932223849826
 30
0.0
 10
193.3039632161458
 20
219.6932223849826
 30
0.0
 10
193.2974175347219
 20
219.7488606770833
 30
0.0
 10
193.2974175347219
 20
219.7488606770833
 30
0.0
 10
191.5293945312499
 20
235.455740017361
 30
0.0
 10
175.1458984374999
 20
235.2467949761284
 30
0.0
 10
174.9808783637151
 20
235.2428331163193
 30
0.0
 10
174.9808783637151
 20
235.2428331163193
 30
0.0
 10
125.8827555338541
 20
235.2430053710937
 30
0.0
 10
125.8827555338541
 20
235.2430053710937
 30
0.0
 10
125.8827555338541
 20
235.2430053710937
 30
0.0
 10
125.8827555338541
 20
255.5278998480901
 30
0.0
 10
125.8827555338541
 20
255.5278998480901
 30
0.0
 10
125.8827555338541
 20
255.5278998480901
 30
0.0
 10
84.5626247829861
 20
255.5278998480901
 30
0.0
 10
84.5626247829861
 20
255.5278998480901
 30
0.0
 10
84.5626247829861
 20
255.5278998480901
 30
0.0
 10
84.55711263020829
 20
233.7919311523436
 30
0.0
 10
84.55711263020829
 20
233.7919311523436
 30
0.0
 10
84.55711263020829
 20
233.7919311523436
 30
0.0
 10
64.42052951388888
 20
233.7919311523436
 30
0.0
 10
64.42052951388888
 20
233.7919311523436
 30
0.0
 10
64.42052951388888
 20
233.7919311523436
 30
0.0
 10
64.41501736111111
 20
255.5278998480901
 30
0.0
 10
64.41501736111111
 20
255.5278998480901
 30
0.0
 10
64.41501736111111
 20
255.5278998480901
 30
0.0
 10
23.91757541232637
 20
255.5278998480901
 30
0.0
 10
23.91757541232637
 20
255.5278998480901
 30
0.0
 10
23.91757541232637
 20
255.5278998480901
 30
0.0
 10
23.91757541232637
 20
233.2393378363715
 30
0.0
 10
23.91757541232637
 20
233.2393378363715
 30
0.0
 10
23.91757541232637
 20
233.2393378363715
 30
0.0
 10
43.65624999999999
 20
233.2393378363715
 30
0.0
 10
43.65624999999999
 20
233.2393378363715
 30
0.0
 10
43.65624999999999
 20
233.2393378363715
 30
0.0
 10
43.65624999999999
 20
211.5188720703125
 30
0.0
 10
43.65624999999999
 20
211.5188720703125
 30
0.0
 10
43.65624999999999
 20
211.5188720703125
 30
0.0
 10
23.91757541232637
 20
211.5188720703125
 30
0.0
 10
23.91757541232637
 20
211.5188720703125
 30
0.0
 10
23.91757541232637
 20
211.5188720703125
 30
0.0
 10
23.91757541232637
 20
189.2303100585936
 30
0.0
 10
23.91757541232637
 20
189.2303100585936
 30
0.0
 10
23.91757541232637
 20
189.2303100585936
 30
0.0
 10
64.41501736111111
 20
189.2303100585936
 30
0.0
 10
64.41501736111111
 20
189.2303100585936
 30
0.0
 10
64.41501736111111
 20
189.2303100585936
 30
0.0
 10
64.42052951388888
 20
211.069976128472
 30
0.0
 10
64.42052951388888
 20
211.069976128472
 30
0.0
 10
64.42052951388888
 20
211.069976128472
 30
0.0
 10
84.55711263020829
 20
211.069976128472
 30
0.0
 10
84.55711263020829
 20
211.069976128472
 30
0.0
 10
84.55711263020829
 20
211.069976128472
 30
0.0
 10
84.5626247829861
 20
189.2303100585936
 30
0.0
 10
84.5626247829861
 20
189.2303100585936
 30
0.0
 10
84.5626247829861
 20
189.2303100585936
 30
0.0
 10
125.8827555338541
 20
189.2303100585936
 30
0.0
 10
125.8827555338541
 20
189.2303100585936
 30
0.0
 10
125.8827555338541
 20
189.2303100585936
 30
0.0
 10
125.8827555338541
 20
211.5188720703125
 30
0.0
 10
125.8827555338541
 20
211.5188720703125
 30
0.0
 10
125.8827555338541
 20
211.5188720703125
 30
0.0
 10
105.3213921440971
 20
211.5188720703125
 30
0.0
 10
105.3213921440971
 20
211.5188720703125
 30
0.0
 10
105.3213921440971
 20
211.5188720703125
 30
0.0
 10
105.3213921440971
 20
233.2393378363715
 30
0.0
 10
105.3213921440971
 20
233.2393378363715
 30
0.0
 10
105.3213921440971
 20
233.2393378363715
 30
0.0
 10
175.0046495225693
 20
233.243127441406
 30
0.0
 10
175.0046495225693
 20
233.243127441406
 30
0.0
 10
175.6268337673611
 20
233.2560465494791
 30
0.0
 10
189.7165852864583
 20
233.3962619357638
 30
0.0
 10
191.3037407769094
 20
219.5690266927083
 30
0.0
 10
191.3037407769094
 20
219.4332899305555
 30
0.0
 10
191.3037407769094
 20
186.1142211914062
 30
0.0
 10
191.3037407769094
 20
186.1142211914062
 30
0.0
 10
191.3037407769094
 20
186.1142211914062
 30
0.0
 10
191.3051188151039
 20
186.0880384657115
 30
0.0
 10
191.3051188151039
 20
186.0880384657115
 30
0.0
 10
191.3054633246526
 20
186.0787367078991
 30
0.0
 10
191.3109754774304
 20
185.9566080729166
 30
0.0
 10
191.3109754774304
 20
185.7399115668401
 30
0.0
 10
191.3109754774304
 20
184.2090833875865
 30
0.0
 10
191.0488037109374
 20
177.9643310546874
 30
0.0
 10
186.9866916232638
 20
173.5652886284722
 30
0.0
 10
184.2540418836804
 20
170.6064683702255
 30
0.0
 10
180.3224989149304
 20
169.0308539496526
 30
0.0
 10
175.300927734375
 20
168.8825425889756
 30
0.0
 10
175.300927734375
 20
168.8825425889756
 30
0.0
 10
107.0094889322916
 20
168.8828870985243
 30
0.0
 10
107.0094889322916
 20
168.8828870985243
 30
0.0
 10
107.0094889322916
 20
168.8828870985243
 30
0.0
 10
107.0094889322916
 20
166.8830091688368
 30
0.0
 10
107.0094889322916
 20
166.8830091688368
 30
0.0
 10
107.0094889322916
 20
166.8830091688368
 30
0.0
 10
175.3305555555555
 20
166.8830091688368
 30
0.0
 10
175.3305555555555
 20
166.8830091688368
 30
0.0
 10
180.9467502170138
 20
167.0485460069444
 30
0.0
 10
185.3571614583333
 20
168.8448187934026
 30
0.0
 10
188.4687717013888
 20
172.2223904079861
 30
0.0
 10
192.9649658203124
 20
177.1034016927083
 30
0.0
 10
193.3136094835069
 20
183.7202243381076
 30
0.0
 10
193.3136094835069
 20
185.6520616319443
 30
0.0
 10
193.3136094835069
 20
185.9247409396701
 30
0.0
 10
193.3070638020833
 20
186.0868326822916
 30
0.0
 10
193.3039632161458
 20
186.1548733181423
 30
0.0
  0
INSERT
  5
422
102
{ACAD_REACTORS
330
442
102
}
330
420
100
AcDbEntity
  8
LAYER_1
 62
     7
100
AcDbBlockReference
  2
AI9-BLK14
 10
159.5625257703993
 20
200.5118781195744
 30
0.0
  0
INSERT
  5
423
330
420
100
AcDbEntity
  8
LAYER_1
 62
     7
100
AcDbBlockReference
  2
AI9-BLK13
 10
27.69615614149305
 20
179.2145562065971
 30
0.0
 42
0.9200000000000001
  0
INSERT
  5
424
102
{ACAD_REACTORS
330
42F
102
}
330
420
100
AcDbEntity
  8
LAYER_1
 62
     7
100
AcDbBlockReference
  2
AI9-BLK11
 10
44.76591525607638
 20
179.2145562065971
 30
0.0
 42
0.9200000000000001
  0
INSERT
  5
425
102
{ACAD_REACTORS
330
43D
102
}
330
420
100
AcDbEntity
  8
LAYER_1
 62
     7
100
AcDbBlockReference
  2
AI9-BLK10
 10
54.04665798611111
 20
179.2145562065971
 30
0.0
 42
0.9200000000000001
  0
INSERT
  5
426
102
{ACAD_REACTORS
330
43C
102
}
330
420
100
AcDbEntity
  8
LAYER_1
 62
     7
100
AcDbBlockReference
  2
AI9-BLK9
 10
62.79013807508679
 20
179.2145562065971
 30
0.0
 42
0.9
  0
INSERT
  5
427
330
420
100
AcDbEntity
  8
LAYER_1
 62
     7
100
AcDbBlockReference
  2
AI9-BLK8
 10
71.03046196831595
 20
179.2145562065971
 30
0.0
 42
0.9200000000000001
  0
INSERT
  5
428
330
420
100
AcDbEntity
  8
LAYER_1
 62
     7
100
AcDbBlockReference
  2
AI9-BLK7
 10
76.93793945312498
 20
179.2145562065971
 30
0.0
 42
0.9200000000000001
  0
INSERT
  5
429
102
{ACAD_REACTORS
330
430
102
}
330
420
100
AcDbEntity
  8
LAYER_1
 62
     7
100
AcDbBlockReference
  2
AI9-BLK6
 10
82.55602891710069
 20
179.2145562065971
 30
0.0
 42
0.9
  0
INSERT
  5
42A
102
{ACAD_REACTORS
330
43E
102
}
330
420
100
AcDbEntity
  8
LAYER_1
 62
     7
100
AcDbBlockReference
  2
AI9-BLK5
 10
94.32430284288193
 20
179.2145562065971
 30
0.0
 42
0.9200000000000001
  0
INSERT
  5
42B
102
{ACAD_REACTORS
330
43F
102
}
330
420
100
AcDbEntity
  8
LAYER_1
 62
     7
100
AcDbBlockReference
  2
AI9-BLK4
 10
103.2081705729166
 20
179.2145562065971
 30
0.0
 42
0.9200000000000001
  0
INSERT
  5
42C
330
420
100
AcDbEntity
  8
LAYER_1
 62
     7
100
AcDbBlockReference
  2
AI9-BLK3
 10
108.850978597005
 20
179.2145562065971
 30
0.0
 42
0.9200000000000001
  0
INSERT
  5
42D
330
420
100
AcDbEntity
  8
LAYER_1
 62
     7
100
AcDbBlockReference
  2
AI9-BLK2
 10
114.2045708550346
 20
179.2145562065971
 30
0.0
 42
0.9200000000000001
  0
INSERT
  5
42E
330
420
100
AcDbEntity
  8
LAYER_1
 62
     7
100
AcDbBlockReference
  2
AI9-BLK1
 10
122.4125108506944
 20
179.2145562065971
 30
0.0
 42
0.9200000000000001
  0
HATCH
  5
42F
330
420
100
AcDbEntity
  8
0
  6
Continuous
100
AcDbHatch
 10
0.0
 20
0.0
 30
0.0
210
0.0
220
0.0
230
1.0
  2
SOLID
 70
     1
 71
     1
 91
        2
 92
       16
 93
        1
 72
     4
 94
        3
 73
     0
 74
     0
 95
       26
 96
       22
 40
0.0
 40
0.0
 40
0.0
 40
0.0
 40
1.0
 40
1.0
 40
1.0
 40
2.0
 40
2.0
 40
2.0
 40
3.0
 40
3.0
 40
3.0
 40
4.0
 40
4.0
 40
4.0
 40
5.0
 40
5.0
 40
5.0
 40
6.0
 40
6.0
 40
6.0
 40
7.0
 40
7.0
 40
7.0
 40
7.0
 10
42.12008192274304
 20
180.046229817708
 10
42.12008192274304
 20
180.046229817708
 10
42.12008192274304
 20
186.7401881510414
 10
42.12008192274304
 20
186.7401881510414
 10
42.12008192274304
 20
186.7401881510414
 10
45.23100314670138
 20
186.7401881510414
 10
45.23100314670138
 20
186.7401881510414
 10
45.66853027343749
 20
186.7401881510414
 10
46.01579589843749
 20
186.6064357638887
 10
46.27280002170138
 20
186.3401987847216
 10
46.76751573350694
 20
185.8330807291664
 10
47.01487358940972
 20
184.8822343749995
 10
47.01487358940972
 20
183.4863919270832
 10
47.01487358940972
 20
182.188169704861
 10
46.83848470052082
 20
181.2905707465276
 10
46.48639594184028
 20
180.7929611545137
 10
46.13430718315971
 20
180.2947176649304
 10
45.65888400607638
 20
180.046229817708
 10
45.06012641059028
 20
180.046229817708
 10
45.06012641059028
 20
180.046229817708
 10
42.12008192274304
 20
180.046229817708
 10
42.12008192274304
 20
180.046229817708
 97
        1
330
424
 92
        1
 93
        1
 72
     4
 94
        3
 73
     0
 74
     0
 95
       68
 96
       64
 40
0.0
 40
0.0
 40
0.0
 40
0.0
 40
1.0
 40
1.0
 40
1.0
 40
2.0
 40
2.0
 40
2.0
 40
3.0
 40
3.0
 40
3.0
 40
4.0
 40
4.0
 40
4.0
 40
5.0
 40
5.0
 40
5.0
 40
6.0
 40
6.0
 40
6.0
 40
7.0
 40
7.0
 40
7.0
 40
8.0
 40
8.0
 40
8.0
 40
9.0
 40
9.0
 40
9.0
 40
10.0
 40
10.0
 40
10.0
 40
11.0
 40
11.0
 40
11.0
 40
12.0
 40
12.0
 40
12.0
 40
13.0
 40
13.0
 40
13.0
 40
14.0
 40
14.0
 40
14.0
 40
15.0
 40
15.0
 40
15.0
 40
16.0
 40
16.0
 40
16.0
 40
17.0
 40
17.0
 40
17.0
 40
18.0
 40
18.0
 40
18.0
 40
19.0
 40
19.0
 40
19.0
 40
20.0
 40
20.0
 40
20.0
 40
21.0
 40
21.0
 40
21.0
 40
21.0
 10
40.79716525607638
 20
169.3358964843748
 10
40.79716525607638
 20
169.3358964843748
 10
42.12008192274304
 20
169.3358964843748
 10
42.12008192274304
 20
169.3358964843748
 10
42.12008192274304
 20
169.3358964843748
 10
42.12008192274304
 20
177.8149103732637
 10
42.12008192274304
 20
177.8149103732637
 10
42.12008192274304
 20
177.8149103732637
 10
45.00500488281249
 20
177.8149103732637
 10
45.00500488281249
 20
177.8149103732637
 10
45.52590332031249
 20
177.8149103732637
 10
45.90968695746528
 20
177.6938359374998
 10
46.15635579427083
 20
177.4516870659717
 10
46.58216959635415
 20
177.0117621527776
 10
46.80954589843749
 20
176.1458580729164
 10
46.83848470052082
 20
174.8539748263887
 10
46.83848470052082
 20
174.8539748263887
 10
46.92667914496527
 20
171.5564396701385
 10
46.92667914496527
 20
171.5564396701385
 10
46.94597167968749
 20
170.7843524305554
 10
46.96870930989581
 20
170.2639225260415
 10
46.99351399739582
 20
169.9951499565971
 10
47.01831868489581
 20
169.725743489583
 10
47.0548366970486
 20
169.5057810329859
 10
47.10444607204859
 20
169.3358964843748
 10
47.10444607204859
 20
169.3358964843748
 10
48.73466525607638
 20
169.3358964843748
 10
48.73466525607638
 20
169.3358964843748
 10
48.73466525607638
 20
169.3358964843748
 10
48.73466525607638
 20
169.7821603732633
 10
48.73466525607638
 20
169.7821603732633
 10
48.53278266059028
 20
169.9609194878471
 10
48.39153374565971
 20
170.3628105468748
 10
48.31160753038194
 20
170.9878335503471
 10
48.26062011718749
 20
171.3542263454858
 10
48.22548014322915
 20
171.9120562065971
 10
48.20549858940971
 20
172.6625909288193
 10
48.20549858940971
 20
172.6625909288193
 10
48.16140136718749
 20
175.3205234374999
 10
48.16140136718749
 20
175.3205234374999
 10
48.14141981336803
 20
176.4716814236109
 10
48.03462185329859
 20
177.3033550347219
 10
47.84169650607638
 20
177.814276475694
 10
47.64808213975693
 20
178.3251979166665
 10
47.35800509982638
 20
178.7372313368054
 10
46.97077636718749
 20
179.0516445312498
 10
47.4021023220486
 20
179.5086846788193
 10
47.73765462239582
 20
180.1134229600693
 10
47.97743326822915
 20
180.866493272569
 10
48.21721191406249
 20
181.6189296874999
 10
48.33779025607638
 20
182.5868912760411
 10
48.33779025607638
 20
183.7697441406248
 10
48.33779025607638
 20
186.0371957465273
 10
47.89061686197913
 20
187.5921464843749
 10
46.99695909288194
 20
188.4345963541665
 10
46.52567003038194
 20
188.8732534722221
 10
45.92966851128472
 20
189.0932159288193
 10
45.20895453559027
 20
189.0932159288193
 10
45.20895453559027
 20
189.0932159288193
 10
40.79716525607638
 20
189.0932159288193
 10
40.79716525607638
 20
189.0932159288193
 10
40.79716525607638
 20
189.0932159288193
 10
40.79716525607638
 20
169.3358964843748
 10
40.79716525607638
 20
169.3358964843748
 97
        0
 75
     0
 76
     1
 98
        0
  0
HATCH
  5
430
330
420
100
AcDbEntity
  8
0
  6
Continuous
100
AcDbHatch
 10
0.0
 20
0.0
 30
0.0
210
0.0
220
0.0
230
1.0
  2
SOLID
 70
     1
 71
     1
 91
        1
 92
        1
 93
        1
 72
     4
 94
        3
 73
     0
 74
     0
 95
       59
 96
       55
 40
0.0
 40
0.0
 40
0.0
 40
0.0
 40
1.0
 40
1.0
 40
1.0
 40
2.0
 40
2.0
 40
2.0
 40
3.0
 40
3.0
 40
3.0
 40
4.0
 40
4.0
 40
4.0
 40
5.0
 40
5.0
 40
5.0
 40
6.0
 40
6.0
 40
6.0
 40
7.0
 40
7.0
 40
7.0
 40
8.0
 40
8.0
 40
8.0
 40
9.0
 40
9.0
 40
9.0
 40
10.0
 40
10.0
 40
10.0
 40
11.0
 40
11.0
 40
11.0
 40
12.0
 40
12.0
 40
12.0
 40
13.0
 40
13.0
 40
13.0
 40
14.0
 40
14.0
 40
14.0
 40
15.0
 40
15.0
 40
15.0
 40
16.0
 40
16.0
 40
16.0
 40
17.0
 40
17.0
 40
17.0
 40
18.0
 40
18.0
 40
18.0
 40
18.0
 10
85.61871880425345
 20
187.4658355034721
 10
86.29120144314232
 20
186.1797124565971
 10
86.66671685112847
 20
184.7193364800346
 10
86.7452650282118
 20
183.0840874565969
 10
86.7452650282118
 20
183.0840874565969
 10
85.42234836154511
 20
183.0840874565969
 10
85.42234836154511
 20
183.0840874565969
 10
85.27696533203123
 20
184.3156401909719
 10
84.99171142578125
 20
185.2917046440971
 10
84.56589762369791
 20
186.0122808159719
 10
84.14008382161458
 20
186.7322368706594
 10
83.53994818793401
 20
187.0925249565969
 10
82.76617974175342
 20
187.0925249565969
 10
81.81740044487847
 20
187.0925249565969
 10
81.05258924696178
 20
186.4240386284721
 10
80.47243516710068
 20
185.0883062065971
 10
79.89159206814234
 20
183.7525737847219
 10
79.6015150282118
 20
181.7049468315971
 10
79.6015150282118
 20
178.9454253472221
 10
79.6015150282118
 20
176.6844780815969
 10
79.86265326605901
 20
174.8514116753471
 10
80.38561876085069
 20
173.4456060112846
 10
80.90789523654512
 20
172.0391802300344
 10
81.69199896918403
 20
171.3365874565971
 10
82.73724093967013
 20
171.3365874565971
 10
83.69497748480901
 20
171.3365874565971
 10
84.42120361328125
 20
172.0794878472221
 10
84.91523030598958
 20
173.5665288628469
 10
85.18601481119791
 20
174.3491167534719
 10
85.38445231119791
 20
175.3785112847221
 10
85.51054280598959
 20
176.6547124565971
 10
85.51054280598959
 20
176.6547124565971
 10
86.83345947265625
 20
176.6547124565971
 10
86.83345947265625
 20
176.6547124565971
 10
86.72597249348957
 20
174.6157671440971
 10
86.35114610460069
 20
172.9061040581596
 10
85.70760226779514
 20
171.526343315972
 10
84.93727891710069
 20
169.8650493706596
 10
83.90375027126735
 20
169.0347124565971
 10
82.60701633029514
 20
169.0347124565971
 10
81.48598225911458
 20
169.0347124565971
 10
80.54547119140625
 20
169.7143608940971
 10
79.78479410807292
 20
171.0742778862845
 10
78.78020426432292
 20
172.8726177300344
 10
78.27859836154512
 20
175.6495024956596
 10
78.27859836154512
 20
179.4049321831594
 10
78.27859836154512
 20
182.2562310112846
 10
78.65342475043402
 20
184.5946929253469
 10
79.40445556640622
 20
186.4196978081596
 10
80.22301025390625
 20
188.4028325737846
 10
81.34955647786458
 20
189.3943999565971
 10
82.78271620008679
 20
189.3943999565971
 10
84.00090196397568
 20
189.3943999565971
 10
84.94623616536458
 20
188.7513384331594
 10
85.61871880425345
 20
187.4658355034721
 97
        1
330
429
 75
     0
 76
     1
 98
        1
 10
0.0
 20
0.0
  0
LINE
  5
431
102
{ACAD_REACTORS
330
440
102
}
330
420
100
AcDbEntity
  8
LAYER_1
 62
     7
100
AcDbLine
 10
34.65766059027778
 20
177.4497853732638
 30
0.0
 11
36.19830729166666
 21
186.1658769531249
 31
0.0
  0
LINE
  5
432
102
{ACAD_REACTORS
330
440
102
}
330
420
100
AcDbEntity
  8
LAYER_1
 62
     7
100
AcDbLine
 10
36.19830729166666
 20
186.1658769531249
 30
0.0
 11
37.67556423611111
 21
177.4497853732638
 31
0.0
  0
LINE
  5
433
102
{ACAD_REACTORS
330
440
102
}
330
420
100
AcDbEntity
  8
LAYER_1
 62
     7
100
AcDbLine
 10
37.67556423611111
 20
177.4497853732638
 30
0.0
 11
34.65766059027778
 21
177.4497853732638
 31
0.0
  0
LINE
  5
434
102
{ACAD_REACTORS
330
440
102
}
330
420
100
AcDbEntity
  8
LAYER_1
 62
     7
100
AcDbLine
 10
31.83957248263888
 20
169.3358964843748
 30
0.0
 11
33.22450086805555
 21
169.3358964843748
 31
0.0
  0
LINE
  5
435
102
{ACAD_REACTORS
330
440
102
}
330
420
100
AcDbEntity
  8
LAYER_1
 62
     7
100
AcDbLine
 10
33.22450086805555
 20
169.3358964843748
 30
0.0
 11
34.27043185763887
 21
175.2590353732638
 31
0.0
  0
LINE
  5
436
102
{ACAD_REACTORS
330
440
102
}
330
420
100
AcDbEntity
  8
LAYER_1
 62
     7
100
AcDbLine
 10
34.27043185763887
 20
175.2590353732638
 30
0.0
 11
38.04694552951389
 21
175.2590353732638
 31
0.0
  0
LINE
  5
437
102
{ACAD_REACTORS
330
440
102
}
330
420
100
AcDbEntity
  8
LAYER_1
 62
     7
100
AcDbLine
 10
38.04694552951389
 20
175.2590353732638
 30
0.0
 11
39.05015733506942
 21
169.3358964843748
 31
0.0
  0
LINE
  5
438
102
{ACAD_REACTORS
330
440
102
}
330
420
100
AcDbEntity
  8
LAYER_1
 62
     7
100
AcDbLine
 10
39.05015733506942
 20
169.3358964843748
 30
0.0
 11
40.43508572048611
 21
169.3358964843748
 31
0.0
  0
LINE
  5
439
102
{ACAD_REACTORS
330
440
102
}
330
420
100
AcDbEntity
  8
LAYER_1
 62
     7
100
AcDbLine
 10
40.43508572048611
 20
169.3358964843748
 30
0.0
 11
36.952783203125
 21
189.0932159288193
 31
0.0
  0
LINE
  5
43A
102
{ACAD_REACTORS
330
440
102
}
330
420
100
AcDbEntity
  8
LAYER_1
 62
     7
100
AcDbLine
 10
36.952783203125
 20
189.0932159288193
 30
0.0
 11
35.47828233506943
 21
189.0932159288193
 31
0.0
  0
LINE
  5
43B
102
{ACAD_REACTORS
330
440
102
}
330
420
100
AcDbEntity
  8
LAYER_1
 62
     7
100
AcDbLine
 10
35.47828233506943
 20
189.0932159288193
 30
0.0
 11
31.83957248263888
 21
169.3358964843748
 31
0.0
  0
HATCH
  5
43C
330
420
100
AcDbEntity
  8
0
  6
Continuous
100
AcDbHatch
 10
0.0
 20
0.0
 30
0.0
210
0.0
220
0.0
230
1.0
  2
SOLID
 70
     1
 71
     1
 91
        2
 92
       16
 93
        1
 72
     4
 94
        3
 73
     0
 74
     0
 95
       29
 96
       25
 40
0.0
 40
0.0
 40
0.0
 40
0.0
 40
1.0
 40
1.0
 40
1.0
 40
2.0
 40
2.0
 40
2.0
 40
3.0
 40
3.0
 40
3.0
 40
4.0
 40
4.0
 40
4.0
 40
5.0
 40
5.0
 40
5.0
 40
6.0
 40
6.0
 40
6.0
 40
7.0
 40
7.0
 40
7.0
 40
8.0
 40
8.0
 40
8.0
 40
8.0
 10
62.85697292751734
 20
171.3365874565971
 10
61.88338894314235
 20
171.3365874565971
 10
61.18058946397566
 20
172.0714263237844
 10
60.74857449001735
 20
173.5411040581594
 10
60.31587049696178
 20
175.0107817925344
 10
60.10020751953123
 20
176.8165630425341
 10
60.10020751953123
 20
178.9578276909721
 10
60.10020751953123
 20
181.6342534722221
 10
60.35101047092013
 20
183.6589360894094
 10
60.85261637369789
 20
185.0324956597219
 10
61.35422227647566
 20
186.4054351128471
 10
62.00741238064235
 20
187.0925249565969
 10
62.81218668619789
 20
187.0925249565969
 10
63.6369425455729
 20
187.0925249565969
 10
64.28806559244789
 20
186.3992339409721
 10
64.76486680772568
 20
185.0126519097221
 10
65.24166802300347
 20
183.6260698784719
 10
65.48006863064235
 20
181.7961040581594
 10
65.48006863064235
 20
179.5239946831596
 10
65.48006863064235
 20
177.3734282769096
 10
65.27336290147568
 20
175.4715288628467
 10
64.86132948133678
 20
173.8176763237846
 10
64.4492960611979
 20
172.1632036675344
 10
63.78094753689235
 20
171.3365874565971
 10
62.85697292751734
 20
171.3365874565971
 97
        1
330
426
 92
        1
 93
        1
 72
     4
 94
        3
 73
     0
 74
     0
 95
       29
 96
       25
 40
0.0
 40
0.0
 40
0.0
 40
0.0
 40
1.0
 40
1.0
 40
1.0
 40
2.0
 40
2.0
 40
2.0
 40
3.0
 40
3.0
 40
3.0
 40
4.0
 40
4.0
 40
4.0
 40
5.0
 40
5.0
 40
5.0
 40
6.0
 40
6.0
 40
6.0
 40
7.0
 40
7.0
 40
7.0
 40
8.0
 40
8.0
 40
8.0
 40
8.0
 10
62.76119927300346
 20
189.4340874565971
 10
61.47273356119789
 20
189.4340874565971
 10
60.50121663411457
 20
188.2397417534719
 10
59.84733751085068
 20
185.8516704644094
 10
59.3395304361979
 20
183.9900786675344
 10
59.08597140842012
 20
181.7514556206596
 10
59.08597140842012
 20
179.1351812065971
 10
59.08597140842012
 20
176.2379937065971
 10
59.3836276584201
 20
173.8412407769094
 10
59.9789401584201
 20
171.9449224175346
 10
60.6424655490451
 20
169.9779106987846
 10
61.5602389865451
 20
168.9950249565971
 10
62.7315714518229
 20
168.9950249565971
 10
63.9904093424479
 20
168.9950249565971
 10
64.95641411675345
 20
170.1186773003469
 10
65.63027479383679
 20
172.3659819878471
 10
66.20629475911457
 20
174.2796636284719
 10
66.49430474175345
 20
176.6813774956591
 10
66.49430474175345
 20
179.5698833550344
 10
66.49430474175345
 20
182.2388677300341
 10
66.24005669487845
 20
184.4291216362844
 10
65.73293863932289
 20
186.1412651909719
 10
65.08870578342011
 20
188.3364800347219
 10
64.09789632161457
 20
189.4340874565971
 10
62.76119927300346
 20
189.4340874565971
 97
        0
 75
     0
 76
     1
 98
        0
  0
HATCH
  5
43D
330
420
100
AcDbEntity
  8
0
  6
Continuous
100
AcDbHatch
 10
0.0
 20
0.0
 30
0.0
210
0.0
220
0.0
230
1.0
  2
SOLID
 70
     1
 71
     1
 91
        1
 92
        1
 93
        1
 72
     4
 94
        3
 73
     0
 74
     0
 95
       59
 96
       55
 40
0.0
 40
0.0
 40
0.0
 40
0.0
 40
1.0
 40
1.0
 40
1.0
 40
2.0
 40
2.0
 40
2.0
 40
3.0
 40
3.0
 40
3.0
 40
4.0
 40
4.0
 40
4.0
 40
5.0
 40
5.0
 40
5.0
 40
6.0
 40
6.0
 40
6.0
 40
7.0
 40
7.0
 40
7.0
 40
8.0
 40
8.0
 40
8.0
 40
9.0
 40
9.0
 40
9.0
 40
10.0
 40
10.0
 40
10.0
 40
11.0
 40
11.0
 40
11.0
 40
12.0
 40
12.0
 40
12.0
 40
13.0
 40
13.0
 40
13.0
 40
14.0
 40
14.0
 40
14.0
 40
15.0
 40
15.0
 40
15.0
 40
16.0
 40
16.0
 40
16.0
 40
17.0
 40
17.0
 40
17.0
 40
18.0
 40
18.0
 40
18.0
 40
18.0
 10
49.39440104166666
 20
189.0932159288193
 10
49.39440104166666
 20
189.0932159288193
 10
51.24786241319444
 20
189.0932159288193
 10
51.24786241319444
 20
189.0932159288193
 10
51.24786241319444
 20
189.0932159288193
 10
54.04665798611111
 20
172.3887471788193
 10
54.04665798611111
 20
172.3887471788193
 10
54.04665798611111
 20
172.3887471788193
 10
56.83994140624999
 20
189.0932159288193
 10
56.83994140624999
 20
189.0932159288193
 10
56.83994140624999
 20
189.0932159288193
 10
58.69891493055553
 20
189.0932159288193
 10
58.69891493055553
 20
189.0932159288193
 10
58.69891493055553
 20
189.0932159288193
 10
58.69891493055553
 20
169.3358964843748
 10
58.69891493055553
 20
169.3358964843748
 10
58.69891493055553
 20
169.3358964843748
 10
57.46419270833333
 20
169.3358964843748
 10
57.46419270833333
 20
169.3358964843748
 10
57.46419270833333
 20
169.3358964843748
 10
57.46419270833333
 20
180.9964422743054
 10
57.46419270833333
 20
180.9964422743054
 10
57.46419270833333
 20
181.3996011284721
 10
57.47108289930555
 20
182.0677291666664
 10
57.48624131944444
 20
183.0001924913193
 10
57.50071072048609
 20
183.9326558159721
 10
57.50828993055553
 20
184.932312282986
 10
57.50828993055553
 20
185.9997957899304
 10
57.50828993055553
 20
185.9997957899304
 10
54.700537109375
 20
169.3358964843748
 10
54.700537109375
 20
169.3358964843748
 10
54.700537109375
 20
169.3358964843748
 10
53.38382161458333
 20
169.3358964843748
 10
53.38382161458333
 20
169.3358964843748
 10
53.38382161458333
 20
169.3358964843748
 10
50.58502604166665
 20
185.9997957899304
 10
50.58502604166665
 20
185.9997957899304
 10
50.58502604166665
 20
185.9997957899304
 10
50.58502604166665
 20
185.3944236111109
 10
50.58502604166665
 20
185.3944236111109
 10
50.58502604166665
 20
184.9101258680554
 10
50.59191623263888
 20
184.1729029947915
 10
50.60707465277777
 20
183.1821210937498
 10
50.62154405381942
 20
182.1913391927082
 10
50.62912326388889
 20
181.4629908854165
 10
50.62912326388889
 20
180.9964422743054
 10
50.62912326388889
 20
180.9964422743054
 10
50.62912326388889
 20
169.3358964843748
 10
50.62912326388889
 20
169.3358964843748
 10
50.62912326388889
 20
169.3358964843748
 10
49.39440104166666
 20
169.3358964843748
 10
49.39440104166666
 20
169.3358964843748
 10
49.39440104166666
 20
169.3358964843748
 10
49.39440104166666
 20
189.0932159288193
 10
49.39440104166666
 20
189.0932159288193
 97
        1
330
425
 75
     0
 76
     1
 98
        1
 10
0.0
 20
0.0
  0
HATCH
  5
43E
330
420
100
AcDbEntity
  8
0
  6
Continuous
100
AcDbHatch
 10
0.0
 20
0.0
 30
0.0
210
0.0
220
0.0
230
1.0
  2
SOLID
 70
     1
 71
     1
 91
        2
 92
       16
 93
        1
 72
     4
 94
        3
 73
     0
 74
     0
 95
       32
 96
       28
 40
0.0
 40
0.0
 40
0.0
 40
0.0
 40
1.0
 40
1.0
 40
1.0
 40
2.0
 40
2.0
 40
2.0
 40
3.0
 40
3.0
 40
3.0
 40
4.0
 40
4.0
 40
4.0
 40
5.0
 40
5.0
 40
5.0
 40
6.0
 40
6.0
 40
6.0
 40
7.0
 40
7.0
 40
7.0
 40
8.0
 40
8.0
 40
8.0
 40
9.0
 40
9.0
 40
9.0
 40
9.0
 10
91.70051812065969
 20
171.6077853732634
 10
91.70051812065969
 20
171.6077853732634
 10
91.70051812065969
 20
186.7401881510414
 10
91.70051812065969
 20
186.7401881510414
 10
91.70051812065969
 20
186.7401881510414
 10
93.98668348524305
 20
186.7401881510414
 10
93.98668348524305
 20
186.7401881510414
 10
95.02159016927082
 20
186.7401881510414
 10
95.77331000434028
 20
186.0644533420137
 10
96.24322102864582
 20
184.7142515190969
 10
96.71313205295138
 20
183.3640496961804
 10
96.94808756510417
 20
181.4680620659721
 10
96.94808756510417
 20
179.0262886284719
 10
96.94808756510417
 20
178.3911232638887
 10
96.91432562934028
 20
177.7027105034721
 10
96.84749077690971
 20
176.9604164496524
 10
96.7324245876736
 20
175.7167094184024
 10
96.55052354600693
 20
174.6974021267359
 10
96.30109863281248
 20
173.901860677083
 10
95.98414984809028
 20
172.9091770833332
 10
95.57693956163193
 20
172.2378795572914
 10
95.07877875434026
 20
171.8892358940971
 10
94.79076877170138
 20
171.7016022135415
 10
94.43178982204859
 20
171.6077853732634
 10
94.00115288628471
 20
171.6077853732634
 10
94.00115288628471
 20
171.6077853732634
 10
91.70051812065969
 20
171.6077853732634
 10
91.70051812065969
 20
171.6077853732634
 97
        1
330
42A
 92
        1
 93
        1
 72
     4
 94
        3
 73
     0
 74
     0
 95
       26
 96
       22
 40
0.0
 40
0.0
 40
0.0
 40
0.0
 40
1.0
 40
1.0
 40
1.0
 40
2.0
 40
2.0
 40
2.0
 40
3.0
 40
3.0
 40
3.0
 40
4.0
 40
4.0
 40
4.0
 40
5.0
 40
5.0
 40
5.0
 40
6.0
 40
6.0
 40
6.0
 40
7.0
 40
7.0
 40
7.0
 40
7.0
 10
90.37760145399305
 20
169.3358964843748
 10
90.37760145399305
 20
169.3358964843748
 10
94.22990722656248
 20
169.3358964843748
 10
94.22990722656248
 20
169.3358964843748
 10
95.87115071614581
 20
169.3358964843748
 10
97.03008083767359
 20
170.8331625434026
 10
97.70600857204859
 20
173.8283285590274
 10
98.08221299913194
 20
175.5227367621523
 10
98.27100423177082
 20
177.4187243923609
 10
98.27100423177082
 20
179.5169253472221
 10
98.27100423177082
 20
182.233810329861
 10
97.94716525607638
 20
184.4619602864582
 10
97.30086534288195
 20
186.2013752170135
 10
96.57601725260416
 20
188.1290577256939
 10
95.5576470269097
 20
189.0932159288193
 10
94.24437662760416
 20
189.0932159288193
 10
94.24437662760416
 20
189.0932159288193
 10
90.37760145399305
 20
189.0932159288193
 10
90.37760145399305
 20
189.0932159288193
 10
90.37760145399305
 20
189.0932159288193
 10
90.37760145399305
 20
169.3358964843748
 10
90.37760145399305
 20
169.3358964843748
 97
        0
 75
     0
 76
     1
 98
        0
  0
HATCH
  5
43F
330
420
100
AcDbEntity
  8
0
  6
Continuous
100
AcDbHatch
 10
0.0
 20
0.0
 30
0.0
210
0.0
220
0.0
230
1.0
  2
SOLID
 70
     1
 71
     1
 91
        2
 92
       16
 93
        1
 72
     4
 94
        3
 73
     0
 74
     0
 95
       26
 96
       22
 40
0.0
 40
0.0
 40
0.0
 40
0.0
 40
1.0
 40
1.0
 40
1.0
 40
2.0
 40
2.0
 40
2.0
 40
3.0
 40
3.0
 40
3.0
 40
4.0
 40
4.0
 40
4.0
 40
5.0
 40
5.0
 40
5.0
 40
6.0
 40
6.0
 40
6.0
 40
7.0
 40
7.0
 40
7.0
 40
7.0
 10
100.5623372395832
 20
180.046229817708
 10
100.5623372395832
 20
180.046229817708
 10
100.5623372395832
 20
186.7401881510414
 10
100.5623372395832
 20
186.7401881510414
 10
100.5623372395832
 20
186.7401881510414
 10
103.6732584635416
 20
186.7401881510414
 10
103.6732584635416
 20
186.7401881510414
 10
104.1107855902777
 20
186.7401881510414
 10
104.4580512152777
 20
186.6064357638887
 10
104.7150553385415
 20
186.3401987847216
 10
105.2097710503471
 20
185.8330807291664
 10
105.4571289062495
 20
184.8822343749995
 10
105.4571289062495
 20
183.4863919270832
 10
105.4571289062495
 20
182.188169704861
 10
105.280740017361
 20
181.2905707465276
 10
104.9286512586804
 20
180.7929611545137
 10
104.5765624999999
 20
180.2947176649304
 10
104.1011393229166
 20
180.046229817708
 10
103.5023817274304
 20
180.046229817708
 10
103.5023817274304
 20
180.046229817708
 10
100.5623372395832
 20
180.046229817708
 10
100.5623372395832
 20
180.046229817708
 97
        1
330
42B
 92
        1
 93
        1
 72
     4
 94
        3
 73
     0
 74
     0
 95
       68
 96
       64
 40
0.0
 40
0.0
 40
0.0
 40
0.0
 40
1.0
 40
1.0
 40
1.0
 40
2.0
 40
2.0
 40
2.0
 40
3.0
 40
3.0
 40
3.0
 40
4.0
 40
4.0
 40
4.0
 40
5.0
 40
5.0
 40
5.0
 40
6.0
 40
6.0
 40
6.0
 40
7.0
 40
7.0
 40
7.0
 40
8.0
 40
8.0
 40
8.0
 40
9.0
 40
9.0
 40
9.0
 40
10.0
 40
10.0
 40
10.0
 40
11.0
 40
11.0
 40
11.0
 40
12.0
 40
12.0
 40
12.0
 40
13.0
 40
13.0
 40
13.0
 40
14.0
 40
14.0
 40
14.0
 40
15.0
 40
15.0
 40
15.0
 40
16.0
 40
16.0
 40
16.0
 40
17.0
 40
17.0
 40
17.0
 40
18.0
 40
18.0
 40
18.0
 40
19.0
 40
19.0
 40
19.0
 40
20.0
 40
20.0
 40
20.0
 40
21.0
 40
21.0
 40
21.0
 40
21.0
 10
99.23942057291661
 20
169.3358964843748
 10
99.23942057291661
 20
169.3358964843748
 10
100.5623372395832
 20
169.3358964843748
 10
100.5623372395832
 20
169.3358964843748
 10
100.5623372395832
 20
169.3358964843748
 10
100.5623372395832
 20
177.8149103732637
 10
100.5623372395832
 20
177.8149103732637
 10
100.5623372395832
 20
177.8149103732637
 10
103.4472601996527
 20
177.8149103732637
 10
103.4472601996527
 20
177.8149103732637
 10
103.9681586371527
 20
177.8149103732637
 10
104.3519422743053
 20
177.6938359374998
 10
104.5986111111109
 20
177.4516870659717
 10
105.0244249131943
 20
177.0117621527776
 10
105.2518012152777
 20
176.1458580729164
 10
105.280740017361
 20
174.8539748263887
 10
105.280740017361
 20
174.8539748263887
 10
105.3689344618053
 20
171.5564396701385
 10
105.3689344618053
 20
171.5564396701385
 10
105.3882269965277
 20
170.7843524305554
 10
105.4109646267359
 20
170.2639225260415
 10
105.4357693142359
 20
169.9951499565971
 10
105.4605740017358
 20
169.725743489583
 10
105.4970920138888
 20
169.5057810329859
 10
105.5467013888887
 20
169.3358964843748
 10
105.5467013888887
 20
169.3358964843748
 10
107.1769205729166
 20
169.3358964843748
 10
107.1769205729166
 20
169.3358964843748
 10
107.1769205729166
 20
169.3358964843748
 10
107.1769205729166
 20
169.7821603732633
 10
107.1769205729166
 20
169.7821603732633
 10
106.9750379774303
 20
169.9609194878471
 10
106.8337890624996
 20
170.3628105468748
 10
106.7538628472221
 20
170.9878335503471
 10
106.7028754340274
 20
171.3542263454858
 10
106.6677354600692
 20
171.9120562065971
 10
106.6477539062496
 20
172.6625909288193
 10
106.6477539062496
 20
172.6625909288193
 10
106.6036566840277
 20
175.3205234374999
 10
106.6036566840277
 20
175.3205234374999
 10
106.5836751302082
 20
176.4716814236109
 10
106.4768771701387
 20
177.3033550347219
 10
106.2839518229166
 20
177.814276475694
 10
106.0903374565971
 20
178.3251979166665
 10
105.8002604166666
 20
178.7372313368054
 10
105.4130316840276
 20
179.0516445312498
 10
105.8443576388885
 20
179.5086846788193
 10
106.179909939236
 20
180.1134229600693
 10
106.4196885850692
 20
180.866493272569
 10
106.6594672309027
 20
181.6189296874999
 10
106.7800455729166
 20
182.5868912760411
 10
106.7800455729166
 20
183.7697441406248
 10
106.7800455729166
 20
186.0371957465273
 10
106.3328721788193
 20
187.5921464843749
 10
105.4392144097221
 20
188.4345963541665
 10
104.9679253472221
 20
188.8732534722221
 10
104.3719238281249
 20
189.0932159288193
 10
103.6512098524303
 20
189.0932159288193
 10
103.6512098524303
 20
189.0932159288193
 10
99.23942057291661
 20
189.0932159288193
 10
99.23942057291661
 20
189.0932159288193
 10
99.23942057291661
 20
189.0932159288193
 10
99.23942057291661
 20
169.3358964843748
 10
99.23942057291661
 20
169.3358964843748
 97
        0
 75
     0
 76
     1
 98
        0
  0
HATCH
  5
440
330
420
100
AcDbEntity
  8
0
  6
Continuous
100
AcDbHatch
 10
0.0
 20
0.0
 30
0.0
210
0.0
220
0.0
230
1.0
  2
SOLID
 70
     1
 71
     1
 91
        2
 92
        1
 93
        8
 72
     1
 10
35.47828233506943
 20
189.0932159288193
 11
31.83957248263888
 21
169.3358964843748
 72
     1
 10
31.83957248263888
 20
169.3358964843748
 11
33.22450086805555
 21
169.3358964843748
 72
     1
 10
33.22450086805555
 20
169.3358964843748
 11
34.27043185763887
 21
175.2590353732638
 72
     1
 10
34.27043185763887
 20
175.2590353732638
 11
38.04694552951389
 21
175.2590353732638
 72
     1
 10
38.04694552951389
 20
175.2590353732638
 11
39.05015733506942
 21
169.3358964843748
 72
     1
 10
39.05015733506942
 20
169.3358964843748
 11
40.43508572048611
 21
169.3358964843748
 72
     1
 10
40.43508572048611
 20
169.3358964843748
 11
36.952783203125
 21
189.0932159288193
 72
     1
 10
36.952783203125
 20
189.0932159288193
 11
35.47828233506943
 21
189.0932159288193
 97
        8
330
43B
330
434
330
435
330
436
330
437
330
438
330
439
330
43A
 92
       16
 93
        3
 72
     1
 10
37.67556423611111
 20
177.4497853732638
 11
34.65766059027778
 21
177.4497853732638
 72
     1
 10
34.65766059027778
 20
177.4497853732638
 11
36.19830729166666
 21
186.1658769531249
 72
     1
 10
36.19830729166666
 20
186.1658769531249
 11
37.67556423611111
 21
177.4497853732638
 97
        3
330
433
330
431
330
432
 75
     0
 76
     1
 98
        1
 10
0.0
 20
0.0
  0
HATCH
  5
441
330
420
100
AcDbEntity
  8
0
  6
Continuous
100
AcDbHatch
 10
0.0
 20
0.0
 30
0.0
210
0.0
220
0.0
230
1.0
  2
SOLID
 70
     1
 71
     1
 91
        1
 92
        1
 93
        1
 72
     4
 94
        3
 73
     0
 74
     0
 95
      113
 96
      109
 40
0.0
 40
0.0
 40
0.0
 40
0.0
 40
1.0
 40
1.0
 40
1.0
 40
2.0
 40
2.0
 40
2.0
 40
3.0
 40
3.0
 40
3.0
 40
4.0
 40
4.0
 40
4.0
 40
5.0
 40
5.0
 40
5.0
 40
6.0
 40
6.0
 40
6.0
 40
7.0
 40
7.0
 40
7.0
 40
8.0
 40
8.0
 40
8.0
 40
9.0
 40
9.0
 40
9.0
 40
10.0
 40
10.0
 40
10.0
 40
11.0
 40
11.0
 40
11.0
 40
12.0
 40
12.0
 40
12.0
 40
13.0
 40
13.0
 40
13.0
 40
14.0
 40
14.0
 40
14.0
 40
15.0
 40
15.0
 40
15.0
 40
16.0
 40
16.0
 40
16.0
 40
17.0
 40
17.0
 40
17.0
 40
18.0
 40
18.0
 40
18.0
 40
19.0
 40
19.0
 40
19.0
 40
20.0
 40
20.0
 40
20.0
 40
21.0
 40
21.0
 40
21.0
 40
22.0
 40
22.0
 40
22.0
 40
23.0
 40
23.0
 40
23.0
 40
24.0
 40
24.0
 40
24.0
 40
25.0
 40
25.0
 40
25.0
 40
26.0
 40
26.0
 40
26.0
 40
27.0
 40
27.0
 40
27.0
 40
28.0
 40
28.0
 40
28.0
 40
29.0
 40
29.0
 40
29.0
 40
30.0
 40
30.0
 40
30.0
 40
31.0
 40
31.0
 40
31.0
 40
32.0
 40
32.0
 40
32.0
 40
33.0
 40
33.0
 40
33.0
 40
34.0
 40
34.0
 40
34.0
 40
35.0
 40
35.0
 40
35.0
 40
36.0
 40
36.0
 40
36.0
 40
36.0
 10
193.3039632161458
 20
186.1548733181423
 10
193.3039632161458
 20
186.1860514322916
 10
193.3039632161458
 20
219.6932223849826
 10
193.3039632161458
 20
219.6932223849826
 10
193.3039632161458
 20
219.6932223849826
 10
193.2974175347219
 20
219.7488606770833
 10
193.2974175347219
 20
219.7488606770833
 10
191.5293945312499
 20
235.455740017361
 10
175.1458984374999
 20
235.2467949761284
 10
174.9808783637151
 20
235.2428331163193
 10
174.9808783637151
 20
235.2428331163193
 10
125.8827555338541
 20
235.2430053710937
 10
125.8827555338541
 20
235.2430053710937
 10
125.8827555338541
 20
235.2430053710937
 10
125.8827555338541
 20
255.5278998480901
 10
125.8827555338541
 20
255.5278998480901
 10
125.8827555338541
 20
255.5278998480901
 10
84.5626247829861
 20
255.5278998480901
 10
84.5626247829861
 20
255.5278998480901
 10
84.5626247829861
 20
255.5278998480901
 10
84.55711263020829
 20
233.7919311523436
 10
84.55711263020829
 20
233.7919311523436
 10
84.55711263020829
 20
233.7919311523436
 10
64.42052951388888
 20
233.7919311523436
 10
64.42052951388888
 20
233.7919311523436
 10
64.42052951388888
 20
233.7919311523436
 10
64.41501736111111
 20
255.5278998480901
 10
64.41501736111111
 20
255.5278998480901
 10
64.41501736111111
 20
255.5278998480901
 10
23.91757541232637
 20
255.5278998480901
 10
23.91757541232637
 20
255.5278998480901
 10
23.91757541232637
 20
255.5278998480901
 10
23.91757541232637
 20
233.2393378363715
 10
23.91757541232637
 20
233.2393378363715
 10
23.91757541232637
 20
233.2393378363715
 10
43.65624999999999
 20
233.2393378363715
 10
43.65624999999999
 20
233.2393378363715
 10
43.65624999999999
 20
233.2393378363715
 10
43.65624999999999
 20
211.5188720703125
 10
43.65624999999999
 20
211.5188720703125
 10
43.65624999999999
 20
211.5188720703125
 10
23.91757541232637
 20
211.5188720703125
 10
23.91757541232637
 20
211.5188720703125
 10
23.91757541232637
 20
211.5188720703125
 10
23.91757541232637
 20
189.2303100585936
 10
23.91757541232637
 20
189.2303100585936
 10
23.91757541232637
 20
189.2303100585936
 10
64.41501736111111
 20
189.2303100585936
 10
64.41501736111111
 20
189.2303100585936
 10
64.41501736111111
 20
189.2303100585936
 10
64.42052951388888
 20
211.069976128472
 10
64.42052951388888
 20
211.069976128472
 10
64.42052951388888
 20
211.069976128472
 10
84.55711263020829
 20
211.069976128472
 10
84.55711263020829
 20
211.069976128472
 10
84.55711263020829
 20
211.069976128472
 10
84.5626247829861
 20
189.2303100585936
 10
84.5626247829861
 20
189.2303100585936
 10
84.5626247829861
 20
189.2303100585936
 10
125.8827555338541
 20
189.2303100585936
 10
125.8827555338541
 20
189.2303100585936
 10
125.8827555338541
 20
189.2303100585936
 10
125.8827555338541
 20
211.5188720703125
 10
125.8827555338541
 20
211.5188720703125
 10
125.8827555338541
 20
211.5188720703125
 10
105.3213921440971
 20
211.5188720703125
 10
105.3213921440971
 20
211.5188720703125
 10
105.3213921440971
 20
211.5188720703125
 10
105.3213921440971
 20
233.2393378363715
 10
105.3213921440971
 20
233.2393378363715
 10
105.3213921440971
 20
233.2393378363715
 10
175.0046495225693
 20
233.243127441406
 10
175.0046495225693
 20
233.243127441406
 10
175.6268337673611
 20
233.2560465494791
 10
189.7165852864583
 20
233.3962619357638
 10
191.3037407769094
 20
219.5690266927083
 10
191.3037407769094
 20
219.4332899305555
 10
191.3037407769094
 20
186.1142211914062
 10
191.3037407769094
 20
186.1142211914062
 10
191.3037407769094
 20
186.1142211914062
 10
191.3051188151039
 20
186.0880384657115
 10
191.3051188151039
 20
186.0880384657115
 10
191.3054633246526
 20
186.0787367078991
 10
191.3109754774304
 20
185.9566080729166
 10
191.3109754774304
 20
185.7399115668401
 10
191.3109754774304
 20
184.2090833875865
 10
191.0488037109374
 20
177.9643310546874
 10
186.9866916232638
 20
173.5652886284722
 10
184.2540418836804
 20
170.6064683702255
 10
180.3224989149304
 20
169.0308539496526
 10
175.300927734375
 20
168.8825425889756
 10
175.300927734375
 20
168.8825425889756
 10
107.0094889322916
 20
168.8828870985243
 10
107.0094889322916
 20
168.8828870985243
 10
107.0094889322916
 20
168.8828870985243
 10
107.0094889322916
 20
166.8830091688368
 10
107.0094889322916
 20
166.8830091688368
 10
107.0094889322916
 20
166.8830091688368
 10
175.3305555555555
 20
166.8830091688368
 10
175.3305555555555
 20
166.8830091688368
 10
180.9467502170138
 20
167.0485460069444
 10
185.3571614583333
 20
168.8448187934026
 10
188.4687717013888
 20
172.2223904079861
 10
192.9649658203124
 20
177.1034016927083
 10
193.3136094835069
 20
183.7202243381076
 10
193.3136094835069
 20
185.6520616319443
 10
193.3136094835069
 20
185.9247409396701
 10
193.3070638020833
 20
186.0868326822916
 10
193.3039632161458
 20
186.1548733181423
 97
        1
330
421
 75
     0
 76
     1
 98
        1
 10
0.0
 20
0.0
  0
HATCH
  5
442
330
420
100
AcDbEntity
  8
0
  6
Continuous
100
AcDbHatch
 10
0.0
 20
0.0
 30
0.0
210
0.0
220
0.0
230
1.0
  2
SOLID
 70
     1
 71
     1
 91
        2
 92
        1
 93
        1
 72
     4
 94
        3
 73
     0
 74
     0
 95
       23
 96
       19
 40
0.0
 40
0.0
 40
0.0
 40
0.0
 40
1.0
 40
1.0
 40
1.0
 40
2.0
 40
2.0
 40
2.0
 40
3.0
 40
3.0
 40
3.0
 40
4.0
 40
4.0
 40
4.0
 40
5.0
 40
5.0
 40
5.0
 40
6.0
 40
6.0
 40
6.0
 40
6.0
 10
148.6593153211804
 20
211.3929538302948
 10
148.6593153211804
 20
211.3929538302948
 10
148.6593153211804
 20
189.6308024088539
 10
148.6593153211804
 20
189.6308024088539
 10
148.6593153211804
 20
189.6308024088539
 10
161.3152180989583
 20
189.6308024088539
 10
161.3152180989583
 20
189.6308024088539
 10
162.8431179470483
 20
189.6308024088539
 10
170.4657362196178
 20
190.1880466037321
 10
170.4657362196178
 20
201.1911648220483
 10
170.4657362196178
 20
211.1288872612844
 10
162.3356553819444
 20
211.3914035373261
 10
162.2536621093749
 20
211.3927815755205
 10
162.2536621093749
 20
211.3927815755205
 10
149.6594265407986
 20
211.3929538302948
 10
149.6594265407986
 20
211.3929538302948
 10
149.6594265407986
 20
211.3929538302948
 10
148.6593153211804
 20
211.3929538302948
 10
148.6593153211804
 20
211.3929538302948
 97
        1
330
422
 92
       16
 93
        1
 72
     4
 94
        3
 73
     0
 74
     0
 95
       20
 96
       16
 40
0.0
 40
0.0
 40
0.0
 40
0.0
 40
1.0
 40
1.0
 40
1.0
 40
2.0
 40
2.0
 40
2.0
 40
3.0
 40
3.0
 40
3.0
 40
4.0
 40
4.0
 40
4.0
 40
5.0
 40
5.0
 40
5.0
 40
5.0
 10
162.2354031032983
 20
209.3930759006072
 10
162.467947048611
 20
209.3861857096351
 10
168.4655137803819
 20
209.1283203124997
 10
168.4655137803819
 20
201.1911648220483
 10
168.4655137803819
 20
192.3202162000865
 10
162.9926350911458
 20
191.6306803385413
 10
161.3152180989583
 20
191.6306803385413
 10
161.3152180989583
 20
191.6306803385413
 10
152.3310980902776
 20
191.6306803385413
 10
150.6595377604166
 20
191.6306803385413
 10
150.6595377604166
 20
193.3373806423608
 10
150.6595377604166
 20
207.6863755967879
 10
150.6595377604166
 20
209.3930759006072
 10
152.3538357204859
 20
209.3930759006072
 10
162.2354031032983
 20
209.3930759006072
 10
162.2354031032983
 20
209.3930759006072
 97
        0
 75
     0
 76
     1
 98
        0
  0
ENDBLK
  5
444
330
420
100
AcDbEntity
  8
0
100
AcDbBlockEnd
  0
BLOCK
  5
447
330
445
100
AcDbEntity
  8
0
100
AcDbBlockBegin
  2
HD logo-new
 70
     0
 10
0.0
 20
0.0
 30
0.0
  3
HD logo-new
  1

  0
INSERT
  5
446
330
445
100
AcDbEntity
  8
0
 62
     3
100
AcDbBlockReference
  2
HD_LLC_logo_OT5
 10
-27.1607188578505
 20
-68.37367811463031
 30
0.0
 41
0.2999999999999971
 42
0.3000000000000007
 43
0.3
  0
ENDBLK
  5
448
330
445
100
AcDbEntity
  8
0
100
AcDbBlockEnd
  0
BLOCK
  5
452
330
450
100
AcDbEntity
  8
0
100
AcDbBlockBegin
  2
HD LLC
 70
     0
 10
0.0
 20
0.0
 30
0.0
  3
HD LLC
  1

  0
MTEXT
  5
451
330
450
100
AcDbEntity
  8
0
100
AcDbMText
 10
-2.314970886968865
 20
1.247205085865914
 30
0.0
 40
5.675387507387601
 41
236.1828726592229
 71
     5
 72
     5
  1
Harmonic Drive LLC\P800-921-3332\Pwww.harmonicdrive.net
 73
     1
 44
1.0
  0
ENDBLK
  5
453
330
450
100
AcDbEntity
  8
0
100
AcDbBlockEnd
  0
ENDSEC
  0
SECTION
  2
ENTITIES
  0
LINE
  5
63
330
1E
100
AcDbEntity
  8
1
 62
     7
100
AcDbLine
 10
-32.00000013467398
 20
-30.63264299802651
 30
0.0
 11
-32.00000013467398
 21
-57.29999999998285
 31
0.0
  0
LINE
  5
64
330
1E
100
AcDbEntity
  8
1
 62
     7
100
AcDbLine
 10
-28.88900013475133
 20
31.2
 30
0.0
 11
-28.88900013475152
 21
42.23000000001706
 31
0.0
  0
LINE
  5
65
330
1E
100
AcDbEntity
  8
1
  6
PHANTOM
 62
     4
100
AcDbLine
 10
-30.00000013473789
 20
56.99999999999997
 30
0.0
 11
-30.00000013473789
 21
36.5
 31
0.0
  0
LINE
  5
66
330
1E
100
AcDbEntity
  8
1
  6
PHANTOM
 62
     4
100
AcDbLine
 10
-30.00000013473789
 20
36.5
 30
0.0
 11
-20.40000013473787
 21
36.5
 31
0.0
  0
LINE
  5
67
330
1E
100
AcDbEntity
  8
1
  6
DIVIDE
 62
     4
100
AcDbLine
 10
11.4999998652621
 20
-43.0
 30
0.0
 11
11.4999998652621
 21
-35.36274974221132
 31
0.0
  0
LINE
  5
68
330
1E
100
AcDbEntity
  8
1
  6
DIVIDE
 62
     4
100
AcDbLine
 10
9.999999865262113
 20
-43.0
 30
0.0
 11
11.4999998652621
 21
-43.0
 31
0.0
  0
LINE
  5
69
330
1E
100
AcDbEntity
  8
1
  6
DIVIDE
 62
     4
100
AcDbLine
 10
11.4999998652621
 20
35.36274974221132
 30
0.0
 11
11.4999998652621
 21
43.0
 31
0.0
  0
LINE
  5
6A
330
1E
100
AcDbEntity
  8
1
  6
DIVIDE
 62
     4
100
AcDbLine
 10
11.4999998652621
 20
43.0
 30
0.0
 11
9.999999865262113
 21
43.0
 31
0.0
  0
LINE
  5
6B
330
1E
100
AcDbEntity
  8
1
 62
     7
100
AcDbLine
 10
-13.25700013473784
 20
-40.463
 30
0.0
 11
-26.50000013473805
 21
-40.463
 31
0.0
  0
LINE
  5
6C
330
1E
100
AcDbEntity
  8
1
 62
     7
100
AcDbLine
 10
-26.50000013473787
 20
40.46299999999996
 30
0.0
 11
-13.25700013472935
 21
40.46299999999996
 31
0.0
  0
LINE
  5
6D
330
1E
100
AcDbEntity
  8
0
 62
     7
100
AcDbLine
 10
-1.80000006172405
 20
-29.46399955722387
 30
0.0
 11
7.499999798587067
 21
-29.46399955722387
 31
0.0
  0
LINE
  5
6E
330
1E
100
AcDbEntity
  8
1
 62
     7
100
AcDbLine
 10
6.984999863686892
 20
-31.62930375035399
 30
0.0
 11
4.820616369893754
 21
-31.62930375035399
 31
0.0
  0
LINE
  5
6F
330
1E
100
AcDbEntity
  8
1
 62
     7
100
AcDbLine
 10
6.984999863686892
 20
-31.62930375035399
 30
0.0
 11
7.484999863686892
 21
-31.12930375035399
 31
0.0
  0
LINE
  5
70
330
1E
100
AcDbEntity
  8
1
 62
     7
100
AcDbLine
 10
7.484999863686892
 20
-29.95999999998298
 30
0.0
 11
7.484999863686892
 21
-31.12930375035399
 31
0.0
  0
LINE
  5
71
330
1E
100
AcDbEntity
  8
1
 62
     7
100
AcDbLine
 10
7.484999863686892
 20
-29.95999999998298
 30
0.0
 11
6.984999863686892
 21
-29.45999999998298
 31
0.0
  0
LINE
  5
72
330
1E
100
AcDbEntity
  8
1
 62
     7
100
AcDbLine
 10
-0.6550001363132072
 20
-29.45999999998298
 30
0.0
 11
-1.155000136313206
 21
-29.95999999998298
 31
0.0
  0
LINE
  5
73
330
1E
100
AcDbEntity
  8
1
 62
     7
100
AcDbLine
 10
-1.155000136313206
 20
-31.12930375035399
 30
0.0
 11
-1.155000136313206
 21
-29.95999999998298
 31
0.0
  0
LINE
  5
74
330
1E
100
AcDbEntity
  8
1
 62
     7
100
AcDbLine
 10
-1.155000136313206
 20
-31.12930375035399
 30
0.0
 11
-0.6550001363132072
 21
-31.62930375035399
 31
0.0
  0
LINE
  5
75
330
1E
100
AcDbEntity
  8
1
 62
     7
100
AcDbLine
 10
1.509383357479704
 20
-31.62930375035399
 30
0.0
 11
-0.6550001363132072
 21
-31.62930375035399
 31
0.0
  0
LINE
  5
76
330
1E
100
AcDbEntity
  8
1
 62
     7
100
AcDbLine
 10
-2.04822090886431
 20
-36.97099999998306
 30
0.0
 11
-0.4150001363134256
 21
-36.97099999998306
 31
0.0
  0
LINE
  5
77
330
1E
100
AcDbEntity
  8
1
 62
     7
100
AcDbLine
 10
-2.305000136313298
 20
-34.03599999998301
 30
0.0
 11
-2.04822090886431
 21
-36.97099999998306
 31
0.0
  0
LINE
  5
78
330
1E
100
AcDbEntity
  8
1
 62
     7
100
AcDbLine
 10
-0.4150001363134256
 20
-36.97099999998306
 30
0.0
 11
-0.4150001363134256
 21
-32.39099999998302
 31
0.0
  0
LINE
  5
79
330
1E
100
AcDbEntity
  8
1
 62
     7
100
AcDbLine
 10
-2.305000136313298
 20
-32.39099999998302
 30
0.0
 11
-0.4150001363134256
 21
-32.39099999998302
 31
0.0
  0
LINE
  5
7A
330
1E
100
AcDbEntity
  8
1
 62
     7
100
AcDbLine
 10
-2.305000136313298
 20
-34.03599999998301
 30
0.0
 11
-2.305000136313298
 21
-32.39099999998302
 31
0.0
  0
LINE
  5
7B
330
1E
100
AcDbEntity
  8
1
 62
     7
100
AcDbLine
 10
1.629530549234471
 20
-37.79488021604778
 30
0.0
 11
-2.540000136313198
 21
-37.79488021604778
 31
0.0
  0
LINE
  5
7C
330
1E
100
AcDbEntity
  8
1
 62
     7
100
AcDbLine
 10
-2.540000136313198
 20
-37.79488021604778
 30
0.0
 11
-2.740000136313244
 21
-37.99488021604782
 31
0.0
  0
LINE
  5
7D
330
1E
100
AcDbEntity
  8
1
 62
     7
100
AcDbLine
 10
-2.740000136313244
 20
-37.99488021604782
 30
0.0
 11
-2.740000136313244
 21
-39.52758983846912
 31
0.0
  0
LINE
  5
7E
330
1E
100
AcDbEntity
  8
1
 62
     7
100
AcDbLine
 10
-2.140000136313107
 20
-39.87399999998295
 30
0.0
 11
-2.740000136313244
 21
-39.52758983846912
 31
0.0
  0
LINE
  5
7F
330
1E
100
AcDbEntity
  8
1
 62
     7
100
AcDbLine
 10
8.869999863686881
 20
-37.79488021604778
 30
0.0
 11
4.700469178139213
 21
-37.79488021604778
 31
0.0
  0
LINE
  5
80
330
1E
100
AcDbEntity
  8
1
 62
     7
100
AcDbLine
 10
9.069999863686703
 20
-37.99488021604782
 30
0.0
 11
8.869999863686881
 21
-37.79488021604778
 31
0.0
  0
LINE
  5
81
330
1E
100
AcDbEntity
  8
1
 62
     7
100
AcDbLine
 10
9.069999863686703
 20
-39.52758983846912
 30
0.0
 11
9.069999863686703
 21
-37.99488021604782
 31
0.0
  0
LINE
  5
82
330
1E
100
AcDbEntity
  8
1
 62
     7
100
AcDbLine
 10
9.069999863686703
 20
-39.52758983846912
 30
0.0
 11
8.469999863686792
 21
-39.87399999998296
 31
0.0
  0
LINE
  5
83
330
1E
100
AcDbEntity
  8
1
 62
     7
100
AcDbLine
 10
9.069999865248986
 20
39.87400000001708
 30
0.0
 11
-26.53300013475096
 21
39.87400000001708
 31
0.0
  0
LINE
  5
84
330
1E
100
AcDbEntity
  8
1
 62
     7
100
AcDbLine
 10
-26.53300013475096
 20
-39.87399999998274
 30
0.0
 11
9.069999865248986
 21
-39.87399999998274
 31
0.0
  0
LINE
  5
85
330
1E
100
AcDbEntity
  8
1
 62
     7
100
AcDbLine
 10
-0.6550001363132072
 20
31.62930375038832
 30
0.0
 11
1.509383357479704
 21
31.62930375038832
 31
0.0
  0
LINE
  5
86
330
1E
100
AcDbEntity
  8
1
 62
     7
100
AcDbLine
 10
-0.6550001363132072
 20
31.62930375038832
 30
0.0
 11
-1.155000136313206
 21
31.12930375038832
 31
0.0
  0
LINE
  5
87
330
1E
100
AcDbEntity
  8
1
 62
     7
100
AcDbLine
 10
-1.155000136313206
 20
29.96000000001732
 30
0.0
 11
-1.155000136313206
 21
31.12930375038832
 31
0.0
  0
LINE
  5
88
330
1E
100
AcDbEntity
  8
1
 62
     7
100
AcDbLine
 10
-1.155000136313206
 20
29.96000000001732
 30
0.0
 11
-0.6550001363132072
 21
29.46000000001732
 31
0.0
  0
LINE
  5
89
330
1E
100
AcDbEntity
  8
1
 62
     7
100
AcDbLine
 10
6.984999863686892
 20
29.46000000001732
 30
0.0
 11
7.484999863686892
 21
29.96000000001732
 31
0.0
  0
LINE
  5
8A
330
1E
100
AcDbEntity
  8
1
 62
     7
100
AcDbLine
 10
7.484999863686892
 20
31.12930375038832
 30
0.0
 11
7.484999863686892
 21
29.96000000001732
 31
0.0
  0
LINE
  5
8B
330
1E
100
AcDbEntity
  8
1
 62
     7
100
AcDbLine
 10
7.484999863686892
 20
31.12930375038832
 30
0.0
 11
6.984999863686892
 21
31.62930375038832
 31
0.0
  0
LINE
  5
8C
330
1E
100
AcDbEntity
  8
1
 62
     7
100
AcDbLine
 10
4.820616369893754
 20
31.62930375038832
 30
0.0
 11
6.984999863686892
 21
31.62930375038832
 31
0.0
  0
LINE
  5
8D
330
1E
100
AcDbEntity
  8
1
 62
     7
100
AcDbLine
 10
8.469999863686792
 20
39.87400000001729
 30
0.0
 11
9.069999863686703
 21
39.52758983850345
 31
0.0
  0
LINE
  5
8E
330
1E
100
AcDbEntity
  8
1
 62
     7
100
AcDbLine
 10
9.069999863686703
 20
37.99488021608215
 30
0.0
 11
9.069999863686703
 21
39.52758983850345
 31
0.0
  0
LINE
  5
8F
330
1E
100
AcDbEntity
  8
1
 62
     7
100
AcDbLine
 10
8.869999863686881
 20
37.79488021608211
 30
0.0
 11
9.069999863686703
 21
37.99488021608215
 31
0.0
  0
LINE
  5
90
330
1E
100
AcDbEntity
  8
1
 62
     7
100
AcDbLine
 10
4.700469178139213
 20
37.79488021608211
 30
0.0
 11
8.869999863686881
 21
37.79488021608211
 31
0.0
  0
LINE
  5
91
330
1E
100
AcDbEntity
  8
1
 62
     7
100
AcDbLine
 10
-2.305000136313298
 20
32.39100000001736
 30
0.0
 11
-2.305000136313298
 21
34.03600000001734
 31
0.0
  0
LINE
  5
92
330
1E
100
AcDbEntity
  8
1
 62
     7
100
AcDbLine
 10
-0.4150001363134256
 20
32.39100000001736
 30
0.0
 11
-2.305000136313298
 21
32.39100000001736
 31
0.0
  0
LINE
  5
93
330
1E
100
AcDbEntity
  8
1
 62
     7
100
AcDbLine
 10
-0.4150001363134256
 20
32.39100000001736
 30
0.0
 11
-0.4150001363134256
 21
36.97100000001739
 31
0.0
  0
LINE
  5
94
330
1E
100
AcDbEntity
  8
1
 62
     7
100
AcDbLine
 10
-2.04822090886431
 20
36.97100000001739
 30
0.0
 11
-2.305000136313298
 21
34.03600000001734
 31
0.0
  0
LINE
  5
95
330
1E
100
AcDbEntity
  8
1
 62
     7
100
AcDbLine
 10
-0.4150001363134256
 20
36.97100000001739
 30
0.0
 11
-2.04822090886431
 21
36.97100000001739
 31
0.0
  0
LINE
  5
96
330
1E
100
AcDbEntity
  8
1
 62
     7
100
AcDbLine
 10
-2.740000136313244
 20
39.52758983850345
 30
0.0
 11
-2.140000136313107
 21
39.87400000001728
 31
0.0
  0
LINE
  5
97
330
1E
100
AcDbEntity
  8
1
 62
     7
100
AcDbLine
 10
-2.740000136313244
 20
39.52758983850345
 30
0.0
 11
-2.740000136313244
 21
37.99488021608215
 31
0.0
  0
LINE
  5
98
330
1E
100
AcDbEntity
  8
1
 62
     7
100
AcDbLine
 10
-2.740000136313244
 20
37.99488021608215
 30
0.0
 11
-2.540000136313198
 21
37.79488021608211
 31
0.0
  0
LINE
  5
99
330
1E
100
AcDbEntity
  8
1
 62
     7
100
AcDbLine
 10
-2.540000136313198
 20
37.79488021608211
 30
0.0
 11
1.629530549234471
 21
37.79488021608211
 31
0.0
  0
LINE
  5
9A
330
1E
100
AcDbEntity
  8
1
 62
     7
100
AcDbLine
 10
100.9319334515837
 20
-50.67939511564765
 30
0.0
 11
102.0739539030945
 21
-49.37717036994116
 31
0.0
  0
LINE
  5
9B
330
1E
100
AcDbEntity
  8
1
 62
     7
100
AcDbLine
 10
102.0739539030945
 20
-49.37717036994116
 30
0.0
 11
101.5172044176317
 21
-47.73703927443818
 31
0.0
  0
LINE
  5
9C
330
1E
100
AcDbEntity
  8
1
 62
     7
100
AcDbLine
 10
101.5172044176317
 20
-47.73703927443818
 30
0.0
 11
99.81843448065767
 21
-47.39913292464115
 31
0.0
  0
LINE
  5
9D
330
1E
100
AcDbEntity
  8
1
 62
     7
100
AcDbLine
 10
99.81843448065767
 20
-47.39913292464115
 30
0.0
 11
98.67641402914651
 21
-48.70135767034748
 31
0.0
  0
LINE
  5
9E
330
1E
100
AcDbEntity
  8
1
 62
     7
100
AcDbLine
 10
98.67641402914651
 20
-48.70135767034748
 30
0.0
 11
99.23316351460872
 21
-50.34148876585078
 31
0.0
  0
LINE
  5
9F
330
1E
100
AcDbEntity
  8
1
 62
     7
100
AcDbLine
 10
99.23316351460872
 20
-50.34148876585078
 30
0.0
 11
100.9319334515837
 21
-50.67939511564765
 31
0.0
  0
LINE
  5
A0
330
1E
100
AcDbEntity
  8
1
 62
     7
100
AcDbLine
 10
59.78821130105885
 20
10.89653655233417
 30
0.0
 11
59.45030495126207
 21
9.197766615360137
 31
0.0
  0
LINE
  5
A1
330
1E
100
AcDbEntity
  8
1
 62
     7
100
AcDbLine
 10
61.42834239656203
 20
11.45328603779706
 30
0.0
 11
59.78821130105885
 21
10.89653655233417
 31
0.0
  0
LINE
  5
A2
330
1E
100
AcDbEntity
  8
1
 62
     7
100
AcDbLine
 10
62.73056714226846
 20
10.31126558628614
 30
0.0
 11
61.42834239656203
 21
11.45328603779706
 31
0.0
  0
LINE
  5
A3
330
1E
100
AcDbEntity
  8
1
 62
     7
100
AcDbLine
 10
62.3926607924716
 20
8.612495649312108
 30
0.0
 11
62.73056714226846
 21
10.31126558628614
 31
0.0
  0
LINE
  5
A4
330
1E
100
AcDbEntity
  8
1
 62
     7
100
AcDbLine
 10
60.7525296969684
 20
8.055746163849221
 30
0.0
 11
62.3926607924716
 21
8.612495649312108
 31
0.0
  0
LINE
  5
A5
330
1E
100
AcDbEntity
  8
1
 62
     7
100
AcDbLine
 10
59.45030495126207
 20
9.197766615360137
 30
0.0
 11
60.7525296969684
 21
8.055746163849221
 31
0.0
  0
LINE
  5
A6
330
1E
100
AcDbEntity
  8
1
 62
     7
100
AcDbLine
 10
100.9319334515837
 20
-50.67939511564765
 30
0.0
 11
102.0739539030945
 21
-49.37717036994116
 31
0.0
  0
LINE
  5
A7
330
1E
100
AcDbEntity
  8
1
 62
     7
100
AcDbLine
 10
102.0739539030945
 20
-49.37717036994116
 30
0.0
 11
101.5172044176317
 21
-47.73703927443818
 31
0.0
  0
LINE
  5
A8
330
1E
100
AcDbEntity
  8
1
 62
     7
100
AcDbLine
 10
101.5172044176317
 20
-47.73703927443818
 30
0.0
 11
99.81843448065767
 21
-47.39913292464115
 31
0.0
  0
LINE
  5
A9
330
1E
100
AcDbEntity
  8
1
 62
     7
100
AcDbLine
 10
99.81843448065767
 20
-47.39913292464115
 30
0.0
 11
98.67641402914651
 21
-48.70135767034748
 31
0.0
  0
LINE
  5
AA
330
1E
100
AcDbEntity
  8
1
 62
     7
100
AcDbLine
 10
98.67641402914651
 20
-48.70135767034748
 30
0.0
 11
99.23316351460872
 21
-50.34148876585078
 31
0.0
  0
LINE
  5
AB
330
1E
100
AcDbEntity
  8
1
 62
     7
100
AcDbLine
 10
99.23316351460872
 20
-50.34148876585078
 30
0.0
 11
100.9319334515837
 21
-50.67939511564765
 31
0.0
  0
LINE
  5
AC
330
1E
100
AcDbEntity
  8
1
 62
     7
100
AcDbLine
 10
160.4711888327945
 20
-10.89653655230057
 30
0.0
 11
160.8090951825914
 21
-9.197766615326486
 31
0.0
  0
LINE
  5
AD
330
1E
100
AcDbEntity
  8
1
 62
     7
100
AcDbLine
 10
158.8310577372916
 20
-11.45328603776335
 30
0.0
 11
160.4711888327945
 21
-10.89653655230057
 31
0.0
  0
LINE
  5
AE
330
1E
100
AcDbEntity
  8
1
 62
     7
100
AcDbLine
 10
157.5288329915845
 20
-10.31126558625215
 30
0.0
 11
158.8310577372916
 21
-11.45328603776335
 31
0.0
  0
LINE
  5
AF
330
1E
100
AcDbEntity
  8
1
 62
     7
100
AcDbLine
 10
157.8667393413815
 20
-8.612495649278173
 30
0.0
 11
157.5288329915845
 21
-10.31126558625215
 31
0.0
  0
LINE
  5
B0
330
1E
100
AcDbEntity
  8
1
 62
     7
100
AcDbLine
 10
159.5068704368844
 20
-8.055746163815285
 30
0.0
 11
157.8667393413815
 21
-8.612495649278173
 31
0.0
  0
LINE
  5
B1
330
1E
100
AcDbEntity
  8
1
 62
     7
100
AcDbLine
 10
160.8090951825914
 20
-9.197766615326486
 30
0.0
 11
159.5068704368844
 21
-8.055746163815285
 31
0.0
  0
LINE
  5
B2
330
1E
100
AcDbEntity
  8
1
 62
     7
100
AcDbLine
 10
119.3274666822695
 20
50.6793951156817
 30
0.0
 11
118.1854462307587
 21
49.37717036997536
 31
0.0
  0
LINE
  5
B3
330
1E
100
AcDbEntity
  8
1
 62
     7
100
AcDbLine
 10
118.1854462307587
 20
49.37717036997536
 30
0.0
 11
118.7421957162215
 21
47.73703927447217
 31
0.0
  0
LINE
  5
B4
330
1E
100
AcDbEntity
  8
1
 62
     7
100
AcDbLine
 10
118.7421957162215
 20
47.73703927447217
 30
0.0
 11
120.4409656531955
 21
47.39913292467531
 31
0.0
  0
LINE
  5
B5
330
1E
100
AcDbEntity
  8
1
 62
     7
100
AcDbLine
 10
120.4409656531955
 20
47.39913292467531
 30
0.0
 11
121.5829861047065
 21
48.70135767038174
 31
0.0
  0
LINE
  5
B6
330
1E
100
AcDbEntity
  8
1
 62
     7
100
AcDbLine
 10
121.5829861047065
 20
48.70135767038174
 30
0.0
 11
121.0262366192436
 21
50.34148876588496
 31
0.0
  0
LINE
  5
B7
330
1E
100
AcDbEntity
  8
1
 62
     7
100
AcDbLine
 10
121.0262366192436
 20
50.34148876588496
 30
0.0
 11
119.3274666822695
 21
50.6793951156817
 31
0.0
  0
LINE
  5
B8
330
1E
100
AcDbEntity
  8
1
  6
CENTER
 62
     3
100
AcDbLine
 10
60.12472036975272
 20
-20.71274077674206
 30
0.0
 11
67.74672651297068
 21
-17.55560245972993
 31
0.0
  0
LINE
  5
B9
330
1E
100
AcDbEntity
  8
1
  6
CENTER
 62
     3
100
AcDbLine
 10
71.85754553520372
 20
-38.27215453170368
 30
0.0
 11
77.69117647999259
 21
-32.43852358691493
 31
0.0
  0
LINE
  5
BA
330
1E
100
AcDbEntity
  8
1
  6
CENTER
 62
     3
100
AcDbLine
 10
89.41695929016454
 20
-50.00497969715593
 30
0.0
 11
92.57409760717669
 21
-42.38297355393797
 31
0.0
  0
LINE
  5
BB
330
1E
100
AcDbEntity
  8
1
  6
CENTER
 62
     3
100
AcDbLine
 10
101.4899096106036
 20
-43.43515976475078
 30
0.0
 11
99.27624606076657
 21
-54.56399795112458
 31
0.0
  0
LINE
  5
BC
330
1E
100
AcDbEntity
  8
1
  6
CENTER
 62
     3
100
AcDbLine
 10
66.69454030215867
 20
8.639790456340165
 30
0.0
 11
55.56570211578527
 21
10.85345400617723
 31
0.0
  0
LINE
  5
BD
330
1E
100
AcDbEntity
  8
1
  6
CENTER
 62
     3
100
AcDbLine
 10
60.12472036975353
 20
20.71274077677923
 30
0.0
 11
67.74672651297148
 21
17.55560245976709
 31
0.0
  0
LINE
  5
BE
330
1E
100
AcDbEntity
  8
1
  6
CENTER
 62
     3
100
AcDbLine
 10
71.85754553520576
 20
38.27215453174006
 30
0.0
 11
77.69117647999451
 21
32.43852358695119
 31
0.0
  0
LINE
  5
BF
330
1E
100
AcDbEntity
  8
1
  6
CENTER
 62
     3
100
AcDbLine
 10
89.41695929016736
 20
50.00497969719106
 30
0.0
 11
92.57409760717951
 21
42.3829735539731
 31
0.0
  0
LINE
  5
C0
330
1E
100
AcDbEntity
  8
1
  6
CENTER
 62
     3
100
AcDbLine
 10
110.1297000669265
 20
57.94008358283328
 30
0.0
 11
110.1297000669265
 21
-59.06280455568264
 31
0.0
  0
LINE
  5
C1
330
1E
100
AcDbEntity
  8
1
  6
CENTER
 62
     3
100
AcDbLine
 10
50.1325308130145
 20
0.0000000000172236
 30
0.0
 11
167.7104996155804
 21
0.0000000000171667
 31
0.0
  0
LINE
  5
C2
330
1E
100
AcDbEntity
  8
1
 62
     3
100
AcDbLine
 10
-30.60000013467389
 20
-64.59999999998297
 30
0.0
 11
-24.00000013467398
 21
-64.59999999998297
 31
0.0
  0
LINE
  5
C3
330
1E
100
AcDbEntity
  8
1
 62
     3
100
AcDbLine
 10
-30.60000013467389
 20
-67.39999999998298
 30
0.0
 11
-24.00000013467398
 21
-67.39999999998298
 31
0.0
  0
LINE
  5
C4
330
1E
100
AcDbEntity
  8
1
 62
     3
100
AcDbLine
 10
-30.60000013467389
 20
-64.59999999998297
 30
0.0
 11
-31.63923061921524
 21
-63.99999999998282
 31
0.0
  0
LINE
  5
C5
330
1E
100
AcDbEntity
  8
1
 62
     3
100
AcDbLine
 10
-30.60000013467389
 20
-67.39999999998298
 30
0.0
 11
-31.63923061921524
 21
-67.99999999998282
 31
0.0
  0
LINE
  5
C6
330
1E
100
AcDbEntity
  8
1
 62
     7
100
AcDbLine
 10
-32.00000013467398
 20
-65.99999999998281
 30
0.0
 11
-32.00000013467398
 21
-63.99999999998282
 31
0.0
  0
LINE
  5
C7
330
1E
100
AcDbEntity
  8
1
 62
     7
100
AcDbLine
 10
-32.00000013467398
 20
-62.49999999998283
 30
0.0
 11
-35.70000013467403
 21
-62.49999999998283
 31
0.0
  0
LINE
  5
C8
330
1E
100
AcDbEntity
  8
1
 62
     7
100
AcDbLine
 10
-35.70000013467403
 20
-62.49999999998283
 30
0.0
 11
-36.00000013467397
 21
-62.79999999998285
 31
0.0
  0
LINE
  5
C9
330
1E
100
AcDbEntity
  8
1
 62
     7
100
AcDbLine
 10
-36.00000013467397
 20
-62.79999999998285
 30
0.0
 11
-36.00000013467397
 21
-69.19999999998293
 31
0.0
  0
LINE
  5
CA
330
1E
100
AcDbEntity
  8
1
 62
     7
100
AcDbLine
 10
-36.00000013467397
 20
-69.19999999998293
 30
0.0
 11
-35.70000013467403
 21
-69.49999999998282
 31
0.0
  0
LINE
  5
CB
330
1E
100
AcDbEntity
  8
1
 62
     7
100
AcDbLine
 10
-35.70000013467403
 20
-69.49999999998282
 30
0.0
 11
-32.00000013467398
 21
-69.49999999998282
 31
0.0
  0
LINE
  5
CC
330
1E
100
AcDbEntity
  8
1
 62
     7
100
AcDbLine
 10
-32.00000013467398
 20
-69.49999999998282
 30
0.0
 11
-32.00000013467398
 21
-68.19999999998294
 31
0.0
  0
LINE
  5
CD
330
1E
100
AcDbEntity
  8
1
 62
     7
100
AcDbLine
 10
-31.80000013467394
 20
-67.99999999998282
 30
0.0
 11
-30.60000013467389
 21
-67.99999999998282
 31
0.0
  0
LINE
  5
CE
330
1E
100
AcDbEntity
  8
1
 62
     7
100
AcDbLine
 10
-32.00000013467398
 20
-67.99999999998282
 30
0.0
 11
-32.00000013467398
 21
-65.99999999998281
 31
0.0
  0
LINE
  5
CF
330
1E
100
AcDbEntity
  8
1
 62
     7
100
AcDbLine
 10
-24.60000013467389
 20
-67.99999999998282
 30
0.0
 11
-24.00000013467398
 21
-67.39999999998298
 31
0.0
  0
LINE
  5
D0
330
1E
100
AcDbEntity
  8
1
 62
     7
100
AcDbLine
 10
-24.00000013467398
 20
-67.39999999998298
 30
0.0
 11
-24.00000013467398
 21
-64.59999999998297
 31
0.0
  0
LINE
  5
D1
330
1E
100
AcDbEntity
  8
1
 62
     7
100
AcDbLine
 10
-24.00000013467398
 20
-64.59999999998297
 30
0.0
 11
-24.60000013467389
 21
-63.99999999998282
 31
0.0
  0
LINE
  5
D2
330
1E
100
AcDbEntity
  8
1
 62
     7
100
AcDbLine
 10
-24.60000013467389
 20
-63.99999999998282
 30
0.0
 11
-30.60000013467389
 21
-63.99999999998282
 31
0.0
  0
LINE
  5
D3
330
1E
100
AcDbEntity
  8
1
 62
     7
100
AcDbLine
 10
-32.00000013467398
 20
-63.79999999998296
 30
0.0
 11
-32.00000013467398
 21
-62.49999999998283
 31
0.0
  0
LINE
  5
D4
330
1E
100
AcDbEntity
  8
1
 62
     7
100
AcDbLine
 10
-30.60000013467389
 20
-63.99999999998282
 30
0.0
 11
-30.60000013467389
 21
-67.99999999998282
 31
0.0
  0
LINE
  5
D5
330
1E
100
AcDbEntity
  8
1
 62
     7
100
AcDbLine
 10
-30.60000013467389
 20
-67.99999999998282
 30
0.0
 11
-24.60000013467389
 21
-67.99999999998282
 31
0.0
  0
LINE
  5
D6
330
1E
100
AcDbEntity
  8
1
 62
     7
100
AcDbLine
 10
-30.60000013467389
 20
-63.99999999998282
 30
0.0
 11
-31.80000013467394
 21
-63.99999999998282
 31
0.0
  0
LINE
  5
D7
330
1E
100
AcDbEntity
  8
1
 62
     7
100
AcDbLine
 10
-24.60000013467389
 20
-67.99999999998282
 30
0.0
 11
-24.60000013467389
 21
-63.99999999998282
 31
0.0
  0
LINE
  5
D8
330
1E
100
AcDbEntity
  8
1
 62
     7
100
AcDbLine
 10
-35.70000013467403
 20
-62.49999999998283
 30
0.0
 11
-35.70000013467403
 21
-69.49999999998282
 31
0.0
  0
LINE
  5
D9
330
1E
100
AcDbEntity
  8
1
 62
     7
100
AcDbLine
 10
-32.00000013467398
 20
-63.99999999998282
 30
0.0
 11
-32.00000013467398
 21
-63.79999999998296
 31
0.0
  0
LINE
  5
DA
330
1E
100
AcDbEntity
  8
1
 62
     7
100
AcDbLine
 10
-32.00000013467398
 20
-67.99999999998282
 30
0.0
 11
-32.00000013467398
 21
-68.19999999998294
 31
0.0
  0
LINE
  5
DB
330
1E
100
AcDbEntity
  8
1
 62
     7
100
AcDbLine
 10
-9.380011885753093
 20
57.94679641315861
 30
0.0
 11
-8.38564498382094
 21
57.13560236158151
 31
0.0
  0
LINE
  5
DC
330
1E
100
AcDbEntity
  8
1
 62
     7
100
AcDbLine
 10
-11.00000017977992
 20
54.99999917360856
 30
0.0
 11
-8.38564498382094
 21
57.13560236158151
 31
0.0
  0
LINE
  5
DD
330
1E
100
AcDbEntity
  8
1
 62
     7
100
AcDbLine
 10
-11.00000017977992
 20
54.99999917360856
 30
0.0
 11
-9.380011885753093
 21
57.94679641315861
 31
0.0
  0
LINE
  5
DE
330
1E
100
AcDbEntity
  8
1
 62
     7
100
AcDbLine
 10
-5.000000179779918
 20
61.00000000001717
 30
0.0
 11
-11.00000017977992
 21
54.99999917360856
 31
0.0
  0
LINE
  5
DF
330
1E
100
AcDbEntity
  8
1
 62
     7
100
AcDbLine
 10
-11.00000017977992
 20
54.99999917360856
 30
0.0
 11
-11.00000017977992
 21
61.00000000001717
 31
0.0
  0
LINE
  5
E0
330
1E
100
AcDbEntity
  8
1
 62
     7
100
AcDbLine
 10
-5.000000179779918
 20
54.99999917360856
 30
0.0
 11
-11.00000017977992
 21
54.99999917360856
 31
0.0
  0
LINE
  5
E1
330
1E
100
AcDbEntity
  8
1
 62
     7
100
AcDbLine
 10
-5.000000179779918
 20
61.00000000001717
 30
0.0
 11
-5.000000179779918
 21
54.99999917360856
 31
0.0
  0
LINE
  5
E2
330
1E
100
AcDbEntity
  8
1
 62
     7
100
AcDbLine
 10
-11.00000017977992
 20
61.00000000001717
 30
0.0
 11
-5.000000179779918
 21
61.00000000001717
 31
0.0
  0
LINE
  5
E3
330
1E
100
AcDbEntity
  8
1
 62
     7
100
AcDbLine
 10
-8.38564498382094
 20
-57.13560236154729
 30
0.0
 11
-9.380011885753093
 21
-57.94679641312428
 31
0.0
  0
LINE
  5
E4
330
1E
100
AcDbEntity
  8
1
 62
     7
100
AcDbLine
 10
-8.38564498382094
 20
-57.13560236154729
 30
0.0
 11
-11.00000017977992
 21
-54.99999917357435
 31
0.0
  0
LINE
  5
E5
330
1E
100
AcDbEntity
  8
1
 62
     7
100
AcDbLine
 10
-9.380011885753093
 20
-57.94679641312428
 30
0.0
 11
-11.00000017977992
 21
-54.99999917357435
 31
0.0
  0
LINE
  5
E6
330
1E
100
AcDbEntity
  8
1
 62
     7
100
AcDbLine
 10
-11.00000017977992
 20
-54.99999917357435
 30
0.0
 11
-5.000000179779918
 21
-60.99999999998278
 31
0.0
  0
LINE
  5
E7
330
1E
100
AcDbEntity
  8
1
 62
     7
100
AcDbLine
 10
-11.00000017977992
 20
-60.99999999998282
 30
0.0
 11
-11.00000017977992
 21
-54.99999917357435
 31
0.0
  0
LINE
  5
E8
330
1E
100
AcDbEntity
  8
1
 62
     7
100
AcDbLine
 10
-11.00000017977992
 20
-54.99999917357435
 30
0.0
 11
-5.000000179779918
 21
-54.99999917357435
 31
0.0
  0
LINE
  5
E9
330
1E
100
AcDbEntity
  8
1
 62
     7
100
AcDbLine
 10
-5.000000179779918
 20
-54.99999917357435
 30
0.0
 11
-5.000000179779918
 21
-60.99999999998278
 31
0.0
  0
LINE
  5
EA
330
1E
100
AcDbEntity
  8
1
 62
     7
100
AcDbLine
 10
-5.000000179779918
 20
-60.99999999998278
 30
0.0
 11
-11.00000017977992
 21
-60.99999999998282
 31
0.0
  0
LINE
  5
EB
330
1E
100
AcDbEntity
  8
1
 62
     3
100
AcDbLine
 10
4.099999865239977
 20
-51.39999999998274
 30
0.0
 11
-10.50000013475993
 21
-51.39999999998274
 31
0.0
  0
LINE
  5
EC
330
1E
100
AcDbEntity
  8
1
 62
     3
100
AcDbLine
 10
4.099999865239977
 20
-48.59999999998273
 30
0.0
 11
-10.50000013475993
 21
-48.59999999998273
 31
0.0
  0
LINE
  5
ED
330
1E
100
AcDbEntity
  8
1
 62
     3
100
AcDbLine
 10
4.099999865239977
 20
-51.39999999998274
 30
0.0
 11
5.139230349781326
 21
-51.99999999998277
 31
0.0
  0
LINE
  5
EE
330
1E
100
AcDbEntity
  8
1
 62
     3
100
AcDbLine
 10
4.099999865239977
 20
-48.59999999998273
 30
0.0
 11
5.139230349781326
 21
-47.99999999998277
 31
0.0
  0
LINE
  5
EF
330
1E
100
AcDbEntity
  8
1
 62
     7
100
AcDbLine
 10
5.499999865240068
 20
-49.99999999998277
 30
0.0
 11
5.499999865240068
 21
-51.99999999998277
 31
0.0
  0
LINE
  5
F0
330
1E
100
AcDbEntity
  8
1
 62
     7
100
AcDbLine
 10
5.499999865240068
 20
-53.49999999998278
 30
0.0
 11
9.19999986524
 21
-53.49999999998278
 31
0.0
  0
LINE
  5
F1
330
1E
100
AcDbEntity
  8
1
 62
     7
100
AcDbLine
 10
9.19999986524
 20
-53.49999999998278
 30
0.0
 11
9.499999865240068
 21
-53.19999999998287
 31
0.0
  0
LINE
  5
F2
330
1E
100
AcDbEntity
  8
1
 62
     7
100
AcDbLine
 10
9.499999865240068
 20
-53.19999999998287
 30
0.0
 11
9.499999865240068
 21
-46.79999999998285
 31
0.0
  0
LINE
  5
F3
330
1E
100
AcDbEntity
  8
1
 62
     7
100
AcDbLine
 10
9.499999865240068
 20
-46.79999999998285
 30
0.0
 11
9.19999986524
 21
-46.49999999998278
 31
0.0
  0
LINE
  5
F4
330
1E
100
AcDbEntity
  8
1
 62
     7
100
AcDbLine
 10
9.19999986524
 20
-46.49999999998278
 30
0.0
 11
5.499999865240068
 21
-46.49999999998278
 31
0.0
  0
LINE
  5
F5
330
1E
100
AcDbEntity
  8
1
 62
     7
100
AcDbLine
 10
5.499999865240068
 20
-46.49999999998278
 30
0.0
 11
5.499999865240068
 21
-47.79999999998285
 31
0.0
  0
LINE
  5
F6
330
1E
100
AcDbEntity
  8
1
 62
     7
100
AcDbLine
 10
5.299999865240023
 20
-47.99999999998277
 30
0.0
 11
4.099999865239977
 21
-47.99999999998277
 31
0.0
  0
LINE
  5
F7
330
1E
100
AcDbEntity
  8
1
 62
     7
100
AcDbLine
 10
5.499999865240068
 20
-47.99999999998277
 30
0.0
 11
5.499999865240068
 21
-49.99999999998277
 31
0.0
  0
LINE
  5
F8
330
1E
100
AcDbEntity
  8
1
 62
     7
100
AcDbLine
 10
-9.900000134760023
 20
-47.99999999998277
 30
0.0
 11
-10.50000013475993
 21
-48.59999999998273
 31
0.0
  0
LINE
  5
F9
330
1E
100
AcDbEntity
  8
1
 62
     7
100
AcDbLine
 10
-10.50000013475993
 20
-48.59999999998273
 30
0.0
 11
-10.50000013475993
 21
-51.39999999998274
 31
0.0
  0
LINE
  5
FA
330
1E
100
AcDbEntity
  8
1
 62
     7
100
AcDbLine
 10
-10.50000013475993
 20
-51.39999999998274
 30
0.0
 11
-9.900000134760023
 21
-51.99999999998277
 31
0.0
  0
LINE
  5
FB
330
1E
100
AcDbEntity
  8
1
 62
     7
100
AcDbLine
 10
-9.900000134760023
 20
-51.99999999998277
 30
0.0
 11
4.099999865239977
 21
-51.99999999998277
 31
0.0
  0
LINE
  5
FC
330
1E
100
AcDbEntity
  8
1
 62
     7
100
AcDbLine
 10
5.499999865240068
 20
-52.19999999998288
 30
0.0
 11
5.499999865240068
 21
-53.49999999998278
 31
0.0
  0
LINE
  5
FD
330
1E
100
AcDbEntity
  8
1
 62
     7
100
AcDbLine
 10
4.099999865239977
 20
-51.99999999998277
 30
0.0
 11
4.099999865239977
 21
-47.99999999998277
 31
0.0
  0
LINE
  5
FE
330
1E
100
AcDbEntity
  8
1
 62
     7
100
AcDbLine
 10
4.099999865239977
 20
-47.99999999998277
 30
0.0
 11
-9.900000134760023
 21
-47.99999999998277
 31
0.0
  0
LINE
  5
FF
330
1E
100
AcDbEntity
  8
1
 62
     7
100
AcDbLine
 10
4.099999865239977
 20
-51.99999999998277
 30
0.0
 11
5.299999865240023
 21
-51.99999999998277
 31
0.0
  0
LINE
  5
100
330
1E
100
AcDbEntity
  8
1
 62
     7
100
AcDbLine
 10
-9.900000134760023
 20
-47.99999999998277
 30
0.0
 11
-9.900000134760023
 21
-51.99999999998277
 31
0.0
  0
LINE
  5
101
330
1E
100
AcDbEntity
  8
1
 62
     7
100
AcDbLine
 10
9.19999986524
 20
-53.49999999998278
 30
0.0
 11
9.19999986524
 21
-46.49999999998278
 31
0.0
  0
LINE
  5
102
330
1E
100
AcDbEntity
  8
1
 62
     7
100
AcDbLine
 10
5.499999865240068
 20
-51.99999999998277
 30
0.0
 11
5.499999865240068
 21
-52.19999999998288
 31
0.0
  0
LINE
  5
103
330
1E
100
AcDbEntity
  8
1
 62
     7
100
AcDbLine
 10
5.499999865240068
 20
-47.99999999998277
 30
0.0
 11
5.499999865240068
 21
-47.79999999998285
 31
0.0
  0
LINE
  5
104
330
1E
100
AcDbEntity
  8
0
 62
     7
100
AcDbLine
 10
-10.00000000157545
 20
26.75000000001728
 30
0.0
 11
-10.00000000157545
 21
-26.74999999998278
 31
0.0
  0
LINE
  5
105
330
1E
100
AcDbEntity
  8
0
 62
     7
100
AcDbLine
 10
-10.00000000157545
 20
26.75000000001728
 30
0.0
 11
-5.800000001633962
 21
26.75000000001728
 31
0.0
  0
LINE
  5
106
330
1E
100
AcDbEntity
  8
0
 62
     7
100
AcDbLine
 10
-5.800000001633962
 20
26.75000000001728
 30
0.0
 11
-5.800000001633962
 21
13.39999979874904
 31
0.0
  0
LINE
  5
107
330
1E
100
AcDbEntity
  8
0
 62
     7
100
AcDbLine
 10
-5.400000007642903
 20
12.9999998047681
 30
0.0
 11
8.549999782869022
 21
12.9999998047681
 31
0.0
  0
LINE
  5
108
330
1E
100
AcDbEntity
  8
0
 62
     7
100
AcDbLine
 10
9.899999762589015
 20
12.9999998047681
 30
0.0
 11
11.49999987110414
 21
12.9999998048138
 31
0.0
  0
LINE
  5
109
330
1E
100
AcDbEntity
  8
0
 62
     7
100
AcDbLine
 10
11.49999987110414
 20
12.9999998048138
 30
0.0
 11
11.99999986368699
 21
12.49999981224391
 31
0.0
  0
LINE
  5
10A
330
1E
100
AcDbEntity
  8
0
 62
     7
100
AcDbLine
 10
11.99999986368699
 20
12.49999981224391
 30
0.0
 11
11.99999986368699
 21
-12.49999981220144
 31
0.0
  0
LINE
  5
10B
330
1E
100
AcDbEntity
  8
0
 62
     7
100
AcDbLine
 10
8.549999782869022
 20
17.4999997371924
 30
0.0
 11
8.549999782869022
 21
12.44999981304317
 31
0.0
  0
LINE
  5
10C
330
1E
100
AcDbEntity
  8
0
 62
     7
100
AcDbLine
 10
8.549999782869022
 20
12.44999981304317
 30
0.0
 11
9.899999762589015
 21
12.44999981304317
 31
0.0
  0
LINE
  5
10D
330
1E
100
AcDbEntity
  8
0
 62
     7
100
AcDbLine
 10
9.899999762589015
 20
12.44999981304317
 30
0.0
 11
9.899999762589015
 21
15.99999975971592
 31
0.0
  0
LINE
  5
10E
330
1E
100
AcDbEntity
  8
0
 62
     7
100
AcDbLine
 10
-10.00000000157545
 20
-26.74999999998278
 30
0.0
 11
-5.800000001633962
 21
-26.74999999998278
 31
0.0
  0
LINE
  5
10F
330
1E
100
AcDbEntity
  8
0
 62
     7
100
AcDbLine
 10
-5.800000001633962
 20
-26.74999999998278
 30
0.0
 11
-5.800000001633962
 21
-13.39999979870675
 31
0.0
  0
LINE
  5
110
330
1E
100
AcDbEntity
  8
0
 62
     7
100
AcDbLine
 10
-5.400000007642903
 20
-12.99999980471569
 30
0.0
 11
8.549999782869022
 21
-12.99999980471569
 31
0.0
  0
LINE
  5
111
330
1E
100
AcDbEntity
  8
0
 62
     7
100
AcDbLine
 10
9.899999762589015
 20
-12.99999980471569
 30
0.0
 11
11.49999987109648
 21
-12.99999980476645
 31
0.0
  0
LINE
  5
112
330
1E
100
AcDbEntity
  8
0
 62
     7
100
AcDbLine
 10
11.49999987109648
 20
-12.99999980476645
 30
0.0
 11
11.99999986368699
 21
-12.49999981220144
 31
0.0
  0
LINE
  5
113
330
1E
100
AcDbEntity
  8
0
 62
     7
100
AcDbLine
 10
8.549999782869022
 20
-12.99999980471569
 30
0.0
 11
8.549999782869022
 21
-12.44999981300338
 31
0.0
  0
LINE
  5
114
330
1E
100
AcDbEntity
  8
0
 62
     7
100
AcDbLine
 10
8.549999782869022
 20
-12.44999981300338
 30
0.0
 11
9.899999762589015
 21
-12.44999981300338
 31
0.0
  0
LINE
  5
115
330
1E
100
AcDbEntity
  8
0
 62
     7
100
AcDbLine
 10
9.899999762589015
 20
-12.44999981300338
 30
0.0
 11
9.899999762589015
 21
-12.99999980471569
 31
0.0
  0
LINE
  5
116
330
1E
100
AcDbEntity
  8
0
 62
     7
100
AcDbLine
 10
-1.800000061685851
 20
12.9999998047681
 30
0.0
 11
-1.800000061652882
 21
26.49999960197215
 31
0.0
  0
LINE
  5
117
330
1E
100
AcDbEntity
  8
0
 62
     7
100
AcDbLine
 10
-2.300000054174562
 20
12.9999998047681
 30
0.0
 11
-2.300000054164444
 21
17.24999974095294
 31
0.0
  0
LINE
  5
118
330
1E
100
AcDbEntity
  8
0
 62
     7
100
AcDbLine
 10
-2.300000054164444
 20
17.24999974095294
 30
0.0
 11
2.199999878262259
 21
17.24999974090736
 31
0.0
  0
LINE
  5
119
330
1E
100
AcDbEntity
  8
0
 62
     7
100
AcDbLine
 10
2.199999878262259
 20
17.24999974090736
 30
0.0
 11
2.19999987828511
 21
26.49999960189587
 31
0.0
  0
LINE
  5
11A
330
1E
100
AcDbEntity
  8
0
 62
     7
100
AcDbLine
 10
-5.80000000157621
 20
26.49999960197215
 30
0.0
 11
-5.800000001610996
 21
14.99999977476375
 31
0.0
  0
LINE
  5
11B
330
1E
100
AcDbEntity
  8
0
 62
     7
100
AcDbLine
 10
-5.800000001680348
 20
-14.99999978063977
 30
0.0
 11
-5.800000001680348
 21
-26.49999960188654
 31
0.0
  0
LINE
  5
11C
330
1E
100
AcDbEntity
  8
0
 62
     7
100
AcDbLine
 10
-5.800000001599402
 20
14.99999977476375
 30
0.0
 11
-5.300000009111601
 21
14.99999977476375
 31
0.0
  0
LINE
  5
11D
330
1E
100
AcDbEntity
  8
0
 62
     7
100
AcDbLine
 10
-5.300000009111601
 20
14.99999977476375
 30
0.0
 11
-5.300000009123197
 21
12.9999998047681
 31
0.0
  0
LINE
  5
11E
330
1E
100
AcDbEntity
  8
0
 62
     7
100
AcDbLine
 10
-5.300000009169353
 20
-12.99999980463957
 30
0.0
 11
-5.300000009181063
 21
-14.99999977467064
 31
0.0
  0
LINE
  5
11F
330
1E
100
AcDbEntity
  8
0
 62
     7
100
AcDbLine
 10
-5.300000009181063
 20
-14.99999977467064
 30
0.0
 11
-9.799999941569456
 21
-14.99999977467064
 31
0.0
  0
LINE
  5
120
330
1E
100
AcDbEntity
  8
0
 62
     7
100
AcDbLine
 10
-9.799999941569456
 20
-14.99999977467064
 30
0.0
 11
-9.799999941594807
 21
-26.49999960188654
 31
0.0
  0
LINE
  5
121
330
1E
100
AcDbEntity
  8
0
 62
     7
100
AcDbLine
 10
-9.799999941594807
 20
-26.49999960188654
 30
0.0
 11
-4.900000015217402
 21
-26.49999960188654
 31
0.0
  0
LINE
  5
122
330
1E
100
AcDbEntity
  8
0
 62
     7
100
AcDbLine
 10
-4.900000015217402
 20
-26.49999960188654
 30
0.0
 11
-4.900000015234796
 21
-34.49999948170664
 31
0.0
  0
LINE
  5
123
330
1E
100
AcDbEntity
  8
0
 62
     7
100
AcDbLine
 10
-4.900000015234796
 20
-34.49999948170664
 30
0.0
 11
-3.400000037759911
 21
-34.49999948170664
 31
0.0
  0
LINE
  5
124
330
1E
100
AcDbEntity
  8
0
 62
     7
100
AcDbLine
 10
-3.400000037759911
 20
-34.49999948170664
 30
0.0
 11
-3.400000037742631
 21
-26.49999960188654
 31
0.0
  0
LINE
  5
125
330
1E
100
AcDbEntity
  8
0
 62
     7
100
AcDbLine
 10
-3.400000037742631
 20
-26.49999960188654
 30
0.0
 11
-1.800000061757019
 21
-26.49999960188654
 31
0.0
  0
LINE
  5
126
330
1E
100
AcDbEntity
  8
0
 62
     7
100
AcDbLine
 10
-1.800000061757019
 20
-26.49999960188654
 30
0.0
 11
-1.800000061734168
 21
-12.99999980463957
 31
0.0
  0
LINE
  5
127
330
1E
100
AcDbEntity
  8
0
 62
     7
100
AcDbLine
 10
-2.300000054232998
 20
-12.99999980463957
 30
0.0
 11
-2.300000054232998
 21
-17.24999974087007
 31
0.0
  0
LINE
  5
128
330
1E
100
AcDbEntity
  8
0
 62
     7
100
AcDbLine
 10
-2.300000054232998
 20
-17.24999974087007
 30
0.0
 11
-1.800000061744287
 21
-17.24999974087007
 31
0.0
  0
LINE
  5
129
330
1E
100
AcDbEntity
  8
0
 62
     7
100
AcDbLine
 10
-2.300000054174562
 20
13.49999979724406
 30
0.0
 11
-5.300000009123197
 21
13.49999979724406
 31
0.0
  0
LINE
  5
12A
330
1E
100
AcDbEntity
  8
0
 62
     7
100
AcDbLine
 10
-2.300000054232998
 20
-13.49999979720434
 30
0.0
 11
-5.300000009169353
 21
-13.49999979720434
 31
0.0
  0
LINE
  5
12B
330
1E
100
AcDbEntity
  8
0
 62
     7
100
AcDbLine
 10
2.19999987828511
 20
26.49999960189587
 30
0.0
 11
-1.800000061652882
 21
26.49999960197215
 31
0.0
  0
LINE
  5
12C
330
1E
100
AcDbEntity
  8
0
 62
     7
100
AcDbLine
 10
-1.800000061652882
 20
26.49999960197215
 30
0.0
 11
-3.400000037627124
 21
26.49999960197215
 31
0.0
  0
LINE
  5
12D
330
1E
100
AcDbEntity
  8
0
 62
     7
100
AcDbLine
 10
-3.400000037627124
 20
26.49999960197215
 30
0.0
 11
-3.400000037609845
 21
34.49999948186837
 31
0.0
  0
LINE
  5
12E
330
1E
100
AcDbEntity
  8
0
 62
     7
100
AcDbLine
 10
-3.400000037609845
 20
34.49999948186837
 30
0.0
 11
-4.900000015084617
 21
34.49999948186837
 31
0.0
  0
LINE
  5
12F
330
1E
100
AcDbEntity
  8
0
 62
     7
100
AcDbLine
 10
-4.900000015084617
 20
34.49999948186837
 30
0.0
 11
-4.900000015101896
 21
26.49999960197215
 31
0.0
  0
LINE
  5
130
330
1E
100
AcDbEntity
  8
0
 62
     7
100
AcDbLine
 10
-4.900000015101896
 20
26.49999960197215
 30
0.0
 11
-5.80000000157621
 21
26.49999960197215
 31
0.0
  0
LINE
  5
131
330
1E
100
AcDbEntity
  8
0
 62
     7
100
AcDbLine
 10
-1.80000006172405
 20
13.24999980100495
 30
0.0
 11
-1.80000006172405
 21
29.46399955748711
 31
0.0
  0
LINE
  5
132
330
1E
100
AcDbEntity
  8
0
 62
     7
100
AcDbLine
 10
-1.80000006172405
 20
29.46399955748711
 30
0.0
 11
7.499999798587067
 21
29.46399955748711
 31
0.0
  0
LINE
  5
133
330
1E
100
AcDbEntity
  8
0
 62
     7
100
AcDbLine
 10
7.499999798587067
 20
29.46399955748711
 30
0.0
 11
7.499999798587067
 21
13.24999980100495
 31
0.0
  0
LINE
  5
134
330
1E
100
AcDbEntity
  8
0
 62
     7
100
AcDbLine
 10
7.499999798587067
 20
13.24999980100495
 30
0.0
 11
-1.80000006172405
 21
13.24999980100495
 31
0.0
  0
LINE
  5
135
330
1E
100
AcDbEntity
  8
0
 62
     7
100
AcDbLine
 10
2.399999875189121
 20
13.24999980100495
 30
0.0
 11
2.399999875189121
 21
29.46399955748711
 31
0.0
  0
LINE
  5
136
330
1E
100
AcDbEntity
  8
0
 62
     7
100
AcDbLine
 10
-1.80000006172405
 20
16.99999974466799
 30
0.0
 11
2.399999875189121
 21
16.99999974466799
 31
0.0
  0
LINE
  5
137
330
1E
100
AcDbEntity
  8
0
 62
     7
100
AcDbLine
 10
-1.80000006172405
 20
-13.24999980096004
 30
0.0
 11
-1.80000006172405
 21
-29.46399955722387
 31
0.0
  0
LINE
  5
138
330
1E
100
AcDbEntity
  8
0
 62
     7
100
AcDbLine
 10
7.499999798587067
 20
-29.46399955722387
 30
0.0
 11
7.499999798587067
 21
-13.24999980096004
 31
0.0
  0
LINE
  5
139
330
1E
100
AcDbEntity
  8
0
 62
     7
100
AcDbLine
 10
7.499999798587067
 20
-13.24999980096004
 30
0.0
 11
-1.80000006172405
 21
-13.24999980096004
 31
0.0
  0
LINE
  5
13A
330
1E
100
AcDbEntity
  8
0
 62
     7
100
AcDbLine
 10
-1.80000006172405
 20
-16.99999974462565
 30
0.0
 11
2.399999875189121
 21
-16.99999974462565
 31
0.0
  0
LINE
  5
13B
330
1E
100
AcDbEntity
  8
0
 62
     7
100
AcDbLine
 10
2.399999875189121
 20
-16.99999974462565
 30
0.0
 11
2.399999875189121
 21
-13.24999980096004
 31
0.0
  0
LINE
  5
13C
330
1E
100
AcDbEntity
  8
0
 62
     7
100
AcDbLine
 10
-10.00000000157545
 20
-13.49999979720434
 30
0.0
 11
-5.800000001633962
 21
-13.49999979720434
 31
0.0
  0
LINE
  5
13D
330
1E
100
AcDbEntity
  8
0
 62
     7
100
AcDbLine
 10
7.49999979859207
 20
17.4999997371924
 30
0.0
 11
8.549999782869022
 21
17.4999997371924
 31
0.0
  0
LINE
  5
13E
330
1E
100
AcDbEntity
  8
0
 62
     7
100
AcDbLine
 10
8.549999782869022
 20
15.99999975971592
 30
0.0
 11
9.899999762589015
 21
15.99999975971592
 31
0.0
  0
LINE
  5
13F
330
1E
100
AcDbEntity
  8
0
 62
     7
100
AcDbLine
 10
7.49999979859207
 20
-17.49999973706377
 30
0.0
 11
8.549999782869022
 21
-17.49999973706377
 31
0.0
  0
LINE
  5
140
330
1E
100
AcDbEntity
  8
0
 62
     7
100
AcDbLine
 10
8.549999782869022
 20
-17.49999973706377
 30
0.0
 11
8.549999782869022
 21
-12.99999980463957
 31
0.0
  0
LINE
  5
141
330
1E
100
AcDbEntity
  8
0
 62
     7
100
AcDbLine
 10
8.549999782869022
 20
-15.99999975967364
 30
0.0
 11
9.899999762589015
 21
-15.99999975967364
 31
0.0
  0
LINE
  5
142
330
1E
100
AcDbEntity
  8
0
 62
     7
100
AcDbLine
 10
9.899999762589015
 20
-15.99999975967364
 30
0.0
 11
9.899999762589015
 21
-12.99999980463957
 31
0.0
  0
LINE
  5
143
330
1E
100
AcDbEntity
  8
0
 62
     7
100
AcDbLine
 10
7.49999979859207
 20
13.24999980100495
 30
0.0
 11
7.49999979859207
 21
12.9999998047681
 31
0.0
  0
LINE
  5
144
330
1E
100
AcDbEntity
  8
0
 62
     7
100
AcDbLine
 10
7.49999979859207
 20
-12.99999980463957
 30
0.0
 11
7.49999979859207
 21
-13.24999980096004
 31
0.0
  0
LINE
  5
145
330
1E
100
AcDbEntity
  8
0
 62
     7
100
AcDbLine
 10
-10.00000000157545
 20
9.299999860351247
 30
0.0
 11
11.99999986368699
 21
9.299999860351247
 31
0.0
  0
LINE
  5
146
330
1E
100
AcDbEntity
  8
0
 62
     7
100
AcDbLine
 10
-10.00000000157545
 20
6.999999894890322
 30
0.0
 11
11.99999986368699
 21
6.999999894890322
 31
0.0
  0
LINE
  5
147
330
1E
100
AcDbEntity
  8
0
 62
     7
100
AcDbLine
 10
-10.00000000157545
 20
-6.999999894774476
 30
0.0
 11
11.99999986368699
 21
-6.999999894774476
 31
0.0
  0
LINE
  5
148
330
1E
100
AcDbEntity
  8
0
 62
     7
100
AcDbLine
 10
110.5630289633596
 20
-12.94889814601447
 30
0.0
 11
110.5630289633596
 21
-16.24999975582227
 31
0.0
  0
LINE
  5
149
330
1E
100
AcDbEntity
  8
0
 62
     7
100
AcDbLine
 10
110.5630289633596
 20
-16.24999975582227
 30
0.0
 11
113.4230289204087
 21
-16.24999975582227
 31
0.0
  0
LINE
  5
14A
330
1E
100
AcDbEntity
  8
0
 62
     7
100
AcDbLine
 10
114.2896955740414
 20
-15.38333310215677
 30
0.0
 11
114.2896955740414
 21
-13.61999361322626
 31
0.0
  0
LINE
  5
14B
330
1E
100
AcDbEntity
  8
0
 62
     7
100
AcDbLine
 10
109.6963623097145
 20
-12.94889814601447
 30
0.0
 11
109.6963623097145
 21
-16.24999975582227
 31
0.0
  0
LINE
  5
14C
330
1E
100
AcDbEntity
  8
0
 62
     7
100
AcDbLine
 10
109.6963623097145
 20
-16.24999975582227
 30
0.0
 11
106.8363623526685
 21
-16.24999975582227
 31
0.0
  0
LINE
  5
14D
330
1E
100
AcDbEntity
  8
0
 62
     7
100
AcDbLine
 10
105.9696956990475
 20
-15.38333310215677
 30
0.0
 11
105.9696956990475
 21
-13.61999361322626
 31
0.0
  0
LINE
  5
14E
330
1E
100
AcDbEntity
  8
1
 62
     7
100
AcDbLine
 10
107.6296956746005
 20
6.53834831712254
 30
0.0
 11
107.6296956746005
 21
9.29999986043515
 31
0.0
  0
LINE
  5
14F
330
1E
100
AcDbEntity
  8
1
 62
     7
100
AcDbLine
 10
112.6296955987265
 20
9.29999986043515
 30
0.0
 11
112.6296955987265
 21
6.53834831712254
 31
0.0
  0
LINE
  5
150
330
1E
100
AcDbEntity
  8
1
 62
     7
100
AcDbLine
 10
107.6296956746005
 20
9.29999986043515
 30
0.0
 11
112.6296955987265
 21
9.29999986043515
 31
0.0
  0
LINE
  5
151
330
1E
100
AcDbEntity
  8
1
 62
     7
100
AcDbLine
 10
-12.00000017979492
 20
43.50000000001717
 30
0.0
 11
-13.50000017979493
 21
42.00000000001717
 31
0.0
  0
LINE
  5
152
330
1E
100
AcDbEntity
  8
1
 62
     7
100
AcDbLine
 10
-25.40000013475002
 20
42.00000000001717
 30
0.0
 11
-27.40000013475002
 21
44.00000000001717
 31
0.0
  0
LINE
  5
153
330
1E
100
AcDbEntity
  8
1
 62
     7
100
AcDbLine
 10
-12.00000017979492
 20
43.50000000001717
 30
0.0
 11
-12.00000017979492
 21
44.00000000001717
 31
0.0
  0
LINE
  5
154
330
1E
100
AcDbEntity
  8
1
 62
     7
100
AcDbLine
 10
-25.40000013475002
 20
42.00000000001717
 30
0.0
 11
-13.50000017979493
 21
42.00000000001717
 31
0.0
  0
LINE
  5
155
330
1E
100
AcDbEntity
  8
1
 62
     7
100
AcDbLine
 10
-25.40000013475887
 20
-41.99999999998282
 30
0.0
 11
-27.40000013475887
 21
-43.99999999998282
 31
0.0
  0
LINE
  5
156
330
1E
100
AcDbEntity
  8
1
 62
     7
100
AcDbLine
 10
-13.50000017979493
 20
-41.99999999998282
 30
0.0
 11
-12.00000017979492
 21
-43.49999999998282
 31
0.0
  0
LINE
  5
157
330
1E
100
AcDbEntity
  8
1
 62
     7
100
AcDbLine
 10
-25.40000013475887
 20
-41.99999999998282
 30
0.0
 11
-13.50000017979493
 21
-41.99999999998282
 31
0.0
  0
LINE
  5
158
330
1E
100
AcDbEntity
  8
1
 62
     7
100
AcDbLine
 10
-12.00000017979492
 20
-43.99999999998278
 30
0.0
 11
-4.300000179779873
 21
-43.99999999998278
 31
0.0
  0
LINE
  5
159
330
1E
100
AcDbEntity
  8
1
 62
     7
100
AcDbLine
 10
-12.00000017979492
 20
-43.49999999998282
 30
0.0
 11
-12.00000017979492
 21
-43.99999999998278
 31
0.0
  0
LINE
  5
15A
330
1E
100
AcDbEntity
  8
1
 62
     7
100
AcDbLine
 10
-4.000000179781055
 20
-44.29999999998285
 30
0.0
 11
-4.300000179779873
 21
-43.99999999998278
 31
0.0
  0
LINE
  5
15B
330
1E
100
AcDbEntity
  8
1
 62
     7
100
AcDbLine
 10
-4.000000179779918
 20
44.300000000017
 30
0.0
 11
-4.300000179779873
 21
44.00000000001717
 31
0.0
  0
LINE
  5
15C
330
1E
100
AcDbEntity
  8
1
 62
     7
100
AcDbLine
 10
-4.000000179794925
 20
-47.99999999998277
 30
0.0
 11
-4.000000179781055
 21
-44.29999999998285
 31
0.0
  0
LINE
  5
15D
330
1E
100
AcDbEntity
  8
1
 62
     7
100
AcDbLine
 10
-28.40000013467407
 20
58.800000000017
 30
0.0
 11
-26.90000013467407
 21
58.800000000017
 31
0.0
  0
LINE
  5
15E
330
1E
100
AcDbEntity
  8
1
 62
     7
100
AcDbLine
 10
-26.90000013467407
 20
58.800000000017
 30
0.0
 11
-26.90000013467407
 21
61.50000000001718
 31
0.0
  0
LINE
  5
15F
330
1E
100
AcDbEntity
  8
1
 62
     7
100
AcDbLine
 10
-26.90000013467407
 20
61.50000000001718
 30
0.0
 11
-28.40000013467407
 21
61.50000000001718
 31
0.0
  0
LINE
  5
160
330
1E
100
AcDbEntity
  8
1
 62
     7
100
AcDbLine
 10
-28.40000013468408
 20
-61.49999999998278
 30
0.0
 11
-26.90000013468408
 21
-61.49999999998278
 31
0.0
  0
LINE
  5
161
330
1E
100
AcDbEntity
  8
1
 62
     7
100
AcDbLine
 10
-26.90000013468408
 20
-61.49999999998278
 30
0.0
 11
-26.90000013468408
 21
-58.79999999998285
 31
0.0
  0
LINE
  5
162
330
1E
100
AcDbEntity
  8
1
 62
     7
100
AcDbLine
 10
-26.90000013468408
 20
-58.79999999998285
 30
0.0
 11
-28.40000013468408
 21
-58.79999999998285
 31
0.0
  0
LINE
  5
163
330
1E
100
AcDbEntity
  8
1
 62
     7
100
AcDbLine
 10
-28.40000013468408
 20
-67.99999999998282
 30
0.0
 11
-28.40000013468408
 21
-70.69999999998287
 31
0.0
  0
LINE
  5
164
330
1E
100
AcDbEntity
  8
1
 62
     7
100
AcDbLine
 10
-5.000000179779918
 20
70.70000000001709
 30
0.0
 11
-5.000000179779918
 21
54.99999917360856
 31
0.0
  0
LINE
  5
165
330
1E
100
AcDbEntity
  8
1
 62
     7
100
AcDbLine
 10
-11.00000017977992
 20
61.00000000001717
 30
0.0
 11
-11.00000017977992
 21
59.00000000001718
 31
0.0
  0
LINE
  5
166
330
1E
100
AcDbEntity
  8
1
 62
     7
100
AcDbLine
 10
-5.300000179779874
 20
71.00000000001718
 30
0.0
 11
-28.10000013467389
 21
71.00000000001718
 31
0.0
  0
LINE
  5
167
330
1E
100
AcDbEntity
  8
1
 62
     7
100
AcDbLine
 10
-28.40000013467407
 20
70.70000000001687
 30
0.0
 11
-28.40000013467407
 21
56.99999917360855
 31
0.0
  0
LINE
  5
168
330
1E
100
AcDbEntity
  8
1
  6
CENTER
 62
     3
100
AcDbLine
 10
-2.620000184290904
 20
66.00000000001718
 30
0.0
 11
-34.97228292373767
 21
66.00000000001718
 31
0.0
  0
LINE
  5
169
330
1E
100
AcDbEntity
  8
1
 62
     7
100
AcDbLine
 10
-28.40000013467407
 20
70.70000000001687
 30
0.0
 11
-28.10000013467389
 21
71.00000000001718
 31
0.0
  0
LINE
  5
16A
330
1E
100
AcDbEntity
  8
1
 62
     7
100
AcDbLine
 10
-5.000000179779918
 20
70.70000000001709
 30
0.0
 11
-5.300000179779874
 21
71.00000000001718
 31
0.0
  0
LINE
  5
16B
330
1E
100
AcDbEntity
  8
1
 62
     7
100
AcDbLine
 10
-5.300000179779874
 20
61.00000000001717
 30
0.0
 11
-5.000000179779918
 21
61.300000000017
 31
0.0
  0
LINE
  5
16C
330
1E
100
AcDbEntity
  8
1
 62
     7
100
AcDbLine
 10
-5.300000179779874
 20
61.00000000001717
 30
0.0
 11
-11.00000017977992
 21
61.00000000001717
 31
0.0
  0
LINE
  5
16D
330
1E
100
AcDbEntity
  8
1
 62
     7
100
AcDbLine
 10
-4.000000179779918
 20
-54.49999917357446
 30
0.0
 11
-4.500000179779918
 21
-54.99999917357445
 31
0.0
  0
LINE
  5
16E
330
1E
100
AcDbEntity
  8
1
 62
     7
100
AcDbLine
 10
-4.500000179779918
 20
-54.99999917357445
 30
0.0
 11
-14.74314588518188
 21
-54.99999917357445
 31
0.0
  0
LINE
  5
16F
330
1E
100
AcDbEntity
  8
1
 62
     7
100
AcDbLine
 10
-4.000000179779918
 20
-54.49999917357446
 30
0.0
 11
-4.000000179794925
 21
-51.99999999998277
 31
0.0
  0
LINE
  5
170
330
1E
100
AcDbEntity
  8
1
 62
     7
100
AcDbLine
 10
-11.00000017977992
 20
-58.99999999998282
 30
0.0
 11
-11.00000017977992
 21
-60.99999999998282
 31
0.0
  0
LINE
  5
171
330
1E
100
AcDbEntity
  8
1
 62
     7
100
AcDbLine
 10
-28.10000013468389
 20
-70.99999999998281
 30
0.0
 11
-5.300000179779874
 21
-70.99999999998281
 31
0.0
  0
LINE
  5
172
330
1E
100
AcDbEntity
  8
1
 62
     7
100
AcDbLine
 10
-5.000000179779918
 20
-61.29999999998296
 30
0.0
 11
-5.000000179779918
 21
-70.69999999998287
 31
0.0
  0
LINE
  5
173
330
1E
100
AcDbEntity
  8
1
 62
     7
100
AcDbLine
 10
-28.40000013468408
 20
-57.17499999998295
 30
0.0
 11
-28.40000013475887
 21
-57.17499999998295
 31
0.0
  0
LINE
  5
174
330
1E
100
AcDbEntity
  8
1
 62
     7
100
AcDbLine
 10
-28.10000013468389
 20
-70.99999999998281
 30
0.0
 11
-28.40000013468408
 21
-70.69999999998287
 31
0.0
  0
LINE
  5
175
330
1E
100
AcDbEntity
  8
1
 62
     7
100
AcDbLine
 10
-5.300000179779874
 20
-70.99999999998281
 30
0.0
 11
-5.000000179779918
 21
-70.69999999998287
 31
0.0
  0
LINE
  5
176
330
1E
100
AcDbEntity
  8
1
 62
     7
100
AcDbLine
 10
-5.000000179779918
 20
-61.29999999998296
 30
0.0
 11
-5.300000179779874
 21
-60.99999999998282
 31
0.0
  0
LINE
  5
177
330
1E
100
AcDbEntity
  8
1
 62
     7
100
AcDbLine
 10
-11.00000017977992
 20
-60.99999999998282
 30
0.0
 11
-5.300000179779874
 21
-60.99999999998282
 31
0.0
  0
LINE
  5
178
330
1E
100
AcDbEntity
  8
1
 62
     7
100
AcDbLine
 10
-28.40000013475887
 20
-56.99999999998397
 30
0.0
 11
-28.40000013475887
 21
-57.17499999998295
 31
0.0
  0
LINE
  5
179
330
1E
100
AcDbEntity
  8
1
 62
     7
100
AcDbLine
 10
-28.40000013475887
 20
-57.17499999998295
 30
0.0
 11
-28.40000013468408
 21
-63.99999999998282
 31
0.0
  0
LINE
  5
17A
330
1E
100
AcDbEntity
  8
1
 62
     7
100
AcDbLine
 10
-28.40000013475887
 20
-57.17499999998295
 30
0.0
 11
-28.40000013468408
 21
-57.17499999998295
 31
0.0
  0
LINE
  5
17B
330
1E
100
AcDbEntity
  8
1
 62
     7
100
AcDbLine
 10
-27.40000013475887
 20
-43.99999999998282
 30
0.0
 11
-27.40000013475887
 21
-54.99999917357445
 31
0.0
  0
LINE
  5
17C
330
1E
100
AcDbEntity
  8
1
 62
     7
100
AcDbLine
 10
-25.55685438416604
 20
-55.49999917357435
 30
0.0
 11
-25.05685438416604
 21
-54.99999917357445
 31
0.0
  0
LINE
  5
17D
330
1E
100
AcDbEntity
  8
1
 62
     7
100
AcDbLine
 10
-19.90000013468294
 20
-49.84314492408207
 30
0.0
 11
-14.24314588518187
 21
-55.49999917357446
 31
0.0
  0
LINE
  5
17E
330
1E
100
AcDbEntity
  8
1
 62
     7
100
AcDbLine
 10
-14.24314588518187
 20
-55.49999917357446
 30
0.0
 11
-19.90000013468294
 21
-61.15685342307609
 31
0.0
  0
LINE
  5
17F
330
1E
100
AcDbEntity
  8
1
 62
     7
100
AcDbLine
 10
-19.90000013468294
 20
-61.15685342307609
 30
0.0
 11
-20.40000013468294
 21
-60.6568534230761
 31
0.0
  0
LINE
  5
180
330
1E
100
AcDbEntity
  8
1
 62
     7
100
AcDbLine
 10
-27.40000013475887
 20
-54.99999917357445
 30
0.0
 11
-25.05685438416604
 21
-54.99999917357445
 31
0.0
  0
LINE
  5
181
330
1E
100
AcDbEntity
  8
1
 62
     7
100
AcDbLine
 10
-25.05685438416604
 20
-54.99999917357445
 30
0.0
 11
-19.90000013468294
 21
-49.84314492408207
 31
0.0
  0
LINE
  5
182
330
1E
100
AcDbEntity
  8
1
 62
     7
100
AcDbLine
 10
-27.39999930834993
 20
-55.99999917357446
 30
0.0
 11
-25.05685438416604
 21
-55.99999917357446
 31
0.0
  0
LINE
  5
183
330
1E
100
AcDbEntity
  8
1
 62
     7
100
AcDbLine
 10
-25.05685438416604
 20
-55.99999917357446
 30
0.0
 11
-25.55685438416604
 21
-55.49999917357435
 31
0.0
  0
LINE
  5
184
330
1E
100
AcDbEntity
  8
1
 62
     7
100
AcDbLine
 10
-14.74314588518188
 20
-55.99999917357446
 30
0.0
 11
-12.00000017977992
 21
-55.99999917357446
 31
0.0
  0
LINE
  5
185
330
1E
100
AcDbEntity
  8
1
 62
     7
100
AcDbLine
 10
-12.00000017977992
 20
-55.99999917357446
 30
0.0
 11
-12.00000017977992
 21
-58.99999999998282
 31
0.0
  0
LINE
  5
186
330
1E
100
AcDbEntity
  8
1
 62
     7
100
AcDbLine
 10
-12.00000017977992
 20
-58.99999999998282
 30
0.0
 11
-11.00000017977992
 21
-58.99999999998282
 31
0.0
  0
LINE
  5
187
330
1E
100
AcDbEntity
  8
1
 62
     7
100
AcDbLine
 10
-27.39999930834993
 20
-55.99999917357446
 30
0.0
 11
-28.40000013475887
 21
-56.99999999998397
 31
0.0
  0
LINE
  5
188
330
1E
100
AcDbEntity
  8
1
  6
CENTER
 62
     3
100
AcDbLine
 10
-19.90000013468294
 20
-47.91866453413114
 30
0.0
 11
-19.90000013468294
 21
-63.08133381301786
 31
0.0
  0
LINE
  5
189
330
1E
100
AcDbEntity
  8
1
  6
CENTER
 62
     3
100
AcDbLine
 10
-27.48133477412635
 20
-55.49999917357446
 30
0.0
 11
-12.31866549523953
 21
-55.49999917357446
 31
0.0
  0
LINE
  5
18A
330
1E
100
AcDbEntity
  8
1
 62
     7
100
AcDbLine
 10
-20.40000013468294
 20
-50.34314492408207
 30
0.0
 11
-20.40000013468294
 21
-49.54314492408207
 31
0.0
  0
LINE
  5
18B
330
1E
100
AcDbEntity
  8
1
 62
     7
100
AcDbLine
 10
-20.40000013468294
 20
-49.54314492408207
 30
0.0
 11
-19.40000013468294
 21
-49.54314492408207
 31
0.0
  0
LINE
  5
18C
330
1E
100
AcDbEntity
  8
1
 62
     7
100
AcDbLine
 10
-19.40000013468294
 20
-49.54314492408207
 30
0.0
 11
-19.40000013468294
 21
-50.34314492408207
 31
0.0
  0
LINE
  5
18D
330
1E
100
AcDbEntity
  8
1
 62
     7
100
AcDbLine
 10
-20.40000013468294
 20
-60.6568534230761
 30
0.0
 11
-20.40000013468294
 21
-61.45685342307598
 31
0.0
  0
LINE
  5
18E
330
1E
100
AcDbEntity
  8
1
 62
     7
100
AcDbLine
 10
-20.40000013468294
 20
-60.6568534230761
 30
0.0
 11
-25.05685438416604
 21
-55.99999917357446
 31
0.0
  0
LINE
  5
18F
330
1E
100
AcDbEntity
  8
1
 62
     7
100
AcDbLine
 10
-20.40000013468294
 20
-61.45685342307598
 30
0.0
 11
-19.40000013468294
 21
-61.45685342307598
 31
0.0
  0
LINE
  5
190
330
1E
100
AcDbEntity
  8
1
 62
     7
100
AcDbLine
 10
-19.40000013468294
 20
-61.45685342307598
 30
0.0
 11
-19.40000013468294
 21
-60.6568534230761
 31
0.0
  0
LINE
  5
191
330
1E
100
AcDbEntity
  8
1
 62
     7
100
AcDbLine
 10
-4.000000179779918
 20
44.300000000017
 30
0.0
 11
-4.000000179779918
 21
54.49999917360855
 31
0.0
  0
LINE
  5
192
330
1E
100
AcDbEntity
  8
1
 62
     7
100
AcDbLine
 10
-4.500000179779918
 20
54.99999917360856
 30
0.0
 11
-4.000000179779918
 21
54.49999917360855
 31
0.0
  0
LINE
  5
193
330
1E
100
AcDbEntity
  8
1
 62
     7
100
AcDbLine
 10
-4.500000179779918
 20
54.99999917360856
 30
0.0
 11
-14.74314588518188
 21
54.99999917360856
 31
0.0
  0
LINE
  5
194
330
1E
100
AcDbEntity
  8
1
 62
     7
100
AcDbLine
 10
-19.90000013467406
 20
49.84314492411637
 30
0.0
 11
-25.55685438416604
 21
55.49999917360856
 31
0.0
  0
LINE
  5
195
330
1E
100
AcDbEntity
  8
1
 62
     7
100
AcDbLine
 10
-14.24314588518187
 20
55.49999917360856
 30
0.0
 11
-19.90000013467406
 21
49.84314492411637
 31
0.0
  0
LINE
  5
196
330
1E
100
AcDbEntity
  8
1
 62
     7
100
AcDbLine
 10
-19.90000013467406
 20
61.15685342310122
 30
0.0
 11
-14.24314588518187
 21
55.49999917360856
 31
0.0
  0
LINE
  5
197
330
1E
100
AcDbEntity
  8
1
 62
     7
100
AcDbLine
 10
-25.55685438416604
 20
55.49999917360856
 30
0.0
 11
-19.90000013467406
 21
61.15685342310122
 31
0.0
  0
LINE
  5
198
330
1E
100
AcDbEntity
  8
1
 62
     7
100
AcDbLine
 10
-25.05685438416604
 20
55.99999917360856
 30
0.0
 11
-27.40000013467407
 21
55.99999917360856
 31
0.0
  0
LINE
  5
199
330
1E
100
AcDbEntity
  8
1
 62
     7
100
AcDbLine
 10
-12.00000017977992
 20
55.99999917360856
 30
0.0
 11
-14.74314588518188
 21
55.99999917360856
 31
0.0
  0
LINE
  5
19A
330
1E
100
AcDbEntity
  8
1
 62
     7
100
AcDbLine
 10
-12.00000017977992
 20
59.00000000001718
 30
0.0
 11
-12.00000017977992
 21
55.99999917360856
 31
0.0
  0
LINE
  5
19B
330
1E
100
AcDbEntity
  8
1
 62
     7
100
AcDbLine
 10
-11.00000017977992
 20
59.00000000001718
 30
0.0
 11
-12.00000017977992
 21
59.00000000001718
 31
0.0
  0
LINE
  5
19C
330
1E
100
AcDbEntity
  8
1
 62
     7
100
AcDbLine
 10
-20.40000013467407
 20
49.5431449241164
 30
0.0
 11
-20.40000013467407
 21
50.34314492411636
 31
0.0
  0
LINE
  5
19D
330
1E
100
AcDbEntity
  8
1
 62
     7
100
AcDbLine
 10
-19.40000013467407
 20
49.5431449241164
 30
0.0
 11
-20.40000013467407
 21
49.5431449241164
 31
0.0
  0
LINE
  5
19E
330
1E
100
AcDbEntity
  8
1
 62
     7
100
AcDbLine
 10
-19.40000013467407
 20
50.34314492411636
 30
0.0
 11
-19.40000013467407
 21
49.5431449241164
 31
0.0
  0
LINE
  5
19F
330
1E
100
AcDbEntity
  8
1
 62
     7
100
AcDbLine
 10
-20.40000013467407
 20
61.45685342310116
 30
0.0
 11
-20.40000013467407
 21
60.65685342310121
 31
0.0
  0
LINE
  5
1A0
330
1E
100
AcDbEntity
  8
1
 62
     7
100
AcDbLine
 10
-19.40000013467407
 20
61.45685342310116
 30
0.0
 11
-20.40000013467407
 21
61.45685342310116
 31
0.0
  0
LINE
  5
1A1
330
1E
100
AcDbEntity
  8
1
 62
     7
100
AcDbLine
 10
-19.40000013467407
 20
60.65685342310121
 30
0.0
 11
-19.40000013467407
 21
61.45685342310116
 31
0.0
  0
LINE
  5
1A2
330
1E
100
AcDbEntity
  8
1
 62
     3
100
AcDbLine
 10
-12.00000017977992
 20
47.50000000001717
 30
0.0
 11
-12.86602558356491
 21
48.00000000001717
 31
0.0
  0
LINE
  5
1A3
330
1E
100
AcDbEntity
  8
1
 62
     7
100
AcDbLine
 10
-12.00000017977992
 20
47.50000000001717
 30
0.0
 11
-12.00000017977992
 21
52.50000000001717
 31
0.0
  0
LINE
  5
1A4
330
1E
100
AcDbEntity
  8
1
 62
     3
100
AcDbLine
 10
-12.86602558356491
 20
52.00000000001717
 30
0.0
 11
-12.00000017977992
 21
52.50000000001717
 31
0.0
  0
LINE
  5
1A5
330
1E
100
AcDbEntity
  8
1
 62
     7
100
AcDbLine
 10
-4.000000179779918
 20
48.00000000001717
 30
0.0
 11
-14.40000017978
 21
48.00000000001717
 31
0.0
  0
LINE
  5
1A6
330
1E
100
AcDbEntity
  8
1
 62
     7
100
AcDbLine
 10
-14.40000017978
 20
48.00000000001717
 30
0.0
 11
-14.40000017978
 21
52.00000000001717
 31
0.0
  0
LINE
  5
1A7
330
1E
100
AcDbEntity
  8
1
 62
     7
100
AcDbLine
 10
-14.40000017978
 20
52.00000000001717
 30
0.0
 11
-4.000000179779918
 21
52.00000000001717
 31
0.0
  0
LINE
  5
1A8
330
1E
100
AcDbEntity
  8
1
 62
     7
100
AcDbLine
 10
-14.40000017978
 20
48.00000000001717
 30
0.0
 11
-15.55470071815909
 21
50.00000000001717
 31
0.0
  0
LINE
  5
1A9
330
1E
100
AcDbEntity
  8
1
 62
     7
100
AcDbLine
 10
-15.55470071815909
 20
50.00000000001717
 30
0.0
 11
-14.40000017978
 21
52.00000000001717
 31
0.0
  0
LINE
  5
1AA
330
1E
100
AcDbEntity
  8
1
 62
     3
100
AcDbLine
 10
-12.00000017977992
 20
52.50000000001717
 30
0.0
 11
-4.000000179779918
 21
52.50000000001717
 31
0.0
  0
LINE
  5
1AB
330
1E
100
AcDbEntity
  8
1
  6
CENTER
 62
     3
100
AcDbLine
 10
11.55639256310599
 20
50.00000000001717
 30
0.0
 11
-17.44785087183605
 21
50.00000000001717
 31
0.0
  0
LINE
  5
1AC
330
1E
100
AcDbEntity
  8
1
 62
     3
100
AcDbLine
 10
-4.000000179779918
 20
47.50000000001717
 30
0.0
 11
-12.00000017977992
 21
47.50000000001717
 31
0.0
  0
LINE
  5
1AD
330
1E
100
AcDbEntity
  8
1
 62
     7
100
AcDbLine
 10
-4.300000179779873
 20
44.00000000001717
 30
0.0
 11
-12.00000017979492
 21
44.00000000001717
 31
0.0
  0
LINE
  5
1AE
330
1E
100
AcDbEntity
  8
1
 62
     7
100
AcDbLine
 10
-27.40000013475002
 20
54.99999917360856
 30
0.0
 11
-27.40000013475002
 21
44.00000000001717
 31
0.0
  0
LINE
  5
1AF
330
1E
100
AcDbEntity
  8
1
 62
     7
100
AcDbLine
 10
-25.05685438416604
 20
54.99999917360856
 30
0.0
 11
-27.40000013475002
 21
54.99999917360856
 31
0.0
  0
LINE
  5
1B0
330
1E
100
AcDbEntity
  8
1
 62
     7
100
AcDbLine
 10
-27.40000013467407
 20
55.99999917360856
 30
0.0
 11
-28.40000013467407
 21
56.99999917360855
 31
0.0
  0
LINE
  5
1B1
330
1E
100
AcDbEntity
  8
1
 62
     7
100
AcDbLine
 10
-4.000000179779918
 20
-54.49999917357446
 30
0.0
 11
-4.000000179794925
 21
-51.99999999998277
 31
0.0
  0
LINE
  5
1B2
330
1E
100
AcDbEntity
  8
1
  6
CENTER
 62
     3
100
AcDbLine
 10
-12.1366224294694
 20
55.49999917360856
 30
0.0
 11
-26.93690311104261
 21
55.49999917360856
 31
0.0
  0
LINE
  5
1B3
330
1E
100
AcDbEntity
  8
1
  6
CENTER
 62
     3
100
AcDbLine
 10
-19.90000013467406
 20
62.64249803000826
 30
0.0
 11
-19.90000013467406
 21
47.73662146840388
 31
0.0
  0
LINE
  5
1B4
330
1E
100
AcDbEntity
  8
1
 62
     7
100
AcDbLine
 10
-78.7177364755605
 20
-17.08205697674924
 30
0.0
 11
-77.85171107177614
 21
-18.58205697674923
 31
0.0
  0
LINE
  5
1B5
330
1E
100
AcDbEntity
  8
1
 62
     7
100
AcDbLine
 10
-77.85171107177614
 20
-18.58205697674923
 30
0.0
 11
-76.11966026420723
 21
-18.58205697674923
 31
0.0
  0
LINE
  5
1B6
330
1E
100
AcDbEntity
  8
1
 62
     7
100
AcDbLine
 10
-76.11966026420723
 20
-18.58205697674923
 30
0.0
 11
-75.25363486042259
 21
-17.08205697674924
 31
0.0
  0
LINE
  5
1B7
330
1E
100
AcDbEntity
  8
1
 62
     7
100
AcDbLine
 10
-75.25363486042259
 20
-17.08205697674924
 30
0.0
 11
-76.11966026420723
 21
-15.58205697674924
 31
0.0
  0
LINE
  5
1B8
330
1E
100
AcDbEntity
  8
1
 62
     7
100
AcDbLine
 10
-76.11966026420723
 20
-15.58205697674924
 30
0.0
 11
-77.85171107177614
 21
-15.58205697674924
 31
0.0
  0
LINE
  5
1B9
330
1E
100
AcDbEntity
  8
1
 62
     7
100
AcDbLine
 10
-77.85171107177614
 20
-15.58205697674924
 30
0.0
 11
-78.7177364755605
 21
-17.08205697674924
 31
0.0
  0
LINE
  5
1BA
330
1E
100
AcDbEntity
  8
1
 62
     7
100
AcDbLine
 10
-156.3188471798366
 20
-62.88507913127694
 30
0.0
 11
-157.8188471798366
 21
-62.01905372749259
 31
0.0
  0
LINE
  5
1BB
330
1E
100
AcDbEntity
  8
1
 62
     7
100
AcDbLine
 10
-156.3188471798366
 20
-64.61712993884585
 30
0.0
 11
-156.3188471798366
 21
-62.88507913127694
 31
0.0
  0
LINE
  5
1BC
330
1E
100
AcDbEntity
  8
1
 62
     7
100
AcDbLine
 10
-157.8188471798366
 20
-65.48315534263046
 30
0.0
 11
-156.3188471798366
 21
-64.61712993884585
 31
0.0
  0
LINE
  5
1BD
330
1E
100
AcDbEntity
  8
1
 62
     7
100
AcDbLine
 10
-159.3188471798366
 20
-64.61712993884585
 30
0.0
 11
-157.8188471798366
 21
-65.48315534263046
 31
0.0
  0
LINE
  5
1BE
330
1E
100
AcDbEntity
  8
1
 62
     7
100
AcDbLine
 10
-159.3188471798366
 20
-62.88507913127694
 30
0.0
 11
-159.3188471798366
 21
-64.61712993884585
 31
0.0
  0
LINE
  5
1BF
330
1E
100
AcDbEntity
  8
1
 62
     7
100
AcDbLine
 10
-157.8188471798366
 20
-62.01905372749259
 30
0.0
 11
-159.3188471798366
 21
-62.88507913127694
 31
0.0
  0
LINE
  5
1C0
330
1E
100
AcDbEntity
  8
1
 62
     7
100
AcDbLine
 10
-202.7558439305799
 20
17.08205697678341
 30
0.0
 11
-203.6218693343644
 21
18.5820569767834
 31
0.0
  0
LINE
  5
1C1
330
1E
100
AcDbEntity
  8
1
 62
     7
100
AcDbLine
 10
-203.6218693343644
 20
18.5820569767834
 30
0.0
 11
-205.3539201419331
 21
18.5820569767834
 31
0.0
  0
LINE
  5
1C2
330
1E
100
AcDbEntity
  8
1
 62
     7
100
AcDbLine
 10
-205.3539201419331
 20
18.5820569767834
 30
0.0
 11
-206.2199455457178
 21
17.08205697678341
 31
0.0
  0
LINE
  5
1C3
330
1E
100
AcDbEntity
  8
1
 62
     7
100
AcDbLine
 10
-206.2199455457178
 20
17.08205697678341
 30
0.0
 11
-205.3539201419331
 21
15.5820569767834
 31
0.0
  0
LINE
  5
1C4
330
1E
100
AcDbEntity
  8
1
 62
     7
100
AcDbLine
 10
-205.3539201419331
 20
15.5820569767834
 30
0.0
 11
-203.6218693343644
 21
15.5820569767834
 31
0.0
  0
LINE
  5
1C5
330
1E
100
AcDbEntity
  8
1
 62
     7
100
AcDbLine
 10
-203.6218693343644
 20
15.5820569767834
 30
0.0
 11
-202.7558439305799
 21
17.08205697678341
 31
0.0
  0
LINE
  5
1C6
330
1E
100
AcDbEntity
  8
1
 62
     7
100
AcDbLine
 10
-125.1547332263038
 20
62.88507913131127
 30
0.0
 11
-123.6547332263038
 21
62.01905372752685
 31
0.0
  0
LINE
  5
1C7
330
1E
100
AcDbEntity
  8
1
 62
     7
100
AcDbLine
 10
-125.1547332263038
 20
64.61712993888011
 30
0.0
 11
-125.1547332263038
 21
62.88507913131127
 31
0.0
  0
LINE
  5
1C8
330
1E
100
AcDbEntity
  8
1
 62
     7
100
AcDbLine
 10
-123.6547332263038
 20
65.48315534266476
 30
0.0
 11
-125.1547332263038
 21
64.61712993888011
 31
0.0
  0
LINE
  5
1C9
330
1E
100
AcDbEntity
  8
1
 62
     7
100
AcDbLine
 10
-122.1547332263038
 20
64.61712993888011
 30
0.0
 11
-123.6547332263038
 21
65.48315534266476
 31
0.0
  0
LINE
  5
1CA
330
1E
100
AcDbEntity
  8
1
 62
     7
100
AcDbLine
 10
-122.1547332263038
 20
62.88507913131127
 30
0.0
 11
-122.1547332263038
 21
64.61712993888011
 31
0.0
  0
LINE
  5
1CB
330
1E
100
AcDbEntity
  8
1
 62
     7
100
AcDbLine
 10
-123.6547332263038
 20
62.01905372752685
 30
0.0
 11
-122.1547332263038
 21
62.88507913131127
 31
0.0
  0
LINE
  5
1CC
330
1E
100
AcDbEntity
  8
1
  6
CENTER
 62
     3
100
AcDbLine
 10
-122.1200284715086
 20
69.47870065460915
 30
0.0
 11
-125.2311751975334
 21
57.86774300328261
 31
0.0
  0
LINE
  5
1CD
330
1E
100
AcDbEntity
  8
1
  6
CENTER
 62
     3
100
AcDbLine
 10
-80.0067587626863
 20
35.06250000001728
 30
0.0
 11
-87.15146834390791
 21
30.93750000001728
 31
0.0
  0
LINE
  5
1CE
330
1E
100
AcDbEntity
  8
1
  6
CENTER
 62
     3
100
AcDbLine
 10
-105.67429020307
 20
60.73003144040104
 30
0.0
 11
-109.79929020307
 21
53.58532185917943
 31
0.0
  0
LINE
  5
1CF
330
1E
100
AcDbEntity
  8
1
  6
CENTER
 62
     3
100
AcDbLine
 10
-80.0067587626863
 20
-35.062499999983
 30
0.0
 11
-87.15146834390791
 21
-30.937499999983
 31
0.0
  0
LINE
  5
1D0
330
1E
100
AcDbEntity
  8
1
  6
CENTER
 62
     3
100
AcDbLine
 10
-105.67429020307
 20
-60.73003144036675
 30
0.0
 11
-109.79929020307
 21
-53.58532185914515
 31
0.0
  0
LINE
  5
1D1
330
1E
100
AcDbEntity
  8
1
  6
CENTER
 62
     3
100
AcDbLine
 10
-71.25808954847819
 20
-18.61676173154449
 30
0.0
 11
-82.8690471998048
 21
-15.50561500551959
 31
0.0
  0
LINE
  5
1D2
330
1E
100
AcDbEntity
  8
1
  6
CENTER
 62
     3
100
AcDbLine
 10
-216.2828864916106
 20
0.0000000000171667
 30
0.0
 11
-63.77791786898479
 21
0.0000000000171667
 31
0.0
  0
LINE
  5
1D3
330
1E
100
AcDbEntity
  8
1
  6
CENTER
 62
     3
100
AcDbLine
 10
-140.7367902030702
 20
77.02040386052101
 30
0.0
 11
-140.7367902030702
 21
-77.68586782976983
 31
0.0
  0
LINE
  5
1D4
330
1E
100
AcDbEntity
  8
1
  6
PHANTOM
 62
     4
100
AcDbLine
 10
-20.40000013474978
 20
-36.49999999998282
 30
0.0
 11
-30.00000013474993
 21
-36.49999999998282
 31
0.0
  0
LINE
  5
1D5
330
1E
100
AcDbEntity
  8
1
  6
PHANTOM
 62
     4
100
AcDbLine
 10
-30.00000013474993
 20
-36.49999999998282
 30
0.0
 11
-30.00000013474993
 21
-56.99999999998283
 31
0.0
  0
LINE
  5
1D6
330
1E
100
AcDbEntity
  8
1
 62
     7
100
AcDbLine
 10
-28.88900013475005
 20
-42.22999999998275
 30
0.0
 11
-28.88900013475025
 21
-30.7
 31
0.0
  0
LINE
  5
1D7
330
1E
100
AcDbEntity
  8
1
 62
     7
100
AcDbLine
 10
-32.00000013467398
 20
57.30000000001712
 30
0.0
 11
-32.00000013467398
 21
31.1893533874938
 31
0.0
  0
LINE
  5
1D8
330
1E
100
AcDbEntity
  8
1
  6
CENTER
 62
     3
100
AcDbLine
 10
10.69999986523999
 20
-49.99999999998277
 30
0.0
 11
-16.80829055664808
 21
-49.99999999998277
 31
0.0
  0
LINE
  5
1D9
330
1E
100
AcDbEntity
  8
1
 62
     3
100
AcDbLine
 10
-12.00000017978288
 20
-51.99999999998277
 30
0.0
 11
-9.900000134760023
 21
-51.99999999998277
 31
0.0
  0
LINE
  5
1DA
330
1E
100
AcDbEntity
  8
1
 62
     3
100
AcDbLine
 10
-9.900000134760023
 20
-47.99999999998277
 30
0.0
 11
-12.00000017978288
 21
-47.99999999998277
 31
0.0
  0
LINE
  5
1DB
330
1E
100
AcDbEntity
  8
1
 62
     7
100
AcDbLine
 10
-12.00000017978288
 20
-47.99999999998277
 30
0.0
 11
-12.00000017978288
 21
-51.99999999998277
 31
0.0
  0
LINE
  5
1DC
330
1E
100
AcDbEntity
  8
1
 62
     7
100
AcDbLine
 10
-15.6082905566485
 20
-49.99999999998277
 30
0.0
 11
-14.80000017978306
 21
-51.39999999998274
 31
0.0
  0
LINE
  5
1DD
330
1E
100
AcDbEntity
  8
1
 62
     7
100
AcDbLine
 10
-14.80000017978306
 20
-48.59999999998273
 30
0.0
 11
-15.6082905566485
 21
-49.99999999998277
 31
0.0
  0
LINE
  5
1DE
330
1E
100
AcDbEntity
  8
1
 62
     7
100
AcDbLine
 10
-14.80000017978306
 20
-51.39999999998274
 30
0.0
 11
-10.50000013475993
 21
-51.39999999998274
 31
0.0
  0
LINE
  5
1DF
330
1E
100
AcDbEntity
  8
1
 62
     7
100
AcDbLine
 10
-14.80000017978306
 20
-48.59999999998273
 30
0.0
 11
-14.80000017978306
 21
-51.39999999998274
 31
0.0
  0
LINE
  5
1E0
330
1E
100
AcDbEntity
  8
1
 62
     7
100
AcDbLine
 10
-10.50000013475993
 20
-48.59999999998273
 30
0.0
 11
-14.80000017978306
 21
-48.59999999998273
 31
0.0
  0
LINE
  5
1E1
330
1E
100
AcDbEntity
  8
1
 62
     7
100
AcDbLine
 10
5.499999865240068
 20
-52.24999999998278
 30
0.0
 11
5.499999865240068
 21
-53.99999999998278
 31
0.0
  0
LINE
  5
1E2
330
1E
100
AcDbEntity
  8
1
 62
     7
100
AcDbLine
 10
5.499999865240068
 20
-52.24999999998278
 30
0.0
 11
-4.000000179794925
 21
-52.24999999998278
 31
0.0
  0
LINE
  5
1E3
330
1E
100
AcDbEntity
  8
1
 62
     7
100
AcDbLine
 10
5.499999865240068
 20
-47.74999999998278
 30
0.0
 11
5.499999865240068
 21
-52.24999999998278
 31
0.0
  0
LINE
  5
1E4
330
1E
100
AcDbEntity
  8
0
 62
     7
100
AcDbLine
 10
-4.000000179794925
 20
-47.74999999998278
 30
0.0
 11
-4.00000017979197
 21
-47.74999999998278
 31
0.0
  0
LINE
  5
1E5
330
1E
100
AcDbEntity
  8
1
 62
     7
100
AcDbLine
 10
5.499999865240068
 20
-47.74999999998278
 30
0.0
 11
-4.000000179794925
 21
-47.74999999998278
 31
0.0
  0
LINE
  5
1E6
330
1E
100
AcDbEntity
  8
1
 62
     7
100
AcDbLine
 10
5.499999865240068
 20
-53.99999999998278
 30
0.0
 11
9.999999865358075
 21
-53.99999999998278
 31
0.0
  0
LINE
  5
1E7
330
1E
100
AcDbEntity
  8
1
 62
     7
100
AcDbLine
 10
5.499999865240068
 20
-45.99999999998277
 30
0.0
 11
5.499999865240068
 21
-47.74999999998278
 31
0.0
  0
LINE
  5
1E8
330
1E
100
AcDbEntity
  8
1
 62
     7
100
AcDbLine
 10
9.999999865358075
 20
-45.99999999998277
 30
0.0
 11
5.499999865240068
 21
-45.99999999998277
 31
0.0
  0
LINE
  5
1E9
330
1E
100
AcDbEntity
  8
1
  6
CENTER
 62
     3
100
AcDbLine
 10
-37.20000013467402
 20
-65.99999999998281
 30
0.0
 11
-15.5917097578084
 21
-65.99999999998281
 31
0.0
  0
LINE
  5
1EA
330
1E
100
AcDbEntity
  8
1
 62
     3
100
AcDbLine
 10
-20.80000013467393
 20
-63.99999999998282
 30
0.0
 11
-24.60000013467389
 21
-63.99999999998282
 31
0.0
  0
LINE
  5
1EB
330
1E
100
AcDbEntity
  8
1
 62
     3
100
AcDbLine
 10
-24.60000013467389
 20
-67.99999999998282
 30
0.0
 11
-20.80000013467393
 21
-67.99999999998282
 31
0.0
  0
LINE
  5
1EC
330
1E
100
AcDbEntity
  8
1
 62
     7
100
AcDbLine
 10
-20.80000013467393
 20
-67.99999999998282
 30
0.0
 11
-20.80000013467393
 21
-63.99999999998282
 31
0.0
  0
LINE
  5
1ED
330
1E
100
AcDbEntity
  8
1
 62
     7
100
AcDbLine
 10
-16.79170975780844
 20
-65.99999999998281
 30
0.0
 11
-17.60000013467389
 21
-64.59999999998297
 31
0.0
  0
LINE
  5
1EE
330
1E
100
AcDbEntity
  8
1
 62
     7
100
AcDbLine
 10
-17.60000013467389
 20
-67.39999999998298
 30
0.0
 11
-16.79170975780844
 21
-65.99999999998281
 31
0.0
  0
LINE
  5
1EF
330
1E
100
AcDbEntity
  8
1
 62
     7
100
AcDbLine
 10
-17.60000013467389
 20
-64.59999999998297
 30
0.0
 11
-24.00000013467398
 21
-64.59999999998297
 31
0.0
  0
LINE
  5
1F0
330
1E
100
AcDbEntity
  8
1
 62
     7
100
AcDbLine
 10
-17.60000013467389
 20
-67.39999999998298
 30
0.0
 11
-17.60000013467389
 21
-64.59999999998297
 31
0.0
  0
LINE
  5
1F1
330
1E
100
AcDbEntity
  8
1
 62
     7
100
AcDbLine
 10
-24.00000013467398
 20
-67.39999999998298
 30
0.0
 11
-17.60000013467389
 21
-67.39999999998298
 31
0.0
  0
LINE
  5
1F2
330
1E
100
AcDbEntity
  8
1
 62
     7
100
AcDbLine
 10
-28.4000001346884
 20
-68.24999999998282
 30
0.0
 11
-32.00000013467398
 21
-68.24999999998296
 31
0.0
  0
LINE
  5
1F3
330
1E
100
AcDbEntity
  8
0
 62
     7
100
AcDbLine
 10
-4.00000017979197
 20
-47.74999999998278
 30
0.0
 11
-4.000000179794925
 21
-47.74999999998278
 31
0.0
  0
LINE
  5
1F4
330
1E
100
AcDbEntity
  8
1
  6
CENTER
 62
     3
100
AcDbLine
 10
-159.3535519346318
 20
-69.47870065457488
 30
0.0
 11
-156.242405208607
 21
-57.86774300324828
 31
0.0
  0
LINE
  5
1F5
330
1E
100
AcDbEntity
  8
1
  6
CENTER
 62
     3
100
AcDbLine
 10
-210.2154908576622
 20
18.61676173157865
 30
0.0
 11
-198.6045332063356
 21
15.50561500555385
 31
0.0
  0
LINE
  5
1F6
330
1E
100
AcDbEntity
  8
1
 62
     7
100
AcDbLine
 10
-2.870000179767076
 20
-43.99999999998278
 30
0.0
 11
-2.870000179767076
 21
-45.99999999998277
 31
0.0
  0
LINE
  5
1F7
330
1E
100
AcDbEntity
  8
1
 62
     7
100
AcDbLine
 10
-4.300000175262868
 20
-43.99999999998278
 30
0.0
 11
-2.870000179757071
 21
-43.99999999998278
 31
0.0
  0
LINE
  5
1F8
330
1E
100
AcDbEntity
  8
1
 62
     7
100
AcDbLine
 10
-4.000000179794925
 20
-45.99999999998277
 30
0.0
 11
-2.870000179767076
 21
-45.99999999998277
 31
0.0
  0
LINE
  5
1F9
330
1E
100
AcDbEntity
  8
0
 62
     7
100
AcDbLine
 10
-7.00000013467694
 20
-43.60000000601718
 30
0.0
 11
-6.600000140737038
 21
-43.99999999998278
 31
0.0
  0
LINE
  5
1FA
330
1E
100
AcDbEntity
  8
0
 62
     7
100
AcDbLine
 10
-6.600000140737038
 20
-43.99999999998278
 30
0.0
 11
-4.300000175262868
 21
-43.99999999998278
 31
0.0
  0
LINE
  5
1FB
330
1E
100
AcDbEntity
  8
1
 62
     7
100
AcDbLine
 10
-2.870000179767076
 20
46.00000000001717
 30
0.0
 11
-2.870000179767076
 21
44.00000000001717
 31
0.0
  0
LINE
  5
1FC
330
1E
100
AcDbEntity
  8
1
 62
     7
100
AcDbLine
 10
-2.870000179757071
 20
44.00000000001717
 30
0.0
 11
-4.300000175262868
 21
44.00000000001717
 31
0.0
  0
LINE
  5
1FD
330
1E
100
AcDbEntity
  8
1
 62
     7
100
AcDbLine
 10
-2.870000179767076
 20
46.00000000001717
 30
0.0
 11
-4.000000179713991
 21
46.00000000001717
 31
0.0
  0
LINE
  5
1FE
330
1E
100
AcDbEntity
  8
1
 62
     7
100
AcDbLine
 10
-5.000000179779918
 20
63.25000000001796
 30
0.0
 11
-32.00000013467398
 21
63.25000000001717
 31
0.0
  0
LINE
  5
1FF
330
1E
100
AcDbEntity
  8
1
 62
     7
100
AcDbLine
 10
-5.000000179779918
 20
68.75000000001718
 30
0.0
 11
-32.00000013467398
 21
68.75000000001718
 31
0.0
  0
LINE
  5
200
330
1E
100
AcDbEntity
  8
0
 62
     7
100
AcDbLine
 10
-6.600000140737038
 20
44.00000000001717
 30
0.0
 11
-7.00000013467694
 21
43.60000000605146
 31
0.0
  0
LINE
  5
201
330
1E
100
AcDbEntity
  8
0
 62
     7
100
AcDbLine
 10
-4.300000175262868
 20
44.00000000001717
 30
0.0
 11
-6.600000140737038
 21
44.00000000001717
 31
0.0
  0
LINE
  5
202
330
1E
100
AcDbEntity
  8
1
 62
     7
100
AcDbLine
 10
-4.000000179779918
 20
47.25000000001717
 30
0.0
 11
9.999999865240068
 21
47.25000000001717
 31
0.0
  0
LINE
  5
203
330
1E
100
AcDbEntity
  8
0
 62
     7
100
AcDbLine
 10
9.999999865240068
 20
41.44999999960066
 30
0.0
 11
9.999999865240068
 21
54.59999917950949
 31
0.0
  0
LINE
  5
204
330
1E
100
AcDbEntity
  8
1
 62
     7
100
AcDbLine
 10
-4.000000179779918
 20
52.75000000001718
 30
0.0
 11
9.999999865240068
 21
52.75000000001718
 31
0.0
  0
LINE
  5
205
330
1E
100
AcDbEntity
  8
0
 62
     7
100
AcDbLine
 10
-4.000000179821073
 20
54.59999917989057
 30
0.0
 11
-4.000000179713991
 21
46.00000000001717
 31
0.0
  0
LINE
  5
206
330
1E
100
AcDbEntity
  8
0
 62
     7
100
AcDbLine
 10
-3.600000185880036
 20
54.99999917367836
 30
0.0
 11
-4.000000179821073
 21
54.59999917989057
 31
0.0
  0
LINE
  5
207
330
1E
100
AcDbEntity
  8
0
 62
     7
100
AcDbLine
 10
9.599999871247076
 20
54.99999917350057
 30
0.0
 11
-3.600000185880036
 21
54.99999917367836
 31
0.0
  0
LINE
  5
208
330
1E
100
AcDbEntity
  8
0
 62
     7
100
AcDbLine
 10
9.999999865240068
 20
54.59999917950949
 30
0.0
 11
9.599999871247076
 21
54.99999917350057
 31
0.0
  0
LINE
  5
209
330
1E
100
AcDbEntity
  8
1
 62
     7
100
AcDbLine
 10
-32.00000013467398
 20
-63.74999999998283
 30
0.0
 11
-28.4000001346884
 21
-63.74999999998296
 31
0.0
  0
LINE
  5
20A
330
1E
100
AcDbEntity
  8
0
 62
     7
100
AcDbLine
 10
-7.000000134752882
 20
41.44999999973765
 30
0.0
 11
-7.000000134752882
 21
41.6090000000172
 31
0.0
  0
LINE
  5
20B
330
1E
100
AcDbEntity
  8
1
 62
     7
100
AcDbLine
 10
-6.400000134752973
 20
40.84999999973774
 30
0.0
 11
9.39999986539898
 21
40.84999999973774
 31
0.0
  0
LINE
  5
20C
330
1E
100
AcDbEntity
  8
1
 62
     7
100
AcDbLine
 10
9.999999865240068
 20
41.44999999960066
 30
0.0
 11
9.39999986539898
 21
40.84999999973774
 31
0.0
  0
LINE
  5
20D
330
1E
100
AcDbEntity
  8
1
 62
     7
100
AcDbLine
 10
-7.000000134752882
 20
41.44999999973765
 30
0.0
 11
-6.400000134752973
 21
40.84999999973774
 31
0.0
  0
LINE
  5
20E
330
1E
100
AcDbEntity
  8
1
 62
     7
100
AcDbLine
 10
9.999999865453004
 20
41.6090000000172
 30
0.0
 11
-7.000000134752882
 21
41.6090000000172
 31
0.0
  0
LINE
  5
20F
330
1E
100
AcDbEntity
  8
1
 62
     7
100
AcDbLine
 10
5.774999865249027
 20
41.6090000000172
 30
0.0
 11
8.891405180069011
 21
41.57359468519779
 31
0.0
  0
LINE
  5
210
330
1E
100
AcDbEntity
  8
1
 62
     7
100
AcDbLine
 10
5.774999865249027
 20
41.6090000000172
 30
0.0
 11
1.874999865250073
 21
41.6090000000172
 31
0.0
  0
LINE
  5
211
330
1E
100
AcDbEntity
  8
1
 62
     7
100
AcDbLine
 10
1.874999865250073
 20
41.6090000000172
 30
0.0
 11
-4.627677324417608
 21
41.52955085804303
 31
0.0
  0
LINE
  5
212
330
1E
100
AcDbEntity
  8
1
 62
     7
100
AcDbLine
 10
9.999999865250073
 20
40.46500000001697
 30
0.0
 11
8.891405180069011
 21
41.57359468519779
 31
0.0
  0
LINE
  5
213
330
1E
100
AcDbEntity
  8
1
 62
     7
100
AcDbLine
 10
9.069999865248986
 20
39.87400000001708
 30
0.0
 11
9.999999865250073
 21
39.92273923475022
 31
0.0
  0
LINE
  5
214
330
1E
100
AcDbEntity
  8
1
 62
     7
100
AcDbLine
 10
9.999999865250073
 20
32.42921679987182
 30
0.0
 11
9.999999865250073
 21
40.46500000001697
 31
0.0
  0
LINE
  5
215
330
1E
100
AcDbEntity
  8
1
 62
     7
100
AcDbLine
 10
-31.70000013467403
 20
71.00000000001704
 30
0.0
 11
-28.70000013467402
 21
71.00000000001704
 31
0.0
  0
LINE
  5
216
330
1E
100
AcDbEntity
  8
1
 62
     7
100
AcDbLine
 10
-28.88900013475005
 20
56.67500000001712
 30
0.0
 11
-28.88900013475005
 21
42.23000000001706
 31
0.0
  0
LINE
  5
217
330
1E
100
AcDbEntity
  8
1
 62
     7
100
AcDbLine
 10
-28.40000013475002
 20
61.50000000001703
 30
0.0
 11
-28.40000013475002
 21
42.3630000004714
 31
0.0
  0
LINE
  5
218
330
1E
100
AcDbEntity
  8
1
 62
     7
100
AcDbLine
 10
-28.40000013467407
 20
61.50000000001718
 30
0.0
 11
-28.40000013467407
 21
70.70000000001687
 31
0.0
  0
LINE
  5
219
330
1E
100
AcDbEntity
  8
1
 62
     7
100
AcDbLine
 10
-28.40000013467407
 20
70.70000000001687
 30
0.0
 11
-28.70000013467402
 21
71.00000000001704
 31
0.0
  0
LINE
  5
21A
330
1E
100
AcDbEntity
  8
1
 62
     7
100
AcDbLine
 10
-32.00000013467398
 20
70.70000000001687
 30
0.0
 11
-31.70000013467403
 21
71.00000000001704
 31
0.0
  0
LINE
  5
21B
330
1E
100
AcDbEntity
  8
1
 62
     7
100
AcDbLine
 10
-32.00000013467398
 20
57.30000000001712
 30
0.0
 11
-32.00000013467398
 21
70.70000000001687
 31
0.0
  0
LINE
  5
21C
330
1E
100
AcDbEntity
  8
1
 62
     7
100
AcDbLine
 10
-31.70000013467403
 20
57.00000000001728
 30
0.0
 11
-29.214000134751
 21
57.00000000001728
 31
0.0
  0
LINE
  5
21D
330
1E
100
AcDbEntity
  8
1
 62
     7
100
AcDbLine
 10
-31.70000013467403
 20
57.00000000001728
 30
0.0
 11
-32.00000013467398
 21
57.30000000001712
 31
0.0
  0
LINE
  5
21E
330
1E
100
AcDbEntity
  8
0
 62
     7
100
AcDbLine
 10
9.999999864969787
 20
-54.59999917974556
 30
0.0
 11
9.999999865453004
 21
-41.44999999970338
 31
0.0
  0
LINE
  5
21F
330
1E
100
AcDbEntity
  8
0
 62
     7
100
AcDbLine
 10
-7.00000013467694
 20
-43.60000000601718
 30
0.0
 11
-7.00000013467694
 21
-41.60899999998287
 31
0.0
  0
LINE
  5
220
330
1E
100
AcDbEntity
  8
0
 62
     7
100
AcDbLine
 10
-4.000000179794925
 20
-54.59999917988249
 30
0.0
 11
-4.000000179794925
 21
-51.99999999998277
 31
0.0
  0
LINE
  5
221
330
1E
100
AcDbEntity
  8
0
 62
     7
100
AcDbLine
 10
-4.000000179794925
 20
-54.59999917988249
 30
0.0
 11
-3.600000185880036
 21
-54.99999917364409
 31
0.0
  0
LINE
  5
222
330
1E
100
AcDbEntity
  8
0
 62
     7
100
AcDbLine
 10
-3.600000185880036
 20
-54.99999917364409
 30
0.0
 11
9.599999871247076
 21
-54.99999917346634
 31
0.0
  0
LINE
  5
223
330
1E
100
AcDbEntity
  8
0
 62
     7
100
AcDbLine
 10
9.599999871247076
 20
-54.99999917346634
 30
0.0
 11
9.999999864969787
 21
-54.59999917974556
 31
0.0
  0
LINE
  5
224
330
1E
100
AcDbEntity
  8
0
 62
     7
100
AcDbLine
 10
-7.000000134752882
 20
-41.60899999998287
 30
0.0
 11
-7.000000134752882
 21
-41.44999999970338
 31
0.0
  0
LINE
  5
225
330
1E
100
AcDbEntity
  8
1
 62
     7
100
AcDbLine
 10
9.39999986539898
 20
-40.84999999970347
 30
0.0
 11
-6.400000134752973
 21
-40.84999999970347
 31
0.0
  0
LINE
  5
226
330
1E
100
AcDbEntity
  8
1
 62
     7
100
AcDbLine
 10
9.39999986539898
 20
-40.84999999970347
 30
0.0
 11
9.999999865377059
 21
-41.44999999970338
 31
0.0
  0
LINE
  5
227
330
1E
100
AcDbEntity
  8
1
 62
     7
100
AcDbLine
 10
-6.400000134752973
 20
-40.84999999970347
 30
0.0
 11
-7.000000134752882
 21
-41.44999999970338
 31
0.0
  0
LINE
  5
228
330
1E
100
AcDbEntity
  8
1
 62
     7
100
AcDbLine
 10
-7.000000134752882
 20
-41.60899999998287
 30
0.0
 11
9.999999865453004
 21
-41.60899999998287
 31
0.0
  0
LINE
  5
229
330
1E
100
AcDbEntity
  8
1
 62
     7
100
AcDbLine
 10
8.891405180069011
 20
-41.57359468516363
 30
0.0
 11
5.774999865249027
 21
-41.60899999998287
 31
0.0
  0
LINE
  5
22A
330
1E
100
AcDbEntity
  8
1
 62
     7
100
AcDbLine
 10
1.874999865250073
 20
-41.60899999998287
 30
0.0
 11
5.774999865249027
 21
-41.60899999998287
 31
0.0
  0
LINE
  5
22B
330
1E
100
AcDbEntity
  8
1
 62
     7
100
AcDbLine
 10
-4.627677324553681
 20
-41.52955085800715
 30
0.0
 11
1.874999865250073
 21
-41.60899999998287
 31
0.0
  0
LINE
  5
22C
330
1E
100
AcDbEntity
  8
1
 62
     7
100
AcDbLine
 10
8.891405180069011
 20
-41.57359468516363
 30
0.0
 11
9.999999865250073
 21
-40.46499999998275
 31
0.0
  0
LINE
  5
22D
330
1E
100
AcDbEntity
  8
1
 62
     7
100
AcDbLine
 10
9.999999865250073
 20
-39.92273923471595
 30
0.0
 11
9.069999865248986
 21
-39.87399999998274
 31
0.0
  0
LINE
  5
22E
330
1E
100
AcDbEntity
  8
1
 62
     7
100
AcDbLine
 10
9.999999865250073
 20
-40.46499999998275
 30
0.0
 11
9.999999865250073
 21
-32.42921679983755
 31
0.0
  0
LINE
  5
22F
330
1E
100
AcDbEntity
  8
1
 62
     7
100
AcDbLine
 10
-28.70000013467402
 20
-70.99999999998278
 30
0.0
 11
-31.70000013467403
 21
-70.99999999998278
 31
0.0
  0
LINE
  5
230
330
1E
100
AcDbEntity
  8
1
 62
     7
100
AcDbLine
 10
-28.88900013475005
 20
-42.22999999998275
 30
0.0
 11
-28.88900013475005
 21
-56.67499999998307
 31
0.0
  0
LINE
  5
231
330
1E
100
AcDbEntity
  8
1
 62
     7
100
AcDbLine
 10
-28.40000013475002
 20
-42.46299999952633
 30
0.0
 11
-28.40000013475002
 21
-61.49999999998278
 31
0.0
  0
LINE
  5
232
330
1E
100
AcDbEntity
  8
1
 62
     7
100
AcDbLine
 10
-28.40000013467407
 20
-61.49999999998278
 30
0.0
 11
-28.40000013467407
 21
-63.99999999998282
 31
0.0
  0
LINE
  5
233
330
1E
100
AcDbEntity
  8
1
 62
     7
100
AcDbLine
 10
-28.70000013467402
 20
-70.99999999998278
 30
0.0
 11
-28.40000013467407
 21
-70.69999999998265
 31
0.0
  0
LINE
  5
234
330
1E
100
AcDbEntity
  8
1
 62
     7
100
AcDbLine
 10
-31.70000013467403
 20
-70.99999999998278
 30
0.0
 11
-32.00000013467398
 21
-70.69999999998265
 31
0.0
  0
LINE
  5
235
330
1E
100
AcDbEntity
  8
1
 62
     7
100
AcDbLine
 10
-32.00000013467398
 20
-63.99999999998282
 30
0.0
 11
-32.00000013467398
 21
-57.29999999998285
 31
0.0
  0
LINE
  5
236
330
1E
100
AcDbEntity
  8
1
 62
     7
100
AcDbLine
 10
-29.214000134751
 20
-56.99999999998283
 30
0.0
 11
-31.70000013467391
 21
-56.99999999998277
 31
0.0
  0
LINE
  5
237
330
1E
100
AcDbEntity
  8
1
 62
     7
100
AcDbLine
 10
-32.00000013467398
 20
-57.29999999998285
 30
0.0
 11
-31.70000013467391
 21
-56.99999999998277
 31
0.0
  0
LINE
  5
238
330
1E
100
AcDbEntity
  8
1
 62
     7
100
AcDbLine
 10
-32.00000013467398
 20
-70.69999999998265
 30
0.0
 11
-32.00000013467398
 21
-67.99999999998282
 31
0.0
  0
LINE
  5
239
330
1E
100
AcDbEntity
  8
1
 62
     7
100
AcDbLine
 10
-28.40000013467407
 20
-67.99999999998282
 30
0.0
 11
-28.40000013467407
 21
-70.69999999998265
 31
0.0
  0
LINE
  5
23A
330
1E
100
AcDbEntity
  8
0
 62
     7
100
AcDbLine
 10
-4.000000179794925
 20
-47.99999999998277
 30
0.0
 11
-4.000000179794925
 21
-45.99999999998277
 31
0.0
  0
LINE
  5
23B
330
1E
100
AcDbEntity
  8
1
  6
CENTER
 62
     3
100
AcDbLine
 10
-175.7992902030702
 20
60.73003144040081
 30
0.0
 11
-171.6742902030703
 21
53.5853218591792
 31
0.0
  0
LINE
  5
23C
330
1E
100
AcDbEntity
  8
1
  6
CENTER
 62
     3
100
AcDbLine
 10
-201.4668216434539
 20
35.06250000001717
 30
0.0
 11
-194.3221120622324
 21
30.93750000001717
 31
0.0
  0
LINE
  5
23D
330
1E
100
AcDbEntity
  8
1
  6
CENTER
 62
     3
100
AcDbLine
 10
-201.4668216434541
 20
-35.06249999998294
 30
0.0
 11
-194.3221120622325
 21
-30.93749999998294
 31
0.0
  0
LINE
  5
23E
330
1E
100
AcDbEntity
  8
1
  6
CENTER
 62
     3
100
AcDbLine
 10
-175.7992902030704
 20
-60.73003144036675
 30
0.0
 11
-171.6742902030704
 21
-53.58532185914515
 31
0.0
  0
LINE
  5
23F
330
1E
100
AcDbEntity
  8
0
 62
     7
100
AcDbLine
 10
-7.00000013467694
 20
41.6090000000172
 30
0.0
 11
-7.00000013467694
 21
43.60000000605146
 31
0.0
  0
LINE
  5
240
330
1E
100
AcDbEntity
  8
1
  6
CENTER
 62
     3
100
AcDbLine
 10
130.8424408436866
 20
-50.00497969715684
 30
0.0
 11
127.6853025266745
 21
-42.38297355393894
 31
0.0
  0
LINE
  5
241
330
1E
100
AcDbEntity
  8
1
  6
CENTER
 62
     3
100
AcDbLine
 10
148.4018545986477
 20
-38.27215453170578
 30
0.0
 11
142.5682236538585
 21
-32.43852358691709
 31
0.0
  0
LINE
  5
242
330
1E
100
AcDbEntity
  8
1
  6
CENTER
 62
     3
100
AcDbLine
 10
160.1346797640995
 20
-20.71274077674485
 30
0.0
 11
152.5126736208816
 21
-17.55560245973294
 31
0.0
  0
LINE
  5
243
330
1E
100
AcDbEntity
  8
1
  6
CENTER
 62
     3
100
AcDbLine
 10
160.1346797641005
 20
20.7127407767764
 30
0.0
 11
152.5126736208824
 21
17.55560245976425
 31
0.0
  0
LINE
  5
244
330
1E
100
AcDbEntity
  8
1
  6
CENTER
 62
     3
100
AcDbLine
 10
148.4018545986494
 20
38.27215453173801
 30
0.0
 11
142.5682236538605
 21
32.43852358694926
 31
0.0
  0
LINE
  5
245
330
1E
100
AcDbEntity
  8
1
  6
CENTER
 62
     3
100
AcDbLine
 10
130.8424408436887
 20
50.00497969719027
 30
0.0
 11
127.6853025266766
 21
42.38297355397231
 31
0.0
  0
LINE
  5
246
330
1E
100
AcDbEntity
  8
1
  6
CENTER
 62
     3
100
AcDbLine
 10
153.5648598316947
 20
-8.639790456306684
 30
0.0
 11
164.6936980180686
 21
-10.85345400614324
 31
0.0
  0
LINE
  5
247
330
1E
100
AcDbEntity
  8
1
  6
CENTER
 62
     3
100
AcDbLine
 10
118.7694905232495
 20
43.4351597647851
 30
0.0
 11
120.9831540730867
 21
54.5639979511585
 31
0.0
  0
LINE
  5
248
330
1E
100
AcDbEntity
  8
1
  6
CENTER
 62
     3
100
AcDbLine
 10
101.4899096106024
 20
-43.43515976475095
 30
0.0
 11
99.27624606076657
 21
-54.56399795112458
 31
0.0
  0
LINE
  5
249
330
1E
100
AcDbEntity
  8
1
  6
CENTER
 62
     3
100
AcDbLine
 10
14.99693905661606
 20
0.0000000000171667
 30
0.0
 11
-36.03478433633346
 21
0.0000000000171667
 31
0.0
  0
ARC
  5
24A
330
1E
100
AcDbEntity
  8
1
 62
     7
100
AcDbCircle
 10
-12.88712219930571
 20
-72.91300000000003
 30
0.0
 40
32.45210793904027
100
AcDbArc
 50
75.25534020092553
 51
90.65305167668752
  0
ARC
  5
24B
330
1E
100
AcDbEntity
  8
1
 62
     7
100
AcDbCircle
 10
-12.88712219930571
 20
72.91299999999998
 30
0.0
 40
32.45210793904016
100
AcDbArc
 50
269.3469483233274
 51
284.744659799323
  0
ARC
  5
24C
330
1E
100
AcDbEntity
  8
1
 62
     7
100
AcDbCircle
 10
110.1297000669265
 20
0.0000000000171667
 30
0.0
 40
37.01500000000008
100
AcDbArc
 50
79.42010107224252
 51
84.92772501471398
  0
ARC
  5
24D
330
1E
100
AcDbEntity
  8
1
 62
     7
100
AcDbCircle
 10
110.1297000669265
 20
34.68500000001722
 30
0.0
 40
3.93500000000043
100
AcDbArc
 50
319.4384787733556
 51
33.73037261395412
  0
ARC
  5
24E
330
1E
100
AcDbEntity
  8
1
 62
     7
100
AcDbCircle
 10
110.1297000669265
 20
0.0000000000171667
 30
0.0
 40
32.2650000000001
100
AcDbArc
 50
79.6640815655881
 51
84.68374452136659
  0
ARC
  5
24F
330
1E
100
AcDbEntity
  8
1
 62
     7
100
AcDbCircle
 10
119.4876010745075
 20
33.39878611167569
 30
0.0
 40
3.934999999999528
100
AcDbArc
 50
130.6174534729973
 51
204.9093473136111
  0
ARC
  5
250
330
1E
100
AcDbEntity
  8
1
 62
     7
100
AcDbCircle
 10
110.1297000669265
 20
0.0000000000171667
 30
0.0
 40
37.01499999999993
100
AcDbArc
 50
63.76792715919947
 51
69.27555110167086
  0
ARC
  5
251
330
1E
100
AcDbEntity
  8
1
 62
     7
100
AcDbCircle
 10
119.4876010745075
 20
33.39878611167569
 30
0.0
 40
3.935000000000403
100
AcDbArc
 50
303.7863048603123
 51
18.07819870090879
  0
ARC
  5
252
330
1E
100
AcDbEntity
  8
1
 62
     7
100
AcDbCircle
 10
110.1297000669265
 20
0.0000000000171667
 30
0.0
 40
32.26500000000009
100
AcDbArc
 50
64.01190765254527
 51
69.03157060832386
  0
ARC
  5
253
330
1E
100
AcDbEntity
  8
1
 62
     7
100
AcDbCircle
 10
128.1514693739056
 20
29.63553704671221
 30
0.0
 40
3.934999999999892
100
AcDbArc
 50
114.9652795599618
 51
189.2571734005623
  0
ARC
  5
254
330
1E
100
AcDbEntity
  8
1
 62
     7
100
AcDbCircle
 10
110.1297000669265
 20
0.0000000000171667
 30
0.0
 40
37.01500000000013
100
AcDbArc
 50
48.1157532461559
 51
53.62337718862661
  0
ARC
  5
255
330
1E
100
AcDbEntity
  8
1
 62
     7
100
AcDbCircle
 10
128.1514693739056
 20
29.63553704671221
 30
0.0
 40
3.935000000000141
100
AcDbArc
 50
288.1341309472688
 51
2.42602478786389
  0
ARC
  5
256
330
1E
100
AcDbEntity
  8
1
 62
     7
100
AcDbCircle
 10
110.1297000669265
 20
0.0000000000171667
 30
0.0
 40
32.26500000000005
100
AcDbArc
 50
48.35973373950191
 51
53.37939669528017
  0
ARC
  5
257
330
1E
100
AcDbEntity
  8
1
 62
     7
100
AcDbCircle
 10
135.4787454879136
 20
23.67435577255628
 30
0.0
 40
3.935000000000031
100
AcDbArc
 50
99.31310564692052
 51
173.6049994875191
  0
ARC
  5
258
330
1E
100
AcDbEntity
  8
1
 62
     7
100
AcDbCircle
 10
110.1297000669265
 20
0.0000000000171667
 30
0.0
 40
37.01499999999974
100
AcDbArc
 50
32.46357933311273
 51
37.9712032755836
  0
ARC
  5
259
330
1E
100
AcDbEntity
  8
1
 62
     7
100
AcDbCircle
 10
135.4787454879136
 20
23.67435577255628
 30
0.0
 40
3.934999999999975
100
AcDbArc
 50
272.4819570342198
 51
346.7738508748201
  0
ARC
  5
25A
330
1E
100
AcDbEntity
  8
1
 62
     7
100
AcDbCircle
 10
110.1297000669265
 20
0.0000000000171667
 30
0.0
 40
32.2650000000004
100
AcDbArc
 50
32.70755982645818
 51
37.72722278223693
  0
ARC
  5
25B
330
1E
100
AcDbEntity
  8
1
 62
     7
100
AcDbCircle
 10
140.9259988672125
 20
15.9573558337222
 30
0.0
 40
3.934999999999988
100
AcDbArc
 50
83.66093173387231
 51
157.9528255744691
  0
ARC
  5
25C
330
1E
100
AcDbEntity
  8
1
 62
     7
100
AcDbCircle
 10
110.1297000669265
 20
0.0000000000171667
 30
0.0
 40
37.01500000000003
100
AcDbArc
 50
16.81140542006898
 51
22.31902936253967
  0
ARC
  5
25D
330
1E
100
AcDbEntity
  8
1
 62
     7
100
AcDbCircle
 10
140.9259988672125
 20
15.9573558337222
 30
0.0
 40
3.93499999999981
100
AcDbArc
 50
256.8297831211838
 51
331.1216769617824
  0
ARC
  5
25E
330
1E
100
AcDbEntity
  8
1
 62
     7
100
AcDbCircle
 10
110.1297000669265
 20
0.0000000000171667
 30
0.0
 40
32.2650000000004
100
AcDbArc
 50
17.05538591341497
 51
22.07504886919373
  0
ARC
  5
25F
330
1E
100
AcDbEntity
  8
1
 62
     7
100
AcDbCircle
 10
144.0892316481875
 20
7.056871812747829
 30
0.0
 40
3.935000000000103
100
AcDbArc
 50
68.00875782082411
 51
142.3006516614234
  0
ARC
  5
260
330
1E
100
AcDbEntity
  8
1
 62
     7
100
AcDbCircle
 10
110.1297000669265
 20
0.0000000000171667
 30
0.0
 40
37.01499999999957
100
AcDbArc
 50
1.159231507025672
 51
6.666855449496455
  0
ARC
  5
261
330
1E
100
AcDbEntity
  8
1
 62
     7
100
AcDbCircle
 10
144.0892316481875
 20
7.056871812747829
 30
0.0
 40
3.934999999999655
100
AcDbArc
 50
241.1776092081428
 51
315.4695030487363
  0
ARC
  5
262
330
1E
100
AcDbEntity
  8
1
 62
     7
100
AcDbCircle
 10
110.1297000669265
 20
0.0000000000171667
 30
0.0
 40
32.2649999999997
100
AcDbArc
 50
1.403212000371818
 51
6.422874956150177
  0
ARC
  5
263
330
1E
100
AcDbEntity
  8
1
 62
     7
100
AcDbCircle
 10
144.7338413263006
 20
-2.366988107536371
 30
0.0
 40
3.934999999999598
100
AcDbArc
 50
52.35658390779463
 51
126.648477748393
  0
ARC
  5
264
330
1E
100
AcDbEntity
  8
1
 62
     7
100
AcDbCircle
 10
110.1297000669265
 20
0.0000000000171667
 30
0.0
 40
37.01500000000003
100
AcDbArc
 50
345.5070575939821
 51
351.0146815364531
  0
ARC
  5
265
330
1E
100
AcDbEntity
  8
1
 62
     7
100
AcDbCircle
 10
144.7338413263006
 20
-2.366988107536371
 30
0.0
 40
3.935000000000465
100
AcDbArc
 50
225.5254352950864
 51
299.8173291356943
  0
ARC
  5
266
330
1E
100
AcDbEntity
  8
1
 62
     7
100
AcDbCircle
 10
110.1297000669265
 20
0.0000000000171667
 30
0.0
 40
32.26500000000028
100
AcDbArc
 50
345.7510380873286
 51
350.7707010431063
  0
ARC
  5
267
330
1E
100
AcDbEntity
  8
1
 62
     7
100
AcDbCircle
 10
142.8120201506175
 20
-11.61529934813348
 30
0.0
 40
3.935000000000401
100
AcDbArc
 50
36.70440999473997
 51
110.996303835333
  0
ARC
  5
268
330
1E
100
AcDbEntity
  8
1
 62
     7
100
AcDbCircle
 10
110.1297000669265
 20
0.0000000000171667
 30
0.0
 40
37.01500000000037
100
AcDbArc
 50
329.8548836809388
 51
335.3625076234092
  0
ARC
  5
269
330
1E
100
AcDbEntity
  8
1
 62
     7
100
AcDbCircle
 10
142.8120201506175
 20
-11.61529934813348
 30
0.0
 40
3.934999999999443
100
AcDbArc
 50
209.8732613820515
 51
284.1651552226506
  0
ARC
  5
26A
330
1E
100
AcDbEntity
  8
1
 62
     7
100
AcDbCircle
 10
110.1297000669265
 20
0.0000000000171667
 30
0.0
 40
32.26499999999962
100
AcDbArc
 50
330.0988641742847
 51
335.1185271300633
  0
ARC
  5
26B
330
1E
100
AcDbEntity
  8
1
 62
     7
100
AcDbCircle
 10
138.4663008059937
 20
-20.00215697253685
 30
0.0
 40
3.935000000000449
100
AcDbArc
 50
21.0522360816952
 51
95.34412992230343
  0
ARC
  5
26C
330
1E
100
AcDbEntity
  8
1
 62
     7
100
AcDbCircle
 10
110.1297000669265
 20
0.0000000000171667
 30
0.0
 40
37.01499999999975
100
AcDbArc
 50
314.2027097678948
 51
319.7103337103656
  0
ARC
  5
26D
330
1E
100
AcDbEntity
  8
1
 62
     7
100
AcDbCircle
 10
138.4663008059937
 20
-20.00215697253685
 30
0.0
 40
3.935000000000163
100
AcDbArc
 50
194.2210874690067
 51
268.512981309604
  0
ARC
  5
26E
330
1E
100
AcDbEntity
  8
1
 62
     7
100
AcDbCircle
 10
110.1297000669265
 20
0.0000000000171667
 30
0.0
 40
32.26499999999976
100
AcDbArc
 50
314.4466902612409
 51
319.4663532170193
  0
ARC
  5
26F
330
1E
100
AcDbEntity
  8
1
 62
     7
100
AcDbCircle
 10
132.0189854158756
 20
-26.90554611806556
 30
0.0
 40
3.934999999999879
100
AcDbArc
 50
5.400062168656253
 51
79.69195600925774
  0
ARC
  5
270
330
1E
100
AcDbEntity
  8
1
 62
     7
100
AcDbCircle
 10
110.1297000669265
 20
0.0000000000171667
 30
0.0
 40
37.01500000000013
100
AcDbArc
 50
298.5505358548525
 51
304.0581597973219
  0
ARC
  5
271
330
1E
100
AcDbEntity
  8
1
 62
     7
100
AcDbCircle
 10
132.0189854158756
 20
-26.90554611806556
 30
0.0
 40
3.934999999999381
100
AcDbArc
 50
178.5689135559614
 51
252.8608073965599
  0
ARC
  5
272
330
1E
100
AcDbEntity
  8
1
 62
     7
100
AcDbCircle
 10
110.1297000669265
 20
0.0000000000171667
 30
0.0
 40
32.26499999999995
100
AcDbArc
 50
298.7945163481979
 51
303.8141793039768
  0
ARC
  5
273
330
1E
100
AcDbEntity
  8
1
 62
     7
100
AcDbCircle
 10
123.9482418682436
 20
-31.81347399269947
 30
0.0
 40
3.935000000000392
100
AcDbArc
 50
349.7478882556158
 51
64.03978209621339
  0
ARC
  5
274
330
1E
100
AcDbEntity
  8
1
 62
     7
100
AcDbCircle
 10
110.1297000669265
 20
0.0000000000171667
 30
0.0
 40
37.01499999999983
100
AcDbArc
 50
282.8983619418075
 51
288.4059858842783
  0
ARC
  5
275
330
1E
100
AcDbEntity
  8
1
 62
     7
100
AcDbCircle
 10
123.9482418682436
 20
-31.81347399269947
 30
0.0
 40
3.935000000000258
100
AcDbArc
 50
162.9167396429174
 51
237.2086334835113
  0
ARC
  5
276
330
1E
100
AcDbEntity
  8
1
 62
     7
100
AcDbCircle
 10
110.1297000669265
 20
0.0000000000171667
 30
0.0
 40
32.26499999999994
100
AcDbArc
 50
283.1423424351546
 51
288.1620053909323
  0
ARC
  5
277
330
1E
100
AcDbEntity
  8
1
 62
     7
100
AcDbCircle
 10
114.8526402908295
 20
-34.36194203825284
 30
0.0
 40
3.934999999999964
100
AcDbArc
 50
334.0957143425683
 51
48.38760818316353
  0
ARC
  5
278
330
1E
100
AcDbEntity
  8
1
 62
     7
100
AcDbCircle
 10
110.1297000669265
 20
0.0000000000171667
 30
0.0
 40
37.01499999999998
100
AcDbArc
 50
267.2461880287651
 51
272.7538119712361
  0
ARC
  5
279
330
1E
100
AcDbEntity
  8
1
 62
     7
100
AcDbCircle
 10
114.8526402908295
 20
-34.36194203825284
 30
0.0
 40
3.935000000000082
100
AcDbArc
 50
147.2645657298766
 51
221.5564595704844
  0
ARC
  5
27A
330
1E
100
AcDbEntity
  8
1
 62
     7
100
AcDbCircle
 10
110.1297000669265
 20
0.0000000000171667
 30
0.0
 40
32.26499999999994
100
AcDbArc
 50
267.4901685221113
 51
272.5098314778883
  0
ARC
  5
27B
330
1E
100
AcDbEntity
  8
1
 62
     7
100
AcDbCircle
 10
105.4067598430237
 20
-34.36194203825284
 30
0.0
 40
3.935000000000075
100
AcDbArc
 50
318.4435404295242
 51
32.73543427012578
  0
ARC
  5
27C
330
1E
100
AcDbEntity
  8
1
 62
     7
100
AcDbCircle
 10
110.1297000669265
 20
0.0000000000171667
 30
0.0
 40
37.01499999999981
100
AcDbArc
 50
251.5940141157218
 51
257.1016380581921
  0
ARC
  5
27D
330
1E
100
AcDbEntity
  8
1
 62
     7
100
AcDbCircle
 10
105.4067598430237
 20
-34.36194203825284
 30
0.0
 40
3.935000000000309
100
AcDbArc
 50
131.6123918168365
 51
205.9042856574297
  0
ARC
  5
27E
330
1E
100
AcDbEntity
  8
1
 62
     7
100
AcDbCircle
 10
110.1297000669265
 20
0.0000000000171667
 30
0.0
 40
32.26499999999983
100
AcDbArc
 50
251.8379946090675
 51
256.8576575648455
  0
ARC
  5
27F
330
1E
100
AcDbEntity
  8
1
 62
     7
100
AcDbCircle
 10
96.31115826560964
 20
-31.81347399269947
 30
0.0
 40
3.935000000000252
100
AcDbArc
 50
302.791366516489
 51
17.08326035708239
  0
ARC
  5
280
330
1E
100
AcDbEntity
  8
1
 62
     7
100
AcDbCircle
 10
110.1297000669265
 20
0.0000000000171667
 30
0.0
 40
37.01499999999985
100
AcDbArc
 50
110.7244488983289
 51
116.2320728408003
  0
ARC
  5
281
330
1E
100
AcDbEntity
  8
1
 62
     7
100
AcDbCircle
 10
92.10793075994764
 20
29.63553704671221
 30
0.0
 40
3.934999999999783
100
AcDbArc
 50
350.7428265994377
 51
65.0347204400381
  0
ARC
  5
282
330
1E
100
AcDbEntity
  8
1
 62
     7
100
AcDbCircle
 10
110.1297000669265
 20
0.0000000000171667
 30
0.0
 40
32.2650000000001
100
AcDbArc
 50
110.9684293916759
 51
115.9880923474547
  0
ARC
  5
283
330
1E
100
AcDbEntity
  8
1
 62
     7
100
AcDbCircle
 10
100.7717990593457
 20
33.39878611167569
 30
0.0
 40
3.934999999999888
100
AcDbArc
 50
161.9218012990911
 51
236.213695139685
  0
ARC
  5
284
330
1E
100
AcDbEntity
  8
1
 62
     7
100
AcDbCircle
 10
110.1297000669265
 20
34.68500000001722
 30
0.0
 40
3.934999999999973
100
AcDbArc
 50
146.2696273860476
 51
220.5615212266525
  0
ARC
  5
285
330
1E
100
AcDbEntity
  8
1
 62
     7
100
AcDbCircle
 10
110.1297000669265
 20
0.0000000000171667
 30
0.0
 40
32.26500000000001
100
AcDbArc
 50
95.31625547863164
 51
100.3359184344117
  0
ARC
  5
286
330
1E
100
AcDbEntity
  8
1
 62
     7
100
AcDbCircle
 10
100.7717990593457
 20
33.39878611167569
 30
0.0
 40
3.934999999999176
100
AcDbArc
 50
335.090652686389
 51
49.38254652700265
  0
ARC
  5
287
330
1E
100
AcDbEntity
  8
1
 62
     7
100
AcDbCircle
 10
110.1297000669265
 20
0.0000000000171667
 30
0.0
 40
37.01500000000003
100
AcDbArc
 50
95.07227498528635
 51
100.5798989277572
  0
ARC
  5
288
330
1E
100
AcDbEntity
  8
1
 62
     7
100
AcDbCircle
 10
110.1297000669265
 20
0.0000000000171667
 30
0.0
 40
37.01499999999978
100
AcDbArc
 50
220.2896662896344
 51
225.7972902321052
  0
ARC
  5
289
330
1E
100
AcDbEntity
  8
1
 62
     7
100
AcDbCircle
 10
81.79309932785955
 20
-20.00215697253685
 30
0.0
 40
3.935000000000033
100
AcDbArc
 50
84.65587007769572
 51
158.9477639183045
  0
ARC
  5
28A
330
1E
100
AcDbEntity
  8
1
 62
     7
100
AcDbCircle
 10
110.1297000669265
 20
0.0000000000171667
 30
0.0
 40
32.26500000000005
100
AcDbArc
 50
204.8814728699366
 51
209.9011358257154
  0
ARC
  5
28B
330
1E
100
AcDbEntity
  8
1
 62
     7
100
AcDbCircle
 10
77.44737998323571
 20
-11.61529934813348
 30
0.0
 40
3.934999999999977
100
AcDbArc
 50
255.8348447773498
 51
330.1267386179491
  0
ARC
  5
28C
330
1E
100
AcDbEntity
  8
1
 62
     7
100
AcDbCircle
 10
110.1297000669265
 20
0.0000000000171667
 30
0.0
 40
37.01499999999973
100
AcDbArc
 50
204.6374923765908
 51
210.1451163190611
  0
ARC
  5
28D
330
1E
100
AcDbEntity
  8
1
 62
     7
100
AcDbCircle
 10
77.44737998323571
 20
-11.61529934813348
 30
0.0
 40
3.934999999999873
100
AcDbArc
 50
69.00369616466578
 51
143.2955900052593
  0
ARC
  5
28E
330
1E
100
AcDbEntity
  8
1
 62
     7
100
AcDbCircle
 10
110.1297000669265
 20
0.0000000000171667
 30
0.0
 40
32.2649999999996
100
AcDbArc
 50
189.2292989568936
 51
194.2489619126715
  0
ARC
  5
28F
330
1E
100
AcDbEntity
  8
1
 62
     7
100
AcDbCircle
 10
75.52555880755257
 20
-2.366988107536371
 30
0.0
 40
3.935000000000044
100
AcDbArc
 50
240.1826708643054
 51
314.4745647049136
  0
ARC
  5
290
330
1E
100
AcDbEntity
  8
1
 62
     7
100
AcDbCircle
 10
110.1297000669265
 20
0.0000000000171667
 30
0.0
 40
37.01500000000035
100
AcDbArc
 50
188.9853184635469
 51
194.4929424060178
  0
ARC
  5
291
330
1E
100
AcDbEntity
  8
1
 62
     7
100
AcDbCircle
 10
75.52555880755257
 20
-2.366988107536371
 30
0.0
 40
3.935000000000282
100
AcDbArc
 50
53.35152225160756
 51
127.6434160922057
  0
ARC
  5
292
330
1E
100
AcDbEntity
  8
1
 62
     7
100
AcDbCircle
 10
110.1297000669265
 20
0.0000000000171667
 30
0.0
 40
32.26500000000016
100
AcDbArc
 50
173.5771250438498
 51
178.5967879996281
  0
ARC
  5
293
330
1E
100
AcDbEntity
  8
1
 62
     7
100
AcDbCircle
 10
76.17016848566563
 20
7.056871812747829
 30
0.0
 40
3.934999999999982
100
AcDbArc
 50
224.530496951264
 51
298.8223907918582
  0
ARC
  5
294
330
1E
100
AcDbEntity
  8
1
 62
     7
100
AcDbCircle
 10
110.1297000669265
 20
0.0000000000171667
 30
0.0
 40
37.01499999999964
100
AcDbArc
 50
173.3331445505035
 51
178.8407684929743
  0
ARC
  5
295
330
1E
100
AcDbEntity
  8
1
 62
     7
100
AcDbCircle
 10
76.17016848566563
 20
7.056871812747829
 30
0.0
 40
3.934999999999399
100
AcDbArc
 50
37.69934833857572
 51
111.991242179175
  0
ARC
  5
296
330
1E
100
AcDbEntity
  8
1
 62
     7
100
AcDbCircle
 10
110.1297000669265
 20
0.0000000000171667
 30
0.0
 40
32.26499999999995
100
AcDbArc
 50
157.9249511308062
 51
162.944614086585
  0
ARC
  5
297
330
1E
100
AcDbEntity
  8
1
 62
     7
100
AcDbCircle
 10
79.33340126664065
 20
15.9573558337222
 30
0.0
 40
3.935000000000466
100
AcDbArc
 50
208.8783230382174
 51
283.1702168788169
  0
ARC
  5
298
330
1E
100
AcDbEntity
  8
1
 62
     7
100
AcDbCircle
 10
110.1297000669265
 20
0.0000000000171667
 30
0.0
 40
37.0150000000001
100
AcDbArc
 50
157.6809706374603
 51
163.188594579931
  0
ARC
  5
299
330
1E
100
AcDbEntity
  8
1
 62
     7
100
AcDbCircle
 10
79.33340126664065
 20
15.9573558337222
 30
0.0
 40
3.934999999999253
100
AcDbArc
 50
22.04717442553044
 51
96.33906826612689
  0
ARC
  5
29A
330
1E
100
AcDbEntity
  8
1
 62
     7
100
AcDbCircle
 10
110.1297000669265
 20
0.0000000000171667
 30
0.0
 40
32.26500000000016
100
AcDbArc
 50
142.272777217763
 51
147.2924401735416
  0
ARC
  5
29B
330
1E
100
AcDbEntity
  8
1
 62
     7
100
AcDbCircle
 10
84.78065464593955
 20
23.67435577255628
 30
0.0
 40
3.93499999999935
100
AcDbArc
 50
193.2261491251798
 51
267.5180429657805
  0
ARC
  5
29C
330
1E
100
AcDbEntity
  8
1
 62
     7
100
AcDbCircle
 10
110.1297000669265
 20
0.0000000000171667
 30
0.0
 40
37.01499999999978
100
AcDbArc
 50
142.0287967244163
 51
147.5364206668871
  0
ARC
  5
29D
330
1E
100
AcDbEntity
  8
1
 62
     7
100
AcDbCircle
 10
110.1297000669265
 20
0.0000000000171667
 30
0.0
 40
32.26499999999978
100
AcDbArc
 50
220.5336467829807
 51
225.553309738759
  0
ARC
  5
29E
330
1E
100
AcDbEntity
  8
1
 62
     7
100
AcDbCircle
 10
81.79309932785955
 20
-20.00215697253685
 30
0.0
 40
3.935000000000106
100
AcDbArc
 50
271.4870186903967
 51
345.7789125309933
  0
ARC
  5
29F
330
1E
100
AcDbEntity
  8
1
 62
     7
100
AcDbCircle
 10
88.24041471797761
 20
-26.90554611806556
 30
0.0
 40
3.934999999999963
100
AcDbArc
 50
100.3080439907414
 51
174.5999378313436
  0
ARC
  5
2A0
330
1E
100
AcDbEntity
  8
1
 62
     7
100
AcDbCircle
 10
96.31115826560964
 20
-31.81347399269947
 30
0.0
 40
3.935000000000064
100
AcDbArc
 50
115.9602179037857
 51
190.2521117443843
  0
ARC
  5
2A1
330
1E
100
AcDbEntity
  8
1
 62
     7
100
AcDbCircle
 10
110.1297000669265
 20
0.0000000000171667
 30
0.0
 40
32.26500000000019
100
AcDbArc
 50
236.1858206960231
 51
241.205483651802
  0
ARC
  5
2A2
330
1E
100
AcDbEntity
  8
1
 62
     7
100
AcDbCircle
 10
88.24041471797761
 20
-26.90554611806556
 30
0.0
 40
3.935000000000096
100
AcDbArc
 50
287.1391926034411
 51
1.431086444038531
  0
ARC
  5
2A3
330
1E
100
AcDbEntity
  8
1
 62
     7
100
AcDbCircle
 10
110.1297000669265
 20
0.0000000000171667
 30
0.0
 40
37.01499999999977
100
AcDbArc
 50
235.941840202678
 51
241.4494641451477
  0
ARC
  5
2A4
330
1E
100
AcDbEntity
  8
1
 62
     7
100
AcDbCircle
 10
84.78065464593955
 20
23.67435577255628
 30
0.0
 40
3.935000000000258
100
AcDbArc
 50
6.395000512480709
 51
80.68689435307947
  0
ARC
  5
2A5
330
1E
100
AcDbEntity
  8
1
 62
     7
100
AcDbCircle
 10
110.1297000669265
 20
0.0000000000171667
 30
0.0
 40
32.26500000000012
100
AcDbArc
 50
126.6206033047196
 51
131.640266260498
  0
ARC
  5
2A6
330
1E
100
AcDbEntity
  8
1
 62
     7
100
AcDbCircle
 10
92.10793075994764
 20
29.63553704671221
 30
0.0
 40
3.935000000000016
100
AcDbArc
 50
177.5739752121361
 51
251.8658690527314
  0
ARC
  5
2A7
330
1E
100
AcDbEntity
  8
1
 62
     7
100
AcDbCircle
 10
110.1297000669265
 20
0.0000000000171667
 30
0.0
 40
37.01499999999995
100
AcDbArc
 50
126.3766228113732
 51
131.884246753844
  0
ARC
  5
2A8
330
1E
100
AcDbEntity
  8
1
 62
     7
100
AcDbCircle
 10
110.1297000669265
 20
34.68500000001722
 30
0.0
 40
3.571874999999912
100
AcDbArc
 50
296.213840199268
 51
63.30008024776132
  0
ARC
  5
2A9
330
1E
100
AcDbEntity
  8
1
 62
     7
100
AcDbCircle
 10
110.1297000669265
 20
34.68500000001722
 30
0.0
 40
3.571874999999783
100
AcDbArc
 50
116.6999197522372
 51
243.7861598007334
  0
ARC
  5
2AA
330
1E
100
AcDbEntity
  8
1
 62
     7
100
AcDbCircle
 10
100.7717990593457
 20
33.39878611167569
 30
0.0
 40
3.571875000000398
100
AcDbArc
 50
132.3520936652962
 51
259.438333713767
  0
ARC
  5
2AB
330
1E
100
AcDbEntity
  8
1
 62
     7
100
AcDbCircle
 10
96.31115826560964
 20
-31.81347399269947
 30
0.0
 40
3.571874999999975
100
AcDbArc
 50
273.2216588826765
 51
40.30789893115788
  0
ARC
  5
2AC
330
1E
100
AcDbEntity
  8
1
 62
     7
100
AcDbCircle
 10
105.4067598430237
 20
-34.36194203825284
 30
0.0
 40
3.571874999999816
100
AcDbArc
 50
288.8738327957089
 51
55.96007284421691
  0
ARC
  5
2AD
330
1E
100
AcDbEntity
  8
1
 62
     7
100
AcDbCircle
 10
114.8526402908295
 20
-34.36194203825284
 30
0.0
 40
3.571874999999931
100
AcDbArc
 50
304.5260067087639
 51
71.61224675723682
  0
ARC
  5
2AE
330
1E
100
AcDbEntity
  8
1
 62
     7
100
AcDbCircle
 10
123.9482418682436
 20
-31.81347399269947
 30
0.0
 40
3.571874999999756
100
AcDbArc
 50
320.1781806218091
 51
87.26442067028843
  0
ARC
  5
2AF
330
1E
100
AcDbEntity
  8
1
 62
     7
100
AcDbCircle
 10
132.0189854158756
 20
-26.90554611806556
 30
0.0
 40
3.57187499999972
100
AcDbArc
 50
335.8303545348506
 51
102.9165945833365
  0
ARC
  5
2B0
330
1E
100
AcDbEntity
  8
1
 62
     7
100
AcDbCircle
 10
138.4663008059937
 20
-20.00215697253685
 30
0.0
 40
3.571875000000166
100
AcDbArc
 50
351.4825284478956
 51
118.5687684963812
  0
ARC
  5
2B1
330
1E
100
AcDbEntity
  8
1
 62
     7
100
AcDbCircle
 10
142.8120201506175
 20
-11.61529934813348
 30
0.0
 40
3.571874999999804
100
AcDbArc
 50
7.134702360941374
 51
134.2209424094157
  0
ARC
  5
2B2
330
1E
100
AcDbEntity
  8
1
 62
     7
100
AcDbCircle
 10
144.7338413263006
 20
-2.366988107536371
 30
0.0
 40
3.571874999999893
100
AcDbArc
 50
22.78687627398313
 51
149.8731163224661
  0
ARC
  5
2B3
330
1E
100
AcDbEntity
  8
1
 62
     7
100
AcDbCircle
 10
144.0892316481875
 20
7.056871812747829
 30
0.0
 40
3.571874999999973
100
AcDbArc
 50
38.43905018702539
 51
165.5252902355101
  0
ARC
  5
2B4
330
1E
100
AcDbEntity
  8
1
 62
     7
100
AcDbCircle
 10
140.9259988672125
 20
15.9573558337222
 30
0.0
 40
3.571875000000036
100
AcDbArc
 50
54.0912241000676
 51
181.1774641485544
  0
ARC
  5
2B5
330
1E
100
AcDbEntity
  8
1
 62
     7
100
AcDbCircle
 10
135.4787454879136
 20
23.67435577255628
 30
0.0
 40
3.571874999999689
100
AcDbArc
 50
69.74339801312358
 51
196.8296380615947
  0
ARC
  5
2B6
330
1E
100
AcDbEntity
  8
1
 62
     7
100
AcDbCircle
 10
128.1514693739056
 20
29.63553704671221
 30
0.0
 40
3.571874999999975
100
AcDbArc
 50
85.39557192615244
 51
212.4818119746412
  0
ARC
  5
2B7
330
1E
100
AcDbEntity
  8
1
 62
     7
100
AcDbCircle
 10
119.4876010745075
 20
33.39878611167569
 30
0.0
 40
3.571874999999936
100
AcDbArc
 50
101.0477458392021
 51
228.1339858876923
  0
ARC
  5
2B8
330
1E
100
AcDbEntity
  8
1
 62
     7
100
AcDbCircle
 10
100.7717990593457
 20
33.39878611167569
 30
0.0
 40
3.571874999999688
100
AcDbArc
 50
311.8660141123078
 51
78.95225416079947
  0
ARC
  5
2B9
330
1E
100
AcDbEntity
  8
1
 62
     7
100
AcDbCircle
 10
105.4067598430237
 20
-34.36194203825284
 30
0.0
 40
3.571875000000274
100
AcDbArc
 50
108.3877532427647
 51
235.473993291236
  0
ARC
  5
2BA
330
1E
100
AcDbEntity
  8
1
 62
     7
100
AcDbCircle
 10
114.8526402908295
 20
-34.36194203825284
 30
0.0
 40
3.571874999999511
100
AcDbArc
 50
124.0399271557833
 51
251.1261672042909
  0
ARC
  5
2BB
330
1E
100
AcDbEntity
  8
1
 62
     7
100
AcDbCircle
 10
123.9482418682436
 20
-31.81347399269947
 30
0.0
 40
3.571875000000535
100
AcDbArc
 50
139.6921010688415
 51
266.7783411173199
  0
ARC
  5
2BC
330
1E
100
AcDbEntity
  8
1
 62
     7
100
AcDbCircle
 10
132.0189854158756
 20
-26.90554611806556
 30
0.0
 40
3.571874999999561
100
AcDbArc
 50
155.3442749818773
 51
282.4305150303661
  0
ARC
  5
2BD
330
1E
100
AcDbEntity
  8
1
 62
     7
100
AcDbCircle
 10
138.4663008059937
 20
-20.00215697253685
 30
0.0
 40
3.571874999999691
100
AcDbArc
 50
170.9964488949248
 51
298.0826889434031
  0
ARC
  5
2BE
330
1E
100
AcDbEntity
  8
1
 62
     7
100
AcDbCircle
 10
142.8120201506175
 20
-11.61529934813348
 30
0.0
 40
3.571874999999273
100
AcDbArc
 50
186.6486228079688
 51
313.7348628564513
  0
ARC
  5
2BF
330
1E
100
AcDbEntity
  8
1
 62
     7
100
AcDbCircle
 10
144.7338413263006
 20
-2.366988107536371
 30
0.0
 40
3.571875000000513
100
AcDbArc
 50
202.3007967210078
 51
329.3870367694929
  0
ARC
  5
2C0
330
1E
100
AcDbEntity
  8
1
 62
     7
100
AcDbCircle
 10
144.0892316481875
 20
7.056871812747829
 30
0.0
 40
3.571875000000066
100
AcDbArc
 50
217.9529706340538
 51
345.0392106825401
  0
ARC
  5
2C1
330
1E
100
AcDbEntity
  8
1
 62
     7
100
AcDbCircle
 10
140.9259988672125
 20
15.9573558337222
 30
0.0
 40
3.571874999999861
100
AcDbArc
 50
233.6051445470991
 51
0.6913845955836694
  0
ARC
  5
2C2
330
1E
100
AcDbEntity
  8
1
 62
     7
100
AcDbCircle
 10
135.4787454879136
 20
23.67435577255628
 30
0.0
 40
3.571875000000278
100
AcDbArc
 50
249.2573184601294
 51
16.34355850862742
  0
ARC
  5
2C3
330
1E
100
AcDbEntity
  8
1
 62
     7
100
AcDbCircle
 10
128.1514693739056
 20
29.63553704671221
 30
0.0
 40
3.571875000000098
100
AcDbArc
 50
264.9094923731805
 51
31.99573242166919
  0
ARC
  5
2C4
330
1E
100
AcDbEntity
  8
1
 62
     7
100
AcDbCircle
 10
119.4876010745075
 20
33.39878611167569
 30
0.0
 40
3.571875000000147
100
AcDbArc
 50
280.5616662862329
 51
47.64790633470226
  0
ARC
  5
2C5
330
1E
100
AcDbEntity
  8
1
 62
     7
100
AcDbCircle
 10
96.31115826560964
 20
-31.81347399269947
 30
0.0
 40
3.57187500000009
100
AcDbArc
 50
92.73557932969657
 51
111.5702922838913
  0
ARC
  5
2C6
330
1E
100
AcDbEntity
  8
1
 62
     7
100
AcDbCircle
 10
84.78065464593955
 20
23.67435577255628
 30
0.0
 40
3.571874999999353
100
AcDbArc
 50
163.6564414913725
 51
290.7426815398702
  0
ARC
  5
2C7
330
1E
100
AcDbEntity
  8
1
 62
     7
100
AcDbCircle
 10
79.33340126664065
 20
15.9573558337222
 30
0.0
 40
3.571875000000151
100
AcDbArc
 50
179.3086154044163
 51
306.3948554529009
  0
ARC
  5
2C8
330
1E
100
AcDbEntity
  8
1
 62
     7
100
AcDbCircle
 10
76.17016848566563
 20
7.056871812747829
 30
0.0
 40
3.571875000000382
100
AcDbArc
 50
194.9607893174598
 51
322.0470293659465
  0
ARC
  5
2C9
330
1E
100
AcDbEntity
  8
1
 62
     7
100
AcDbCircle
 10
75.52555880755257
 20
-2.366988107536371
 30
0.0
 40
3.571874999999743
100
AcDbArc
 50
210.6129632305071
 51
337.6992032789918
  0
ARC
  5
2CA
330
1E
100
AcDbEntity
  8
1
 62
     7
100
AcDbCircle
 10
77.44737998323571
 20
-11.61529934813348
 30
0.0
 40
3.571874999999834
100
AcDbArc
 50
226.265137143549
 51
353.3513771920311
  0
ARC
  5
2CB
330
1E
100
AcDbEntity
  8
1
 62
     7
100
AcDbCircle
 10
81.79309932785955
 20
-20.00215697253685
 30
0.0
 40
3.571874999999942
100
AcDbArc
 50
241.9173110565959
 51
9.003551105075164
  0
ARC
  5
2CC
330
1E
100
AcDbEntity
  8
1
 62
     7
100
AcDbCircle
 10
84.78065464593955
 20
23.67435577255628
 30
0.0
 40
3.571875000000696
100
AcDbArc
 50
343.1703619384051
 51
110.2566019868769
  0
ARC
  5
2CD
330
1E
100
AcDbEntity
  8
1
 62
     7
100
AcDbCircle
 10
79.33340126664065
 20
15.9573558337222
 30
0.0
 40
3.571874999999543
100
AcDbArc
 50
358.8225358514455
 51
125.9087758999324
  0
ARC
  5
2CE
330
1E
100
AcDbEntity
  8
1
 62
     7
100
AcDbCircle
 10
76.17016848566563
 20
7.056871812747829
 30
0.0
 40
3.571875000000083
100
AcDbArc
 50
14.47470976448979
 51
141.560949812974
  0
ARC
  5
2CF
330
1E
100
AcDbEntity
  8
1
 62
     7
100
AcDbCircle
 10
75.52555880755257
 20
-2.366988107536371
 30
0.0
 40
3.571874999999881
100
AcDbArc
 50
30.12688367753407
 51
157.2131237260173
  0
ARC
  5
2D0
330
1E
100
AcDbEntity
  8
1
 62
     7
100
AcDbCircle
 10
77.44737998323571
 20
-11.61529934813348
 30
0.0
 40
3.571874999999689
100
AcDbArc
 50
45.77905759058398
 51
172.8652976390586
  0
ARC
  5
2D1
330
1E
100
AcDbEntity
  8
1
 62
     7
100
AcDbCircle
 10
81.79309932785955
 20
-20.00215697253685
 30
0.0
 40
3.571874999999951
100
AcDbArc
 50
61.43123150361879
 51
188.517471552104
  0
ARC
  5
2D2
330
1E
100
AcDbEntity
  8
1
 62
     7
100
AcDbCircle
 10
92.10793075994764
 20
29.63553704671221
 30
0.0
 40
3.571874999999943
100
AcDbArc
 50
327.5181880253583
 51
94.60442807384847
  0
ARC
  5
2D3
330
1E
100
AcDbEntity
  8
1
 62
     7
100
AcDbCircle
 10
92.10793075994764
 20
29.63553704671221
 30
0.0
 40
3.571874999999758
100
AcDbArc
 50
148.0042675783308
 51
275.0905076268188
  0
ARC
  5
2D4
330
1E
100
AcDbEntity
  8
1
 62
     7
100
AcDbCircle
 10
88.24041471797761
 20
-26.90554611806556
 30
0.0
 40
3.571875000000041
100
AcDbArc
 50
257.5694849696343
 51
24.65572501812246
  0
ARC
  5
2D5
330
1E
100
AcDbEntity
  8
1
 62
     7
100
AcDbCircle
 10
88.24041471797761
 20
-26.90554611806556
 30
0.0
 40
3.571874999999968
100
AcDbArc
 50
77.08340541666351
 51
204.1696454651494
  0
ARC
  5
2D6
330
1E
100
AcDbEntity
  8
1
 62
     7
100
AcDbCircle
 10
96.31115826560964
 20
-31.81347399269947
 30
0.0
 40
3.57187500000009
100
AcDbArc
 50
92.73557932969657
 51
219.8218193781907
  0
ARC
  5
2D7
330
1E
100
AcDbEntity
  8
0
 62
     7
100
AcDbCircle
 10
-5.400000007648133
 20
13.39999979875403
 30
0.0
 40
0.3999999939858299
100
AcDbArc
 50
180.0000000007163
 51
270.000000000749
  0
ARC
  5
2D8
330
1E
100
AcDbEntity
  8
0
 62
     7
100
AcDbCircle
 10
-5.400000007642903
 20
-13.39999979870675
 30
0.0
 40
0.3999999939910595
100
AcDbArc
 50
90.0
 51
180.0
  0
ARC
  5
2D9
330
1E
100
AcDbEntity
  8
0
 62
     7
100
AcDbCircle
 10
113.4230289203967
 20
-15.38333310215774
 30
0.0
 40
0.8666666536645291
100
AcDbArc
 50
270.000000000793
 51
0.00000000006412
  0
ARC
  5
2DA
330
1E
100
AcDbEntity
  8
0
 62
     7
100
AcDbCircle
 10
115.1563622276915
 20
-13.61999361322626
 30
0.0
 40
0.8666666536510653
100
AcDbArc
 50
109.269638877497
 51
180.0
  0
ARC
  5
2DB
330
1E
100
AcDbEntity
  8
0
 62
     7
100
AcDbCircle
 10
110.1296956365347
 20
0.7583333219852193
 30
0.0
 40
14.36499978417267
100
AcDbArc
 50
289.2696388779736
 51
89.99999999999207
  0
ARC
  5
2DC
330
1E
100
AcDbEntity
  8
0
 62
     7
100
AcDbCircle
 10
106.8363623526906
 20
-15.38333310215677
 30
0.0
 40
0.8666666536651064
100
AcDbArc
 50
180.0
 51
269.999999998539
  0
ARC
  5
2DD
330
1E
100
AcDbEntity
  8
0
 62
     7
100
AcDbCircle
 10
105.1030290453877
 20
-13.61999361323456
 30
0.0
 40
0.8666666536599052
100
AcDbArc
 50
0.0000000005486604
 51
70.73036112249688
  0
ARC
  5
2DE
330
1E
100
AcDbEntity
  8
0
 62
     7
100
AcDbCircle
 10
110.1296956365375
 20
0.7583333219852193
 30
0.0
 40
14.3649997841726
100
AcDbArc
 50
90.0000000000036
 51
250.7303611220304
  0
ARC
  5
2DF
330
1E
100
AcDbEntity
  8
1
 62
     7
100
AcDbCircle
 10
110.1296956365375
 20
0.0000000000113118
 30
0.0
 40
6.999999894658963
100
AcDbArc
 50
110.924832423772
 51
269.9999999999926
  0
ARC
  5
2E0
330
1E
100
AcDbEntity
  8
1
 62
     7
100
AcDbCircle
 10
110.1296956365435
 20
0.0000000000559339
 30
0.0
 40
6.999999894728717
100
AcDbArc
 50
269.9999999999441
 51
69.07516757429071
  0
CIRCLE
  5
2E1
330
1E
100
AcDbEntity
  8
1
 62
     7
100
AcDbCircle
 10
3.164999863686728
 20
-34.68099999998298
 30
0.0
 40
3.471874999999943
  0
CIRCLE
  5
2E2
330
1E
100
AcDbEntity
  8
1
 62
     7
100
AcDbCircle
 10
3.164999863686728
 20
34.68100000001732
 30
0.0
 40
3.471874999999943
  0
CIRCLE
  5
2E3
330
1E
100
AcDbEntity
  8
1
 62
     7
100
AcDbCircle
 10
100.3751839661205
 20
-49.03926402014446
 30
0.0
 40
3.5
  0
CIRCLE
  5
2E4
330
1E
100
AcDbEntity
  8
1
 62
     7
100
AcDbCircle
 10
100.3751839661205
 20
-49.03926402014446
 30
0.0
 40
2.980384757729325
  0
CIRCLE
  5
2E5
330
1E
100
AcDbEntity
  8
1
 62
     7
100
AcDbCircle
 10
61.09043604676528
 20
9.754516100823252
 30
0.0
 40
2.980384757729439
  0
CIRCLE
  5
2E6
330
1E
100
AcDbEntity
  8
1
 62
     7
100
AcDbCircle
 10
61.09043604676528
 20
9.754516100823252
 30
0.0
 40
3.5
  0
CIRCLE
  5
2E7
330
1E
100
AcDbEntity
  8
1
 62
     7
100
AcDbCircle
 10
100.3751839661205
 20
-49.03926402014446
 30
0.0
 40
3.5
  0
CIRCLE
  5
2E8
330
1E
100
AcDbEntity
  8
1
 62
     7
100
AcDbCircle
 10
100.3751839661205
 20
-49.03926402014446
 30
0.0
 40
2.980384757729325
  0
CIRCLE
  5
2E9
330
1E
100
AcDbEntity
  8
1
 62
     7
100
AcDbCircle
 10
159.1689640870876
 20
-9.754516100789372
 30
0.0
 40
2.980384757730008
  0
CIRCLE
  5
2EA
330
1E
100
AcDbEntity
  8
1
 62
     7
100
AcDbCircle
 10
159.1689640870876
 20
-9.754516100789372
 30
0.0
 40
3.5
  0
CIRCLE
  5
2EB
330
1E
100
AcDbEntity
  8
1
 62
     7
100
AcDbCircle
 10
119.8842161677327
 20
49.03926402017851
 30
0.0
 40
3.5
  0
CIRCLE
  5
2EC
330
1E
100
AcDbEntity
  8
1
 62
     7
100
AcDbCircle
 10
119.8842161677327
 20
49.03926402017851
 30
0.0
 40
2.980384757729446
  0
CIRCLE
  5
2ED
330
1E
100
AcDbEntity
  8
1
 62
     7
100
AcDbCircle
 10
110.1297000669265
 20
0.0000000000171667
 30
0.0
 40
39.8779999999999
  0
CIRCLE
  5
2EE
330
1E
100
AcDbEntity
  8
1
 62
     7
100
AcDbCircle
 10
110.1297000669265
 20
0.0000000000171667
 30
0.0
 40
37.9099999999999
  0
CIRCLE
  5
2EF
330
1E
100
AcDbEntity
  8
1
 62
     7
100
AcDbCircle
 10
110.1297000669265
 20
0.0000000000171667
 30
0.0
 40
31.51999999999988
  0
CIRCLE
  5
2F0
330
1E
100
AcDbEntity
  8
1
 62
     7
100
AcDbCircle
 10
110.1297000669265
 20
0.0000000000171667
 30
0.0
 40
29.46399999999996
  0
CIRCLE
  5
2F1
330
1E
100
AcDbEntity
  8
1
 62
     3
100
AcDbCircle
 10
63.93572344136159
 20
-19.13417161823621
 30
0.0
 40
2.500000000000011
  0
CIRCLE
  5
2F2
330
1E
100
AcDbEntity
  8
1
 62
     7
100
AcDbCircle
 10
63.93572344136159
 20
-19.13417161823621
 30
0.0
 40
2.750000000000285
  0
CIRCLE
  5
2F3
330
1E
100
AcDbEntity
  8
1
 62
     7
100
AcDbCircle
 10
63.93572344136159
 20
-19.13417161823621
 30
0.0
 40
2.000000000000242
  0
CIRCLE
  5
2F4
330
1E
100
AcDbEntity
  8
1
 62
     3
100
AcDbCircle
 10
74.77436100759759
 20
-35.35533905930924
 30
0.0
 40
2.499999999999613
  0
CIRCLE
  5
2F5
330
1E
100
AcDbEntity
  8
1
 62
     7
100
AcDbCircle
 10
74.77436100759759
 20
-35.35533905930924
 30
0.0
 40
2.749999999999811
  0
CIRCLE
  5
2F6
330
1E
100
AcDbEntity
  8
1
 62
     7
100
AcDbCircle
 10
74.77436100759759
 20
-35.35533905930924
 30
0.0
 40
1.99999999999985
  0
CIRCLE
  5
2F7
330
1E
100
AcDbEntity
  8
1
 62
     3
100
AcDbCircle
 10
90.9955284486706
 20
-46.19397662554685
 30
0.0
 40
2.499999999999718
  0
CIRCLE
  5
2F8
330
1E
100
AcDbEntity
  8
1
 62
     7
100
AcDbCircle
 10
90.9955284486706
 20
-46.19397662554685
 30
0.0
 40
2.749999999999828
  0
CIRCLE
  5
2F9
330
1E
100
AcDbEntity
  8
1
 62
     7
100
AcDbCircle
 10
90.9955284486706
 20
-46.19397662554685
 30
0.0
 40
2.000000000000247
  0
CIRCLE
  5
2FA
330
1E
100
AcDbEntity
  8
1
 62
     7
100
AcDbCircle
 10
100.3751839661205
 20
-49.03926402014446
 30
0.0
 40
4.0
  0
CIRCLE
  5
2FB
330
1E
100
AcDbEntity
  8
1
 62
     7
100
AcDbCircle
 10
61.09043604676528
 20
9.754516100823252
 30
0.0
 40
4.0
  0
CIRCLE
  5
2FC
330
1E
100
AcDbEntity
  8
1
 62
     7
100
AcDbCircle
 10
63.93572344136261
 20
19.13417161827317
 30
0.0
 40
2.000000000000254
  0
CIRCLE
  5
2FD
330
1E
100
AcDbEntity
  8
1
 62
     7
100
AcDbCircle
 10
63.93572344136261
 20
19.13417161827317
 30
0.0
 40
2.749999999999825
  0
CIRCLE
  5
2FE
330
1E
100
AcDbEntity
  8
1
 62
     3
100
AcDbCircle
 10
63.93572344136261
 20
19.13417161827317
 30
0.0
 40
2.499999999999721
  0
CIRCLE
  5
2FF
330
1E
100
AcDbEntity
  8
1
 62
     7
100
AcDbCircle
 10
74.7743610076002
 20
35.35533905934619
 30
0.0
 40
1.999999999999854
  0
CIRCLE
  5
300
330
1E
100
AcDbEntity
  8
1
 62
     7
100
AcDbCircle
 10
74.7743610076002
 20
35.35533905934619
 30
0.0
 40
2.74999999999982
  0
CIRCLE
  5
301
330
1E
100
AcDbEntity
  8
1
 62
     3
100
AcDbCircle
 10
74.7743610076002
 20
35.35533905934619
 30
0.0
 40
2.499999999999618
  0
CIRCLE
  5
302
330
1E
100
AcDbEntity
  8
1
 62
     7
100
AcDbCircle
 10
90.99552844867323
 20
46.1939766255822
 30
0.0
 40
2.000000000000247
  0
CIRCLE
  5
303
330
1E
100
AcDbEntity
  8
1
 62
     7
100
AcDbCircle
 10
90.99552844867323
 20
46.1939766255822
 30
0.0
 40
2.750000000000292
  0
CIRCLE
  5
304
330
1E
100
AcDbEntity
  8
1
 62
     3
100
AcDbCircle
 10
90.99552844867323
 20
46.1939766255822
 30
0.0
 40
2.500000000000011
  0
CIRCLE
  5
305
330
1E
100
AcDbEntity
  8
1
 62
     7
100
AcDbCircle
 10
60.12970006692661
 20
0.0000000000171667
 30
0.0
 40
2.0
  0
CIRCLE
  5
306
330
1E
100
AcDbEntity
  8
1
 62
     7
100
AcDbCircle
 10
60.12970006692661
 20
0.0000000000171667
 30
0.0
 40
2.75
  0
CIRCLE
  5
307
330
1E
100
AcDbEntity
  8
1
 62
     3
100
AcDbCircle
 10
60.12970006692661
 20
0.0000000000171667
 30
0.0
 40
2.5
  0
CIRCLE
  5
308
330
1E
100
AcDbEntity
  8
1
 62
     7
100
AcDbCircle
 10
110.1297000669265
 20
0.0000000000171667
 30
0.0
 40
40.4649999999999
  0
CIRCLE
  5
309
330
1E
100
AcDbEntity
  8
1
 62
     7
100
AcDbCircle
 10
110.1297000669265
 20
0.0000000000171667
 30
0.0
 40
41.75199765251393
  0
CIRCLE
  5
30A
330
1E
100
AcDbEntity
  8
1
  6
CENTER
 62
     3
100
AcDbCircle
 10
110.1297000669265
 20
0.0000000000171667
 30
0.0
 40
50.0
  0
CIRCLE
  5
30B
330
1E
100
AcDbEntity
  8
1
 62
     7
100
AcDbCircle
 10
110.1297000669265
 20
0.0000000000171667
 30
0.0
 40
54.99999917349022
  0
CIRCLE
  5
30C
330
1E
100
AcDbEntity
  8
0
 62
     7
100
AcDbCircle
 10
112.4263622686987
 20
-14.16999978709964
 30
0.0
 40
0.866666653646007
  0
CIRCLE
  5
30D
330
1E
100
AcDbEntity
  8
0
 62
     7
100
AcDbCircle
 10
107.8330290043805
 20
-14.16999978709964
 30
0.0
 40
0.8666666536419
  0
CIRCLE
  5
30E
330
1E
100
AcDbEntity
  8
1
 62
     7
100
AcDbCircle
 10
110.1296956365367
 20
0.0000000000172236
 30
0.0
 40
17.49999973736
  0
CIRCLE
  5
30F
330
1E
100
AcDbEntity
  8
1
 62
     7
100
AcDbCircle
 10
110.1296956365367
 20
0.0000000000172236
 30
0.0
 40
12.99999980496091
  0
CIRCLE
  5
310
330
1E
100
AcDbEntity
  8
1
 62
     7
100
AcDbCircle
 10
-76.98568566799159
 20
-17.08205697674924
 30
0.0
 40
3.5
  0
CIRCLE
  5
311
330
1E
100
AcDbEntity
  8
1
 62
     7
100
AcDbCircle
 10
-76.98568566799159
 20
-17.08205697674924
 30
0.0
 40
2.980384757729381
  0
CIRCLE
  5
312
330
1E
100
AcDbEntity
  8
1
 62
     7
100
AcDbCircle
 10
-157.8188471798366
 20
-63.75110453506146
 30
0.0
 40
2.980384757729381
  0
CIRCLE
  5
313
330
1E
100
AcDbEntity
  8
1
 62
     7
100
AcDbCircle
 10
-157.8188471798366
 20
-63.75110453506146
 30
0.0
 40
3.5
  0
CIRCLE
  5
314
330
1E
100
AcDbEntity
  8
1
 62
     7
100
AcDbCircle
 10
-204.4878947381488
 20
17.08205697678341
 30
0.0
 40
3.5
  0
CIRCLE
  5
315
330
1E
100
AcDbEntity
  8
1
 62
     7
100
AcDbCircle
 10
-204.4878947381488
 20
17.08205697678341
 30
0.0
 40
2.980384757729296
  0
CIRCLE
  5
316
330
1E
100
AcDbEntity
  8
1
 62
     7
100
AcDbCircle
 10
-123.6547332263038
 20
63.75110453509581
 30
0.0
 40
2.980384757729446
  0
CIRCLE
  5
317
330
1E
100
AcDbEntity
  8
1
 62
     7
100
AcDbCircle
 10
-123.6547332263038
 20
63.75110453509581
 30
0.0
 40
3.5
  0
CIRCLE
  5
318
330
1E
100
AcDbEntity
  8
1
 62
     7
100
AcDbCircle
 10
-83.57911355329713
 20
33.00000000001728
 30
0.0
 40
2.749999999999923
  0
CIRCLE
  5
319
330
1E
100
AcDbEntity
  8
1
 62
     7
100
AcDbCircle
 10
-107.73679020307
 20
57.15767664979023
 30
0.0
 40
2.749999999999905
  0
CIRCLE
  5
31A
330
1E
100
AcDbEntity
  8
1
 62
     7
100
AcDbCircle
 10
-74.73679020307013
 20
0.0000000000172236
 30
0.0
 40
2.75
  0
CIRCLE
  5
31B
330
1E
100
AcDbEntity
  8
1
 62
     7
100
AcDbCircle
 10
-83.57911355329713
 20
-32.999999999983
 30
0.0
 40
2.749999999999936
  0
CIRCLE
  5
31C
330
1E
100
AcDbEntity
  8
1
 62
     7
100
AcDbCircle
 10
-107.73679020307
 20
-57.15767664975596
 30
0.0
 40
2.749999999999905
  0
CIRCLE
  5
31D
330
1E
100
AcDbEntity
  8
1
 62
     7
100
AcDbCircle
 10
-140.7367902030702
 20
0.0000000000171667
 30
0.0
 40
70.99999999999993
  0
CIRCLE
  5
31E
330
1E
100
AcDbEntity
  8
1
  6
CENTER
 62
     3
100
AcDbCircle
 10
-140.7367902030702
 20
0.0000000000171667
 30
0.0
 40
65.99999999999998
  0
CIRCLE
  5
31F
330
1E
100
AcDbEntity
  8
1
 62
     7
100
AcDbCircle
 10
-140.7367902030702
 20
0.0000000000171667
 30
0.0
 40
56.87500000000005
  0
CIRCLE
  5
320
330
1E
100
AcDbEntity
  8
1
 62
     7
100
AcDbCircle
 10
-140.7367902030702
 20
0.0000000000171667
 30
0.0
 40
39.87400000000004
  0
CIRCLE
  5
321
330
1E
100
AcDbEntity
  8
1
 62
     7
100
AcDbCircle
 10
-140.7367902030702
 20
66.00000000001718
 30
0.0
 40
2.75
  0
CIRCLE
  5
322
330
1E
100
AcDbEntity
  8
1
 62
     7
100
AcDbCircle
 10
-173.7367902030702
 20
57.15767664979011
 30
0.0
 40
2.750000000000003
  0
CIRCLE
  5
323
330
1E
100
AcDbEntity
  8
1
 62
     7
100
AcDbCircle
 10
-197.8944668528431
 20
33.00000000001717
 30
0.0
 40
2.750000000000035
  0
CIRCLE
  5
324
330
1E
100
AcDbEntity
  8
1
 62
     7
100
AcDbCircle
 10
-206.7367902030702
 20
0.000000000017053
 30
0.0
 40
2.75
  0
CIRCLE
  5
325
330
1E
100
AcDbEntity
  8
1
 62
     7
100
AcDbCircle
 10
-197.8944668528434
 20
-32.99999999998294
 30
0.0
 40
2.749999999999877
  0
CIRCLE
  5
326
330
1E
100
AcDbEntity
  8
1
 62
     7
100
AcDbCircle
 10
-173.7367902030704
 20
-57.15767664975596
 30
0.0
 40
2.749999999999905
  0
CIRCLE
  5
327
330
1E
100
AcDbEntity
  8
1
 62
     7
100
AcDbCircle
 10
-140.7367902030701
 20
-65.99999999998296
 30
0.0
 40
2.75
  0
CIRCLE
  5
328
330
1E
100
AcDbEntity
  8
1
 62
     3
100
AcDbCircle
 10
110.1297000669265
 20
50.00000000001717
 30
0.0
 40
2.5
  0
CIRCLE
  5
329
330
1E
100
AcDbEntity
  8
1
 62
     7
100
AcDbCircle
 10
110.1297000669265
 20
50.00000000001717
 30
0.0
 40
2.75
  0
CIRCLE
  5
32A
330
1E
100
AcDbEntity
  8
1
 62
     7
100
AcDbCircle
 10
110.1297000669265
 20
50.00000000001717
 30
0.0
 40
2.0
  0
CIRCLE
  5
32B
330
1E
100
AcDbEntity
  8
1
 62
     3
100
AcDbCircle
 10
110.1297000669255
 20
-49.9999999999833
 30
0.0
 40
2.5
  0
CIRCLE
  5
32C
330
1E
100
AcDbEntity
  8
1
 62
     7
100
AcDbCircle
 10
110.1297000669255
 20
-49.9999999999833
 30
0.0
 40
2.75
  0
CIRCLE
  5
32D
330
1E
100
AcDbEntity
  8
1
 62
     7
100
AcDbCircle
 10
110.1297000669255
 20
-49.9999999999833
 30
0.0
 40
2.0
  0
CIRCLE
  5
32E
330
1E
100
AcDbEntity
  8
1
 62
     3
100
AcDbCircle
 10
129.2638716851805
 20
-46.19397662554775
 30
0.0
 40
2.499999999999853
  0
CIRCLE
  5
32F
330
1E
100
AcDbEntity
  8
1
 62
     7
100
AcDbCircle
 10
129.2638716851805
 20
-46.19397662554775
 30
0.0
 40
2.750000000001027
  0
CIRCLE
  5
330
330
1E
100
AcDbEntity
  8
1
 62
     7
100
AcDbCircle
 10
129.2638716851805
 20
-46.19397662554775
 30
0.0
 40
2.000000000000473
  0
CIRCLE
  5
331
330
1E
100
AcDbEntity
  8
1
 62
     3
100
AcDbCircle
 10
145.4850391262535
 20
-35.35533905931135
 30
0.0
 40
2.500000000000441
  0
CIRCLE
  5
332
330
1E
100
AcDbEntity
  8
1
 62
     7
100
AcDbCircle
 10
145.4850391262535
 20
-35.35533905931135
 30
0.0
 40
2.750000000000138
  0
CIRCLE
  5
333
330
1E
100
AcDbEntity
  8
1
 62
     7
100
AcDbCircle
 10
145.4850391262535
 20
-35.35533905931135
 30
0.0
 40
2.000000000000654
  0
CIRCLE
  5
334
330
1E
100
AcDbEntity
  8
1
 62
     3
100
AcDbCircle
 10
156.3236766924904
 20
-19.13417161823884
 30
0.0
 40
2.500000000000045
  0
CIRCLE
  5
335
330
1E
100
AcDbEntity
  8
1
 62
     7
100
AcDbCircle
 10
156.3236766924904
 20
-19.13417161823884
 30
0.0
 40
2.749999999999879
  0
CIRCLE
  5
336
330
1E
100
AcDbEntity
  8
1
 62
     7
100
AcDbCircle
 10
156.3236766924904
 20
-19.13417161823884
 30
0.0
 40
1.999999999999817
  0
CIRCLE
  5
337
330
1E
100
AcDbEntity
  8
1
 62
     3
100
AcDbCircle
 10
160.1297000669266
 20
0.0000000000155183
 30
0.0
 40
2.5
  0
CIRCLE
  5
338
330
1E
100
AcDbEntity
  8
1
 62
     7
100
AcDbCircle
 10
160.1297000669266
 20
0.0000000000155183
 30
0.0
 40
2.75
  0
CIRCLE
  5
339
330
1E
100
AcDbEntity
  8
1
 62
     7
100
AcDbCircle
 10
160.1297000669266
 20
0.0000000000155183
 30
0.0
 40
2.0
  0
CIRCLE
  5
33A
330
1E
100
AcDbEntity
  8
1
 62
     3
100
AcDbCircle
 10
156.3236766924916
 20
19.13417161827056
 30
0.0
 40
2.500000000000043
  0
CIRCLE
  5
33B
330
1E
100
AcDbEntity
  8
1
 62
     7
100
AcDbCircle
 10
156.3236766924916
 20
19.13417161827056
 30
0.0
 40
2.750000000000306
  0
CIRCLE
  5
33C
330
1E
100
AcDbEntity
  8
1
 62
     7
100
AcDbCircle
 10
156.3236766924916
 20
19.13417161827056
 30
0.0
 40
2.000000000000243
  0
CIRCLE
  5
33D
330
1E
100
AcDbEntity
  8
1
 62
     3
100
AcDbCircle
 10
145.4850391262556
 20
35.35533905934357
 30
0.0
 40
2.499999999999633
  0
CIRCLE
  5
33E
330
1E
100
AcDbEntity
  8
1
 62
     7
100
AcDbCircle
 10
145.4850391262556
 20
35.35533905934357
 30
0.0
 40
2.749999999999841
  0
CIRCLE
  5
33F
330
1E
100
AcDbEntity
  8
1
 62
     7
100
AcDbCircle
 10
145.4850391262556
 20
35.35533905934357
 30
0.0
 40
1.999999999999875
  0
CIRCLE
  5
340
330
1E
100
AcDbEntity
  8
1
 62
     3
100
AcDbCircle
 10
129.2638716851825
 20
46.19397662558117
 30
0.0
 40
2.499999999999746
  0
CIRCLE
  5
341
330
1E
100
AcDbEntity
  8
1
 62
     7
100
AcDbCircle
 10
129.2638716851825
 20
46.19397662558117
 30
0.0
 40
2.749999999999805
  0
CIRCLE
  5
342
330
1E
100
AcDbEntity
  8
1
 62
     7
100
AcDbCircle
 10
129.2638716851825
 20
46.19397662558117
 30
0.0
 40
2.000000000000276
  0
CIRCLE
  5
343
330
1E
100
AcDbEntity
  8
1
 62
     7
100
AcDbCircle
 10
159.1689640870876
 20
-9.754516100789372
 30
0.0
 40
4.0
  0
CIRCLE
  5
344
330
1E
100
AcDbEntity
  8
1
 62
     7
100
AcDbCircle
 10
119.8842161677327
 20
49.03926402017851
 30
0.0
 40
4.0
  0
CIRCLE
  5
345
330
1E
100
AcDbEntity
  8
1
 62
     7
100
AcDbCircle
 10
100.3751839661205
 20
-49.03926402014446
 30
0.0
 40
4.0
  0
LWPOLYLINE
  5
346
330
1E
100
AcDbEntity
  8
1
 62
     7
100
AcDbPolyline
 90
       54
 70
     1
 43
0.0
 10
-3.484440688656166
 20
-45.99680475166501
 42
-0.0196605671483541
 10
-3.533111400156573
 20
-45.98748012413034
 42
-0.0414716779488386
 10
-3.581755973930262
 20
-45.97169203008475
 42
-0.0015603419035759
 10
-3.629524604552877
 20
-45.94962010890941
 42
-0.052683764469449
 10
-3.717500179777178
 20
-45.88959201929628
 42
-0.0496686938046026
 10
-3.759742918080994
 20
-45.85027863428593
 42
-0.0014223005905276
 10
-3.799415802134479
 20
-45.80567986528936
 42
-0.040683448570565
 10
-3.867815290140838
 20
-45.70562255974574
 42
-0.0381453543986252
 10
-3.898195051786049
 20
-45.64781948727438
 42
-0.0007902324939302
 10
-3.924870845968629
 20
-45.58652112972035
 42
-0.0330898948880345
 10
-3.965926510523712
 20
-45.45776117740046
 42
-0.0317505310081102
 10
-3.980829097211696
 20
-45.38878255821234
 42
-0.0002429378540145
 10
-3.991485072071717
 20
-45.31843971272489
 42
-0.0300952427444622
 10
-4.000000179780526
 20
-45.17590361301578
 42
-0.0298552971399874
 10
-3.991485072071832
 20
-45.03336751330681
 42
-0.0300249917828822
 10
-3.980829097212156
 20
-44.96302466781938
 42
-0.0005022897361926
 10
-3.965926510524274
 20
-44.89404604863127
 42
-0.0323422246089392
 10
-3.924870845968058
 20
-44.7652860963114
 42
-0.0335309149319438
 10
-3.898195051785606
 20
-44.70398773875732
 42
-0.0011083999280282
 10
-3.867815290140611
 20
-44.64618466628597
 42
-0.0393793989084305
 10
-3.799415802133798
 20
-44.54612736074237
 42
-0.0418559251607176
 10
-3.759742918080553
 20
-44.50152859174584
 42
-0.0016386009782935
 10
-3.71750017977692
 20
-44.46221520673553
 42
-0.0512429972925865
 10
-3.629524604552022
 20
-44.40218711712232
 42
-0.054916099481174
 10
-3.581755973929706
 20
-44.38011519594697
 42
-0.0009986031676796
 10
-3.533111400156438
 20
-44.36432710190139
 42
-0.0622482623120812
 10
-3.435000179773953
 20
-44.35180722604892
 42
-0.0622636054818992
 10
-3.33688895939133
 20
-44.36432710190141
 42
-0.0621699155295526
 10
-3.288244385617642
 20
-44.38011519594698
 42
-0.0015603419036913
 10
-3.240475754995029
 20
-44.40218711712232
 42
-0.052683764469196
 10
-3.152500179770727
 20
-44.4622152067355
 42
-0.0496686938030708
 10
-3.110257441466912
 20
-44.50152859174573
 42
-0.0014223005903595
 10
-3.070584557413313
 20
-44.5461273607422
 42
-0.0406834485714258
 10
-3.002185069406385
 20
-44.64618466628595
 42
-0.0381453544024424
 10
-2.971805307761388
 20
-44.70398773875738
 42
-0.000790232493849
 10
-2.945129513579048
 20
-44.76528609631146
 42
-0.0330898948879433
 10
-2.904073849023511
 20
-44.89404604863129
 42
-0.0317505310126685
 10
-2.889171262335747
 20
-44.9630246678194
 42
-0.0002429378540289
 10
-2.878515287476071
 20
-45.03336751330681
 42
-0.030095242743702
 10
-2.870000179767377
 20
-45.17590361301578
 42
-0.0298552971399485
 10
-2.878515287476071
 20
-45.31843971272489
 42
-0.0300249917820573
 10
-2.889171262335747
 20
-45.38878255821234
 42
-0.0005022897361724
 10
-2.904073849023511
 20
-45.45776117740046
 42
-0.0323422246100409
 10
-2.945129513579193
 20
-45.58652112972036
 42
-0.0335309149340321
 10
-2.971805307761973
 20
-45.64781948727436
 42
-0.0011083999278639
 10
-3.002185069407236
 20
-45.70562255974565
 42
-0.0393793989084382
 10
-3.070584557413451
 20
-45.80567986528929
 42
-0.0418559251657223
 10
-3.110257441466912
 20
-45.85027863428585
 42
-0.0016386009783703
 10
-3.152500179770727
 20
-45.88959201929618
 42
-0.0512429972924197
 10
-3.240475754994883
 20
-45.94962010890941
 42
-0.0549160994788908
 10
-3.288244385617062
 20
-45.97169203008475
 42
-0.0009986031675625
 10
-3.336888959390476
 20
-45.98748012413034
 42
-0.0622482623118276
 10
-3.435000179773812
 20
-45.99999999998289
 10
-3.484440688656166
 20
-45.99680475166501
  0
LWPOLYLINE
  5
37E
330
1E
100
AcDbEntity
  8
1
 62
     7
100
AcDbPolyline
 90
       54
 70
     1
 43
0.0
 10
-3.484440688656166
 20
45.99680475169911
 42
0.0196605671482688
 10
-3.533111400156573
 20
45.9874801241645
 42
0.0414716779494708
 10
-3.581755973930262
 20
45.97169203011897
 42
0.0015603419035937
 10
-3.629524604552877
 20
45.94962010894366
 42
0.0526837644694829
 10
-3.717500179777178
 20
45.88959201933046
 42
0.0496686937987212
 10
-3.759742918080994
 20
45.85027863432013
 42
0.0014223005905417
 10
-3.799415802134479
 20
45.80567986532358
 42
0.04068344857058
 10
-3.867815290140838
 20
45.70562255978
 42
0.0381453543987263
 10
-3.898195051786049
 20
45.64781948730864
 42
0.0007902324938824
 10
-3.924870845968629
 20
45.58652112975457
 42
0.0330898948880039
 10
-3.965926510523712
 20
45.45776117743462
 42
0.0317505310050045
 10
-3.980829097211696
 20
45.38878255824649
 42
0.0002429378540294
 10
-3.991485072071717
 20
45.31843971275903
 42
0.0300952427444802
 10
-4.000000179780526
 20
45.17590361305
 42
0.0298552971399994
 10
-3.991485072071832
 20
45.03336751334109
 42
0.030024991784374
 10
-3.980829097212156
 20
44.96302466785365
 42
0.0005022897361932
 10
-3.965926510524274
 20
44.89404604866554
 42
0.0323422246088841
 10
-3.924870845968058
 20
44.7652860963456
 42
0.0335309149301201
 10
-3.898195051785606
 20
44.70398773879153
 42
0.0011083999280802
 10
-3.867815290140611
 20
44.64618466632017
 42
0.0393793989085027
 10
-3.799415802133798
 20
44.54612736077669
 42
0.0418559251606387
 10
-3.759742918080553
 20
44.50152859178014
 42
0.001638600978302
 10
-3.71750017977692
 20
44.46221520676981
 42
0.0512429972926908
 10
-3.629524604552022
 20
44.40218711715661
 42
0.054916099481174
 10
-3.581755973929706
 20
44.38011519598125
 42
0.0009986031675495
 10
-3.533111400156438
 20
44.36432710193566
 42
0.062248262312012
 10
-3.435000179773953
 20
44.3518072260832
 42
0.0622636054818284
 10
-3.33688895939133
 20
44.36432710193567
 42
0.0621699155128691
 10
-3.288244385617642
 20
44.38011519598125
 42
0.0015603419036949
 10
-3.240475754995029
 20
44.4021871171566
 42
0.0526837644690313
 10
-3.152500179770727
 20
44.46221520676977
 42
0.0496686938023523
 10
-3.110257441466912
 20
44.50152859177992
 42
0.0014223005904667
 10
-3.070584557413313
 20
44.54612736077634
 42
0.0406834485714918
 10
-3.002185069406385
 20
44.64618466632011
 42
0.0381453544023414
 10
-2.971805307761388
 20
44.70398773879153
 42
0.000790232493849
 10
-2.945129513579048
 20
44.7652860963456
 42
0.0330898948879138
 10
-2.904073849023511
 20
44.89404604866554
 42
0.03175053101119
 10
-2.889171262335747
 20
44.96302466785367
 42
0.0002429378540289
 10
-2.878515287476071
 20
45.03336751334109
 42
0.030095242743717
 10
-2.870000179767377
 20
45.17590361305
 42
0.0298552971399575
 10
-2.878515287476071
 20
45.31843971275903
 42
0.0300249917835491
 10
-2.889171262335747
 20
45.38878255824649
 42
0.0005022897361721
 10
-2.904073849023511
 20
45.4577611774346
 42
0.0323422246100213
 10
-2.945129513579193
 20
45.58652112975454
 42
0.0335309149341167
 10
-2.971805307761973
 20
45.64781948730852
 42
0.0011083999278666
 10
-3.002185069407236
 20
45.70562255977985
 42
0.0393793989084418
 10
-3.070584557413451
 20
45.80567986532353
 42
0.0418559251654856
 10
-3.110257441466912
 20
45.85027863432013
 42
0.0016386009783675
 10
-3.152500179770727
 20
45.88959201933046
 42
0.0512429972925844
 10
-3.240475754994883
 20
45.94962010894366
 42
0.0549160994836806
 10
-3.288244385617062
 20
45.97169203011897
 42
0.0009986031676801
 10
-3.336888959390476
 20
45.98748012416449
 42
0.0622482623116286
 10
-3.435000179773812
 20
46.00000000001695
 10
-3.484440688656166
 20
45.99680475169911
  0
ARC
  5
3BA
330
1E
100
AcDbEntity
  8
1
 62
     7
100
AcDbCircle
 10
-26.45000013473787
 20
-42.413
 30
0.0
 40
1.950640920313117
100
AcDbArc
 50
91.46880071439138
 51
181.4688007004684
  0
ARC
  5
3BB
330
1E
100
AcDbEntity
  8
1
 62
     7
100
AcDbCircle
 10
-26.45000013473787
 20
42.41300000000003
 30
0.0
 40
1.950640920313178
100
AcDbArc
 50
181.4688007005358
 51
268.5311992856142
  0
ARC
  5
3BC
330
1E
100
AcDbEntity
  8
1
 62
     7
100
AcDbCircle
 10
-31.80000013467394
 20
-63.79999999998296
 30
0.0
 40
0.2000000000000419
100
AcDbArc
 50
180.0
 51
270.0
  0
ARC
  5
3BD
330
1E
100
AcDbEntity
  8
1
 62
     7
100
AcDbCircle
 10
-31.80000013467394
 20
-68.19999999998294
 30
0.0
 40
0.2000000000001023
100
AcDbArc
 50
90.0
 51
180.0
  0
ARC
  5
3BE
330
1E
100
AcDbEntity
  8
1
 62
     7
100
AcDbCircle
 10
5.299999865240023
 20
-52.19999999998288
 30
0.0
 40
0.2000000000000455
100
AcDbArc
 50
0.0
 51
90.0
  0
ARC
  5
3BF
330
1E
100
AcDbEntity
  8
1
 62
     7
100
AcDbCircle
 10
5.299999865240023
 20
-47.79999999998285
 30
0.0
 40
0.1999999999999318
100
AcDbArc
 50
270.0
 51
0.0
  0
ARC
  5
3C0
330
1E
100
AcDbEntity
  8
1
 62
     7
100
AcDbCircle
 10
-29.214000134751
 20
56.67500000001712
 30
0.0
 40
0.3250000000009514
100
AcDbArc
 50
0.0
 51
90.0
  0
ARC
  5
3C1
330
1E
100
AcDbEntity
  8
1
 62
     7
100
AcDbCircle
 10
-26.53300013475096
 20
42.23000000001706
 30
0.0
 40
2.356000000000558
100
AcDbArc
 50
180.0
 51
270.0
  0
ARC
  5
3C2
330
1E
100
AcDbEntity
  8
1
 62
     7
100
AcDbCircle
 10
-29.214000134751
 20
-56.67499999998307
 30
0.0
 40
0.3249999999997613
100
AcDbArc
 50
270.0
 51
0.0
  0
ARC
  5
3C3
330
1E
100
AcDbEntity
  8
1
 62
     7
100
AcDbCircle
 10
-26.53300013475096
 20
-42.22999999998275
 30
0.0
 40
2.355999999999995
100
AcDbArc
 50
90.0
 51
180.0
  0
TEXT
  5
3C8
330
1E
100
AcDbEntity
  8
1
 62
     3
100
AcDbText
 10
-198.5609972206398
 20
-150.4976962588493
 30
0.0
 40
2.9
  1
 
 41
0.9
100
AcDbText
  0
TEXT
  5
3CE
330
1E
100
AcDbEntity
  8
1
 62
     0
100
AcDbText
 10
-75.34686811719847
 20
-90.8582411412213
 30
0.0
 40
3.5
  1
REMARKS:  M.H.C = MINIMUM HOUSING CLEARANCE
 41
0.9
 72
     1
 11
-12.87186811719852
 21
-89.1082411412213
 31
0.0
100
AcDbText
 73
     2
  0
TEXT
  5
3CF
330
1E
100
AcDbEntity
  8
1
 62
     0
100
AcDbText
 10
79.62013014482636
 20
-105.9783909993636
 30
0.0
 40
5.0
  1
SHF-32-XXX-2SO.dxf
 41
0.9
100
AcDbText
  0
DIMENSION
  5
3D0
330
1E
100
AcDbEntity
  8
1
  6
Continuous
 62
     2
100
AcDbDimension
  2
*D0
 10
11.4999998652621
 20
-74.4887071840448
 30
0.0
 11
33.542095487251
 21
-71.18245718404479
 31
0.0
  1
M.H.C <>
 71
     5
 42
-1.0
  3
DMST_1
100
AcDbAlignedDimension
 13
9.999999864969787
 23
-54.59999917974556
 33
0.0
 14
11.4999998652621
 24
-43.0
 34
0.0
100
AcDbRotatedDimension
  0
DIMENSION
  5
3D1
330
1E
100
AcDbEntity
  8
1
  6
Continuous
 62
     2
100
AcDbDimension
  2
*D1
 10
37.88725806446164
 20
-43.0
 30
0.0
 11
34.58100806446164
 21
-0.8047208827811971
 31
0.0
  1
M.H.C <>
 71
     5
 42
-1.0
  3
DMST_1
100
AcDbAlignedDimension
 13
11.4999998652621
 23
43.0
 33
0.0
 14
11.4999998652621
 24
-43.0
 34
0.0
 50
90.0
100
AcDbRotatedDimension
  0
DIMENSION
  5
3D2
330
1E
100
AcDbEntity
  8
1
  6
Continuous
 62
     2
100
AcDbDimension
  2
*D2
 10
-52.0000001347379
 20
36.49999999999999
 30
0.0
 11
-55.3062501347379
 21
3.130293933112779
 31
0.0
  1
M.H.C <>
 71
     5
 42
-1.0
  3
DMST_1
100
AcDbAlignedDimension
 13
-30.00000013474993
 23
-36.49999999998282
 33
0.0
 14
-30.00000013473789
 24
36.5
 34
0.0
 50
90.0
100
AcDbRotatedDimension
  0
DIMENSION
  5
3D3
330
1E
100
AcDbEntity
  8
1
  6
Continuous
 62
     2
100
AcDbDimension
  2
*D3
 10
-32.00000013467398
 20
21.1472383611381
 30
0.0
 11
-42.23222942023539
 21
24.3972383611381
 31
0.0
 71
     5
 42
-1.0
  3
DMST_1
100
AcDbAlignedDimension
 13
-30.00000013473789
 23
36.5
 33
0.0
 14
-32.00000013467398
 24
31.1893533874938
 34
0.0
100
AcDbRotatedDimension
  0
INSERT
  5
3E0
330
1E
100
AcDbEntity
  8
0
100
AcDbBlockReference
  2
NTC
 10
-236.5443068647276
 20
-149.958409805783
 30
0.0
 41
0.63
 42
0.63
 43
0.63
  0
INSERT
  5
44F
330
1E
100
AcDbEntity
  8
0
100
AcDbBlockReference
  2
HD logo-new
 10
9.482361184882392
 20
-183.3804649736645
 30
0.0
  0
INSERT
  5
459
330
1E
100
AcDbEntity
  8
0
100
AcDbBlockReference
  2
HD LLC
 10
113.4224493985077
 20
-190.0849901981815
 30
0.0
  0
ENDSEC
  0
SECTION
  2
OBJECTS
  0
DICTIONARY
  5
C
330
0
100
AcDbDictionary
281
     1
  3
ACAD_GROUP
350
D
  3
ACAD_LAYOUT
350
19
  3
ACAD_MLINESTYLE
350
16
  3
ACAD_PLOTSETTINGS
350
18
  3
ACAD_PLOTSTYLENAME
350
E
  3
AcDbVariableDictionary
350
45A
  0
DICTIONARY
  5
D
102
{ACAD_REACTORS
330
C
102
}
330
C
100
AcDbDictionary
281
     1
  0
DICTIONARY
  5
19
102
{ACAD_REACTORS
330
C
102
}
330
C
100
AcDbDictionary
281
     1
  3
Layout1
350
1D
  3
Model
350
21
  0
DICTIONARY
  5
16
102
{ACAD_REACTORS
330
C
102
}
330
C
100
AcDbDictionary
281
     1
  3
Standard
350
17
  0
DICTIONARY
  5
18
102
{ACAD_REACTORS
330
C
102
}
330
C
100
AcDbDictionary
281
     1
  0
ACDBDICTIONARYWDFLT
  5
E
102
{ACAD_REACTORS
330
C
102
}
330
C
100
AcDbDictionary
281
     1
  3
Normal
350
F
100
AcDbDictionaryWithDefault
340
F
  0
DICTIONARY
  5
45A
102
{ACAD_REACTORS
330
C
102
}
330
C
100
AcDbDictionary
281
     1
  3
DIMASSOC
350
45B
  0
LAYOUT
  5
1D
102
{ACAD_REACTORS
330
19
102
}
330
19
100
AcDbPlotSettings
  1

  2
\\SERVER9\HP LaserJet 5100 PCL 5e
  4

  6

 40
0.0
 41
0.0
 42
0.0
 43
0.0
 44
0.0
 45
0.0
 46
0.0
 47
0.0
 48
0.0
 49
0.0
140
0.0
141
0.0
142
1.0
143
1.0
 70
   688
 72
     0
 73
     0
 74
     5
  7

 75
    16
147
1.0
148
0.0
149
0.0
100
AcDbLayout
  1
Layout1
 70
     1
 71
     1
 10
0.0
 20
0.0
 11
12.0
 21
9.0
 12
0.0
 22
0.0
 32
0.0
 14
1.000000000000000E+20
 24
1.000000000000000E+20
 34
1.000000000000000E+20
 15
-1.000000000000000E+20
 25
-1.000000000000000E+20
 35
-1.000000000000000E+20
146
0.0
 13
0.0
 23
0.0
 33
0.0
 16
1.0
 26
0.0
 36
0.0
 17
0.0
 27
1.0
 37
0.0
 76
     0
330
1A
  0
LAYOUT
  5
21
102
{ACAD_REACTORS
330
19
102
}
330
19
100
AcDbPlotSettings
  1

  2
\\SERVER9\HP LaserJet 5100 PCL 5e
  4

  6

 40
0.0
 41
0.0
 42
0.0
 43
0.0
 44
0.0
 45
0.0
 46
0.0
 47
0.0
 48
0.0
 49
0.0
140
0.0
141
0.0
142
1.0
143
1.0
 70
  1712
 72
     0
 73
     0
 74
     0
  7

 75
     0
147
1.0
148
0.0
149
0.0
100
AcDbLayout
  1
Model
 70
     1
 71
     0
 10
0.0
 20
0.0
 11
12.0
 21
9.0
 12
0.0
 22
0.0
 32
0.0
 14
0.0
 24
0.0
 34
0.0
 15
0.0
 25
0.0
 35
0.0
146
0.0
 13
0.0
 23
0.0
 33
0.0
 16
1.0
 26
0.0
 36
0.0
 17
0.0
 27
1.0
 37
0.0
 76
     0
330
1E
  0
MLINESTYLE
  5
17
102
{ACAD_REACTORS
330
16
102
}
330
16
100
AcDbMlineStyle
  2
STANDARD
 70
     0
  3

 62
   256
 51
90.0
 52
90.0
 71
     2
 49
0.5
 62
   256
  6
BYLAYER
 49
-0.5
 62
   256
  6
BYLAYER
  0
ACDBPLACEHOLDER
  5
F
102
{ACAD_REACTORS
330
E
102
}
330
E
  0
DICTIONARYVAR
  5
45B
102
{ACAD_REACTORS
330
45A
102
}
330
45A
100
DictionaryVariables
280
     0
  1
1
  0
ENDSEC
  0
EOF
