  0
SECTION
  2
HEADER
  9
$ACADVER
  1
AC1015
  9
$ACADMAINTVER
 70
    13
  9
$DWGCODEPAGE
  3
ANSI_1252
  9
$INSBASE
 10
0.0
 20
0.0
 30
0.0
  9
$EXTMIN
 10
-281.0404337612947
 20
-283.3965432444489
 30
-0.0015258207003583
  9
$EXTMAX
 10
265.4387302564182
 20
94.60961345075999
 30
0.0000000349246037
  9
$LIMMIN
 10
-257.8581236121918
 20
-220.3894499390529
  9
$LIMMAX
 10
219.446633250787
 20
94.60000000220968
  9
$ORTHOMODE
 70
     0
  9
$REGENMODE
 70
     1
  9
$FILLMODE
 70
     1
  9
$QTEXTMODE
 70
     0
  9
$MIRRTEXT
 70
     1
  9
$LTSCALE
 40
1.0
  9
$ATTMODE
 70
     1
  9
$TEXTSIZE
 40
3.5
  9
$TRACEWID
 40
0.5
  9
$TEXTSTYLE
  7
STANDARD
  9
$CLAYER
  8
0
  9
$CELTYPE
  6
ByLayer
  9
$CECOLOR
 62
   256
  9
$CELTSCALE
 40
1.0
  9
$DISPSILH
 70
     0
  9
$DIMSCALE
 40
1.0
  9
$DIMASZ
 40
0.18
  9
$DIMEXO
 40
0.0625
  9
$DIMDLI
 40
0.38
  9
$DIMRND
 40
0.0
  9
$DIMDLE
 40
0.0
  9
$DIMEXE
 40
0.18
  9
$DIMTP
 40
0.0
  9
$DIMTM
 40
0.0
  9
$DIMTXT
 40
0.18
  9
$DIMCEN
 40
0.09
  9
$DIMTSZ
 40
0.0
  9
$DIMTOL
 70
     0
  9
$DIMLIM
 70
     0
  9
$DIMTIH
 70
     1
  9
$DIMTOH
 70
     1
  9
$DIMSE1
 70
     0
  9
$DIMSE2
 70
     0
  9
$DIMTAD
 70
     0
  9
$DIMZIN
 70
     0
  9
$DIMBLK
  1

  9
$DIMASO
 70
     1
  9
$DIMSHO
 70
     1
  9
$DIMPOST
  1

  9
$DIMAPOST
  1

  9
$DIMALT
 70
     0
  9
$DIMALTD
 70
     2
  9
$DIMALTF
 40
25.4
  9
$DIMLFAC
 40
1.0
  9
$DIMTOFL
 70
     0
  9
$DIMTVP
 40
0.0
  9
$DIMTIX
 70
     0
  9
$DIMSOXD
 70
     0
  9
$DIMSAH
 70
     0
  9
$DIMBLK1
  1

  9
$DIMBLK2
  1

  9
$DIMSTYLE
  2
DMST_1
  9
$DIMCLRD
 70
     0
  9
$DIMCLRE
 70
     0
  9
$DIMCLRT
 70
     0
  9
$DIMTFAC
 40
1.0
  9
$DIMGAP
 40
0.09
  9
$DIMJUST
 70
     0
  9
$DIMSD1
 70
     0
  9
$DIMSD2
 70
     0
  9
$DIMTOLJ
 70
     1
  9
$DIMTZIN
 70
     0
  9
$DIMALTZ
 70
     0
  9
$DIMALTTZ
 70
     0
  9
$DIMUPT
 70
     0
  9
$DIMDEC
 70
     4
  9
$DIMTDEC
 70
     4
  9
$DIMALTU
 70
     2
  9
$DIMALTTD
 70
     2
  9
$DIMTXSTY
  7
STANDARD
  9
$DIMAUNIT
 70
     0
  9
$DIMADEC
 70
     0
  9
$DIMALTRND
 40
0.0
  9
$DIMAZIN
 70
     0
  9
$DIMDSEP
 70
    46
  9
$DIMATFIT
 70
     3
  9
$DIMFRAC
 70
     0
  9
$DIMLDRBLK
  1

  9
$DIMLUNIT
 70
     2
  9
$DIMLWD
 70
    -2
  9
$DIMLWE
 70
    -2
  9
$DIMTMOVE
 70
     0
  9
$LUNITS
 70
     2
  9
$LUPREC
 70
     4
  9
$SKETCHINC
 40
0.1
  9
$FILLETRAD
 40
2.0
  9
$AUNITS
 70
     0
  9
$AUPREC
 70
     0
  9
$MENU
  1
ACAD
  9
$ELEVATION
 40
0.0
  9
$PELEVATION
 40
0.0
  9
$THICKNESS
 40
0.0
  9
$LIMCHECK
 70
     0
  9
$CHAMFERA
 40
0.0
  9
$CHAMFERB
 40
0.0
  9
$CHAMFERC
 40
0.0
  9
$CHAMFERD
 40
0.0
  9
$SKPOLY
 70
     0
  9
$TDCREATE
 40
2453872.625674363
  9
$TDUCREATE
 40
2453872.792341030
  9
$TDUPDATE
 40
2453872.627354409
  9
$TDUUPDATE
 40
2453872.794021076
  9
$TDINDWG
 40
0.0016800463
  9
$TDUSRTIMER
 40
0.0016800463
  9
$USRTIMER
 70
     1
  9
$ANGBASE
 50
0.0
  9
$ANGDIR
 70
     0
  9
$PDMODE
 70
     0
  9
$PDSIZE
 40
0.0
  9
$PLINEWID
 40
0.0
  9
$SPLFRAME
 70
     0
  9
$SPLINETYPE
 70
     6
  9
$SPLINESEGS
 70
     8
  9
$HANDSEED
  5
4D0
  9
$SURFTAB1
 70
     6
  9
$SURFTAB2
 70
     6
  9
$SURFTYPE
 70
     6
  9
$SURFU
 70
     6
  9
$SURFV
 70
     6
  9
$UCSBASE
  2

  9
$UCSNAME
  2

  9
$UCSORG
 10
0.0
 20
0.0
 30
0.0
  9
$UCSXDIR
 10
1.0
 20
0.0
 30
0.0
  9
$UCSYDIR
 10
0.0
 20
1.0
 30
0.0
  9
$UCSORTHOREF
  2

  9
$UCSORTHOVIEW
 70
     0
  9
$UCSORGTOP
 10
0.0
 20
0.0
 30
0.0
  9
$UCSORGBOTTOM
 10
0.0
 20
0.0
 30
0.0
  9
$UCSORGLEFT
 10
0.0
 20
0.0
 30
0.0
  9
$UCSORGRIGHT
 10
0.0
 20
0.0
 30
0.0
  9
$UCSORGFRONT
 10
0.0
 20
0.0
 30
0.0
  9
$UCSORGBACK
 10
0.0
 20
0.0
 30
0.0
  9
$PUCSBASE
  2

  9
$PUCSNAME
  2

  9
$PUCSORG
 10
0.0
 20
0.0
 30
0.0
  9
$PUCSXDIR
 10
1.0
 20
0.0
 30
0.0
  9
$PUCSYDIR
 10
0.0
 20
1.0
 30
0.0
  9
$PUCSORTHOREF
  2

  9
$PUCSORTHOVIEW
 70
     0
  9
$PUCSORGTOP
 10
0.0
 20
0.0
 30
0.0
  9
$PUCSORGBOTTOM
 10
0.0
 20
0.0
 30
0.0
  9
$PUCSORGLEFT
 10
0.0
 20
0.0
 30
0.0
  9
$PUCSORGRIGHT
 10
0.0
 20
0.0
 30
0.0
  9
$PUCSORGFRONT
 10
0.0
 20
0.0
 30
0.0
  9
$PUCSORGBACK
 10
0.0
 20
0.0
 30
0.0
  9
$USERI1
 70
     0
  9
$USERI2
 70
     0
  9
$USERI3
 70
     0
  9
$USERI4
 70
     0
  9
$USERI5
 70
     0
  9
$USERR1
 40
0.0
  9
$USERR2
 40
0.0
  9
$USERR3
 40
0.0
  9
$USERR4
 40
0.0
  9
$USERR5
 40
0.0
  9
$WORLDVIEW
 70
     1
  9
$SHADEDGE
 70
     3
  9
$SHADEDIF
 70
    70
  9
$TILEMODE
 70
     1
  9
$MAXACTVP
 70
    64
  9
$PINSBASE
 10
0.0
 20
0.0
 30
0.0
  9
$PLIMCHECK
 70
     0
  9
$PEXTMIN
 10
1.000000000000000E+20
 20
1.000000000000000E+20
 30
1.000000000000000E+20
  9
$PEXTMAX
 10
-1.000000000000000E+20
 20
-1.000000000000000E+20
 30
-1.000000000000000E+20
  9
$PLIMMIN
 10
0.0
 20
0.0
  9
$PLIMMAX
 10
12.0
 20
9.0
  9
$UNITMODE
 70
     0
  9
$VISRETAIN
 70
     1
  9
$PLINEGEN
 70
     0
  9
$PSLTSCALE
 70
     1
  9
$TREEDEPTH
 70
  3020
  9
$CMLSTYLE
  2
Standard
  9
$CMLJUST
 70
     0
  9
$CMLSCALE
 40
1.0
  9
$PROXYGRAPHICS
 70
     1
  9
$MEASUREMENT
 70
     0
  9
$CELWEIGHT
370
    -1
  9
$ENDCAPS
280
     0
  9
$JOINSTYLE
280
     0
  9
$LWDISPLAY
290
     0
  9
$INSUNITS
 70
     0
  9
$HYPERLINKBASE
  1

  9
$STYLESHEET
  1

  9
$XEDIT
290
     1
  9
$CEPSNTYPE
380
     0
  9
$PSTYLEMODE
290
     1
  9
$FINGERPRINTGUID
  2
{4D3CE93A-C401-4475-9A89-83732772874E}
  9
$VERSIONGUID
  2
{853A92F6-9D90-46AB-B760-D9E6358F1429}
  9
$EXTNAMES
290
     1
  9
$PSVPSCALE
 40
0.0
  9
$OLESTARTUP
290
     0
  0
ENDSEC
  0
SECTION
  2
CLASSES
  0
CLASS
  1
ACDBDICTIONARYWDFLT
  2
AcDbDictionaryWithDefault
  3
AutoCAD 2000
 90
        0
280
     0
281
     0
  0
CLASS
  1
ACDBPLACEHOLDER
  2
AcDbPlaceHolder
  3
AutoCAD 2000
 90
        0
280
     0
281
     0
  0
CLASS
  1
LAYOUT
  2
AcDbLayout
  3
AutoCAD 2000
 90
        0
280
     0
281
     0
  0
CLASS
  1
DICTIONARYVAR
  2
AcDbDictionaryVar
  3
AutoCAD 2000
 90
        0
280
     0
281
     0
  0
ENDSEC
  0
SECTION
  2
TABLES
  0
TABLE
  2
VPORT
  5
8
330
0
100
AcDbSymbolTable
 70
     2
  0
VPORT
  5
4CF
330
8
100
AcDbSymbolTableRecord
100
AcDbViewportTableRecord
  2
*Active
 70
     0
 10
0.0
 20
0.0
 11
1.0
 21
1.0
 12
-19.2057440693905
 22
-63.41140820781146
 13
0.0
 23
0.0
 14
1.0
 24
1.0
 15
0.0
 25
0.0
 16
0.0
 26
0.0
 36
1.0
 17
0.0
 27
0.0
 37
0.0
 40
475.1291779797287
 41
1.182835820895522
 42
50.0
 43
0.0
 44
0.0
 50
0.0
 51
0.0
 71
     0
 72
   100
 73
     1
 74
     1
 75
     0
 76
     0
 77
     0
 78
     0
281
     0
 65
     1
110
0.0
120
0.0
130
0.0
111
1.0
121
0.0
131
0.0
112
0.0
122
1.0
132
0.0
 79
     0
146
0.0
  0
ENDTAB
  0
TABLE
  2
LTYPE
  5
5
330
0
100
AcDbSymbolTable
 70
     9
  0
LTYPE
  5
13
330
5
100
AcDbSymbolTableRecord
100
AcDbLinetypeTableRecord
  2
ByBlock
 70
     0
  3

 72
    65
 73
     0
 40
0.0
  0
LTYPE
  5
14
330
5
100
AcDbSymbolTableRecord
100
AcDbLinetypeTableRecord
  2
ByLayer
 70
     0
  3

 72
    65
 73
     0
 40
0.0
  0
LTYPE
  5
15
330
5
100
AcDbSymbolTableRecord
100
AcDbLinetypeTableRecord
  2
CONTINUOUS
 70
     0
  3
Solid line
 72
    65
 73
     0
 40
0.0
  0
LTYPE
  5
23
330
5
100
AcDbSymbolTableRecord
100
AcDbLinetypeTableRecord
  2
BORDER
 70
     0
  3
__ __ . __ __ .
 72
    65
 73
     6
 40
21.9811401186898
 49
6.280325748197089
 74
     0
 49
-3.140162874098544
 74
     0
 49
6.280325748197089
 74
     0
 49
-3.140162874098544
 74
     0
 49
0.0
 74
     0
 49
-3.140162874098544
 74
     0
  0
LTYPE
  5
24
330
5
100
AcDbSymbolTableRecord
100
AcDbLinetypeTableRecord
  2
CENTER
 70
     0
  3
____ _ ____ _
 72
    65
 73
     4
 40
25.12130299278835
 49
15.70081437049272
 74
     0
 49
-3.140162874098544
 74
     0
 49
3.140162874098544
 74
     0
 49
-3.140162874098544
 74
     0
  0
LTYPE
  5
25
330
5
100
AcDbSymbolTableRecord
100
AcDbLinetypeTableRecord
  2
DASHDOT
 70
     0
  3
__ . __ . __ .
 72
    65
 73
     4
 40
12.56065149639417
 49
6.280325748197089
 74
     0
 49
-3.140162874098544
 74
     0
 49
0.0
 74
     0
 49
-3.140162874098544
 74
     0
  0
LTYPE
  5
26
330
5
100
AcDbSymbolTableRecord
100
AcDbLinetypeTableRecord
  2
DASHED
 70
     0
  3
__ __ __ __ __
 72
    65
 73
     2
 40
9.420488622295632
 49
6.280325748197089
 74
     0
 49
-3.140162874098544
 74
     0
  0
LTYPE
  5
27
330
5
100
AcDbSymbolTableRecord
100
AcDbLinetypeTableRecord
  2
DIVIDE
 70
     0
  3
__ . . __ . . 
 72
    65
 73
     6
 40
15.70081437049272
 49
6.280325748197089
 74
     0
 49
-3.140162874098544
 74
     0
 49
0.0
 74
     0
 49
-3.140162874098544
 74
     0
 49
0.0
 74
     0
 49
-3.140162874098544
 74
     0
  0
LTYPE
  5
28
330
5
100
AcDbSymbolTableRecord
100
AcDbLinetypeTableRecord
  2
DOT
 70
     0
  3
..............
 72
    65
 73
     4
 40
6.280325748197089
 49
0.0
 74
     0
 49
-3.140162874098544
 74
     0
 49
0.0
 74
     0
 49
-3.140162874098544
 74
     0
  0
LTYPE
  5
29
330
5
100
AcDbSymbolTableRecord
100
AcDbLinetypeTableRecord
  2
HIDDEN
 70
     0
  3
_ _ _ _ _ _ _
 72
    65
 73
     2
 40
4.710244311147816
 49
3.140162874098544
 74
     0
 49
-1.570081437049272
 74
     0
  0
LTYPE
  5
2A
330
5
100
AcDbSymbolTableRecord
100
AcDbLinetypeTableRecord
  2
PHANTOM
 70
     0
  3
_____ _ _ _____ _ _ 
 72
    65
 73
     6
 40
31.40162874098544
 49
15.70081437049272
 74
     0
 49
-3.140162874098544
 74
     0
 49
3.140162874098544
 74
     0
 49
-3.140162874098544
 74
     0
 49
3.140162874098544
 74
     0
 49
-3.140162874098544
 74
     0
  0
ENDTAB
  0
TABLE
  2
LAYER
  5
2
330
0
100
AcDbSymbolTable
 70
     3
  0
LAYER
  5
10
330
2
100
AcDbSymbolTableRecord
100
AcDbLayerTableRecord
  2
0
 70
     0
 62
     7
  6
CONTINUOUS
370
    -3
390
F
  0
LAYER
  5
2B
330
2
100
AcDbSymbolTableRecord
100
AcDbLayerTableRecord
  2
1
 70
     0
 62
     7
  6
CONTINUOUS
370
    -3
390
F
  0
LAYER
  5
4BC
330
2
100
AcDbSymbolTableRecord
100
AcDbLayerTableRecord
  2
LAYER_1
 70
     0
 62
     5
  6
CONTINUOUS
370
    -3
390
F
  0
ENDTAB
  0
TABLE
  2
STYLE
  5
3
330
0
100
AcDbSymbolTable
 70
     4
  0
STYLE
  5
11
330
3
100
AcDbSymbolTableRecord
100
AcDbTextStyleTableRecord
  2
STANDARD
 70
     0
 40
0.0
 41
1.0
 50
0.0
 71
     0
 42
3.5
  3
txt
  4

  0
STYLE
  5
2C
330
3
100
AcDbSymbolTableRecord
100
AcDbTextStyleTableRecord
  2
SIMPLEX
 70
     0
 40
0.0
 41
1.0
 50
0.0
 71
     0
 42
3.5
  3
simplex
  4

  0
STYLE
  5
2D
330
3
100
AcDbSymbolTableRecord
100
AcDbTextStyleTableRecord
  2
COMPLEX
 70
     0
 40
0.0
 41
1.0
 50
0.0
 71
     0
 42
3.5
  3
complex
  4

  0
STYLE
  5
2E
330
3
100
AcDbSymbolTableRecord
100
AcDbTextStyleTableRecord
  2
ITALIC
 70
     0
 40
0.0
 41
1.0
 50
0.0
 71
     0
 42
3.5
  3
italic
  4

  0
ENDTAB
  0
TABLE
  2
VIEW
  5
6
330
0
100
AcDbSymbolTable
 70
     0
  0
ENDTAB
  0
TABLE
  2
UCS
  5
7
330
0
100
AcDbSymbolTable
 70
     0
  0
ENDTAB
  0
TABLE
  2
APPID
  5
9
330
0
100
AcDbSymbolTable
 70
     1
  0
APPID
  5
12
330
9
100
AcDbSymbolTableRecord
100
AcDbRegAppTableRecord
  2
ACAD
 70
     0
  0
ENDTAB
  0
TABLE
  2
DIMSTYLE
  5
A
330
0
100
AcDbSymbolTable
 70
     2
100
AcDbDimStyleTable
 71
     0
  0
DIMSTYLE
105
22
102
{ACAD_REACTORS
330
443
330
444
330
445
330
446
102
}
330
A
100
AcDbSymbolTableRecord
100
AcDbDimStyleTableRecord
  2
DMST_1
 70
     0
 41
5.5
 42
1.0
 43
7.0
 44
1.0
 73
     0
 74
     0
 77
     1
 78
     9
140
5.5
141
0.0
176
     2
177
     2
178
     2
279
     2
340
11
  0
DIMSTYLE
105
44C
330
A
100
AcDbSymbolTableRecord
100
AcDbDimStyleTableRecord
  2
Standard
 70
     0
340
11
  0
ENDTAB
  0
TABLE
  2
BLOCK_RECORD
  5
1
330
0
100
AcDbSymbolTable
 70
    24
  0
BLOCK_RECORD
  5
1E
330
1
100
AcDbSymbolTableRecord
100
AcDbBlockTableRecord
  2
*Model_Space
340
21
  0
BLOCK_RECORD
  5
1A
330
1
100
AcDbSymbolTableRecord
100
AcDbBlockTableRecord
  2
*Paper_Space
340
1D
  0
BLOCK_RECORD
  5
34
330
1
100
AcDbSymbolTableRecord
100
AcDbBlockTableRecord
  2
*D0
340
0
  0
BLOCK_RECORD
  5
3E
330
1
100
AcDbSymbolTableRecord
100
AcDbBlockTableRecord
  2
*D1
340
0
  0
BLOCK_RECORD
  5
49
330
1
100
AcDbSymbolTableRecord
100
AcDbBlockTableRecord
  2
*D2
340
0
  0
BLOCK_RECORD
  5
55
330
1
100
AcDbSymbolTableRecord
100
AcDbBlockTableRecord
  2
*D3
340
0
  0
BLOCK_RECORD
  5
447
330
1
100
AcDbSymbolTableRecord
100
AcDbBlockTableRecord
  2
NTC
340
0
310
2800000020000000200000000100080000000000000400000000000000000000000000000000000000000000000080000080000000808000800000008000800080800000C0C0C000C0DCC000F0CAA6000020400000206000002080000020A0000020C0000020E00000400000004020000040400000406000004080000040A0
310
000040C0000040E00000600000006020000060400000606000006080000060A0000060C0000060E00000800000008020000080400000806000008080000080A0000080C0000080E00000A0000000A0200000A0400000A0600000A0800000A0A00000A0C00000A0E00000C0000000C0200000C0400000C0600000C0800000C0
310
A00000C0C00000C0E00000E0000000E0200000E0400000E0600000E0800000E0A00000E0C00000E0E00040000000400020004000400040006000400080004000A0004000C0004000E00040200000402020004020400040206000402080004020A0004020C0004020E000404000004040200040404000404060004040800040
310
40A0004040C0004040E00040600000406020004060400040606000406080004060A0004060C0004060E00040800000408020004080400040806000408080004080A0004080C0004080E00040A0000040A0200040A0400040A0600040A0800040A0A00040A0C00040A0E00040C0000040C0200040C0400040C0600040C08000
310
40C0A00040C0C00040C0E00040E0000040E0200040E0400040E0600040E0800040E0A00040E0C00040E0E00080000000800020008000400080006000800080008000A0008000C0008000E00080200000802020008020400080206000802080008020A0008020C0008020E00080400000804020008040400080406000804080
310
008040A0008040C0008040E00080600000806020008060400080606000806080008060A0008060C0008060E00080800000808020008080400080806000808080008080A0008080C0008080E00080A0000080A0200080A0400080A0600080A0800080A0A00080A0C00080A0E00080C0000080C0200080C0400080C0600080C0
310
800080C0A00080C0C00080C0E00080E0000080E0200080E0400080E0600080E0800080E0A00080E0C00080E0E000C0000000C0002000C0004000C0006000C0008000C000A000C000C000C000E000C0200000C0202000C0204000C0206000C0208000C020A000C020C000C020E000C0400000C0402000C0404000C0406000C0
310
408000C040A000C040C000C040E000C0600000C0602000C0604000C0606000C0608000C060A000C060C000C060E000C0800000C0802000C0804000C0806000C0808000C080A000C080C000C080E000C0A00000C0A02000C0A04000C0A06000C0A08000C0A0A000C0A0C000C0A0E000C0C00000C0C02000C0C04000C0C06000
310
C0C08000C0C0A000F0FBFF00A4A0A000808080000000FF0000FF000000FFFF00FF000000FF00FF00FFFF0000FFFFFF00FFFFFFFFFFFFFFFFFFFFFFFFFFFFFFFFFFFFFFFFFFFFFFFFFFFFFFFFFFFFFFFFFFFFFFFFFFFFFFFFFFFFFFFFFFFFFFFFFFFFFFFFFFFFFFFFFFFFFFFFFFFFFFFFFFFFFFFFFFFFFFFFFFFFFFFFFFFFFF
310
FFFFFFFFFFFFFFFFFFFFFFFFFFFFFFFFFFFFFFFFFFFFFFFFFFFFFFFFFFFFFFFFFFFFFFFFFFFFFFFFFFFFFFFFFFFFFFFFFFFFFFFFFFFFFFFFFFFFFFFFFFFFFFFFFFFFFFFFFFFFFFFFFFFFFFFFFFFFFFFFFFFFFFFFFFFFFFFFFFFFFFFFFFFFFFFFFFFFFFFFFFFFFFFFFFFFFFFFFFFFFFFFFFFFFFFFFFFFFFFFFFFFFFFFFFFFFF
310
FFFFFFFFFFFFFFFFFFFFFFFFFFFFFFFFFFFFFFFFFFFFFFFFFFFFFFFFFFFFFFFFFFFFFFFFFFFFFFFFFFFFFFFFFFFFFFFFFFFFFFFFFFFFFFFFFFFFFFFFFFFFFFFFFFFFFFFFFFFFFFFFFFFFFFFFFFFFFFFFFFFFFFFFFFFFFFFFFFFFFFFFFFFFFFFFFFFFFFFFFFFFFFFFFFFFFFFFFFFFFFFFFFFFFFFFFFFFFFFFFFFFFFFFFFFFFF
310
FFFFFFFFFFFFFFFFFFFFFFFFFFFFFFFFFFFFFFFF000000000000000000000000000000000000000000000000000000000000FFFF00FF0000000000000000FFFFFFFFFFFFFFFFFFFFFFFFFFFFFFFFFFFFFF00FFFF00FF0000000000000000FFFFFFFFFFFFFFFFFFFFFFFFFFFFFFFFFFFFFF00FFFF00FF000000000000000000
310
00000000000000000000000000FFFFFFFFFF00FFFF00FF0000000000000000000000000000000000000000000000000000FF00FFFF00FF0000000000000000000000000000000000000000000000000000FF00FFFF00FF0000000000000000000000000000000000000000000000000000FF00FFFF00FF0000000000000000
310
00000000000000000000000000000000FFFFFF00FFFF00FF0000000000FFFFFFFFFFFFFFFFFFFFFFFFFFFFFFFFFFFFFFFFFFFF00FFFF000000000000000000000000000000000000000000000000000000000000FFFFFFFFFFFFFFFFFFFFFFFFFFFFFFFFFFFFFFFFFFFFFFFFFFFFFFFFFFFFFFFFFFFFFFFFFFFFFFFFFFFFFF
310
FFFFFFFFFFFFFFFFFFFFFFFFFFFFFFFFFFFFFFFFFFFFFFFFFFFFFFFFFFFFFFFFFFFFFFFFFFFFFFFFFFFFFFFFFFFFFFFFFFFFFFFFFFFFFFFFFFFFFFFFFFFFFFFFFFFFFFFFFFFFFFFFFFFFFFFFFFFFFFFFFFFFFFFFFFFFFFFFFFFFFFFFFFFFFFFFFFFFFFFFFFFFFFFFFFFFFFFFFFFFFFFFFFFFFFFFFFFFFFFFFFFFFFFFFFFFFF
310
FFFFFFFFFFFFFFFFFFFFFFFFFFFFFFFFFFFFFFFFFFFFFFFFFFFFFFFFFFFFFFFFFFFFFFFFFFFFFFFFFFFFFFFFFFFFFFFFFFFFFFFFFFFFFFFFFFFFFFFFFFFFFFFFFFFFFFFFFFFFFFFFFFFFFFFFFFFFFFFFFFFFFFFFFFFFFFFFFFFFFFFFFFFFFFFFFFFFFFFFFFFFFFFFFFFFFFFFFFFFFFFFFFFFFFFFFFFFFFFFFFFFFFFFFFFFFF
310
FFFFFFFFFFFFFFFFFFFFFFFFFFFFFFFFFFFFFFFFFFFFFFFFFFFFFFFFFFFFFFFFFFFFFFFFFFFFFFFFFFFFFFFFFFFFFFFFFFFFFFFFFFFFFFFF
102
{BLKREFS
331
44E
331
453
102
}
  0
BLOCK_RECORD
  5
454
330
1
100
AcDbSymbolTableRecord
100
AcDbBlockTableRecord
  2
AI9-BLK14
340
0
310
2800000020000000200000000100080000000000000400000000000000000000000000000000000000000000000080000080000000808000800000008000800080800000C0C0C000C0DCC000F0CAA6000020400000206000002080000020A0000020C0000020E00000400000004020000040400000406000004080000040A0
310
000040C0000040E00000600000006020000060400000606000006080000060A0000060C0000060E00000800000008020000080400000806000008080000080A0000080C0000080E00000A0000000A0200000A0400000A0600000A0800000A0A00000A0C00000A0E00000C0000000C0200000C0400000C0600000C0800000C0
310
A00000C0C00000C0E00000E0000000E0200000E0400000E0600000E0800000E0A00000E0C00000E0E00040000000400020004000400040006000400080004000A0004000C0004000E00040200000402020004020400040206000402080004020A0004020C0004020E000404000004040200040404000404060004040800040
310
40A0004040C0004040E00040600000406020004060400040606000406080004060A0004060C0004060E00040800000408020004080400040806000408080004080A0004080C0004080E00040A0000040A0200040A0400040A0600040A0800040A0A00040A0C00040A0E00040C0000040C0200040C0400040C0600040C08000
310
40C0A00040C0C00040C0E00040E0000040E0200040E0400040E0600040E0800040E0A00040E0C00040E0E00080000000800020008000400080006000800080008000A0008000C0008000E00080200000802020008020400080206000802080008020A0008020C0008020E00080400000804020008040400080406000804080
310
008040A0008040C0008040E00080600000806020008060400080606000806080008060A0008060C0008060E00080800000808020008080400080806000808080008080A0008080C0008080E00080A0000080A0200080A0400080A0600080A0800080A0A00080A0C00080A0E00080C0000080C0200080C0400080C0600080C0
310
800080C0A00080C0C00080C0E00080E0000080E0200080E0400080E0600080E0800080E0A00080E0C00080E0E000C0000000C0002000C0004000C0006000C0008000C000A000C000C000C000E000C0200000C0202000C0204000C0206000C0208000C020A000C020C000C020E000C0400000C0402000C0404000C0406000C0
310
408000C040A000C040C000C040E000C0600000C0602000C0604000C0606000C0608000C060A000C060C000C060E000C0800000C0802000C0804000C0806000C0808000C080A000C080C000C080E000C0A00000C0A02000C0A04000C0A06000C0A08000C0A0A000C0A0C000C0A0E000C0C00000C0C02000C0C04000C0C06000
310
C0C08000C0C0A000F0FBFF00A4A0A000808080000000FF0000FF000000FFFF00FF000000FF00FF00FFFF0000FFFFFF00FF00FFFFFFFF00FFFFFFFFFFFFFFFFFFFFFFFFFFFFFFFFFFFFFFFFFFFFFFFFFFFF00FFFFFFFF00FFFFFFFFFFFFFFFFFFFFFFFFFFFFFFFFFFFFFFFFFFFFFFFFFFFF00FFFFFFFF00FFFFFFFFFFFFFFFF
310
FFFFFFFFFFFFFFFFFFFFFFFFFFFFFFFFFFFF00FFFFFFFF00FFFFFFFFFFFFFFFFFFFFFFFFFFFFFFFFFFFFFFFFFFFFFFFFFFFF00FFFFFFFF00FFFFFFFFFFFFFFFFFFFFFFFFFFFFFFFFFFFFFFFFFFFFFFFFFFFF00FFFFFFFF00FFFFFFFFFFFFFFFFFFFFFFFFFFFFFFFFFFFFFFFFFFFFFFFFFFFF00FFFFFFFF00FFFFFFFFFFFFFF
310
FFFFFFFFFFFFFFFFFFFFFFFFFFFFFFFFFFFFFF00FFFFFFFF00FFFFFFFFFFFFFFFFFFFFFFFFFFFFFFFFFFFFFFFFFFFFFFFFFFFF00FFFFFFFF00FFFFFFFFFFFFFFFFFFFFFFFFFFFFFFFFFFFFFFFFFFFFFFFFFFFF00FFFFFFFF00FFFFFFFFFFFFFFFFFFFFFFFFFFFFFFFFFFFFFFFFFFFFFFFFFFFF00FFFFFFFF00FFFFFFFFFFFF
310
FFFFFFFFFFFFFFFFFFFFFFFFFFFFFFFFFFFFFFFF00FFFFFFFF00FFFFFFFFFFFFFFFFFFFFFFFFFFFFFFFFFFFFFFFFFFFFFFFFFFFF00FFFFFFFF00FFFFFFFFFFFFFFFFFFFFFFFFFFFFFFFFFFFFFFFFFFFFFFFFFFFF00FFFFFFFF0000000000000000000000000000000000000000000000000000FF00FFFFFFFFFFFFFFFFFFFF
310
FFFFFFFFFFFFFFFFFFFFFFFFFFFFFFFFFFFFFFFFFF00FFFFFFFFFFFFFFFFFFFFFFFFFFFFFFFFFFFFFFFFFFFFFFFFFFFFFFFFFFFFFF00FFFFFFFFFFFFFFFFFFFFFFFFFFFFFFFFFFFFFFFFFFFFFFFFFFFFFFFFFFFFFF00FFFFFFFFFFFFFFFFFFFFFFFFFFFFFFFFFFFFFFFFFFFFFFFFFFFFFFFFFF00FF00000000000000000000
310
0000000000000000000000000000000000000000FFFFFFFFFFFFFFFFFFFFFFFFFFFFFFFFFFFFFFFFFFFFFFFFFFFFFFFFFFFFFFFFFFFFFFFFFFFFFFFFFFFFFFFFFFFFFFFFFFFFFFFFFFFFFFFFFFFFFFFFFFFFFFFFFFFFFFFFFFFFFFFFFFFFFFFFFFFFFFFFFFFFFFFFFFFFFFFFFFFFFFFFFFFFFFFFFFFFFFFFFFFFFFFFFFFFFF
310
FFFFFFFFFFFFFFFFFFFFFFFFFFFFFFFFFFFFFFFFFFFFFFFFFFFFFFFFFFFFFFFFFFFFFFFFFFFFFFFFFFFFFFFFFFFFFFFFFFFFFFFFFFFFFFFFFFFFFFFFFFFFFFFFFFFFFFFFFFFFFFFFFFFFFFFFFFFFFFFFFFFFFFFFFFFFFFFFFFFFFFFFFFFFFFFFFFFFFFFFFFFFFFFFFFFFFFFFFFFFFFFFFFFFFFFFFFFFFFFFFFFFFFFFFFFFFF
310
FFFFFFFFFFFFFFFFFFFFFFFFFFFFFFFFFFFFFFFFFFFFFFFFFFFFFFFFFFFFFFFFFFFFFFFFFFFFFFFFFFFFFFFFFFFFFFFFFFFFFFFFFFFFFFFFFFFFFFFFFFFFFFFFFFFFFFFFFFFFFFFFFFFFFFFFFFFFFFFFFFFFFFFFFFFFFFFFFFFFFFFFFFFFFFFFFFFFFFFFFFFFFFFFFFFFFFFFFFFFFFFFFFFFFFFFFFFFFFFFFFFFFFFFFFFFFF
310
FFFFFFFFFFFFFFFFFFFFFFFFFFFFFFFFFFFFFFFFFFFFFFFFFFFFFFFFFFFFFFFFFFFFFFFFFFFFFFFFFFFFFFFFFFFFFFFFFFFFFFFFFFFFFFFF
102
{BLKREFS
331
495
102
}
  0
BLOCK_RECORD
  5
459
330
1
100
AcDbSymbolTableRecord
100
AcDbBlockTableRecord
  2
AI9-BLK13
340
0
310
2800000020000000200000000100080000000000000400000000000000000000000000000000000000000000000080000080000000808000800000008000800080800000C0C0C000C0DCC000F0CAA6000020400000206000002080000020A0000020C0000020E00000400000004020000040400000406000004080000040A0
310
000040C0000040E00000600000006020000060400000606000006080000060A0000060C0000060E00000800000008020000080400000806000008080000080A0000080C0000080E00000A0000000A0200000A0400000A0600000A0800000A0A00000A0C00000A0E00000C0000000C0200000C0400000C0600000C0800000C0
310
A00000C0C00000C0E00000E0000000E0200000E0400000E0600000E0800000E0A00000E0C00000E0E00040000000400020004000400040006000400080004000A0004000C0004000E00040200000402020004020400040206000402080004020A0004020C0004020E000404000004040200040404000404060004040800040
310
40A0004040C0004040E00040600000406020004060400040606000406080004060A0004060C0004060E00040800000408020004080400040806000408080004080A0004080C0004080E00040A0000040A0200040A0400040A0600040A0800040A0A00040A0C00040A0E00040C0000040C0200040C0400040C0600040C08000
310
40C0A00040C0C00040C0E00040E0000040E0200040E0400040E0600040E0800040E0A00040E0C00040E0E00080000000800020008000400080006000800080008000A0008000C0008000E00080200000802020008020400080206000802080008020A0008020C0008020E00080400000804020008040400080406000804080
310
008040A0008040C0008040E00080600000806020008060400080606000806080008060A0008060C0008060E00080800000808020008080400080806000808080008080A0008080C0008080E00080A0000080A0200080A0400080A0600080A0800080A0A00080A0C00080A0E00080C0000080C0200080C0400080C0600080C0
310
800080C0A00080C0C00080C0E00080E0000080E0200080E0400080E0600080E0800080E0A00080E0C00080E0E000C0000000C0002000C0004000C0006000C0008000C000A000C000C000C000E000C0200000C0202000C0204000C0206000C0208000C020A000C020C000C020E000C0400000C0402000C0404000C0406000C0
310
408000C040A000C040C000C040E000C0600000C0602000C0604000C0606000C0608000C060A000C060C000C060E000C0800000C0802000C0804000C0806000C0808000C080A000C080C000C080E000C0A00000C0A02000C0A04000C0A06000C0A08000C0A0A000C0A0C000C0A0E000C0C00000C0C02000C0C04000C0C06000
310
C0C08000C0C0A000F0FBFF00A4A0A000808080000000FF0000FF000000FFFF00FF000000FF00FF00FFFF0000FFFFFF00FFFFFFFFFFFFFFFFFFFFFFFFFFFFFFFFFFFFFFFFFFFFFFFFFFFFFFFFFFFFFFFFFFFFFFFFFFFFFFFFFFFFFF0000FFFFFFFFFFFF0000FFFFFFFFFFFFFFFFFFFFFFFFFFFFFFFFFFFFFFFFFFFF0000FFFF
310
FFFFFFFF0000FFFFFFFFFFFFFFFFFFFFFFFFFFFFFFFFFFFFFFFFFFFF0000FFFFFFFFFFFF0000FFFFFFFFFFFFFFFFFFFFFFFFFFFFFFFFFFFFFFFFFFFF0000FFFFFFFFFFFF0000FFFFFFFFFFFFFFFFFFFFFFFFFFFFFFFFFFFFFFFFFFFF0000FFFFFFFFFFFF0000FFFFFFFFFFFFFFFFFFFFFFFFFFFFFFFFFFFFFFFFFFFF0000FF
310
FFFFFFFFFF0000FFFFFFFFFFFFFFFFFFFFFFFFFFFFFFFFFFFFFFFFFFFF0000FFFFFFFFFFFF0000FFFFFFFFFFFFFFFFFFFFFFFFFFFFFFFFFFFFFFFFFFFF0000FFFFFFFFFFFF0000FFFFFFFFFFFFFFFFFFFFFFFFFFFFFFFFFFFFFFFFFFFF0000FFFFFFFFFFFF0000FFFFFFFFFFFFFFFFFFFFFFFFFFFFFFFFFFFFFFFFFFFF0000
310
FFFFFFFFFFFF0000FFFFFFFFFFFFFFFFFFFFFFFFFFFFFFFFFFFFFFFFFFFF0000FFFFFFFFFFFF0000FFFFFFFFFFFFFFFFFFFFFFFFFFFFFFFFFFFFFFFFFFFF0000FFFFFFFFFFFF0000FFFFFFFFFFFFFFFFFFFFFFFFFFFFFFFFFFFFFFFFFFFF0000FFFFFFFFFFFF0000FFFFFFFFFFFFFFFFFFFFFFFFFFFFFFFFFFFFFFFFFFFF00
310
00FFFFFFFFFFFF0000FFFFFFFFFFFFFFFFFFFFFFFFFFFFFFFFFFFFFFFFFFFF00000000000000000000FFFFFFFFFFFFFFFFFFFFFFFFFFFFFFFFFFFFFFFFFFFF00FFFFFFFFFFFFFFFF00FFFFFFFFFFFFFFFFFFFFFFFFFFFFFFFFFFFFFFFFFFFF00FFFFFFFFFFFFFFFF00FFFFFFFFFFFFFFFFFFFFFFFFFFFFFFFFFFFFFFFFFFFF
310
00000000000000000000FFFFFFFFFFFFFFFFFFFFFFFFFFFFFFFFFFFFFFFFFFFF0000FFFFFFFFFFFF0000FFFFFFFFFFFFFFFFFFFFFFFFFFFFFFFFFFFFFFFFFFFF0000FFFFFFFFFFFF0000FFFFFFFFFFFFFFFFFFFFFFFFFFFFFFFFFFFFFFFFFFFF0000FFFFFFFFFFFF0000FFFFFFFFFFFFFFFFFFFFFFFFFFFFFFFFFFFFFFFFFF
310
FF0000FFFFFFFFFFFF0000FFFFFFFFFFFFFFFFFFFFFFFFFFFFFFFFFFFFFFFFFFFF0000FFFFFFFFFFFF0000FFFFFFFFFFFFFFFFFFFFFFFFFFFFFFFFFFFFFFFFFFFF0000FFFFFFFFFFFF0000FFFFFFFFFFFFFFFFFFFFFFFFFFFFFFFFFFFFFFFFFFFF0000FFFFFFFFFFFF0000FFFFFFFFFFFFFFFFFFFFFFFFFFFFFFFFFFFFFFFF
310
FFFF0000FFFFFFFFFFFF0000FFFFFFFFFFFFFFFFFFFFFFFFFFFFFFFFFFFFFFFFFFFF0000FFFFFFFFFFFF0000FFFFFFFFFFFFFFFFFFFFFFFFFFFFFFFFFFFFFFFFFFFF0000FFFFFFFFFFFF0000FFFFFFFFFFFFFFFFFFFFFFFFFFFFFFFFFFFFFFFFFFFF0000FFFFFFFFFFFF0000FFFFFFFFFFFFFFFFFFFFFFFFFFFFFFFFFFFFFF
310
FFFFFF0000FFFFFFFFFFFF0000FFFFFFFFFFFFFFFFFFFFFFFFFFFFFFFFFFFFFFFFFFFFFFFFFFFFFFFFFFFFFFFFFFFFFFFFFFFFFFFFFFFFFF
102
{BLKREFS
331
496
102
}
  0
BLOCK_RECORD
  5
45E
330
1
100
AcDbSymbolTableRecord
100
AcDbBlockTableRecord
  2
AI9-BLK11
340
0
310
2800000020000000200000000100080000000000000400000000000000000000000000000000000000000000000080000080000000808000800000008000800080800000C0C0C000C0DCC000F0CAA6000020400000206000002080000020A0000020C0000020E00000400000004020000040400000406000004080000040A0
310
000040C0000040E00000600000006020000060400000606000006080000060A0000060C0000060E00000800000008020000080400000806000008080000080A0000080C0000080E00000A0000000A0200000A0400000A0600000A0800000A0A00000A0C00000A0E00000C0000000C0200000C0400000C0600000C0800000C0
310
A00000C0C00000C0E00000E0000000E0200000E0400000E0600000E0800000E0A00000E0C00000E0E00040000000400020004000400040006000400080004000A0004000C0004000E00040200000402020004020400040206000402080004020A0004020C0004020E000404000004040200040404000404060004040800040
310
40A0004040C0004040E00040600000406020004060400040606000406080004060A0004060C0004060E00040800000408020004080400040806000408080004080A0004080C0004080E00040A0000040A0200040A0400040A0600040A0800040A0A00040A0C00040A0E00040C0000040C0200040C0400040C0600040C08000
310
40C0A00040C0C00040C0E00040E0000040E0200040E0400040E0600040E0800040E0A00040E0C00040E0E00080000000800020008000400080006000800080008000A0008000C0008000E00080200000802020008020400080206000802080008020A0008020C0008020E00080400000804020008040400080406000804080
310
008040A0008040C0008040E00080600000806020008060400080606000806080008060A0008060C0008060E00080800000808020008080400080806000808080008080A0008080C0008080E00080A0000080A0200080A0400080A0600080A0800080A0A00080A0C00080A0E00080C0000080C0200080C0400080C0600080C0
310
800080C0A00080C0C00080C0E00080E0000080E0200080E0400080E0600080E0800080E0A00080E0C00080E0E000C0000000C0002000C0004000C0006000C0008000C000A000C000C000C000E000C0200000C0202000C0204000C0206000C0208000C020A000C020C000C020E000C0400000C0402000C0404000C0406000C0
310
408000C040A000C040C000C040E000C0600000C0602000C0604000C0606000C0608000C060A000C060C000C060E000C0800000C0802000C0804000C0806000C0808000C080A000C080C000C080E000C0A00000C0A02000C0A04000C0A06000C0A08000C0A0A000C0A0C000C0A0E000C0C00000C0C02000C0C04000C0C06000
310
C0C08000C0C0A000F0FBFF00A4A0A000808080000000FF0000FF000000FFFF00FF000000FF00FF00FFFF0000FFFFFF00FFFFFFFFFFFFFFFFFFFFFFFFFFFFFFFFFFFFFFFFFFFFFFFFFFFFFFFFFFFFFFFFFFFFFFFFFFFFFFFFFFFFFFFFFFFF00000000FFFFFFFFFFFFFFFFFFFFFF000000FFFFFFFFFFFFFFFFFFFFFFFFFFFF00
310
FFFF00FFFFFFFFFFFFFFFFFFFFFF00FFFFFFFFFFFFFFFFFFFFFFFFFFFFFFFF00FFFF00FFFFFFFFFFFFFFFFFFFFFF00FFFFFFFFFFFFFFFFFFFFFFFFFFFFFFFF00FFFF00FFFFFFFFFFFFFFFFFFFFFF00FFFFFFFFFFFFFFFFFFFFFFFFFFFFFFFF00FFFF00FFFFFFFFFFFFFFFFFFFFFF00FFFFFFFFFFFFFFFFFFFFFFFFFFFFFFFF
310
00FFFF00FFFFFFFFFFFFFFFFFFFFFF00FFFFFFFFFFFFFFFFFFFFFFFFFFFFFFFF00FFFF00FFFFFFFFFFFFFFFFFFFFFF00FFFFFFFFFFFFFFFFFFFFFFFFFFFFFFFF00FFFF00FFFFFFFFFFFFFFFFFFFFFF00FFFFFFFFFFFFFFFFFFFFFFFFFFFFFFFF00FFFF00FFFFFFFFFFFFFFFFFFFFFF00FFFFFFFFFFFFFFFFFFFFFFFFFFFFFF
310
FF00FFFF00FFFFFFFFFFFFFFFFFFFFFF00FFFFFFFFFFFFFFFFFFFFFFFFFFFFFFFF00FFFF00FFFFFFFFFFFFFFFFFFFFFF00FFFFFFFFFFFFFFFFFFFFFFFFFFFFFFFF00FFFF00FFFFFFFFFFFFFFFFFFFFFF00FFFFFFFFFFFFFFFFFFFFFFFFFFFFFFFF00FFFF00FFFFFFFFFFFFFFFFFFFFFF00FFFFFFFFFFFFFFFFFFFFFFFFFFFF
310
FFFF00FFFF00FFFFFFFFFFFFFFFFFFFFFF00FFFFFFFFFFFFFFFFFFFFFFFFFFFFFFFF00FFFF00FFFFFFFFFFFFFFFFFFFFFF00FFFFFFFFFFFFFFFFFFFFFFFFFFFFFFFF00FFFF00FFFFFFFFFFFFFFFFFFFFFF00FFFFFFFFFFFFFFFFFFFFFFFFFFFFFFFF00FFFF00FFFFFFFFFFFFFFFFFFFF00FFFFFFFFFFFFFFFFFFFFFFFFFFFF
310
FFFFFF00FFFF00FFFFFFFFFFFFFFFFFFFF00FFFFFFFFFFFFFFFFFFFFFFFFFFFFFFFFFF00FFFF00FFFFFFFFFFFFFFFFFFFF00FFFFFFFFFFFFFFFFFFFFFFFFFFFFFFFFFF00FFFF00FFFFFFFFFFFFFFFFFFFF00FFFFFFFFFFFFFFFFFFFFFFFFFFFFFFFFFF00FFFF00FFFFFFFFFFFFFFFFFFFF00FFFFFFFFFFFFFFFFFFFFFFFFFF
310
FFFFFFFF00FFFF00FFFFFFFFFFFFFFFFFF0000FFFF00FFFFFFFFFFFFFFFFFFFFFFFFFFFF00FFFF00FFFFFFFFFFFFFFFF0000FFFFFF00FFFFFFFFFFFFFFFFFFFFFFFFFFFF00FFFF00000000000000000000FFFFFFFF00FFFFFFFFFFFFFFFFFFFFFFFFFFFF00FFFFFFFFFFFFFFFFFFFFFFFFFFFFFF00FFFFFFFFFFFFFFFFFFFF
310
FFFFFFFFFF00FFFFFFFFFFFFFFFFFFFFFFFFFFFF00FFFFFFFFFFFFFFFFFFFFFFFFFFFFFFFF00FFFFFFFFFFFFFFFFFFFFFFFFFFFF00FFFFFFFFFFFFFFFFFFFFFFFFFFFFFFFF00FFFFFFFFFFFFFFFFFFFFFFFFFFFFFF00FFFFFFFFFFFFFFFFFFFFFFFFFFFFFF00FFFFFFFFFFFFFFFFFFFFFFFFFFFFFF00FFFFFFFFFFFFFFFFFF
310
FFFFFFFFFFFF00FFFF00000000000000000000FFFFFFFF00FFFFFFFFFFFFFFFFFFFFFFFFFFFF00FFFF00FFFFFFFFFFFFFFFFFF0000FFFF00
102
{BLKREFS
331
497
102
}
  0
BLOCK_RECORD
  5
463
330
1
100
AcDbSymbolTableRecord
100
AcDbBlockTableRecord
  2
AI9-BLK10
340
0
310
2800000020000000200000000100080000000000000400000000000000000000000000000000000000000000000080000080000000808000800000008000800080800000C0C0C000C0DCC000F0CAA6000020400000206000002080000020A0000020C0000020E00000400000004020000040400000406000004080000040A0
310
000040C0000040E00000600000006020000060400000606000006080000060A0000060C0000060E00000800000008020000080400000806000008080000080A0000080C0000080E00000A0000000A0200000A0400000A0600000A0800000A0A00000A0C00000A0E00000C0000000C0200000C0400000C0600000C0800000C0
310
A00000C0C00000C0E00000E0000000E0200000E0400000E0600000E0800000E0A00000E0C00000E0E00040000000400020004000400040006000400080004000A0004000C0004000E00040200000402020004020400040206000402080004020A0004020C0004020E000404000004040200040404000404060004040800040
310
40A0004040C0004040E00040600000406020004060400040606000406080004060A0004060C0004060E00040800000408020004080400040806000408080004080A0004080C0004080E00040A0000040A0200040A0400040A0600040A0800040A0A00040A0C00040A0E00040C0000040C0200040C0400040C0600040C08000
310
40C0A00040C0C00040C0E00040E0000040E0200040E0400040E0600040E0800040E0A00040E0C00040E0E00080000000800020008000400080006000800080008000A0008000C0008000E00080200000802020008020400080206000802080008020A0008020C0008020E00080400000804020008040400080406000804080
310
008040A0008040C0008040E00080600000806020008060400080606000806080008060A0008060C0008060E00080800000808020008080400080806000808080008080A0008080C0008080E00080A0000080A0200080A0400080A0600080A0800080A0A00080A0C00080A0E00080C0000080C0200080C0400080C0600080C0
310
800080C0A00080C0C00080C0E00080E0000080E0200080E0400080E0600080E0800080E0A00080E0C00080E0E000C0000000C0002000C0004000C0006000C0008000C000A000C000C000C000E000C0200000C0202000C0204000C0206000C0208000C020A000C020C000C020E000C0400000C0402000C0404000C0406000C0
310
408000C040A000C040C000C040E000C0600000C0602000C0604000C0606000C0608000C060A000C060C000C060E000C0800000C0802000C0804000C0806000C0808000C080A000C080C000C080E000C0A00000C0A02000C0A04000C0A06000C0A08000C0A0A000C0A0C000C0A0E000C0C00000C0C02000C0C04000C0C06000
310
C0C08000C0C0A000F0FBFF00A4A0A000808080000000FF0000FF000000FFFF00FF000000FF00FF00FFFF0000FFFFFF00FFFFFFFFFFFFFFFFFFFFFFFFFFFFFFFF00FFFFFFFFFFFFFFFFFFFFFFFF00FFFFFFFFFFFFFFFFFFFFFFFFFFFFFFFFFFFF00FFFFFFFFFFFFFFFFFFFFFF00FFFFFFFFFFFFFFFFFFFFFFFFFFFFFFFFFFFF
310
FF00FFFFFFFFFFFFFFFFFFFFFF00FFFFFFFFFFFFFFFFFFFFFFFFFFFFFFFFFFFFFF00FFFFFFFFFFFFFFFFFFFFFF00FFFFFFFFFFFFFFFFFFFFFFFFFFFFFFFFFFFFFF00FFFFFFFFFFFFFFFFFFFFFF00FFFFFFFFFFFFFFFFFFFFFFFFFFFFFFFFFFFFFF00FFFFFFFFFFFFFFFFFFFFFF00FFFFFFFFFFFFFFFFFFFFFFFFFFFFFFFFFF
310
FFFF00FFFFFFFFFFFFFFFFFFFFFF00FFFFFFFFFFFFFFFFFFFFFFFFFFFFFFFFFFFFFF00FFFFFFFFFFFFFFFFFFFF00FFFFFFFFFFFFFFFFFFFFFFFFFFFFFFFFFFFFFFFF00FFFFFFFFFFFFFFFFFFFF00FFFFFFFFFFFFFFFFFFFFFFFFFFFFFFFFFFFFFFFF00FFFFFFFFFFFFFFFFFFFF00FFFFFFFFFFFFFFFFFFFFFFFFFFFFFFFFFF
310
FFFFFF00FFFFFFFFFFFFFFFFFFFF00FFFFFFFFFFFFFFFFFFFFFFFFFFFFFFFFFFFFFFFF00FFFFFFFFFFFFFFFFFFFF00FFFFFFFFFFFFFFFFFFFFFFFFFFFFFFFFFFFFFFFF00FFFFFFFFFFFFFFFFFFFF00FFFFFFFFFFFFFFFFFFFFFFFFFFFFFFFFFFFFFFFF00FFFFFFFFFFFFFFFFFF00FFFFFFFFFFFFFFFFFFFFFFFFFFFFFFFFFF
310
FFFFFFFF00FFFFFFFFFFFFFFFFFF00FFFFFFFFFFFFFFFFFFFFFFFFFFFFFFFFFFFFFFFFFF00FFFFFFFFFFFFFFFFFF00FFFFFFFFFFFFFFFFFFFFFFFFFFFFFFFFFFFFFFFFFF0000000000000000000000FFFFFFFFFFFFFFFFFFFFFFFFFFFFFFFFFFFFFFFFFFFFFFFFFFFFFFFFFFFFFFFFFFFFFFFFFFFFFFFFFFFFFFFFFFFFFFFF
310
FFFFFFFFFFFFFFFFFFFFFFFFFFFFFFFFFFFFFFFFFFFFFFFFFFFFFFFFFFFFFFFFFFFFFFFFFFFFFFFFFFFFFFFFFFFFFFFFFFFFFFFFFFFFFFFFFFFFFFFFFFFFFFFFFFFFFFFFFFFFFFFFFFFFFFFFFFFFFFFFFFFFFFFFFFFFFFFFFFFFFFFFFFFFFFFFFFFFFFFFFFFFFFFFFFFFFFFFFFFFFFFFFFFFFFFFFFFFFFFFFFFFFFFFFFFFFF
310
FFFFFFFFFFFFFFFFFFFFFFFFFFFFFFFFFFFFFFFFFFFFFFFFFFFFFFFFFFFFFFFFFFFFFFFFFFFFFFFFFFFFFFFFFFFFFFFFFFFFFFFFFFFFFFFFFFFFFFFFFFFFFFFFFFFFFFFFFFFFFFFFFFFFFFFFFFFFFFFFFFFFFFFFFFFFFFFFFFFFFFFFFFFFFFFFFFFFFFFFFFFFFFFFFFFFFFFFFFFFFFFFFFFFFFFFFFFFFFFFFFFFFFFFFFFFFF
310
FFFFFFFFFFFFFFFFFFFFFFFFFFFFFFFFFFFFFFFFFFFFFFFFFFFFFFFFFFFFFFFFFFFFFFFFFFFFFFFFFFFFFFFFFFFFFFFFFFFFFFFFFFFFFFFFFFFFFFFFFFFFFFFFFFFFFFFFFFFFFFFFFFFFFFFFFFFFFFFFFFFFFFFFFFFFFFFFFFFFFFFFFFFFFFFFFFFFFFFFFFFFFFFFFFFFFFFFFFFFFFFFFFFFFFFFFFFFFFFFFFFFFFFFFFFFFF
310
FFFFFFFFFFFFFFFFFFFFFFFFFFFFFFFFFFFFFFFFFFFFFFFFFFFFFFFFFFFFFFFFFFFFFFFFFFFFFFFFFFFFFFFFFFFFFFFFFFFFFFFFFFFFFFFF
102
{BLKREFS
331
498
102
}
  0
BLOCK_RECORD
  5
467
330
1
100
AcDbSymbolTableRecord
100
AcDbBlockTableRecord
  2
AI9-BLK9
340
0
310
2800000020000000200000000100080000000000000400000000000000000000000000000000000000000000000080000080000000808000800000008000800080800000C0C0C000C0DCC000F0CAA6000020400000206000002080000020A0000020C0000020E00000400000004020000040400000406000004080000040A0
310
000040C0000040E00000600000006020000060400000606000006080000060A0000060C0000060E00000800000008020000080400000806000008080000080A0000080C0000080E00000A0000000A0200000A0400000A0600000A0800000A0A00000A0C00000A0E00000C0000000C0200000C0400000C0600000C0800000C0
310
A00000C0C00000C0E00000E0000000E0200000E0400000E0600000E0800000E0A00000E0C00000E0E00040000000400020004000400040006000400080004000A0004000C0004000E00040200000402020004020400040206000402080004020A0004020C0004020E000404000004040200040404000404060004040800040
310
40A0004040C0004040E00040600000406020004060400040606000406080004060A0004060C0004060E00040800000408020004080400040806000408080004080A0004080C0004080E00040A0000040A0200040A0400040A0600040A0800040A0A00040A0C00040A0E00040C0000040C0200040C0400040C0600040C08000
310
40C0A00040C0C00040C0E00040E0000040E0200040E0400040E0600040E0800040E0A00040E0C00040E0E00080000000800020008000400080006000800080008000A0008000C0008000E00080200000802020008020400080206000802080008020A0008020C0008020E00080400000804020008040400080406000804080
310
008040A0008040C0008040E00080600000806020008060400080606000806080008060A0008060C0008060E00080800000808020008080400080806000808080008080A0008080C0008080E00080A0000080A0200080A0400080A0600080A0800080A0A00080A0C00080A0E00080C0000080C0200080C0400080C0600080C0
310
800080C0A00080C0C00080C0E00080E0000080E0200080E0400080E0600080E0800080E0A00080E0C00080E0E000C0000000C0002000C0004000C0006000C0008000C000A000C000C000C000E000C0200000C0202000C0204000C0206000C0208000C020A000C020C000C020E000C0400000C0402000C0404000C0406000C0
310
408000C040A000C040C000C040E000C0600000C0602000C0604000C0606000C0608000C060A000C060C000C060E000C0800000C0802000C0804000C0806000C0808000C080A000C080C000C080E000C0A00000C0A02000C0A04000C0A06000C0A08000C0A0A000C0A0C000C0A0E000C0C00000C0C02000C0C04000C0C06000
310
C0C08000C0C0A000F0FBFF00A4A0A000808080000000FF0000FF000000FFFF00FF000000FF00FF00FFFF0000FFFFFF00FFFFFFFFFFFFFFFFFFFFFFFFFFFFFFFFFFFFFFFFFFFFFFFFFFFFFFFFFFFFFFFFFFFFFFFFFFFFFFFFFFFFFFFFFFFFFF0000FFFFFFFFFFFFFFFFFFFFFFFFFFFFFFFFFFFFFFFFFFFFFFFFFFFFFFFF0000
310
FF0000FFFFFFFFFFFFFFFFFFFFFFFFFFFFFFFFFFFFFFFFFFFFFFFFFFFFFF00FFFFFF0000FFFFFFFFFFFFFFFFFFFFFFFFFFFFFFFFFFFFFFFFFFFFFFFFFFFF00FFFFFFFF0000FFFFFFFFFFFFFFFFFFFFFFFFFFFFFFFFFFFFFFFFFFFFFFFF00FF00000000FF00FFFFFFFFFFFFFFFFFFFFFFFFFFFFFFFFFFFFFFFFFFFFFFFF0000
310
00FFFF00FF00FFFFFFFFFFFFFFFFFFFFFFFFFFFFFFFFFFFFFFFFFFFFFFFF0000FFFFFFFF0000FFFFFFFFFFFFFFFFFFFFFFFFFFFFFFFFFFFFFFFFFFFFFFFF0000FFFFFFFF0000FFFFFFFFFFFFFFFFFFFFFFFFFFFFFFFFFFFFFFFFFFFFFF00FF00FFFFFFFF00FF00FFFFFFFFFFFFFFFFFFFFFFFFFFFFFFFFFFFFFFFFFFFF0000
310
FFFFFFFFFF00FF00FFFFFFFFFFFFFFFFFFFFFFFFFFFFFFFFFFFFFFFFFFFF0000FFFFFFFFFFFF0000FFFFFFFFFFFFFFFFFFFFFFFFFFFFFFFFFFFFFFFFFFFF0000FFFFFFFFFFFF0000FFFFFFFFFFFFFFFFFFFFFFFFFFFFFFFFFFFFFFFFFFFF0000FFFFFFFFFFFF0000FFFFFFFFFFFFFFFFFFFFFFFFFFFFFFFFFFFFFFFFFFFF00
310
00FFFFFFFFFFFF0000FFFFFFFFFFFFFFFFFFFFFFFFFFFFFFFFFFFFFFFFFFFF0000FFFFFFFFFFFF0000FFFFFFFFFFFFFFFFFFFFFFFFFFFFFFFFFFFFFFFFFFFF0000FFFFFFFFFFFF0000FFFFFFFFFFFFFFFFFFFFFFFFFFFFFFFFFFFFFFFFFFFF0000FFFFFFFFFFFF0000FFFFFFFFFFFFFFFFFFFFFFFFFFFFFFFFFFFFFFFFFFFF
310
0000FFFFFFFFFFFF0000FFFFFFFFFFFFFFFFFFFFFFFFFFFFFFFFFFFFFFFFFFFF0000FFFFFFFFFFFF0000FFFFFFFFFFFFFFFFFFFFFFFFFFFFFFFFFFFFFFFFFFFF0000FFFFFFFFFFFF0000FFFFFFFFFFFFFFFFFFFFFFFFFFFFFFFFFFFFFFFFFFFF00FF00FFFFFFFF00FF00FFFFFFFFFFFFFFFFFFFFFFFFFFFFFFFFFFFFFFFFFF
310
FF00FF00FFFFFFFF00FF00FFFFFFFFFFFFFFFFFFFFFFFFFFFFFFFFFFFFFFFFFFFF00FF00FFFFFFFF00FF00FFFFFFFFFFFFFFFFFFFFFFFFFFFFFFFFFFFFFFFFFFFFFF0000FFFFFFFF0000FFFFFFFFFFFFFFFFFFFFFFFFFFFFFFFFFFFFFFFFFFFFFFFF00FF00FFFF00FF00FFFFFFFFFFFFFFFFFFFFFFFFFFFFFFFFFFFFFFFFFF
310
FFFFFF00FF00000000FF00FFFFFFFFFFFFFFFFFFFFFFFFFFFFFFFFFFFFFFFFFFFFFFFFFF00FFFFFFFF0000FFFFFFFFFFFFFFFFFFFFFFFFFFFFFFFFFFFFFFFFFFFFFFFFFF00FFFFFFFF00FFFFFFFFFFFFFFFFFFFFFFFFFFFFFFFFFFFFFFFFFFFFFFFFFFFFFF00000000FFFFFFFFFFFFFFFFFFFFFFFFFFFFFFFFFFFFFFFFFFFF
310
FFFFFFFFFFFFFF0000FFFFFFFFFFFFFFFFFFFFFFFFFFFFFFFFFFFFFFFFFFFFFFFFFFFFFFFFFFFFFFFFFFFFFFFFFFFFFFFFFFFFFFFFFFFFFF
102
{BLKREFS
331
499
102
}
  0
BLOCK_RECORD
  5
46C
330
1
100
AcDbSymbolTableRecord
100
AcDbBlockTableRecord
  2
AI9-BLK8
340
0
310
2800000020000000200000000100080000000000000400000000000000000000000000000000000000000000000080000080000000808000800000008000800080800000C0C0C000C0DCC000F0CAA6000020400000206000002080000020A0000020C0000020E00000400000004020000040400000406000004080000040A0
310
000040C0000040E00000600000006020000060400000606000006080000060A0000060C0000060E00000800000008020000080400000806000008080000080A0000080C0000080E00000A0000000A0200000A0400000A0600000A0800000A0A00000A0C00000A0E00000C0000000C0200000C0400000C0600000C0800000C0
310
A00000C0C00000C0E00000E0000000E0200000E0400000E0600000E0800000E0A00000E0C00000E0E00040000000400020004000400040006000400080004000A0004000C0004000E00040200000402020004020400040206000402080004020A0004020C0004020E000404000004040200040404000404060004040800040
310
40A0004040C0004040E00040600000406020004060400040606000406080004060A0004060C0004060E00040800000408020004080400040806000408080004080A0004080C0004080E00040A0000040A0200040A0400040A0600040A0800040A0A00040A0C00040A0E00040C0000040C0200040C0400040C0600040C08000
310
40C0A00040C0C00040C0E00040E0000040E0200040E0400040E0600040E0800040E0A00040E0C00040E0E00080000000800020008000400080006000800080008000A0008000C0008000E00080200000802020008020400080206000802080008020A0008020C0008020E00080400000804020008040400080406000804080
310
008040A0008040C0008040E00080600000806020008060400080606000806080008060A0008060C0008060E00080800000808020008080400080806000808080008080A0008080C0008080E00080A0000080A0200080A0400080A0600080A0800080A0A00080A0C00080A0E00080C0000080C0200080C0400080C0600080C0
310
800080C0A00080C0C00080C0E00080E0000080E0200080E0400080E0600080E0800080E0A00080E0C00080E0E000C0000000C0002000C0004000C0006000C0008000C000A000C000C000C000E000C0200000C0202000C0204000C0206000C0208000C020A000C020C000C020E000C0400000C0402000C0404000C0406000C0
310
408000C040A000C040C000C040E000C0600000C0602000C0604000C0606000C0608000C060A000C060C000C060E000C0800000C0802000C0804000C0806000C0808000C080A000C080C000C080E000C0A00000C0A02000C0A04000C0A06000C0A08000C0A0A000C0A0C000C0A0E000C0C00000C0C02000C0C04000C0C06000
310
C0C08000C0C0A000F0FBFF00A4A0A000808080000000FF0000FF000000FFFF00FF000000FF00FF00FFFF0000FFFFFF00FFFFFFFFFFFFFFFFFFFFFFFFFFFFFFFFFFFFFFFFFFFFFFFFFFFFFFFFFFFFFFFFFFFFFFFFFFFFFFFFFFFFFF0000FFFFFFFFFFFF0000FFFFFFFFFFFFFFFFFFFFFFFFFFFFFFFFFFFFFFFFFFFF0000FFFF
310
FFFFFFFF0000FFFFFFFFFFFFFFFFFFFFFFFFFFFFFFFFFFFFFFFFFFFF0000FFFFFFFFFF00FF00FFFFFFFFFFFFFFFFFFFFFFFFFFFFFFFFFFFFFFFFFFFF0000FFFFFFFFFF00FF00FFFFFFFFFFFFFFFFFFFFFFFFFFFFFFFFFFFFFFFFFFFF0000FFFFFFFFFF00FF00FFFFFFFFFFFFFFFFFFFFFFFFFFFFFFFFFFFFFFFFFFFF0000FF
310
FFFFFF00FFFF00FFFFFFFFFFFFFFFFFFFFFFFFFFFFFFFFFFFFFFFFFFFF0000FFFFFFFF00FF0000FFFFFFFFFFFFFFFFFFFFFFFFFFFFFFFFFFFFFFFFFFFF0000FFFFFFFF00FF0000FFFFFFFFFFFFFFFFFFFFFFFFFFFFFFFFFFFFFFFFFFFF0000FFFFFFFF00000000FFFFFFFFFFFFFFFFFFFFFFFFFFFFFFFFFFFFFFFFFFFF0000
310
FFFFFF00FF000000FFFFFFFFFFFFFFFFFFFFFFFFFFFFFFFFFFFFFFFFFFFF0000FFFFFF00FF000000FFFFFFFFFFFFFFFFFFFFFFFFFFFFFFFFFFFFFFFFFFFF0000FFFFFF00FF000000FFFFFFFFFFFFFFFFFFFFFFFFFFFFFFFFFFFFFFFFFFFF0000FFFF00FF00FF0000FFFFFFFFFFFFFFFFFFFFFFFFFFFFFFFFFFFFFFFFFFFF00
310
00FFFF00FF00FF0000FFFFFFFFFFFFFFFFFFFFFFFFFFFFFFFFFFFFFFFFFFFF0000FFFF00FF00FF0000FFFFFFFFFFFFFFFFFFFFFFFFFFFFFFFFFFFFFFFFFFFF0000FF00FFFF00FF0000FFFFFFFFFFFFFFFFFFFFFFFFFFFFFFFFFFFFFFFFFFFF0000FF00FF00FFFF0000FFFFFFFFFFFFFFFFFFFFFFFFFFFFFFFFFFFFFFFFFFFF
310
0000FF00FF00FFFF0000FFFFFFFFFFFFFFFFFFFFFFFFFFFFFFFFFFFFFFFFFFFF0000FF00FF00FFFF0000FFFFFFFFFFFFFFFFFFFFFFFFFFFFFFFFFFFFFFFFFFFF000000FFFF00FFFF0000FFFFFFFFFFFFFFFFFFFFFFFFFFFFFFFFFFFFFFFFFFFF000000FF00FFFFFF0000FFFFFFFFFFFFFFFFFFFFFFFFFFFFFFFFFFFFFFFFFF
310
FF000000FF00FFFFFF0000FFFFFFFFFFFFFFFFFFFFFFFFFFFFFFFFFFFFFFFFFFFF0000FFFF00FFFFFF0000FFFFFFFFFFFFFFFFFFFFFFFFFFFFFFFFFFFFFFFFFFFF0000FFFF00FFFFFF0000FFFFFFFFFFFFFFFFFFFFFFFFFFFFFFFFFFFFFFFFFFFF00FFFF00FFFFFFFF0000FFFFFFFFFFFFFFFFFFFFFFFFFFFFFFFFFFFFFFFF
310
FFFF00FFFF00FFFFFFFF0000FFFFFFFFFFFFFFFFFFFFFFFFFFFFFFFFFFFFFFFFFFFF00FFFF00FFFFFFFF0000FFFFFFFFFFFFFFFFFFFFFFFFFFFFFFFFFFFFFFFFFFFF00FFFF00FFFFFFFF0000FFFFFFFFFFFFFFFFFFFFFFFFFFFFFFFFFFFFFFFFFFFF00FF00FFFFFFFFFF0000FFFFFFFFFFFFFFFFFFFFFFFFFFFFFFFFFFFFFF
310
FFFFFF000000FFFFFFFFFF0000FFFFFFFFFFFFFFFFFFFFFFFFFFFFFFFFFFFFFFFFFFFFFFFFFFFFFFFFFFFFFFFFFFFFFFFFFFFFFFFFFFFFFF
102
{BLKREFS
331
49A
102
}
  0
BLOCK_RECORD
  5
471
330
1
100
AcDbSymbolTableRecord
100
AcDbBlockTableRecord
  2
AI9-BLK7
340
0
310
2800000020000000200000000100080000000000000400000000000000000000000000000000000000000000000080000080000000808000800000008000800080800000C0C0C000C0DCC000F0CAA6000020400000206000002080000020A0000020C0000020E00000400000004020000040400000406000004080000040A0
310
000040C0000040E00000600000006020000060400000606000006080000060A0000060C0000060E00000800000008020000080400000806000008080000080A0000080C0000080E00000A0000000A0200000A0400000A0600000A0800000A0A00000A0C00000A0E00000C0000000C0200000C0400000C0600000C0800000C0
310
A00000C0C00000C0E00000E0000000E0200000E0400000E0600000E0800000E0A00000E0C00000E0E00040000000400020004000400040006000400080004000A0004000C0004000E00040200000402020004020400040206000402080004020A0004020C0004020E000404000004040200040404000404060004040800040
310
40A0004040C0004040E00040600000406020004060400040606000406080004060A0004060C0004060E00040800000408020004080400040806000408080004080A0004080C0004080E00040A0000040A0200040A0400040A0600040A0800040A0A00040A0C00040A0E00040C0000040C0200040C0400040C0600040C08000
310
40C0A00040C0C00040C0E00040E0000040E0200040E0400040E0600040E0800040E0A00040E0C00040E0E00080000000800020008000400080006000800080008000A0008000C0008000E00080200000802020008020400080206000802080008020A0008020C0008020E00080400000804020008040400080406000804080
310
008040A0008040C0008040E00080600000806020008060400080606000806080008060A0008060C0008060E00080800000808020008080400080806000808080008080A0008080C0008080E00080A0000080A0200080A0400080A0600080A0800080A0A00080A0C00080A0E00080C0000080C0200080C0400080C0600080C0
310
800080C0A00080C0C00080C0E00080E0000080E0200080E0400080E0600080E0800080E0A00080E0C00080E0E000C0000000C0002000C0004000C0006000C0008000C000A000C000C000C000E000C0200000C0202000C0204000C0206000C0208000C020A000C020C000C020E000C0400000C0402000C0404000C0406000C0
310
408000C040A000C040C000C040E000C0600000C0602000C0604000C0606000C0608000C060A000C060C000C060E000C0800000C0802000C0804000C0806000C0808000C080A000C080C000C080E000C0A00000C0A02000C0A04000C0A06000C0A08000C0A0A000C0A0C000C0A0E000C0C00000C0C02000C0C04000C0C06000
310
C0C08000C0C0A000F0FBFF00A4A0A000808080000000FF0000FF000000FFFF00FF000000FF00FF00FFFF0000FFFFFF00FFFFFFFFFFFFFFFFFFFFFFFFFFFFFFFFFFFFFFFFFFFFFFFFFFFFFFFFFFFFFFFFFFFFFFFFFFFFFFFFFFFFFFFFFFFFFF0000FFFFFFFFFFFFFFFFFFFFFFFFFFFFFFFFFFFFFFFFFFFFFFFFFFFFFFFFFFFF
310
0000FFFFFFFFFFFFFFFFFFFFFFFFFFFFFFFFFFFFFFFFFFFFFFFFFFFFFFFFFFFF0000FFFFFFFFFFFFFFFFFFFFFFFFFFFFFFFFFFFFFFFFFFFFFFFFFFFFFFFFFFFF0000FFFFFFFFFFFFFFFFFFFFFFFFFFFFFFFFFFFFFFFFFFFFFFFFFFFFFFFFFFFF0000FFFFFFFFFFFFFFFFFFFFFFFFFFFFFFFFFFFFFFFFFFFFFFFFFFFFFFFFFF
310
FF0000FFFFFFFFFFFFFFFFFFFFFFFFFFFFFFFFFFFFFFFFFFFFFFFFFFFFFFFFFFFF0000FFFFFFFFFFFFFFFFFFFFFFFFFFFFFFFFFFFFFFFFFFFFFFFFFFFFFFFFFFFF0000FFFFFFFFFFFFFFFFFFFFFFFFFFFFFFFFFFFFFFFFFFFFFFFFFFFFFFFFFFFF0000FFFFFFFFFFFFFFFFFFFFFFFFFFFFFFFFFFFFFFFFFFFFFFFFFFFFFFFF
310
FFFF0000FFFFFFFFFFFFFFFFFFFFFFFFFFFFFFFFFFFFFFFFFFFFFFFFFFFFFFFFFFFF0000FFFFFFFFFFFFFFFFFFFFFFFFFFFFFFFFFFFFFFFFFFFFFFFFFFFFFFFFFFFF0000FFFFFFFFFFFFFFFFFFFFFFFFFFFFFFFFFFFFFFFFFFFFFFFFFFFFFFFFFFFF0000FFFFFFFFFFFFFFFFFFFFFFFFFFFFFFFFFFFFFFFFFFFFFFFFFFFFFF
310
FFFFFF0000FFFFFFFFFFFFFFFFFFFFFFFFFFFFFFFFFFFFFFFFFFFFFFFFFFFFFFFFFFFF0000FFFFFFFFFFFFFFFFFFFFFFFFFFFFFFFFFFFFFFFFFFFFFFFFFFFFFFFFFFFF0000FFFFFFFFFFFFFFFFFFFFFFFFFFFFFFFFFFFFFFFFFFFFFFFFFFFFFFFFFFFF0000FFFFFFFFFFFFFFFFFFFFFFFFFFFFFFFFFFFFFFFFFFFFFFFFFFFF
310
FFFFFFFF0000FFFFFFFFFFFFFFFFFFFFFFFFFFFFFFFFFFFFFFFFFFFFFFFFFFFFFFFFFFFF0000FFFFFFFFFFFFFFFFFFFFFFFFFFFFFFFFFFFFFFFFFFFFFFFFFFFFFFFFFFFF0000FFFFFFFFFFFFFFFFFFFFFFFFFFFFFFFFFFFFFFFFFFFFFFFFFFFFFFFFFFFF0000FFFFFFFFFFFFFFFFFFFFFFFFFFFFFFFFFFFFFFFFFFFFFFFFFF
310
FFFFFFFFFF0000FFFFFFFFFFFFFFFFFFFFFFFFFFFFFFFFFFFFFFFFFFFFFFFFFFFFFFFFFFFF0000FFFFFFFFFFFFFFFFFFFFFFFFFFFFFFFFFFFFFFFFFFFFFFFFFFFFFFFFFFFF0000FFFFFFFFFFFFFFFFFFFFFFFFFFFFFFFFFFFFFFFFFFFFFFFFFFFFFFFFFFFF0000FFFFFFFFFFFFFFFFFFFFFFFFFFFFFFFFFFFFFFFFFFFFFFFF
310
FFFFFFFFFFFF0000FFFFFFFFFFFFFFFFFFFFFFFFFFFFFFFFFFFFFFFFFFFFFFFFFFFFFFFFFFFF0000FFFFFFFFFFFFFFFFFFFFFFFFFFFFFFFFFFFFFFFFFFFFFFFFFFFFFFFFFFFF0000FFFFFFFFFFFFFFFFFFFFFFFFFFFFFFFFFFFFFFFFFFFFFFFFFFFFFFFFFFFF0000FFFFFFFFFFFFFFFFFFFFFFFFFFFFFFFFFFFFFFFFFFFFFF
310
FFFFFFFFFFFFFF0000FFFFFFFFFFFFFFFFFFFFFFFFFFFFFFFFFFFFFFFFFFFFFFFFFFFFFFFFFFFFFFFFFFFFFFFFFFFFFFFFFFFFFFFFFFFFFF
102
{BLKREFS
331
49B
102
}
  0
BLOCK_RECORD
  5
476
330
1
100
AcDbSymbolTableRecord
100
AcDbBlockTableRecord
  2
AI9-BLK6
340
0
310
2800000020000000200000000100080000000000000400000000000000000000000000000000000000000000000080000080000000808000800000008000800080800000C0C0C000C0DCC000F0CAA6000020400000206000002080000020A0000020C0000020E00000400000004020000040400000406000004080000040A0
310
000040C0000040E00000600000006020000060400000606000006080000060A0000060C0000060E00000800000008020000080400000806000008080000080A0000080C0000080E00000A0000000A0200000A0400000A0600000A0800000A0A00000A0C00000A0E00000C0000000C0200000C0400000C0600000C0800000C0
310
A00000C0C00000C0E00000E0000000E0200000E0400000E0600000E0800000E0A00000E0C00000E0E00040000000400020004000400040006000400080004000A0004000C0004000E00040200000402020004020400040206000402080004020A0004020C0004020E000404000004040200040404000404060004040800040
310
40A0004040C0004040E00040600000406020004060400040606000406080004060A0004060C0004060E00040800000408020004080400040806000408080004080A0004080C0004080E00040A0000040A0200040A0400040A0600040A0800040A0A00040A0C00040A0E00040C0000040C0200040C0400040C0600040C08000
310
40C0A00040C0C00040C0E00040E0000040E0200040E0400040E0600040E0800040E0A00040E0C00040E0E00080000000800020008000400080006000800080008000A0008000C0008000E00080200000802020008020400080206000802080008020A0008020C0008020E00080400000804020008040400080406000804080
310
008040A0008040C0008040E00080600000806020008060400080606000806080008060A0008060C0008060E00080800000808020008080400080806000808080008080A0008080C0008080E00080A0000080A0200080A0400080A0600080A0800080A0A00080A0C00080A0E00080C0000080C0200080C0400080C0600080C0
310
800080C0A00080C0C00080C0E00080E0000080E0200080E0400080E0600080E0800080E0A00080E0C00080E0E000C0000000C0002000C0004000C0006000C0008000C000A000C000C000C000E000C0200000C0202000C0204000C0206000C0208000C020A000C020C000C020E000C0400000C0402000C0404000C0406000C0
310
408000C040A000C040C000C040E000C0600000C0602000C0604000C0606000C0608000C060A000C060C000C060E000C0800000C0802000C0804000C0806000C0808000C080A000C080C000C080E000C0A00000C0A02000C0A04000C0A06000C0A08000C0A0A000C0A0C000C0A0E000C0C00000C0C02000C0C04000C0C06000
310
C0C08000C0C0A000F0FBFF00A4A0A000808080000000FF0000FF000000FFFF00FF000000FF00FF00FFFF0000FFFFFF00FFFFFFFFFFFFFFFFFFFFFFFF00FFFFFFFFFFFFFF00FFFFFFFFFFFFFFFFFFFFFFFFFFFFFFFFFFFFFFFFFFFFFF00FFFFFFFFFFFFFF00FFFFFFFFFFFFFFFFFFFFFFFFFFFFFFFFFFFFFFFFFFFFFF00FFFF
310
FFFFFFFFFF00FFFFFFFFFFFFFFFFFFFFFFFFFFFFFFFFFFFFFFFFFFFF00FFFFFFFFFFFFFFFF00FFFFFFFFFFFFFFFFFFFFFFFFFFFFFFFFFFFFFFFFFFFF00FFFFFFFFFFFFFF00FFFFFFFFFFFFFFFFFFFFFFFFFFFFFFFFFFFFFFFFFFFFFF00FFFFFFFFFFFFFF00FFFFFFFFFFFFFFFFFFFFFFFFFFFFFFFFFFFFFFFFFFFF00FFFFFF
310
FFFFFFFFFF00FFFFFFFFFFFFFFFFFFFFFFFFFFFFFFFFFFFFFFFFFFFF00FFFFFFFFFFFFFF00FFFFFFFFFFFFFFFFFFFFFFFFFFFFFFFFFFFFFFFFFFFF00FFFFFFFFFFFFFFFF00FFFFFFFFFFFFFFFFFFFFFFFFFFFFFFFFFFFFFFFFFF00FFFFFFFFFFFFFFFFFF00FFFFFFFFFFFFFFFFFFFFFFFFFFFFFFFFFFFFFFFF00FFFFFFFFFF
310
FFFFFFFFFF00FFFFFFFFFFFFFFFFFFFFFFFFFFFFFFFFFFFFFF00FFFFFFFFFFFFFFFFFFFF00FFFFFFFFFFFFFFFFFFFFFFFFFFFFFFFFFFFF0000FFFFFFFFFFFFFFFFFFFFFF00FFFFFFFFFFFFFFFFFFFFFFFFFFFF00000000FFFFFFFFFFFFFFFFFFFFFFFFFF00FFFFFFFFFFFFFFFFFFFFFFFFFFFFFFFFFFFFFFFFFFFFFFFFFFFF
310
FFFFFFFF00FFFFFFFFFFFFFFFFFFFFFFFFFFFFFFFFFFFFFFFFFFFFFFFFFFFFFFFFFFFFFF00FFFFFFFFFFFFFFFFFFFFFFFFFFFFFFFFFFFFFFFFFFFFFFFFFFFFFFFFFFFFFF00FFFFFFFFFFFFFFFFFFFFFFFFFFFFFFFFFFFFFFFFFFFFFFFFFFFFFFFFFFFF00FFFFFFFFFFFFFFFFFFFFFFFFFFFFFFFFFFFFFFFFFFFFFFFFFFFFFF
310
FFFFFFFF00FFFFFFFFFFFFFFFFFFFFFFFFFFFFFFFFFFFFFFFFFFFFFFFFFFFFFFFFFFFF00FFFFFFFFFFFFFFFFFFFFFFFFFFFFFFFFFFFFFFFFFFFFFFFFFFFFFFFFFFFF00FFFFFFFFFFFFFFFFFFFFFFFFFFFFFFFFFFFFFFFFFFFFFFFFFFFFFFFFFFFF00FFFFFFFFFFFFFFFFFFFFFFFFFFFFFFFFFFFFFFFFFFFFFFFFFFFFFFFFFF
310
FF00FFFFFFFFFFFFFFFFFFFFFFFFFFFFFFFFFFFFFFFFFFFFFFFFFFFFFFFFFFFFFF00FFFFFFFFFFFFFFFFFFFFFFFFFFFFFFFFFFFFFFFFFFFFFFFFFFFFFFFFFFFF00FFFFFFFFFFFFFFFFFFFFFFFFFFFFFFFFFFFFFFFFFFFFFFFFFFFFFFFFFF0000FFFFFFFFFFFFFFFFFFFFFFFFFFFFFFFFFFFFFFFFFFFFFFFFFFFFFFFF0000FF
310
FFFFFFFFFFFFFFFFFFFFFFFFFFFFFFFFFFFFFFFFFFFFFFFFFF00000000FFFFFFFFFFFFFFFFFFFFFFFFFFFFFFFFFFFFFFFFFFFFFFFFFFFF0000FFFFFFFFFFFFFFFFFFFFFFFFFFFFFFFFFFFFFFFFFFFFFFFFFFFFFFFFFFFFFFFFFFFFFFFFFFFFFFFFFFFFFFFFFFFFFFFFFFFFFFFFFFFFFFFFFFFFFFFFFFFFFFFFFFFFFFFFFFFF
310
FFFFFFFFFFFFFFFFFFFFFFFFFFFFFFFFFFFFFFFFFFFFFFFFFFFFFFFFFFFFFFFFFFFFFFFFFFFFFFFFFFFFFFFFFFFFFFFFFFFFFFFFFFFFFFFF
102
{BLKREFS
331
49C
102
}
  0
BLOCK_RECORD
  5
47A
330
1
100
AcDbSymbolTableRecord
100
AcDbBlockTableRecord
  2
AI9-BLK5
340
0
310
2800000020000000200000000100080000000000000400000000000000000000000000000000000000000000000080000080000000808000800000008000800080800000C0C0C000C0DCC000F0CAA6000020400000206000002080000020A0000020C0000020E00000400000004020000040400000406000004080000040A0
310
000040C0000040E00000600000006020000060400000606000006080000060A0000060C0000060E00000800000008020000080400000806000008080000080A0000080C0000080E00000A0000000A0200000A0400000A0600000A0800000A0A00000A0C00000A0E00000C0000000C0200000C0400000C0600000C0800000C0
310
A00000C0C00000C0E00000E0000000E0200000E0400000E0600000E0800000E0A00000E0C00000E0E00040000000400020004000400040006000400080004000A0004000C0004000E00040200000402020004020400040206000402080004020A0004020C0004020E000404000004040200040404000404060004040800040
310
40A0004040C0004040E00040600000406020004060400040606000406080004060A0004060C0004060E00040800000408020004080400040806000408080004080A0004080C0004080E00040A0000040A0200040A0400040A0600040A0800040A0A00040A0C00040A0E00040C0000040C0200040C0400040C0600040C08000
310
40C0A00040C0C00040C0E00040E0000040E0200040E0400040E0600040E0800040E0A00040E0C00040E0E00080000000800020008000400080006000800080008000A0008000C0008000E00080200000802020008020400080206000802080008020A0008020C0008020E00080400000804020008040400080406000804080
310
008040A0008040C0008040E00080600000806020008060400080606000806080008060A0008060C0008060E00080800000808020008080400080806000808080008080A0008080C0008080E00080A0000080A0200080A0400080A0600080A0800080A0A00080A0C00080A0E00080C0000080C0200080C0400080C0600080C0
310
800080C0A00080C0C00080C0E00080E0000080E0200080E0400080E0600080E0800080E0A00080E0C00080E0E000C0000000C0002000C0004000C0006000C0008000C000A000C000C000C000E000C0200000C0202000C0204000C0206000C0208000C020A000C020C000C020E000C0400000C0402000C0404000C0406000C0
310
408000C040A000C040C000C040E000C0600000C0602000C0604000C0606000C0608000C060A000C060C000C060E000C0800000C0802000C0804000C0806000C0808000C080A000C080C000C080E000C0A00000C0A02000C0A04000C0A06000C0A08000C0A0A000C0A0C000C0A0E000C0C00000C0C02000C0C04000C0C06000
310
C0C08000C0C0A000F0FBFF00A4A0A000808080000000FF0000FF000000FFFF00FF000000FF00FF00FFFF0000FFFFFF00FFFFFFFFFFFFFFFFFFFFFFFFFFFFFFFFFFFFFFFFFFFFFFFFFFFFFFFFFFFFFFFFFFFFFFFFFFFFFFFF000000000000000000000000000000000000000000000000FFFFFFFFFFFFFFFF00FFFFFFFFFFFF
310
FFFFFFFFFFFFFFFFFFFFFFFFFFFFFFFFFFFFFFFFFFFFFFFFFF00FFFFFFFFFFFFFFFFFFFFFFFFFFFFFFFFFFFFFFFFFFFFFFFFFFFFFFFFFFFFFF00FFFFFFFFFFFFFFFFFFFFFFFFFFFFFFFFFFFFFFFFFFFFFFFFFFFFFFFFFFFFFF00FFFFFFFFFFFFFFFFFFFFFFFFFFFFFFFFFFFFFFFFFFFFFFFFFFFFFFFFFFFFFF00FFFFFFFFFF
310
FFFFFFFFFFFFFFFFFFFFFFFFFFFFFFFFFFFFFFFFFFFFFFFFFFFF00FFFFFFFFFFFFFFFFFFFFFFFFFFFFFFFFFFFFFFFFFFFFFFFFFFFFFFFFFFFFFF00FFFFFFFFFFFFFFFFFFFFFFFFFFFFFFFFFFFFFFFFFFFFFFFFFFFFFFFFFFFFFF00FFFFFFFFFFFFFFFFFFFFFFFFFFFFFFFFFFFFFFFFFFFFFFFFFFFFFFFFFFFFFF00FFFFFFFF
310
FFFFFFFFFFFFFFFFFFFFFFFFFFFFFFFFFFFFFFFFFFFFFFFFFFFFFF00FFFFFFFFFFFFFFFFFFFFFFFFFFFFFFFFFFFFFFFFFFFFFFFFFFFFFFFFFFFFFF00FFFFFFFFFFFFFFFFFFFFFFFFFFFFFFFFFFFFFFFFFFFFFFFFFFFFFFFFFFFFFF00FFFFFFFFFFFFFFFFFFFFFFFFFFFFFFFFFFFFFFFFFFFFFFFFFFFFFFFFFFFFFF00FFFFFF
310
FFFFFFFFFFFFFFFFFFFFFFFFFFFFFFFFFFFFFFFFFFFFFFFFFFFFFFFF00FFFFFFFFFFFFFFFFFFFFFFFFFFFFFFFFFFFFFFFFFFFFFFFFFFFFFFFFFFFFFF00FFFFFFFFFFFFFFFFFFFFFFFFFFFFFFFFFFFFFFFFFFFFFFFFFFFFFFFFFFFFFF00FFFFFFFFFFFFFFFFFFFFFFFFFFFFFFFFFFFFFFFFFFFFFFFFFFFFFFFFFFFFFF00FFFF
310
FFFFFFFFFFFFFFFFFFFFFFFFFFFFFFFFFFFFFFFFFFFFFFFFFFFFFFFFFF00FFFFFFFFFFFFFFFFFFFFFFFFFFFFFFFFFFFFFFFFFFFFFFFFFFFFFFFFFFFFFF00FFFFFFFFFFFFFFFFFFFFFFFFFFFFFFFFFFFFFFFFFFFFFFFFFFFFFFFFFFFFFF00FFFFFFFFFFFFFFFFFFFFFFFFFFFFFFFFFFFFFFFFFFFFFFFFFFFFFFFFFFFFFF00FF
310
FFFFFFFFFFFFFFFFFFFFFFFFFFFFFFFFFFFFFFFFFFFFFFFFFFFFFFFFFFFF00FFFFFFFFFFFFFFFFFFFFFFFFFFFFFFFFFFFFFFFFFFFFFFFFFFFFFFFFFFFFFF00FFFFFFFFFFFFFFFFFFFFFFFFFFFFFFFFFFFFFFFFFFFFFFFFFFFFFFFFFFFFFF00FFFFFFFFFFFFFFFFFFFFFFFFFFFFFFFFFFFFFFFFFFFFFFFFFFFFFFFFFFFFFF00
310
FFFFFFFFFFFFFFFFFFFFFFFFFFFFFFFFFFFFFFFFFFFFFFFFFFFFFFFFFFFFFF00FFFFFFFFFFFFFFFFFFFFFFFFFFFFFFFFFFFFFFFFFFFFFFFFFFFFFFFFFFFFFF00FFFFFFFFFFFFFFFFFFFFFFFFFFFFFFFFFFFFFFFFFFFFFFFFFFFFFFFFFFFFFF00FFFFFFFFFFFFFFFFFFFFFFFFFFFFFFFFFFFFFFFFFFFFFFFFFFFFFFFFFFFFFF
310
00FFFFFFFFFFFFFFFFFFFFFFFFFFFF000000000000000000FFFFFFFFFFFFFFFF00FFFFFFFFFFFFFFFFFFFFFFFFFFFF00FFFFFFFFFFFFFFFF
102
{BLKREFS
331
49D
102
}
  0
BLOCK_RECORD
  5
47F
330
1
100
AcDbSymbolTableRecord
100
AcDbBlockTableRecord
  2
AI9-BLK4
340
0
310
2800000020000000200000000100080000000000000400000000000000000000000000000000000000000000000080000080000000808000800000008000800080800000C0C0C000C0DCC000F0CAA6000020400000206000002080000020A0000020C0000020E00000400000004020000040400000406000004080000040A0
310
000040C0000040E00000600000006020000060400000606000006080000060A0000060C0000060E00000800000008020000080400000806000008080000080A0000080C0000080E00000A0000000A0200000A0400000A0600000A0800000A0A00000A0C00000A0E00000C0000000C0200000C0400000C0600000C0800000C0
310
A00000C0C00000C0E00000E0000000E0200000E0400000E0600000E0800000E0A00000E0C00000E0E00040000000400020004000400040006000400080004000A0004000C0004000E00040200000402020004020400040206000402080004020A0004020C0004020E000404000004040200040404000404060004040800040
310
40A0004040C0004040E00040600000406020004060400040606000406080004060A0004060C0004060E00040800000408020004080400040806000408080004080A0004080C0004080E00040A0000040A0200040A0400040A0600040A0800040A0A00040A0C00040A0E00040C0000040C0200040C0400040C0600040C08000
310
40C0A00040C0C00040C0E00040E0000040E0200040E0400040E0600040E0800040E0A00040E0C00040E0E00080000000800020008000400080006000800080008000A0008000C0008000E00080200000802020008020400080206000802080008020A0008020C0008020E00080400000804020008040400080406000804080
310
008040A0008040C0008040E00080600000806020008060400080606000806080008060A0008060C0008060E00080800000808020008080400080806000808080008080A0008080C0008080E00080A0000080A0200080A0400080A0600080A0800080A0A00080A0C00080A0E00080C0000080C0200080C0400080C0600080C0
310
800080C0A00080C0C00080C0E00080E0000080E0200080E0400080E0600080E0800080E0A00080E0C00080E0E000C0000000C0002000C0004000C0006000C0008000C000A000C000C000C000E000C0200000C0202000C0204000C0206000C0208000C020A000C020C000C020E000C0400000C0402000C0404000C0406000C0
310
408000C040A000C040C000C040E000C0600000C0602000C0604000C0606000C0608000C060A000C060C000C060E000C0800000C0802000C0804000C0806000C0808000C080A000C080C000C080E000C0A00000C0A02000C0A04000C0A06000C0A08000C0A0A000C0A0C000C0A0E000C0C00000C0C02000C0C04000C0C06000
310
C0C08000C0C0A000F0FBFF00A4A0A000808080000000FF0000FF000000FFFF00FF000000FF00FF00FFFF0000FFFFFF00FFFFFFFFFFFFFFFFFFFFFFFFFFFFFFFFFFFFFFFFFFFFFFFFFFFFFFFFFFFFFFFFFFFFFFFFFFFFFFFFFFFFFFFFFFFF00000000FFFFFFFFFFFFFFFFFFFFFF000000FFFFFFFFFFFFFFFFFFFFFFFFFFFF00
310
FFFF00FFFFFFFFFFFFFFFFFFFFFF00FFFFFFFFFFFFFFFFFFFFFFFFFFFFFFFF00FFFF00FFFFFFFFFFFFFFFFFFFFFF00FFFFFFFFFFFFFFFFFFFFFFFFFFFFFFFF00FFFF00FFFFFFFFFFFFFFFFFFFFFF00FFFFFFFFFFFFFFFFFFFFFFFFFFFFFFFF00FFFF00FFFFFFFFFFFFFFFFFFFFFF00FFFFFFFFFFFFFFFFFFFFFFFFFFFFFFFF
310
00FFFF00FFFFFFFFFFFFFFFFFFFFFF00FFFFFFFFFFFFFFFFFFFFFFFFFFFFFFFF00FFFF00FFFFFFFFFFFFFFFFFFFFFF00FFFFFFFFFFFFFFFFFFFFFFFFFFFFFFFF00FFFF00FFFFFFFFFFFFFFFFFFFFFF00FFFFFFFFFFFFFFFFFFFFFFFFFFFFFFFF00FFFF00FFFFFFFFFFFFFFFFFFFFFF00FFFFFFFFFFFFFFFFFFFFFFFFFFFFFF
310
FF00FFFF00FFFFFFFFFFFFFFFFFFFFFF00FFFFFFFFFFFFFFFFFFFFFFFFFFFFFFFF00FFFF00FFFFFFFFFFFFFFFFFFFFFF00FFFFFFFFFFFFFFFFFFFFFFFFFFFFFFFF00FFFF00FFFFFFFFFFFFFFFFFFFFFF00FFFFFFFFFFFFFFFFFFFFFFFFFFFFFFFF00FFFF00FFFFFFFFFFFFFFFFFFFFFF00FFFFFFFFFFFFFFFFFFFFFFFFFFFF
310
FFFF00FFFF00FFFFFFFFFFFFFFFFFFFFFF00FFFFFFFFFFFFFFFFFFFFFFFFFFFFFFFF00FFFF00FFFFFFFFFFFFFFFFFFFFFF00FFFFFFFFFFFFFFFFFFFFFFFFFFFFFFFF00FFFF00FFFFFFFFFFFFFFFFFFFFFF00FFFFFFFFFFFFFFFFFFFFFFFFFFFFFFFF00FFFF00FFFFFFFFFFFFFFFFFFFF00FFFFFFFFFFFFFFFFFFFFFFFFFFFF
310
FFFFFF00FFFF00FFFFFFFFFFFFFFFFFFFF00FFFFFFFFFFFFFFFFFFFFFFFFFFFFFFFFFF00FFFF00FFFFFFFFFFFFFFFFFFFF00FFFFFFFFFFFFFFFFFFFFFFFFFFFFFFFFFF00FFFF00FFFFFFFFFFFFFFFFFFFF00FFFFFFFFFFFFFFFFFFFFFFFFFFFFFFFFFF00FFFF00FFFFFFFFFFFFFFFFFFFF00FFFFFFFFFFFFFFFFFFFFFFFFFF
310
FFFFFFFF00FFFF00FFFFFFFFFFFFFFFFFF0000FFFF00FFFFFFFFFFFFFFFFFFFFFFFFFFFF00FFFF00FFFFFFFFFFFFFFFF0000FFFFFF00FFFFFFFFFFFFFFFFFFFFFFFFFFFF00FFFF00000000000000000000FFFFFFFF00FFFFFFFFFFFFFFFFFFFFFFFFFFFF00FFFFFFFFFFFFFFFFFFFFFFFFFFFFFF00FFFFFFFFFFFFFFFFFFFF
310
FFFFFFFFFF00FFFFFFFFFFFFFFFFFFFFFFFFFFFF00FFFFFFFFFFFFFFFFFFFFFFFFFFFFFFFF00FFFFFFFFFFFFFFFFFFFFFFFFFFFF00FFFFFFFFFFFFFFFFFFFFFFFFFFFFFFFF00FFFFFFFFFFFFFFFFFFFFFFFFFFFFFF00FFFFFFFFFFFFFFFFFFFFFFFFFFFFFF00FFFFFFFFFFFFFFFFFFFFFFFFFFFFFF00FFFFFFFFFFFFFFFFFF
310
FFFFFFFFFFFF00FFFF00000000000000000000FFFFFFFF00FFFFFFFFFFFFFFFFFFFFFFFFFFFF00FFFF00FFFFFFFFFFFFFFFFFF0000FFFF00
102
{BLKREFS
331
49E
102
}
  0
BLOCK_RECORD
  5
484
330
1
100
AcDbSymbolTableRecord
100
AcDbBlockTableRecord
  2
AI9-BLK3
340
0
310
2800000020000000200000000100080000000000000400000000000000000000000000000000000000000000000080000080000000808000800000008000800080800000C0C0C000C0DCC000F0CAA6000020400000206000002080000020A0000020C0000020E00000400000004020000040400000406000004080000040A0
310
000040C0000040E00000600000006020000060400000606000006080000060A0000060C0000060E00000800000008020000080400000806000008080000080A0000080C0000080E00000A0000000A0200000A0400000A0600000A0800000A0A00000A0C00000A0E00000C0000000C0200000C0400000C0600000C0800000C0
310
A00000C0C00000C0E00000E0000000E0200000E0400000E0600000E0800000E0A00000E0C00000E0E00040000000400020004000400040006000400080004000A0004000C0004000E00040200000402020004020400040206000402080004020A0004020C0004020E000404000004040200040404000404060004040800040
310
40A0004040C0004040E00040600000406020004060400040606000406080004060A0004060C0004060E00040800000408020004080400040806000408080004080A0004080C0004080E00040A0000040A0200040A0400040A0600040A0800040A0A00040A0C00040A0E00040C0000040C0200040C0400040C0600040C08000
310
40C0A00040C0C00040C0E00040E0000040E0200040E0400040E0600040E0800040E0A00040E0C00040E0E00080000000800020008000400080006000800080008000A0008000C0008000E00080200000802020008020400080206000802080008020A0008020C0008020E00080400000804020008040400080406000804080
310
008040A0008040C0008040E00080600000806020008060400080606000806080008060A0008060C0008060E00080800000808020008080400080806000808080008080A0008080C0008080E00080A0000080A0200080A0400080A0600080A0800080A0A00080A0C00080A0E00080C0000080C0200080C0400080C0600080C0
310
800080C0A00080C0C00080C0E00080E0000080E0200080E0400080E0600080E0800080E0A00080E0C00080E0E000C0000000C0002000C0004000C0006000C0008000C000A000C000C000C000E000C0200000C0202000C0204000C0206000C0208000C020A000C020C000C020E000C0400000C0402000C0404000C0406000C0
310
408000C040A000C040C000C040E000C0600000C0602000C0604000C0606000C0608000C060A000C060C000C060E000C0800000C0802000C0804000C0806000C0808000C080A000C080C000C080E000C0A00000C0A02000C0A04000C0A06000C0A08000C0A0A000C0A0C000C0A0E000C0C00000C0C02000C0C04000C0C06000
310
C0C08000C0C0A000F0FBFF00A4A0A000808080000000FF0000FF000000FFFF00FF000000FF00FF00FFFF0000FFFFFF00FFFFFFFFFFFFFFFFFFFFFFFFFFFFFFFFFFFFFFFFFFFFFFFFFFFFFFFFFFFFFFFFFFFFFFFFFFFFFFFFFFFFFFFFFFFFFF0000FFFFFFFFFFFFFFFFFFFFFFFFFFFFFFFFFFFFFFFFFFFFFFFFFFFFFFFFFFFF
310
0000FFFFFFFFFFFFFFFFFFFFFFFFFFFFFFFFFFFFFFFFFFFFFFFFFFFFFFFFFFFF0000FFFFFFFFFFFFFFFFFFFFFFFFFFFFFFFFFFFFFFFFFFFFFFFFFFFFFFFFFFFF0000FFFFFFFFFFFFFFFFFFFFFFFFFFFFFFFFFFFFFFFFFFFFFFFFFFFFFFFFFFFF0000FFFFFFFFFFFFFFFFFFFFFFFFFFFFFFFFFFFFFFFFFFFFFFFFFFFFFFFFFF
310
FF0000FFFFFFFFFFFFFFFFFFFFFFFFFFFFFFFFFFFFFFFFFFFFFFFFFFFFFFFFFFFF0000FFFFFFFFFFFFFFFFFFFFFFFFFFFFFFFFFFFFFFFFFFFFFFFFFFFFFFFFFFFF0000FFFFFFFFFFFFFFFFFFFFFFFFFFFFFFFFFFFFFFFFFFFFFFFFFFFFFFFFFFFF0000FFFFFFFFFFFFFFFFFFFFFFFFFFFFFFFFFFFFFFFFFFFFFFFFFFFFFFFF
310
FFFF0000FFFFFFFFFFFFFFFFFFFFFFFFFFFFFFFFFFFFFFFFFFFFFFFFFFFFFFFFFFFF0000FFFFFFFFFFFFFFFFFFFFFFFFFFFFFFFFFFFFFFFFFFFFFFFFFFFFFFFFFFFF0000FFFFFFFFFFFFFFFFFFFFFFFFFFFFFFFFFFFFFFFFFFFFFFFFFFFFFFFFFFFF0000FFFFFFFFFFFFFFFFFFFFFFFFFFFFFFFFFFFFFFFFFFFFFFFFFFFFFF
310
FFFFFF0000FFFFFFFFFFFFFFFFFFFFFFFFFFFFFFFFFFFFFFFFFFFFFFFFFFFFFFFFFFFF0000FFFFFFFFFFFFFFFFFFFFFFFFFFFFFFFFFFFFFFFFFFFFFFFFFFFFFFFFFFFF0000FFFFFFFFFFFFFFFFFFFFFFFFFFFFFFFFFFFFFFFFFFFFFFFFFFFFFFFFFFFF0000FFFFFFFFFFFFFFFFFFFFFFFFFFFFFFFFFFFFFFFFFFFFFFFFFFFF
310
FFFFFFFF0000FFFFFFFFFFFFFFFFFFFFFFFFFFFFFFFFFFFFFFFFFFFFFFFFFFFFFFFFFFFF0000FFFFFFFFFFFFFFFFFFFFFFFFFFFFFFFFFFFFFFFFFFFFFFFFFFFFFFFFFFFF0000FFFFFFFFFFFFFFFFFFFFFFFFFFFFFFFFFFFFFFFFFFFFFFFFFFFFFFFFFFFF0000FFFFFFFFFFFFFFFFFFFFFFFFFFFFFFFFFFFFFFFFFFFFFFFFFF
310
FFFFFFFFFF0000FFFFFFFFFFFFFFFFFFFFFFFFFFFFFFFFFFFFFFFFFFFFFFFFFFFFFFFFFFFF0000FFFFFFFFFFFFFFFFFFFFFFFFFFFFFFFFFFFFFFFFFFFFFFFFFFFFFFFFFFFF0000FFFFFFFFFFFFFFFFFFFFFFFFFFFFFFFFFFFFFFFFFFFFFFFFFFFFFFFFFFFF0000FFFFFFFFFFFFFFFFFFFFFFFFFFFFFFFFFFFFFFFFFFFFFFFF
310
FFFFFFFFFFFF0000FFFFFFFFFFFFFFFFFFFFFFFFFFFFFFFFFFFFFFFFFFFFFFFFFFFFFFFFFFFF0000FFFFFFFFFFFFFFFFFFFFFFFFFFFFFFFFFFFFFFFFFFFFFFFFFFFFFFFFFFFF0000FFFFFFFFFFFFFFFFFFFFFFFFFFFFFFFFFFFFFFFFFFFFFFFFFFFFFFFFFFFF0000FFFFFFFFFFFFFFFFFFFFFFFFFFFFFFFFFFFFFFFFFFFFFF
310
FFFFFFFFFFFFFF0000FFFFFFFFFFFFFFFFFFFFFFFFFFFFFFFFFFFFFFFFFFFFFFFFFFFFFFFFFFFFFFFFFFFFFFFFFFFFFFFFFFFFFFFFFFFFFF
102
{BLKREFS
331
49F
102
}
  0
BLOCK_RECORD
  5
489
330
1
100
AcDbSymbolTableRecord
100
AcDbBlockTableRecord
  2
AI9-BLK2
340
0
310
2800000020000000200000000100080000000000000400000000000000000000000000000000000000000000000080000080000000808000800000008000800080800000C0C0C000C0DCC000F0CAA6000020400000206000002080000020A0000020C0000020E00000400000004020000040400000406000004080000040A0
310
000040C0000040E00000600000006020000060400000606000006080000060A0000060C0000060E00000800000008020000080400000806000008080000080A0000080C0000080E00000A0000000A0200000A0400000A0600000A0800000A0A00000A0C00000A0E00000C0000000C0200000C0400000C0600000C0800000C0
310
A00000C0C00000C0E00000E0000000E0200000E0400000E0600000E0800000E0A00000E0C00000E0E00040000000400020004000400040006000400080004000A0004000C0004000E00040200000402020004020400040206000402080004020A0004020C0004020E000404000004040200040404000404060004040800040
310
40A0004040C0004040E00040600000406020004060400040606000406080004060A0004060C0004060E00040800000408020004080400040806000408080004080A0004080C0004080E00040A0000040A0200040A0400040A0600040A0800040A0A00040A0C00040A0E00040C0000040C0200040C0400040C0600040C08000
310
40C0A00040C0C00040C0E00040E0000040E0200040E0400040E0600040E0800040E0A00040E0C00040E0E00080000000800020008000400080006000800080008000A0008000C0008000E00080200000802020008020400080206000802080008020A0008020C0008020E00080400000804020008040400080406000804080
310
008040A0008040C0008040E00080600000806020008060400080606000806080008060A0008060C0008060E00080800000808020008080400080806000808080008080A0008080C0008080E00080A0000080A0200080A0400080A0600080A0800080A0A00080A0C00080A0E00080C0000080C0200080C0400080C0600080C0
310
800080C0A00080C0C00080C0E00080E0000080E0200080E0400080E0600080E0800080E0A00080E0C00080E0E000C0000000C0002000C0004000C0006000C0008000C000A000C000C000C000E000C0200000C0202000C0204000C0206000C0208000C020A000C020C000C020E000C0400000C0402000C0404000C0406000C0
310
408000C040A000C040C000C040E000C0600000C0602000C0604000C0606000C0608000C060A000C060C000C060E000C0800000C0802000C0804000C0806000C0808000C080A000C080C000C080E000C0A00000C0A02000C0A04000C0A06000C0A08000C0A0A000C0A0C000C0A0E000C0C00000C0C02000C0C04000C0C06000
310
C0C08000C0C0A000F0FBFF00A4A0A000808080000000FF0000FF000000FFFF00FF000000FF00FF00FFFF0000FFFFFF00FFFFFFFFFFFFFFFFFFFFFFFFFFFFFFFFFFFFFFFFFFFFFFFFFFFFFFFFFFFFFFFFFFFFFFFFFFFFFFFFFFFFFFFFFFFFFF0000FFFFFFFFFFFFFFFFFFFFFFFFFFFFFFFFFFFFFFFFFFFFFFFFFFFFFFFFFFFF
310
0000FFFFFFFFFFFFFFFFFFFFFFFFFFFFFFFFFFFFFFFFFFFFFFFFFFFFFFFFFFFF0000FFFFFFFFFFFFFFFFFFFFFFFFFFFFFFFFFFFFFFFFFFFFFFFFFFFFFFFFFF00FFFF00FFFFFFFFFFFFFFFFFFFFFFFFFFFFFFFFFFFFFFFFFFFFFFFFFFFFFFFF00FFFF00FFFFFFFFFFFFFFFFFFFFFFFFFFFFFFFFFFFFFFFFFFFFFFFFFFFFFFFF
310
00FF0000FFFFFFFFFFFFFFFFFFFFFFFFFFFFFFFFFFFFFFFFFFFFFFFFFFFFFFFF00FF0000FFFFFFFFFFFFFFFFFFFFFFFFFFFFFFFFFFFFFFFFFFFFFFFFFFFFFFFF00FF0000FFFFFFFFFFFFFFFFFFFFFFFFFFFFFFFFFFFFFFFFFFFFFFFFFFFFFFFF00000000FFFFFFFFFFFFFFFFFFFFFFFFFFFFFFFFFFFFFFFFFFFFFFFFFFFFFF
310
00FF00FF0000FFFFFFFFFFFFFFFFFFFFFFFFFFFFFFFFFFFFFFFFFFFFFFFFFFFF00FF00FF0000FFFFFFFFFFFFFFFFFFFFFFFFFFFFFFFFFFFFFFFFFFFFFFFFFFFF00FF00FF0000FFFFFFFFFFFFFFFFFFFFFFFFFFFFFFFFFFFFFFFFFFFFFFFFFFFF00FF00FF0000FFFFFFFFFFFFFFFFFFFFFFFFFFFFFFFFFFFFFFFFFFFFFFFFFF
310
FF00FF00FF0000FFFFFFFFFFFFFFFFFFFFFFFFFFFFFFFFFFFFFFFFFFFFFFFFFFFF0000FFFF0000FFFFFFFFFFFFFFFFFFFFFFFFFFFFFFFFFFFFFFFFFFFFFFFFFF00FF00FFFF00FF00FFFFFFFFFFFFFFFFFFFFFFFFFFFFFFFFFFFFFFFFFFFFFFFF00FF00FFFF00FF00FFFFFFFFFFFFFFFFFFFFFFFFFFFFFFFFFFFFFFFFFFFFFF
310
FF00FF00FFFFFF0000FFFFFFFFFFFFFFFFFFFFFFFFFFFFFFFFFFFFFFFFFFFFFFFF00FF00FFFFFF0000FFFFFFFFFFFFFFFFFFFFFFFFFFFFFFFFFFFFFFFFFFFFFFFF00FF00FFFFFF0000FFFFFFFFFFFFFFFFFFFFFFFFFFFFFFFFFFFFFFFFFFFFFFFF0000FFFFFFFF0000FFFFFFFFFFFFFFFFFFFFFFFFFFFFFFFFFFFFFFFFFFFF
310
FF00FF00FFFFFFFF00FF00FFFFFFFFFFFFFFFFFFFFFFFFFFFFFFFFFFFFFFFFFFFF00FF00FFFFFFFF00FF00FFFFFFFFFFFFFFFFFFFFFFFFFFFFFFFFFFFFFFFFFFFF00FF00FFFFFFFF00FF00FFFFFFFFFFFFFFFFFFFFFFFFFFFFFFFFFFFFFFFFFFFF00FF00FFFFFFFF00FF00FFFFFFFFFFFFFFFFFFFFFFFFFFFFFFFFFFFFFFFF
310
FFFF00FF00FFFFFFFFFF0000FFFFFFFFFFFFFFFFFFFFFFFFFFFFFFFFFFFFFFFFFFFF0000FFFFFFFFFFFF0000FFFFFFFFFFFFFFFFFFFFFFFFFFFFFFFFFFFFFFFFFF00FF00FFFFFFFFFFFF00FF00FFFFFFFFFFFFFFFFFFFFFFFFFFFFFFFFFFFFFFFF00FF00FFFFFFFFFFFF00FF00FFFFFFFFFFFFFFFFFFFFFFFFFFFFFFFFFFFF
310
FFFF000000FFFFFFFFFFFF000000FFFFFFFFFFFFFFFFFFFFFFFFFFFFFFFFFFFFFFFFFFFFFFFFFFFFFFFFFFFFFFFFFFFFFFFFFFFFFFFFFFFF
102
{BLKREFS
331
4A0
102
}
  0
BLOCK_RECORD
  5
48E
330
1
100
AcDbSymbolTableRecord
100
AcDbBlockTableRecord
  2
AI9-BLK1
340
0
310
2800000020000000200000000100080000000000000400000000000000000000000000000000000000000000000080000080000000808000800000008000800080800000C0C0C000C0DCC000F0CAA6000020400000206000002080000020A0000020C0000020E00000400000004020000040400000406000004080000040A0
310
000040C0000040E00000600000006020000060400000606000006080000060A0000060C0000060E00000800000008020000080400000806000008080000080A0000080C0000080E00000A0000000A0200000A0400000A0600000A0800000A0A00000A0C00000A0E00000C0000000C0200000C0400000C0600000C0800000C0
310
A00000C0C00000C0E00000E0000000E0200000E0400000E0600000E0800000E0A00000E0C00000E0E00040000000400020004000400040006000400080004000A0004000C0004000E00040200000402020004020400040206000402080004020A0004020C0004020E000404000004040200040404000404060004040800040
310
40A0004040C0004040E00040600000406020004060400040606000406080004060A0004060C0004060E00040800000408020004080400040806000408080004080A0004080C0004080E00040A0000040A0200040A0400040A0600040A0800040A0A00040A0C00040A0E00040C0000040C0200040C0400040C0600040C08000
310
40C0A00040C0C00040C0E00040E0000040E0200040E0400040E0600040E0800040E0A00040E0C00040E0E00080000000800020008000400080006000800080008000A0008000C0008000E00080200000802020008020400080206000802080008020A0008020C0008020E00080400000804020008040400080406000804080
310
008040A0008040C0008040E00080600000806020008060400080606000806080008060A0008060C0008060E00080800000808020008080400080806000808080008080A0008080C0008080E00080A0000080A0200080A0400080A0600080A0800080A0A00080A0C00080A0E00080C0000080C0200080C0400080C0600080C0
310
800080C0A00080C0C00080C0E00080E0000080E0200080E0400080E0600080E0800080E0A00080E0C00080E0E000C0000000C0002000C0004000C0006000C0008000C000A000C000C000C000E000C0200000C0202000C0204000C0206000C0208000C020A000C020C000C020E000C0400000C0402000C0404000C0406000C0
310
408000C040A000C040C000C040E000C0600000C0602000C0604000C0606000C0608000C060A000C060C000C060E000C0800000C0802000C0804000C0806000C0808000C080A000C080C000C080E000C0A00000C0A02000C0A04000C0A06000C0A08000C0A0A000C0A0C000C0A0E000C0C00000C0C02000C0C04000C0C06000
310
C0C08000C0C0A000F0FBFF00A4A0A000808080000000FF0000FF000000FFFF00FF000000FF00FF00FFFF0000FFFFFF00FFFFFFFFFFFFFFFFFFFFFFFFFFFFFFFFFFFFFFFFFFFFFFFFFFFFFFFFFFFFFFFFFFFFFFFFFFFFFFFFFFFFFF00000000000000000000FFFFFFFFFFFFFFFFFFFFFFFFFFFFFFFFFFFFFFFFFFFF00FFFFFF
310
FFFFFFFFFF00FFFFFFFFFFFFFFFFFFFFFFFFFFFFFFFFFFFFFFFFFFFF00FFFFFFFFFFFFFFFF00FFFFFFFFFFFFFFFFFFFFFFFFFFFFFFFFFFFFFFFFFFFF00FFFFFFFFFFFFFFFF00FFFFFFFFFFFFFFFFFFFFFFFFFFFFFFFFFFFFFFFFFFFF00FF0000000000000000FFFFFFFFFFFFFFFFFFFFFFFFFFFFFFFFFFFFFFFFFFFF00FF00
310
FFFFFFFFFFFFFFFFFFFFFFFFFFFFFFFFFFFFFFFFFFFFFFFFFFFFFFFFFF00FF00FFFFFFFFFFFFFFFFFFFFFFFFFFFFFFFFFFFFFFFFFFFFFFFFFFFFFFFFFF00FF00FFFFFFFFFFFFFFFFFFFFFFFFFFFFFFFFFFFFFFFFFFFFFFFFFFFFFFFFFF00FF00FFFFFFFFFFFFFFFFFFFFFFFFFFFFFFFFFFFFFFFFFFFFFFFFFFFFFFFFFF00FF
310
00FFFFFFFFFFFFFFFFFFFFFFFFFFFFFFFFFFFFFFFFFFFFFFFFFFFFFFFFFF00FF00FFFFFFFFFFFFFFFFFFFFFFFFFFFFFFFFFFFFFFFFFFFFFFFFFFFFFFFFFF00FF00FFFFFFFFFFFFFFFFFFFFFFFFFFFFFFFFFFFFFFFFFFFFFFFFFFFFFFFFFF00FF00FFFFFFFFFFFFFFFFFFFFFFFFFFFFFFFFFFFFFFFFFFFFFFFFFFFFFFFFFF00
310
FF00000000000000FFFFFFFFFFFFFFFFFFFFFFFFFFFFFFFFFFFFFFFFFFFFFF00FFFFFFFFFFFFFF00FFFFFFFFFFFFFFFFFFFFFFFFFFFFFFFFFFFFFFFFFFFFFF00FFFFFFFFFFFFFF00FFFFFFFFFFFFFFFFFFFFFFFFFFFFFFFFFFFFFFFFFFFFFF00FFFFFFFFFFFFFF00FFFFFFFFFFFFFFFFFFFFFFFFFFFFFFFFFFFFFFFFFFFFFF
310
00FF00000000000000FFFFFFFFFFFFFFFFFFFFFFFFFFFFFFFFFFFFFFFFFFFFFF00FF00FFFFFFFFFFFFFFFFFFFFFFFFFFFFFFFFFFFFFFFFFFFFFFFFFFFFFFFFFF00FF00FFFFFFFFFFFFFFFFFFFFFFFFFFFFFFFFFFFFFFFFFFFFFFFFFFFFFFFFFF00FF00FFFFFFFFFFFFFFFFFFFFFFFFFFFFFFFFFFFFFFFFFFFFFFFFFFFFFFFF
310
FF00FF00FFFFFFFFFFFFFFFFFFFFFFFFFFFFFFFFFFFFFFFFFFFFFFFFFFFFFFFFFF00FF00FFFFFFFFFFFFFFFFFFFFFFFFFFFFFFFFFFFFFFFFFFFFFFFFFFFFFFFFFF00FF00FFFFFFFFFFFFFFFFFFFFFFFFFFFFFFFFFFFFFFFFFFFFFFFFFFFFFFFFFF00FF00FFFFFFFFFFFFFFFFFFFFFFFFFFFFFFFFFFFFFFFFFFFFFFFFFFFFFF
310
FFFF00FF0000000000000000FFFFFFFFFFFFFFFFFFFFFFFFFFFFFFFFFFFFFFFFFFFF00FFFFFFFFFFFFFFFF00FFFFFFFFFFFFFFFFFFFFFFFFFFFFFFFFFFFFFFFFFFFF00FFFFFFFFFFFFFFFF00FFFFFFFFFFFFFFFFFFFFFFFFFFFFFFFFFFFFFFFFFFFF00FFFFFFFFFFFFFFFF00FFFFFFFFFFFFFFFFFFFFFFFFFFFFFFFFFFFFFF
310
FFFFFF00000000000000000000FFFFFFFFFFFFFFFFFFFFFFFFFFFFFFFFFFFFFFFFFFFFFFFFFFFFFFFFFFFFFFFFFFFFFFFFFFFFFFFFFFFFFF
102
{BLKREFS
331
4A1
102
}
  0
BLOCK_RECORD
  5
493
330
1
100
AcDbSymbolTableRecord
100
AcDbBlockTableRecord
  2
HD_LLC_logo_OT5
340
0
310
2800000020000000200000000100080000000000000400000000000000000000000000000000000000000000000080000080000000808000800000008000800080800000C0C0C000C0DCC000F0CAA6000020400000206000002080000020A0000020C0000020E00000400000004020000040400000406000004080000040A0
310
000040C0000040E00000600000006020000060400000606000006080000060A0000060C0000060E00000800000008020000080400000806000008080000080A0000080C0000080E00000A0000000A0200000A0400000A0600000A0800000A0A00000A0C00000A0E00000C0000000C0200000C0400000C0600000C0800000C0
310
A00000C0C00000C0E00000E0000000E0200000E0400000E0600000E0800000E0A00000E0C00000E0E00040000000400020004000400040006000400080004000A0004000C0004000E00040200000402020004020400040206000402080004020A0004020C0004020E000404000004040200040404000404060004040800040
310
40A0004040C0004040E00040600000406020004060400040606000406080004060A0004060C0004060E00040800000408020004080400040806000408080004080A0004080C0004080E00040A0000040A0200040A0400040A0600040A0800040A0A00040A0C00040A0E00040C0000040C0200040C0400040C0600040C08000
310
40C0A00040C0C00040C0E00040E0000040E0200040E0400040E0600040E0800040E0A00040E0C00040E0E00080000000800020008000400080006000800080008000A0008000C0008000E00080200000802020008020400080206000802080008020A0008020C0008020E00080400000804020008040400080406000804080
310
008040A0008040C0008040E00080600000806020008060400080606000806080008060A0008060C0008060E00080800000808020008080400080806000808080008080A0008080C0008080E00080A0000080A0200080A0400080A0600080A0800080A0A00080A0C00080A0E00080C0000080C0200080C0400080C0600080C0
310
800080C0A00080C0C00080C0E00080E0000080E0200080E0400080E0600080E0800080E0A00080E0C00080E0E000C0000000C0002000C0004000C0006000C0008000C000A000C000C000C000E000C0200000C0202000C0204000C0206000C0208000C020A000C020C000C020E000C0400000C0402000C0404000C0406000C0
310
408000C040A000C040C000C040E000C0600000C0602000C0604000C0606000C0608000C060A000C060C000C060E000C0800000C0802000C0804000C0806000C0808000C080A000C080C000C080E000C0A00000C0A02000C0A04000C0A06000C0A08000C0A0A000C0A0C000C0A0E000C0C00000C0C02000C0C04000C0C06000
310
C0C08000C0C0A000F0FBFF00A4A0A000808080000000FF0000FF000000FFFF00FF000000FF00FF00FFFF0000FFFFFF00FFFFFFFFFFFFFFFFFFFFFFFFFFFFFFFFFFFFFFFFFFFFFFFFFFFFFFFFFFFFFFFFFFFFFFFFFFFFFFFFFFFFFFFFFFFFFFFFFFFFFFFFFFFFFFFFFFFFFFFFFFFFFFFFFFFFFFFFFFFFFFFFFFFFFFFFFFFFFF
310
FFFFFFFFFFFFFFFFFFFFFFFFFFFFFFFFFFFFFFFFFFFFFFFFFFFFFFFFFFFFFFFFFFFFFFFFFFFFFFFFFFFFFFFFFFFFFFFFFFFFFFFFFFFFFFFFFFFFFFFFFFFFFFFFFFFFFFFFFFFFFFFFFFFFFFFFFFFFFFFFFFFFFFFFFFFFFFFFFFFFFFFFFFFFFFFFFFFFFFFFFFFFFFFFFFFFFFFFFFFFFFFFFFFFFFFFFFFFFFFFFFFFFFFFFFFFFF
310
FFFFFFFFFFFFFFFFFFFFFFFFFFFFFFFFFFFFFFFFFFFFFFFFFFFFFFFFFFFFFFFFFFFFFFFFFFFFFFFFFFFFFFFFFFFFFFFFFFFFFFFFFFFFFFFFFFFFFFFFFFFFFFFFFFFFFFFFFFFFFFFFFFFFFFFFFFFFFFFFFFFFFFFFFFFFFFFFFFFFFFFFFFFFFFFFFFFFFFFFFFFFFFFFFFFFFFFFFFFFFFFFFFFFFFFFFFFFFFFFFFFFFFFFFFFFFF
310
FFFFFFFFFFFFFFFFFFFFFFFFFFFFFFFFFFFFFFFFFFFFFFFFFFFFFFFFFFFFFFFFFFFFFFFFFFFFFFFFFFFFFFFFFFFFFFFFFFFFFFFF0000000000000000000000000000000000000000000000000000000000FFFFFF0000000000000000000000000000000000FFFFFFFFFFFFFFFFFFFF0000FFFFFF0000000000000000000000
310
00000000000000FFFFFFFFFFFFFFFFFFFF0000FFFF000000000000000000000000000000000000FFFFFF00000000FFFFFF0000FFFF00FFFFFFFFFFFF00FFFFFF00FFFFFFFFFF00FFFFFF0000000000FFFF0000FFFF00FFFFFFFFFFFF00FFFFFF00FFFFFFFFFF00FFFFFF00FFFF0000FFFF0000FFFF00FFFFFFFFFFFF00FFFF
310
00FFFFFFFFFFFF00FFFFFF00FFFF0000FFFF0000FFFF0000000000FFFF00000000FFFFFF00000000FFFFFF00000000FFFFFF0000FFFFFFFFFFFF00FFFFFFFFFFFFFFFFFF00FFFFFFFFFFFFFFFFFFFFFFFFFF0000FFFFFFFFFFFF00FFFFFFFFFFFFFFFFFF00FFFFFFFFFFFFFFFFFFFFFFFFFF0000FFFFFFFFFFFF00FFFFFFFF
310
FFFFFFFFFF00FFFFFFFFFFFFFFFFFFFFFFFF0000FFFFFF0000000000FFFF00000000FFFFFF0000000000000000000000000000FFFFFFFF00FFFFFFFFFFFF00FFFF00FFFFFFFFFFFF00FFFFFFFFFFFFFFFFFFFFFFFFFFFF00FFFFFFFFFFFF00FFFFFF00FFFFFFFFFF00FFFFFFFFFFFFFFFFFFFFFFFFFFFF0000000000000000
310
FFFFFF00000000000000FFFFFFFFFFFFFFFFFFFFFFFFFFFFFFFFFFFFFFFFFFFFFFFFFFFFFFFFFFFFFFFFFFFFFFFFFFFFFFFFFFFFFFFFFFFFFFFFFFFFFFFFFFFFFFFFFFFFFFFFFFFFFFFFFFFFFFFFFFFFFFFFFFFFFFFFFFFFFFFFFFFFFFFFFFFFFFFFFFFFFFFFFFFFFFFFFFFFFFFFFFFFFFFFFFFFFFFFFFFFFFFFFFFFFFFFFF
310
FFFFFFFFFFFFFFFFFFFFFFFFFFFFFFFFFFFFFFFFFFFFFFFFFFFFFFFFFFFFFFFFFFFFFFFFFFFFFFFFFFFFFFFFFFFFFFFFFFFFFFFFFFFFFFFF
102
{BLKREFS
331
4B9
102
}
  0
BLOCK_RECORD
  5
4B8
330
1
100
AcDbSymbolTableRecord
100
AcDbBlockTableRecord
  2
HD logo-new
340
0
310
2800000020000000200000000100080000000000000400000000000000000000000000000000000000000000000080000080000000808000800000008000800080800000C0C0C000C0DCC000F0CAA6000020400000206000002080000020A0000020C0000020E00000400000004020000040400000406000004080000040A0
310
000040C0000040E00000600000006020000060400000606000006080000060A0000060C0000060E00000800000008020000080400000806000008080000080A0000080C0000080E00000A0000000A0200000A0400000A0600000A0800000A0A00000A0C00000A0E00000C0000000C0200000C0400000C0600000C0800000C0
310
A00000C0C00000C0E00000E0000000E0200000E0400000E0600000E0800000E0A00000E0C00000E0E00040000000400020004000400040006000400080004000A0004000C0004000E00040200000402020004020400040206000402080004020A0004020C0004020E000404000004040200040404000404060004040800040
310
40A0004040C0004040E00040600000406020004060400040606000406080004060A0004060C0004060E00040800000408020004080400040806000408080004080A0004080C0004080E00040A0000040A0200040A0400040A0600040A0800040A0A00040A0C00040A0E00040C0000040C0200040C0400040C0600040C08000
310
40C0A00040C0C00040C0E00040E0000040E0200040E0400040E0600040E0800040E0A00040E0C00040E0E00080000000800020008000400080006000800080008000A0008000C0008000E00080200000802020008020400080206000802080008020A0008020C0008020E00080400000804020008040400080406000804080
310
008040A0008040C0008040E00080600000806020008060400080606000806080008060A0008060C0008060E00080800000808020008080400080806000808080008080A0008080C0008080E00080A0000080A0200080A0400080A0600080A0800080A0A00080A0C00080A0E00080C0000080C0200080C0400080C0600080C0
310
800080C0A00080C0C00080C0E00080E0000080E0200080E0400080E0600080E0800080E0A00080E0C00080E0E000C0000000C0002000C0004000C0006000C0008000C000A000C000C000C000E000C0200000C0202000C0204000C0206000C0208000C020A000C020C000C020E000C0400000C0402000C0404000C0406000C0
310
408000C040A000C040C000C040E000C0600000C0602000C0604000C0606000C0608000C060A000C060C000C060E000C0800000C0802000C0804000C0806000C0808000C080A000C080C000C080E000C0A00000C0A02000C0A04000C0A06000C0A08000C0A0A000C0A0C000C0A0E000C0C00000C0C02000C0C04000C0C06000
310
C0C08000C0C0A000F0FBFF00A4A0A000808080000000FF0000FF000000FFFF00FF000000FF00FF00FFFF0000FFFFFF00FFFFFFFFFFFFFFFFFFFFFFFFFFFFFFFFFFFFFFFFFFFFFFFFFFFFFFFFFFFFFFFFFFFFFFFFFFFFFFFFFFFFFFFFFFFFFFFFFFFFFFFFFFFFFFFFFFFFFFFFFFFFFFFFFFFFFFFFFFFFFFFFFFFFFFFFFFFFFF
310
FFFFFFFFFFFFFFFFFFFFFFFFFFFFFFFFFFFFFFFFFFFFFFFFFFFFFFFFFFFFFFFFFFFFFFFFFFFFFFFFFFFFFFFFFFFFFFFFFFFFFFFFFFFFFFFFFFFFFFFFFFFFFFFFFFFFFFFFFFFFFFFFFFFFFFFFFFFFFFFFFFFFFFFFFFFFFFFFFFFFFFFFFFFFFFFFFFFFFFFFFFFFFFFFFFFFFFFFFFFFFFFFFFFFFFFFFFFFFFFFFFFFFFFFFFFFFF
310
FFFFFFFFFFFFFFFFFFFFFFFFFFFFFFFFFFFFFFFFFFFFFFFFFFFFFFFFFFFFFFFFFFFFFFFFFFFFFFFFFFFFFFFFFFFFFFFFFFFFFFFFFFFFFFFFFFFFFFFFFFFFFFFFFFFFFFFFFFFFFFFFFFFFFFFFFFFFFFFFFFFFFFFFFFFFFFFFFFFFFFFFFFFFFFFFFFFFFFFFFFFFFFFFFFFFFFFFFFFFFFFFFFFFFFFFFFFFFFFFFFFFFFFFFFFFFF
310
FFFFFFFFFFFFFFFFFFFFFFFFFFFFFFFFFFFFFFFFFFFFFFFFFFFFFFFFFFFFFFFFFFFFFFFFFFFFFFFFFFFFFFFFFFFFFFFFFFFFFFFF0000000000000000000000000000000000000000000000000000000000FFFFFF0000000000000000000000000000000000FFFFFFFFFFFFFFFFFFFF0000FFFFFF0000000000000000000000
310
00000000000000FFFFFFFFFFFFFFFFFFFF0000FFFF000000000000000000000000000000000000FFFFFF00000000FFFFFF0000FFFF00FFFFFFFFFFFF00FFFFFF00FFFFFFFFFF00FFFFFF0000000000FFFF0000FFFF00FFFFFFFFFFFF00FFFFFF00FFFFFFFFFF00FFFFFF00FFFF0000FFFF0000FFFF00FFFFFFFFFFFF00FFFF
310
00FFFFFFFFFFFF00FFFFFF00FFFF0000FFFF0000FFFF0000000000FFFF00000000FFFFFF00000000FFFFFF00000000FFFFFF0000FFFFFFFFFFFF00FFFFFFFFFFFFFFFFFF00FFFFFFFFFFFFFFFFFFFFFFFFFF0000FFFFFFFFFFFF00FFFFFFFFFFFFFFFFFF00FFFFFFFFFFFFFFFFFFFFFFFFFF0000FFFFFFFFFFFF00FFFFFFFF
310
FFFFFFFFFF00FFFFFFFFFFFFFFFFFFFFFFFF0000FFFFFF0000000000FFFF00000000FFFFFF0000000000000000000000000000FFFFFFFF00FFFFFFFFFFFF00FFFF00FFFFFFFFFFFF00FFFFFFFFFFFFFFFFFFFFFFFFFFFF00FFFFFFFFFFFF00FFFFFF00FFFFFFFFFF00FFFFFFFFFFFFFFFFFFFFFFFFFFFF0000000000000000
310
FFFFFF00000000000000FFFFFFFFFFFFFFFFFFFFFFFFFFFFFFFFFFFFFFFFFFFFFFFFFFFFFFFFFFFFFFFFFFFFFFFFFFFFFFFFFFFFFFFFFFFFFFFFFFFFFFFFFFFFFFFFFFFFFFFFFFFFFFFFFFFFFFFFFFFFFFFFFFFFFFFFFFFFFFFFFFFFFFFFFFFFFFFFFFFFFFFFFFFFFFFFFFFFFFFFFFFFFFFFFFFFFFFFFFFFFFFFFFFFFFFFFF
310
FFFFFFFFFFFFFFFFFFFFFFFFFFFFFFFFFFFFFFFFFFFFFFFFFFFFFFFFFFFFFFFFFFFFFFFFFFFFFFFFFFFFFFFFFFFFFFFFFFFFFFFFFFFFFFFF
102
{BLKREFS
331
4BE
331
4C2
102
}
  0
BLOCK_RECORD
  5
4C3
330
1
100
AcDbSymbolTableRecord
100
AcDbBlockTableRecord
  2
HD LLC
340
0
310
2800000020000000200000000100080000000000000400000000000000000000000000000000000000000000000080000080000000808000800000008000800080800000C0C0C000C0DCC000F0CAA6000020400000206000002080000020A0000020C0000020E00000400000004020000040400000406000004080000040A0
310
000040C0000040E00000600000006020000060400000606000006080000060A0000060C0000060E00000800000008020000080400000806000008080000080A0000080C0000080E00000A0000000A0200000A0400000A0600000A0800000A0A00000A0C00000A0E00000C0000000C0200000C0400000C0600000C0800000C0
310
A00000C0C00000C0E00000E0000000E0200000E0400000E0600000E0800000E0A00000E0C00000E0E00040000000400020004000400040006000400080004000A0004000C0004000E00040200000402020004020400040206000402080004020A0004020C0004020E000404000004040200040404000404060004040800040
310
40A0004040C0004040E00040600000406020004060400040606000406080004060A0004060C0004060E00040800000408020004080400040806000408080004080A0004080C0004080E00040A0000040A0200040A0400040A0600040A0800040A0A00040A0C00040A0E00040C0000040C0200040C0400040C0600040C08000
310
40C0A00040C0C00040C0E00040E0000040E0200040E0400040E0600040E0800040E0A00040E0C00040E0E00080000000800020008000400080006000800080008000A0008000C0008000E00080200000802020008020400080206000802080008020A0008020C0008020E00080400000804020008040400080406000804080
310
008040A0008040C0008040E00080600000806020008060400080606000806080008060A0008060C0008060E00080800000808020008080400080806000808080008080A0008080C0008080E00080A0000080A0200080A0400080A0600080A0800080A0A00080A0C00080A0E00080C0000080C0200080C0400080C0600080C0
310
800080C0A00080C0C00080C0E00080E0000080E0200080E0400080E0600080E0800080E0A00080E0C00080E0E000C0000000C0002000C0004000C0006000C0008000C000A000C000C000C000E000C0200000C0202000C0204000C0206000C0208000C020A000C020C000C020E000C0400000C0402000C0404000C0406000C0
310
408000C040A000C040C000C040E000C0600000C0602000C0604000C0606000C0608000C060A000C060C000C060E000C0800000C0802000C0804000C0806000C0808000C080A000C080C000C080E000C0A00000C0A02000C0A04000C0A06000C0A08000C0A0A000C0A0C000C0A0E000C0C00000C0C02000C0C04000C0C06000
310
C0C08000C0C0A000F0FBFF00A4A0A000808080000000FF0000FF000000FFFF00FF000000FF00FF00FFFF0000FFFFFF00FFFFFFFFFFFFFFFFFFFFFFFFFFFFFFFFFFFFFFFFFFFFFFFFFFFFFFFFFFFFFFFFFFFFFFFFFFFFFFFFFFFFFFFFFFFFFFFFFFFFFFFFFFFFFFFFFFFFFFFFFFFFFFFFFFFFFFFFFFFFFFFFFFFFFFFFFFFFFF
310
FFFFFFFFFFFFFFFFFFFFFFFFFFFFFFFFFFFFFFFFFFFFFFFFFFFFFFFFFFFFFFFFFFFFFFFFFFFFFFFFFFFFFFFFFFFFFFFFFFFFFFFFFFFFFFFFFFFFFFFFFFFFFFFFFFFFFFFFFFFFFFFFFFFFFFFFFFFFFFFFFFFFFFFFFFFFFFFFFFFFFFFFFFFFFFFFFFFFFFFFFFFFFFFFFFFFFFFFFFFFFFFFFFFFFFFFFFFFFFFFFFFFFFFFFFFFFF
310
FFFFFFFFFFFFFFFFFFFFFFFFFFFFFFFFFFFFFFFFFFFFFFFFFFFFFFFFFFFFFFFFFFFFFFFFFFFFFFFFFFFFFFFFFFFFFFFFFFFFFFFFFFFFFFFFFFFFFFFFFFFFFFFFFFFFFFFFFFFFFFFFFFFFFFFFFFFFFFFFFFFFFFFFFFFFFFFFFFFFFFFFFFFFFFFFFFFFFFFFFFFFFFFFFFFFFFFFFFFFFFFFFFFFFFFFFFFFFFFFFFFFFFFFFFFFFF
310
FFFFFFFFFFFFFFFFFFFFFFFFFFFFFFFFFFFFFFFFFFFFFFFFFFFFFFFFFFFFFFFFFFFFFFFFFFFFFFFFFFFFFFFFFFFFFFFFFFFFFFFFFFFFFFFFFFFFFFFFFFFFFFFFFFFFFFFFFFFFFFFFFFFFFFFFFFFFFFFFFFFFFFFFFFFFFFFFFFFFFFFFFFFFFFFFFFFFFFFFFFFFFFFFFFFFFFFFFFFFFFFFFFFFFFFFFFFFFFFFFFFFFFFFFFFF00
310
000000000000000000FFFFFFFFFFFFFFFFFFFFFFFFFFFFFFFFFFFFFFFFFFFF00000000000000000000FFFFFFFFFFFFFFFFFFFFFFFFFFFFFFFFFFFFFFFFFFFF00000000000000000000FFFFFFFFFFFFFFFFFFFFFFFFFFFFFFFFFFFFFFFFFFFF00000000000000000000FFFFFFFFFFFFFFFFFFFFFFFFFFFFFFFFFFFFFFFFFFFF
310
FFFFFFFFFFFFFFFFFFFFFFFFFFFFFFFFFFFFFFFFFFFFFFFFFFFFFFFFFFFFFFFFFFFFFFFFFFFFFFFFFFFFFFFFFFFFFFFFFFFFFFFFFFFFFFFFFFFFFFFFFFFFFFFFFFFFFFFFFFFFFFFFFFFFFFFFFFFFFFFFFFFFFFFFFFFFFFFFFFFFFFFFFFFFFFFFFFFFFFFFFFFFFFFFFFFFFFFFFFFFFFFFFFFFFFFFFFFFFFFFFFFFFFFFFFFFFF
310
FFFFFFFFFFFFFFFFFFFFFFFFFFFFFFFFFFFFFFFFFFFFFFFFFFFFFFFFFFFFFFFFFFFFFFFFFFFFFFFFFFFFFFFFFFFFFFFFFFFFFFFFFFFFFFFFFFFFFFFFFFFFFFFFFFFFFFFFFFFFFFFFFFFFFFFFFFFFFFFFFFFFFFFFFFFFFFFFFFFFFFFFFFFFFFFFFFFFFFFFFFFFFFFFFFFFFFFFFFFFFFFFFFFFFFFFFFFFFFFFFFFFFFFFFFFFFF
310
FFFFFFFFFFFFFFFFFFFFFFFFFFFFFFFFFFFFFFFFFFFFFFFFFFFFFFFFFFFFFFFFFFFFFFFFFFFFFFFFFFFFFFFFFFFFFFFFFFFFFFFFFFFFFFFFFFFFFFFFFFFFFFFFFFFFFFFFFFFFFFFFFFFFFFFFFFFFFFFFFFFFFFFFFFFFFFFFFFFFFFFFFFFFFFFFFFFFFFFFFFFFFFFFFFFFFFFFFFFFFFFFFFFFFFFFFFFFFFFFFFFFFFFFFFFFFF
310
FFFFFFFFFFFFFFFFFFFFFFFFFFFFFFFFFFFFFFFFFFFFFFFFFFFFFFFFFFFFFFFFFFFFFFFFFFFFFFFFFFFFFFFFFFFFFFFFFFFFFFFFFFFFFFFF
102
{BLKREFS
331
4C8
331
4CC
102
}
  0
ENDTAB
  0
ENDSEC
  0
SECTION
  2
BLOCKS
  0
BLOCK
  5
1F
330
1E
100
AcDbEntity
  8
0
100
AcDbBlockBegin
  2
*Model_Space
 70
     0
 10
0.0
 20
0.0
 30
0.0
  3
*Model_Space
  1

  0
ENDBLK
  5
20
330
1E
100
AcDbEntity
  8
0
100
AcDbBlockEnd
  0
BLOCK
  5
1B
330
1A
100
AcDbEntity
 67
     1
  8
0
100
AcDbBlockBegin
  2
*Paper_Space
 70
     0
 10
0.0
 20
0.0
 30
0.0
  3
*Paper_Space
  1

  0
ENDBLK
  5
1C
330
1A
100
AcDbEntity
 67
     1
  8
0
100
AcDbBlockEnd
  0
BLOCK
  5
35
330
34
100
AcDbEntity
  8
1
100
AcDbBlockBegin
  2
*D0
 70
     1
 10
0.0
 20
0.0
 30
0.0
  3
*D0
  1

  0
LINE
  5
36
330
34
100
AcDbEntity
  8
1
 62
     2
100
AcDbLine
 10
-55.5
 20
-44.99999999779031
 30
0.0
 11
-55.5
 21
44.99999999999997
 31
0.0
  0
LINE
  5
37
330
34
100
AcDbEntity
  8
1
 62
     2
100
AcDbLine
 10
-24.5
 20
44.99999999999997
 30
0.0
 11
-56.50000000000001
 21
44.99999999999997
 31
0.0
  0
LINE
  5
38
330
34
100
AcDbEntity
  8
1
 62
     2
100
AcDbLine
 10
-24.49999999986392
 20
-44.99999999779031
 30
0.0
 11
-56.50000000000001
 21
-44.99999999779031
 31
0.0
  0
SOLID
  5
39
330
34
100
AcDbEntity
  8
1
 62
     2
100
AcDbTrace
 10
-55.5
 20
-44.99999999779031
 30
0.0
 11
-56.21500000000001
 21
-39.49999999779032
 31
0.0
 12
-54.78500000000001
 22
-39.49999999779032
 32
0.0
 13
-54.78500000000001
 23
-39.49999999779032
 33
0.0
  0
SOLID
  5
3A
330
34
100
AcDbEntity
  8
1
 62
     2
100
AcDbTrace
 10
-55.5
 20
44.99999999999997
 30
0.0
 11
-54.78500000000001
 21
39.49999999999996
 31
0.0
 12
-56.21500000000001
 22
39.49999999999996
 32
0.0
 13
-56.21500000000001
 23
39.49999999999996
 33
0.0
  0
TEXT
  5
3B
330
34
100
AcDbEntity
  8
1
 62
     2
100
AcDbText
 10
-56.63750000000001
 20
10.03720722274213
 30
0.0
 40
5.5
  1
90
 50
90.0
 41
0.9
100
AcDbText
  0
TEXT
  5
3C
330
34
100
AcDbEntity
  8
1
 62
     2
100
AcDbText
 10
-56.63750000000001
 20
-16.91279277725787
 30
0.0
 40
5.5
  1
M.H.C 
 50
90.0
 41
0.9
100
AcDbText
  0
ENDBLK
  5
3D
330
34
100
AcDbEntity
  8
0
100
AcDbBlockEnd
  0
BLOCK
  5
3F
330
3E
100
AcDbEntity
  8
1
100
AcDbBlockBegin
  2
*D1
 70
     1
 10
0.0
 20
0.0
 30
0.0
  3
*D1
  1

  0
LINE
  5
40
330
3E
100
AcDbEntity
  8
1
 62
     2
100
AcDbLine
 10
-25.49999999986392
 20
23.2487180193644
 30
0.0
 11
-36.49999999986391
 21
23.2487180193644
 31
0.0
  0
LINE
  5
41
330
3E
100
AcDbEntity
  8
1
 62
     2
100
AcDbLine
 10
-25.49999999986392
 20
23.2487180193644
 30
0.0
 11
-23.5
 21
23.2487180193644
 31
0.0
  0
LINE
  5
42
330
3E
100
AcDbEntity
  8
1
 62
     2
100
AcDbLine
 10
-12.5
 20
23.2487180193644
 30
0.0
 11
-23.5
 21
23.2487180193644
 31
0.0
  0
LINE
  5
43
330
3E
100
AcDbEntity
  8
1
 62
     2
100
AcDbLine
 10
-23.5
 20
43.99999999999997
 30
0.0
 11
-23.5
 21
22.2487180193644
 31
0.0
  0
LINE
  5
44
330
3E
100
AcDbEntity
  8
1
 62
     2
100
AcDbLine
 10
-25.49999999986392
 20
33.47810105666899
 30
0.0
 11
-25.49999999986392
 21
22.2487180193644
 31
0.0
  0
SOLID
  5
45
330
3E
100
AcDbEntity
  8
1
 62
     2
100
AcDbTrace
 10
-25.49999999986392
 20
23.2487180193644
 30
0.0
 11
-30.99999999986392
 21
22.53371801936439
 31
0.0
 12
-30.99999999986392
 22
23.9637180193644
 32
0.0
 13
-30.99999999986392
 23
23.9637180193644
 33
0.0
  0
SOLID
  5
46
330
3E
100
AcDbEntity
  8
1
 62
     2
100
AcDbTrace
 10
-23.5
 20
23.2487180193644
 30
0.0
 11
-18.0
 21
23.9637180193644
 31
0.0
 12
-18.0
 22
22.53371801936439
 32
0.0
 13
-18.0
 23
22.53371801936439
 33
0.0
  0
TEXT
  5
47
330
3E
100
AcDbEntity
  8
1
 62
     2
100
AcDbText
 10
-36.4639737385142
 20
24.2487180193644
 30
0.0
 40
5.5
  1
2
 41
0.9
100
AcDbText
  0
ENDBLK
  5
48
330
3E
100
AcDbEntity
  8
0
100
AcDbBlockEnd
  0
BLOCK
  5
4A
330
49
100
AcDbEntity
  8
1
100
AcDbBlockBegin
  2
*D2
 70
     1
 10
0.0
 20
0.0
 30
0.0
  3
*D2
  1

  0
LINE
  5
4B
330
49
100
AcDbEntity
  8
1
 62
     2
100
AcDbLine
 10
27.50000000013608
 20
-97.49999898648979
 30
0.0
 11
65.56786085598182
 21
-97.49999898648979
 31
0.0
  0
LINE
  5
4C
330
49
100
AcDbEntity
  8
1
 62
     2
100
AcDbLine
 10
25.50000000013608
 20
-97.49999898648979
 30
0.0
 11
27.50000000013608
 21
-97.49999898648979
 31
0.0
  0
LINE
  5
4D
330
49
100
AcDbEntity
  8
1
 62
     2
100
AcDbLine
 10
14.50000000013607
 20
-97.49999898648979
 30
0.0
 11
25.50000000013608
 21
-97.49999898648979
 31
0.0
  0
LINE
  5
4E
330
49
100
AcDbEntity
  8
1
 62
     2
100
AcDbLine
 10
27.50000000013608
 20
-53.99999999779032
 30
0.0
 11
27.50000000013608
 21
-98.49999898648979
 31
0.0
  0
LINE
  5
4F
330
49
100
AcDbEntity
  8
1
 62
     2
100
AcDbLine
 10
25.50000000013608
 20
-68.09999999779032
 30
0.0
 11
25.50000000013608
 21
-98.49999898648979
 31
0.0
  0
SOLID
  5
50
330
49
100
AcDbEntity
  8
1
 62
     2
100
AcDbTrace
 10
25.50000000013608
 20
-97.49999898648979
 30
0.0
 11
20.00000000013607
 21
-98.2149989864898
 31
0.0
 12
20.00000000013607
 22
-96.78499898648977
 32
0.0
 13
20.00000000013607
 23
-96.78499898648977
 33
0.0
  0
SOLID
  5
51
330
49
100
AcDbEntity
  8
1
 62
     2
100
AcDbTrace
 10
27.50000000013608
 20
-97.49999898648979
 30
0.0
 11
33.00000000013608
 21
-96.78499898648977
 31
0.0
 12
33.00000000013608
 22
-98.2149989864898
 32
0.0
 13
33.00000000013608
 23
-98.2149989864898
 33
0.0
  0
TEXT
  5
52
330
49
100
AcDbEntity
  8
1
 62
     2
100
AcDbText
 10
62.26786085598178
 20
-96.3624989864898
 30
0.0
 40
5.5
  1
2
 41
0.9
100
AcDbText
  0
TEXT
  5
53
330
49
100
AcDbEntity
  8
1
 62
     2
100
AcDbText
 10
35.31786085598179
 20
-96.3624989864898
 30
0.0
 40
5.5
  1
M.H.C 
 41
0.9
100
AcDbText
  0
ENDBLK
  5
54
330
49
100
AcDbEntity
  8
0
100
AcDbBlockEnd
  0
BLOCK
  5
56
330
55
100
AcDbEntity
  8
1
100
AcDbBlockBegin
  2
*D3
 70
     1
 10
0.0
 20
0.0
 30
0.0
  3
*D3
  1

  0
LINE
  5
57
330
55
100
AcDbEntity
  8
1
 62
     2
100
AcDbLine
 10
57.50000000000002
 20
-52.99999999779032
 30
0.0
 11
57.50000000000002
 21
52.99999999779032
 31
0.0
  0
LINE
  5
58
330
55
100
AcDbEntity
  8
1
 62
     2
100
AcDbLine
 10
28.50000000013608
 20
52.99999999779032
 30
0.0
 11
58.50000000000002
 21
52.99999999779032
 31
0.0
  0
LINE
  5
59
330
55
100
AcDbEntity
  8
1
 62
     2
100
AcDbLine
 10
28.50000000013608
 20
-52.99999999779032
 30
0.0
 11
58.50000000000002
 21
-52.99999999779032
 31
0.0
  0
SOLID
  5
5A
330
55
100
AcDbEntity
  8
1
 62
     2
100
AcDbTrace
 10
57.50000000000002
 20
-52.99999999779032
 30
0.0
 11
56.78500000000002
 21
-47.49999999779031
 31
0.0
 12
58.21500000000002
 22
-47.49999999779031
 32
0.0
 13
58.21500000000002
 23
-47.49999999779031
 33
0.0
  0
SOLID
  5
5B
330
55
100
AcDbEntity
  8
1
 62
     2
100
AcDbTrace
 10
57.50000000000002
 20
52.99999999779032
 30
0.0
 11
58.21500000000002
 21
47.49999999779031
 31
0.0
 12
56.78500000000002
 22
47.49999999779031
 32
0.0
 13
56.78500000000002
 23
47.49999999779031
 33
0.0
  0
TEXT
  5
5C
330
55
100
AcDbEntity
  8
1
 62
     2
100
AcDbText
 10
56.36250000000002
 20
7.216973781613773
 30
0.0
 40
5.5
  1
106
 50
90.0
 41
0.9
100
AcDbText
  0
TEXT
  5
5D
330
55
100
AcDbEntity
  8
1
 62
     2
100
AcDbText
 10
56.36250000000002
 20
-19.73302621838622
 30
0.0
 40
5.5
  1
M.H.C 
 50
90.0
 41
0.9
100
AcDbText
  0
ENDBLK
  5
5E
330
55
100
AcDbEntity
  8
0
100
AcDbBlockEnd
  0
BLOCK
  5
44A
330
447
100
AcDbEntity
  8
0
100
AcDbBlockBegin
  2
NTC
 70
     0
 10
0.0
 20
0.0
 30
0.0
  3
NTC
  1

  0
LWPOLYLINE
  5
448
330
447
100
AcDbEntity
  8
0
100
AcDbPolyline
 90
        8
 70
     1
 43
0.0
 10
4.581008201925953
 20
-10.78862239032818
 10
319.3921777697513
 20
-10.78862239032818
 42
-0.4142135623730951
 10
324.9046777697513
 20
-16.30112239032816
 10
324.9046777697513
 20
-117.4075202476924
 42
-0.4142135623730951
 10
319.3921777697513
 20
-122.9200202476925
 10
4.581008201925838
 20
-122.9200202476925
 42
-0.4142135623730951
 10
-0.9314917980741483
 20
-117.4075202476924
 10
-0.9314917980740915
 20
-16.30112239032816
 42
-0.4142135623730951
  0
MTEXT
  5
449
330
447
100
AcDbEntity
  8
0
  6
Continuous
370
    30
100
AcDbMText
 10
21.65307678143926
 20
-17.4535155144544
 30
0.0
 40
8.75
 41
294.5432999999998
 71
     1
 72
     5
  3
{\fTxt|b1|i0|c0|p2;Notice:\P\Ftxt.shx;\H0.5714x;All specifications and dimensions shown in the drawing are subject to change without notice. This drawing is the property of Harmonic Drive LLC.   This data is believed to be accurate, however, Harmonic
  1
 Drive LLC assumes no liability for any errors or omissions in the specifications, models, or drawings.\P\PHarmonic Drive LLC\PTel: 800-921-3332\Pwww.harmonicdrive.net}
 73
     1
 44
1.0
  0
ENDBLK
  5
44B
330
447
100
AcDbEntity
  8
0
100
AcDbBlockEnd
  0
BLOCK
  5
457
330
454
100
AcDbEntity
  8
0
 62
     7
100
AcDbBlockBegin
  2
AI9-BLK14
 70
     0
 10
0.0
 20
0.0
 30
0.0
  3
AI9-BLK14
  1

  0
SPLINE
  5
455
330
454
100
AcDbEntity
  8
LAYER_1
 62
     7
100
AcDbSpline
210
0.0
220
0.0
230
1.0
 70
    11
 71
     3
 72
    23
 73
    19
 74
     0
 42
0.0000000001
 43
0.0000000001
 40
0.0
 40
0.0
 40
0.0
 40
0.0
 40
1.0
 40
1.0
 40
1.0
 40
2.0
 40
2.0
 40
2.0
 40
3.0
 40
3.0
 40
3.0
 40
4.0
 40
4.0
 40
4.0
 40
5.0
 40
5.0
 40
5.0
 40
6.0
 40
6.0
 40
6.0
 40
6.0
 10
-10.90321044921874
 20
10.88107571072048
 30
0.0
 10
-10.90321044921874
 20
10.88107571072048
 30
0.0
 10
-10.90321044921874
 20
-10.88107571072048
 30
0.0
 10
-10.90321044921874
 20
-10.88107571072048
 30
0.0
 10
-10.90321044921874
 20
-10.88107571072048
 30
0.0
 10
1.752692328559025
 20
-10.88107571072048
 30
0.0
 10
1.752692328559025
 20
-10.88107571072048
 30
0.0
 10
3.280592176649305
 20
-10.88107571072048
 30
0.0
 10
10.90321044921874
 20
-10.32383151584201
 30
0.0
 10
10.90321044921874
 20
0.6792867024739583
 30
0.0
 10
10.90321044921874
 20
10.61700914171006
 30
0.0
 10
2.773129611545138
 20
10.87952541775172
 30
0.0
 10
2.691136338975693
 20
10.88090345594618
 30
0.0
 10
2.691136338975693
 20
10.88090345594618
 30
0.0
 10
-9.903099229600693
 20
10.88107571072048
 30
0.0
 10
-9.903099229600693
 20
10.88107571072048
 30
0.0
 10
-9.903099229600693
 20
10.88107571072048
 30
0.0
 10
-10.90321044921874
 20
10.88107571072048
 30
0.0
 10
-10.90321044921874
 20
10.88107571072048
 30
0.0
  0
SPLINE
  5
456
330
454
100
AcDbEntity
  8
LAYER_1
 62
     7
100
AcDbSpline
210
0.0
220
0.0
230
1.0
 70
    11
 71
     3
 72
    20
 73
    16
 74
     0
 42
0.0000000001
 43
0.0000000001
 40
0.0
 40
0.0
 40
0.0
 40
0.0
 40
1.0
 40
1.0
 40
1.0
 40
2.0
 40
2.0
 40
2.0
 40
3.0
 40
3.0
 40
3.0
 40
4.0
 40
4.0
 40
4.0
 40
5.0
 40
5.0
 40
5.0
 40
5.0
 10
2.672877332899305
 20
8.881197781032986
 30
0.0
 10
2.905421278211805
 20
8.874307590060762
 30
0.0
 10
8.902988009982637
 20
8.616442192925347
 30
0.0
 10
8.902988009982637
 20
0.6792867024739583
 30
0.0
 10
8.902988009982637
 20
-8.191661919487842
 30
0.0
 10
3.430109320746526
 20
-8.881197781032986
 30
0.0
 10
1.752692328559025
 20
-8.881197781032986
 30
0.0
 10
1.752692328559025
 20
-8.881197781032986
 30
0.0
 10
-7.231427680121528
 20
-8.881197781032986
 30
0.0
 10
-8.902988009982637
 20
-8.881197781032986
 30
0.0
 10
-8.902988009982637
 20
-7.174497477213541
 30
0.0
 10
-8.902988009982637
 20
7.174497477213541
 30
0.0
 10
-8.902988009982637
 20
8.881197781032986
 30
0.0
 10
-7.208690049913191
 20
8.881197781032986
 30
0.0
 10
2.672877332899305
 20
8.881197781032986
 30
0.0
 10
2.672877332899305
 20
8.881197781032986
 30
0.0
  0
ENDBLK
  5
458
330
454
100
AcDbEntity
  8
0
100
AcDbBlockEnd
  0
BLOCK
  5
45C
330
459
100
AcDbEntity
  8
0
 62
     7
100
AcDbBlockBegin
  2
AI9-BLK13
 70
     0
 10
0.0
 20
0.0
 30
0.0
  3
AI9-BLK13
  1

  0
LWPOLYLINE
  5
45A
330
459
100
AcDbEntity
  8
LAYER_1
 62
     7
100
AcDbPolyline
 90
       12
 70
     1
 43
0.0
 10
-3.792361111111107
 20
10.7376736111111
 10
-2.469444444444443
 20
10.7376736111111
 10
-2.469444444444443
 20
1.874131944444444
 10
2.469444444444443
 20
1.874131944444444
 10
2.469444444444443
 20
10.7376736111111
 10
3.792361111111107
 20
10.7376736111111
 10
3.792361111111107
 20
-10.7376736111111
 10
2.469444444444443
 20
-10.7376736111111
 10
2.469444444444443
 20
-0.6835069444444444
 10
-2.469444444444443
 20
-0.6835069444444444
 10
-2.469444444444443
 20
-10.7376736111111
 10
-3.792361111111107
 20
-10.7376736111111
  0
HATCH
  5
45B
330
459
100
AcDbEntity
  8
LAYER_1
 62
     7
100
AcDbHatch
 10
0.0
 20
0.0
 30
0.0
210
0.0
220
0.0
230
1.0
  2
SOLID
 70
     1
 71
     0
 91
        1
 92
        3
 72
     0
 73
     1
 93
       12
 10
-3.792361111111107
 20
10.7376736111111
 10
-2.469444444444443
 20
10.7376736111111
 10
-2.469444444444443
 20
1.874131944444444
 10
2.469444444444443
 20
1.874131944444444
 10
2.469444444444443
 20
10.7376736111111
 10
3.792361111111107
 20
10.7376736111111
 10
3.792361111111107
 20
-10.7376736111111
 10
2.469444444444443
 20
-10.7376736111111
 10
2.469444444444443
 20
-0.6835069444444444
 10
-2.469444444444443
 20
-0.6835069444444444
 10
-2.469444444444443
 20
-10.7376736111111
 10
-3.792361111111107
 20
-10.7376736111111
 97
        0
 75
     2
 76
     1
 98
        1
 10
0.0
 20
0.0
  0
ENDBLK
  5
45D
330
459
100
AcDbEntity
  8
0
100
AcDbBlockEnd
  0
BLOCK
  5
461
330
45E
100
AcDbEntity
  8
0
 62
     7
100
AcDbBlockBegin
  2
AI9-BLK11
 70
     0
 10
0.0
 20
0.0
 30
0.0
  3
AI9-BLK11
  1

  0
SPLINE
  5
45F
330
45E
100
AcDbEntity
  8
LAYER_1
 62
     7
100
AcDbSpline
210
0.0
220
0.0
230
1.0
 70
    11
 71
     3
 72
    26
 73
    22
 74
     0
 42
0.0000000001
 43
0.0000000001
 40
0.0
 40
0.0
 40
0.0
 40
0.0
 40
1.0
 40
1.0
 40
1.0
 40
2.0
 40
2.0
 40
2.0
 40
3.0
 40
3.0
 40
3.0
 40
4.0
 40
4.0
 40
4.0
 40
5.0
 40
5.0
 40
5.0
 40
6.0
 40
6.0
 40
6.0
 40
7.0
 40
7.0
 40
7.0
 40
7.0
 10
-2.645833333333333
 20
0.9039930555555551
 30
0.0
 10
-2.645833333333333
 20
0.9039930555555551
 30
0.0
 10
-2.645833333333333
 20
8.180034722222217
 30
0.0
 10
-2.645833333333333
 20
8.180034722222217
 30
0.0
 10
-2.645833333333333
 20
8.180034722222217
 30
0.0
 10
0.465087890625
 20
8.180034722222217
 30
0.0
 10
0.465087890625
 20
8.180034722222217
 30
0.0
 10
0.9026150173611108
 20
8.180034722222217
 30
0.0
 10
1.24988064236111
 20
8.034651692708331
 30
0.0
 10
1.506884765625
 20
7.745263671874997
 30
0.0
 10
2.001600477430554
 20
7.194048394097221
 30
0.0
 10
2.248958333333332
 20
6.160519748263887
 30
0.0
 10
2.248958333333332
 20
4.643299696180553
 30
0.0
 10
2.248958333333332
 20
3.232188585069443
 30
0.0
 10
2.072569444444444
 20
2.256537543402775
 30
0.0
 10
1.720480685763888
 20
1.715657552083333
 30
0.0
 10
1.368391927083333
 20
1.174088541666665
 30
0.0
 10
0.8929687499999998
 20
0.9039930555555551
 30
0.0
 10
0.2942111545138888
 20
0.9039930555555551
 30
0.0
 10
0.2942111545138888
 20
0.9039930555555551
 30
0.0
 10
-2.645833333333333
 20
0.9039930555555551
 30
0.0
 10
-2.645833333333333
 20
0.9039930555555551
 30
0.0
  0
SPLINE
  5
460
330
45E
100
AcDbEntity
  8
LAYER_1
 62
     7
100
AcDbSpline
210
0.0
220
0.0
230
1.0
 70
    11
 71
     3
 72
    68
 73
    64
 74
     0
 42
0.0000000001
 43
0.0000000001
 40
0.0
 40
0.0
 40
0.0
 40
0.0
 40
1.0
 40
1.0
 40
1.0
 40
2.0
 40
2.0
 40
2.0
 40
3.0
 40
3.0
 40
3.0
 40
4.0
 40
4.0
 40
4.0
 40
5.0
 40
5.0
 40
5.0
 40
6.0
 40
6.0
 40
6.0
 40
7.0
 40
7.0
 40
7.0
 40
8.0
 40
8.0
 40
8.0
 40
9.0
 40
9.0
 40
9.0
 40
10.0
 40
10.0
 40
10.0
 40
11.0
 40
11.0
 40
11.0
 40
12.0
 40
12.0
 40
12.0
 40
13.0
 40
13.0
 40
13.0
 40
14.0
 40
14.0
 40
14.0
 40
15.0
 40
15.0
 40
15.0
 40
16.0
 40
16.0
 40
16.0
 40
17.0
 40
17.0
 40
17.0
 40
18.0
 40
18.0
 40
18.0
 40
19.0
 40
19.0
 40
19.0
 40
20.0
 40
20.0
 40
20.0
 40
21.0
 40
21.0
 40
21.0
 40
21.0
 10
-3.968749999999998
 20
-10.7376736111111
 30
0.0
 10
-3.968749999999998
 20
-10.7376736111111
 30
0.0
 10
-2.645833333333333
 20
-10.7376736111111
 30
0.0
 10
-2.645833333333333
 20
-10.7376736111111
 30
0.0
 10
-2.645833333333333
 20
-10.7376736111111
 30
0.0
 10
-2.645833333333333
 20
-1.521354166666665
 30
0.0
 10
-2.645833333333333
 20
-1.521354166666665
 30
0.0
 10
-2.645833333333333
 20
-1.521354166666665
 30
0.0
 10
0.2390896267361111
 20
-1.521354166666665
 30
0.0
 10
0.2390896267361111
 20
-1.521354166666665
 30
0.0
 10
0.7599880642361111
 20
-1.521354166666665
 30
0.0
 10
1.143771701388887
 20
-1.65295681423611
 30
0.0
 10
1.390440538194444
 20
-1.916162109374999
 30
0.0
 10
1.816254340277773
 20
-2.39434136284722
 30
0.0
 10
2.04363064236111
 20
-3.335541449652775
 30
0.0
 10
2.072569444444444
 20
-4.739762369791666
 30
0.0
 10
2.072569444444444
 20
-4.739762369791666
 30
0.0
 10
2.160763888888888
 20
-8.324039713541665
 30
0.0
 10
2.160763888888888
 20
-8.324039713541665
 30
0.0
 10
2.18005642361111
 20
-9.163264973958332
 30
0.0
 10
2.202794053819443
 20
-9.728949652777775
 30
0.0
 10
2.227598741319444
 20
-10.02109374999998
 30
0.0
 10
2.252403428819443
 20
-10.31392686631944
 30
0.0
 10
2.28892144097222
 20
-10.55301649305555
 30
0.0
 10
2.33853081597222
 20
-10.7376736111111
 30
0.0
 10
2.33853081597222
 20
-10.7376736111111
 30
0.0
 10
3.968749999999998
 20
-10.7376736111111
 30
0.0
 10
3.968749999999998
 20
-10.7376736111111
 30
0.0
 10
3.968749999999998
 20
-10.7376736111111
 30
0.0
 10
3.968749999999998
 20
-10.25260416666666
 30
0.0
 10
3.968749999999998
 20
-10.25260416666666
 30
0.0
 10
3.766867404513888
 20
-10.05830078125
 30
0.0
 10
3.625618489583333
 20
-9.621462673611112
 30
0.0
 10
3.545692274305555
 20
-8.942089843749997
 30
0.0
 10
3.49470486111111
 20
-8.543836805555555
 30
0.0
 10
3.459564887152775
 20
-7.937499999999999
 30
0.0
 10
3.439583333333333
 20
-7.121701388888887
 30
0.0
 10
3.439583333333333
 20
-7.121701388888887
 30
0.0
 10
3.395486111111106
 20
-4.232644314236106
 30
0.0
 10
3.395486111111106
 20
-4.232644314236106
 30
0.0
 10
3.375504557291666
 20
-2.981385633680555
 30
0.0
 10
3.26870659722222
 20
-2.077392578125
 30
0.0
 10
3.075781249999999
 20
-1.522043185763888
 30
0.0
 10
2.882166883680555
 20
-0.9666937934027776
 30
0.0
 10
2.592089843749999
 20
-0.5188313802083333
 30
0.0
 10
2.204861111111104
 20
-0.1770779079861111
 30
0.0
 10
2.63618706597222
 20
0.3197048611111111
 30
0.0
 10
2.971739366319443
 20
0.9770290798611107
 30
0.0
 10
3.211518012152775
 20
1.79558376736111
 30
0.0
 10
3.451296657986107
 20
2.613449435763888
 30
0.0
 10
3.571874999999999
 20
3.66558159722222
 30
0.0
 10
3.571874999999999
 20
4.951291232638888
 30
0.0
 10
3.571874999999999
 20
7.415912543402777
 30
0.0
 10
3.124701605902775
 20
9.106076388888887
 30
0.0
 10
2.231043836805555
 20
10.02178276909722
 30
0.0
 10
1.759754774305553
 20
10.498583984375
 30
0.0
 10
1.163753255208332
 20
10.7376736111111
 30
0.0
 10
0.443039279513889
 20
10.7376736111111
 30
0.0
 10
0.443039279513889
 20
10.7376736111111
 30
0.0
 10
-3.968749999999998
 20
10.7376736111111
 30
0.0
 10
-3.968749999999998
 20
10.7376736111111
 30
0.0
 10
-3.968749999999998
 20
10.7376736111111
 30
0.0
 10
-3.968749999999998
 20
-10.7376736111111
 30
0.0
 10
-3.968749999999998
 20
-10.7376736111111
 30
0.0
  0
ENDBLK
  5
462
330
45E
100
AcDbEntity
  8
0
100
AcDbBlockEnd
  0
BLOCK
  5
465
330
463
100
AcDbEntity
  8
0
 62
     7
100
AcDbBlockBegin
  2
AI9-BLK10
 70
     0
 10
0.0
 20
0.0
 30
0.0
  3
AI9-BLK10
  1

  0
SPLINE
  5
464
330
463
100
AcDbEntity
  8
LAYER_1
 62
     7
100
AcDbSpline
210
0.0
220
0.0
230
1.0
 70
    11
 71
     3
 72
    59
 73
    55
 74
     0
 42
0.0000000001
 43
0.0000000001
 40
0.0
 40
0.0
 40
0.0
 40
0.0
 40
1.0
 40
1.0
 40
1.0
 40
2.0
 40
2.0
 40
2.0
 40
3.0
 40
3.0
 40
3.0
 40
4.0
 40
4.0
 40
4.0
 40
5.0
 40
5.0
 40
5.0
 40
6.0
 40
6.0
 40
6.0
 40
7.0
 40
7.0
 40
7.0
 40
8.0
 40
8.0
 40
8.0
 40
9.0
 40
9.0
 40
9.0
 40
10.0
 40
10.0
 40
10.0
 40
11.0
 40
11.0
 40
11.0
 40
12.0
 40
12.0
 40
12.0
 40
13.0
 40
13.0
 40
13.0
 40
14.0
 40
14.0
 40
14.0
 40
15.0
 40
15.0
 40
15.0
 40
16.0
 40
16.0
 40
16.0
 40
17.0
 40
17.0
 40
17.0
 40
18.0
 40
18.0
 40
18.0
 40
18.0
 10
-4.652256944444443
 20
10.7376736111111
 30
0.0
 10
-4.652256944444443
 20
10.7376736111111
 30
0.0
 10
-2.798795572916666
 20
10.7376736111111
 30
0.0
 10
-2.798795572916666
 20
10.7376736111111
 30
0.0
 10
-2.798795572916666
 20
10.7376736111111
 30
0.0
 10
0.0
 20
-7.419357638888887
 30
0.0
 10
0.0
 20
-7.419357638888887
 30
0.0
 10
0.0
 20
-7.419357638888887
 30
0.0
 10
2.793283420138888
 20
10.7376736111111
 30
0.0
 10
2.793283420138888
 20
10.7376736111111
 30
0.0
 10
2.793283420138888
 20
10.7376736111111
 30
0.0
 10
4.652256944444443
 20
10.7376736111111
 30
0.0
 10
4.652256944444443
 20
10.7376736111111
 30
0.0
 10
4.652256944444443
 20
10.7376736111111
 30
0.0
 10
4.652256944444443
 20
-10.7376736111111
 30
0.0
 10
4.652256944444443
 20
-10.7376736111111
 30
0.0
 10
4.652256944444443
 20
-10.7376736111111
 30
0.0
 10
3.41753472222222
 20
-10.7376736111111
 30
0.0
 10
3.41753472222222
 20
-10.7376736111111
 30
0.0
 10
3.41753472222222
 20
-10.7376736111111
 30
0.0
 10
3.41753472222222
 20
1.936832682291665
 30
0.0
 10
3.41753472222222
 20
1.936832682291665
 30
0.0
 10
3.41753472222222
 20
2.375048828124999
 30
0.0
 10
3.424424913194443
 20
3.101274956597221
 30
0.0
 10
3.439583333333333
 20
4.11482204861111
 30
0.0
 10
3.454052734374998
 20
5.128369140624998
 30
0.0
 10
3.461631944444443
 20
6.214952256944441
 30
0.0
 10
3.461631944444443
 20
7.375260416666666
 30
0.0
 10
3.461631944444443
 20
7.375260416666666
 30
0.0
 10
0.6538791232638889
 20
-10.7376736111111
 30
0.0
 10
0.6538791232638889
 20
-10.7376736111111
 30
0.0
 10
0.6538791232638889
 20
-10.7376736111111
 30
0.0
 10
-0.6628363715277778
 20
-10.7376736111111
 30
0.0
 10
-0.6628363715277778
 20
-10.7376736111111
 30
0.0
 10
-0.6628363715277778
 20
-10.7376736111111
 30
0.0
 10
-3.461631944444443
 20
7.375260416666666
 30
0.0
 10
-3.461631944444443
 20
7.375260416666666
 30
0.0
 10
-3.461631944444443
 20
7.375260416666666
 30
0.0
 10
-3.461631944444443
 20
6.717247178819441
 30
0.0
 10
-3.461631944444443
 20
6.717247178819441
 30
0.0
 10
-3.461631944444443
 20
6.190836588541666
 30
0.0
 10
-3.45474175347222
 20
5.389507378472222
 30
0.0
 10
-3.439583333333333
 20
4.312570529513888
 30
0.0
 10
-3.425113932291666
 20
3.235633680555555
 30
0.0
 10
-3.41753472222222
 20
2.44395073784722
 30
0.0
 10
-3.41753472222222
 20
1.936832682291665
 30
0.0
 10
-3.41753472222222
 20
1.936832682291665
 30
0.0
 10
-3.41753472222222
 20
-10.7376736111111
 30
0.0
 10
-3.41753472222222
 20
-10.7376736111111
 30
0.0
 10
-3.41753472222222
 20
-10.7376736111111
 30
0.0
 10
-4.652256944444443
 20
-10.7376736111111
 30
0.0
 10
-4.652256944444443
 20
-10.7376736111111
 30
0.0
 10
-4.652256944444443
 20
-10.7376736111111
 30
0.0
 10
-4.652256944444443
 20
10.7376736111111
 30
0.0
 10
-4.652256944444443
 20
10.7376736111111
 30
0.0
  0
ENDBLK
  5
466
330
463
100
AcDbEntity
  8
0
100
AcDbBlockEnd
  0
BLOCK
  5
46A
330
467
100
AcDbEntity
  8
0
 62
     7
100
AcDbBlockBegin
  2
AI9-BLK9
 70
     0
 10
0.0
 20
0.0
 30
0.0
  3
AI9-BLK9
  1

  0
SPLINE
  5
468
330
467
100
AcDbEntity
  8
LAYER_1
 62
     7
100
AcDbSpline
210
0.0
220
0.0
230
1.0
 70
    11
 71
     3
 72
    29
 73
    25
 74
     0
 42
0.0000000001
 43
0.0000000001
 40
0.0
 40
0.0
 40
0.0
 40
0.0
 40
1.0
 40
1.0
 40
1.0
 40
2.0
 40
2.0
 40
2.0
 40
3.0
 40
3.0
 40
3.0
 40
4.0
 40
4.0
 40
4.0
 40
5.0
 40
5.0
 40
5.0
 40
6.0
 40
6.0
 40
6.0
 40
7.0
 40
7.0
 40
7.0
 40
8.0
 40
8.0
 40
8.0
 40
8.0
 10
0.0668348524305556
 20
-8.753298611111111
 30
0.0
 10
-0.9067491319444444
 20
-8.753298611111111
 30
0.0
 10
-1.60954861111111
 20
-7.936810980902778
 30
0.0
 10
-2.041563585069444
 20
-6.30383572048611
 30
0.0
 10
-2.474267578124999
 20
-4.670860460069443
 30
0.0
 10
-2.689930555555555
 20
-2.664436848958333
 30
0.0
 10
-2.689930555555555
 20
-0.28525390625
 30
0.0
 10
-2.689930555555555
 20
2.68855251736111
 30
0.0
 10
-2.439127604166666
 20
4.938199869791666
 30
0.0
 10
-1.937521701388888
 20
6.464377170138886
 30
0.0
 10
-1.43591579861111
 20
7.989865451388887
 30
0.0
 10
-0.7827256944444444
 20
8.753298611111111
 30
0.0
 10
0.0220486111111111
 20
8.753298611111111
 30
0.0
 10
0.8468044704861108
 20
8.753298611111111
 30
0.0
 10
1.49792751736111
 20
7.982975260416663
 30
0.0
 10
1.974728732638888
 20
6.442328559027776
 30
0.0
 10
2.451529947916665
 20
4.901681857638886
 30
0.0
 10
2.689930555555555
 20
2.868386501736111
 30
0.0
 10
2.689930555555555
 20
0.3438205295138888
 30
0.0
 10
2.689930555555555
 20
-2.045697699652774
 30
0.0
 10
2.483224826388884
 20
-4.15891927083333
 30
0.0
 10
2.071191406249999
 20
-5.996533203124998
 30
0.0
 10
1.65915798611111
 20
-7.834836154513887
 30
0.0
 10
0.9908094618055557
 20
-8.753298611111111
 30
0.0
 10
0.0668348524305556
 20
-8.753298611111111
 30
0.0
  0
SPLINE
  5
469
330
467
100
AcDbEntity
  8
LAYER_1
 62
     7
100
AcDbSpline
210
0.0
220
0.0
230
1.0
 70
    11
 71
     3
 72
    29
 73
    25
 74
     0
 42
0.0000000001
 43
0.0000000001
 40
0.0
 40
0.0
 40
0.0
 40
0.0
 40
1.0
 40
1.0
 40
1.0
 40
2.0
 40
2.0
 40
2.0
 40
3.0
 40
3.0
 40
3.0
 40
4.0
 40
4.0
 40
4.0
 40
5.0
 40
5.0
 40
5.0
 40
6.0
 40
6.0
 40
6.0
 40
7.0
 40
7.0
 40
7.0
 40
8.0
 40
8.0
 40
8.0
 40
8.0
 10
-0.0289388020833333
 20
11.35503472222222
 30
0.0
 10
-1.317404513888887
 20
11.35503472222222
 30
0.0
 10
-2.28892144097222
 20
10.02798394097222
 30
0.0
 10
-2.94280056423611
 20
7.374571397569441
 30
0.0
 10
-3.450607638888888
 20
5.30613606770833
 30
0.0
 10
-3.704166666666666
 20
2.81877712673611
 30
0.0
 10
-3.704166666666666
 20
-0.0881944444444445
 30
0.0
 10
-3.704166666666666
 20
-3.307291666666666
 30
0.0
 10
-3.406510416666666
 20
-5.97035047743055
 30
0.0
 10
-2.811197916666666
 20
-8.077370876736106
 30
0.0
 10
-2.147672526041664
 20
-10.26293945312499
 30
0.0
 10
-1.229899088541666
 20
-11.35503472222222
 30
0.0
 10
-0.0585666232638889
 20
-11.35503472222222
 30
0.0
 10
1.20027126736111
 20
-11.35503472222222
 30
0.0
 10
2.166276041666665
 20
-10.10653211805555
 30
0.0
 10
2.840136718749998
 20
-7.609526909722221
 30
0.0
 10
3.416156684027776
 20
-5.483213975694441
 30
0.0
 10
3.704166666666666
 20
-2.814643012152775
 30
0.0
 10
3.704166666666666
 20
0.3948079427083333
 30
0.0
 10
3.704166666666666
 20
3.360346137152776
 30
0.0
 10
3.449918619791666
 20
5.793961588541666
 30
0.0
 10
2.94280056423611
 20
7.696343315972222
 30
0.0
 10
2.298567708333333
 20
10.13547092013888
 30
0.0
 10
1.307758246527777
 20
11.35503472222222
 30
0.0
 10
-0.0289388020833333
 20
11.35503472222222
 30
0.0
  0
ENDBLK
  5
46B
330
467
100
AcDbEntity
  8
0
100
AcDbBlockEnd
  0
BLOCK
  5
46F
330
46C
100
AcDbEntity
  8
0
 62
     7
100
AcDbBlockBegin
  2
AI9-BLK8
 70
     0
 10
0.0
 20
0.0
 30
0.0
  3
AI9-BLK8
  1

  0
LWPOLYLINE
  5
46D
330
46C
100
AcDbEntity
  8
LAYER_1
 62
     7
100
AcDbPolyline
 90
       10
 70
     1
 43
0.0
 10
-3.792361111111107
 20
10.7376736111111
 10
-2.268939887152773
 20
10.7376736111111
 10
2.557638888888888
 20
-6.505718315972222
 10
2.557638888888888
 20
10.7376736111111
 10
3.792361111111107
 20
10.7376736111111
 10
3.792361111111107
 20
-10.7376736111111
 10
2.32612847222222
 20
-10.7376736111111
 10
-2.557638888888888
 20
6.549815538194441
 10
-2.557638888888888
 20
-10.7376736111111
 10
-3.792361111111107
 20
-10.7376736111111
  0
HATCH
  5
46E
330
46C
100
AcDbEntity
  8
LAYER_1
 62
     7
100
AcDbHatch
 10
0.0
 20
0.0
 30
0.0
210
0.0
220
0.0
230
1.0
  2
SOLID
 70
     1
 71
     0
 91
        1
 92
        3
 72
     0
 73
     1
 93
       10
 10
-3.792361111111107
 20
10.7376736111111
 10
-2.268939887152773
 20
10.7376736111111
 10
2.557638888888888
 20
-6.505718315972222
 10
2.557638888888888
 20
10.7376736111111
 10
3.792361111111107
 20
10.7376736111111
 10
3.792361111111107
 20
-10.7376736111111
 10
2.32612847222222
 20
-10.7376736111111
 10
-2.557638888888888
 20
6.549815538194441
 10
-2.557638888888888
 20
-10.7376736111111
 10
-3.792361111111107
 20
-10.7376736111111
 97
        0
 75
     2
 76
     1
 98
        1
 10
0.0
 20
0.0
  0
ENDBLK
  5
470
330
46C
100
AcDbEntity
  8
0
100
AcDbBlockEnd
  0
BLOCK
  5
474
330
471
100
AcDbEntity
  8
0
 62
     7
100
AcDbBlockBegin
  2
AI9-BLK7
 70
     0
 10
0.0
 20
0.0
 30
0.0
  3
AI9-BLK7
  1

  0
LWPOLYLINE
  5
472
330
471
100
AcDbEntity
  8
LAYER_1
 62
     7
100
AcDbPolyline
 90
        4
 70
     1
 43
0.0
 10
-0.6614583333333333
 20
10.7376736111111
 10
0.6614583333333333
 20
10.7376736111111
 10
0.6614583333333333
 20
-10.7376736111111
 10
-0.6614583333333333
 20
-10.7376736111111
  0
HATCH
  5
473
330
471
100
AcDbEntity
  8
LAYER_1
 62
     7
100
AcDbHatch
 10
0.0
 20
0.0
 30
0.0
210
0.0
220
0.0
230
1.0
  2
SOLID
 70
     1
 71
     0
 91
        1
 92
        3
 72
     0
 73
     1
 93
        4
 10
-0.6614583333333333
 20
10.7376736111111
 10
0.6614583333333333
 20
10.7376736111111
 10
0.6614583333333333
 20
-10.7376736111111
 10
-0.6614583333333333
 20
-10.7376736111111
 97
        0
 75
     2
 76
     1
 98
        1
 10
0.0
 20
0.0
  0
ENDBLK
  5
475
330
471
100
AcDbEntity
  8
0
100
AcDbBlockEnd
  0
BLOCK
  5
478
330
476
100
AcDbEntity
  8
0
 62
     7
100
AcDbBlockBegin
  2
AI9-BLK6
 70
     0
 10
0.0
 20
0.0
 30
0.0
  3
AI9-BLK6
  1

  0
SPLINE
  5
477
330
476
100
AcDbEntity
  8
LAYER_1
 62
     7
100
AcDbSpline
210
0.0
220
0.0
230
1.0
 70
    11
 71
     3
 72
    59
 73
    55
 74
     0
 42
0.0000000001
 43
0.0000000001
 40
0.0
 40
0.0
 40
0.0
 40
0.0
 40
1.0
 40
1.0
 40
1.0
 40
2.0
 40
2.0
 40
2.0
 40
3.0
 40
3.0
 40
3.0
 40
4.0
 40
4.0
 40
4.0
 40
5.0
 40
5.0
 40
5.0
 40
6.0
 40
6.0
 40
6.0
 40
7.0
 40
7.0
 40
7.0
 40
8.0
 40
8.0
 40
8.0
 40
9.0
 40
9.0
 40
9.0
 40
10.0
 40
10.0
 40
10.0
 40
11.0
 40
11.0
 40
11.0
 40
12.0
 40
12.0
 40
12.0
 40
13.0
 40
13.0
 40
13.0
 40
14.0
 40
14.0
 40
14.0
 40
15.0
 40
15.0
 40
15.0
 40
16.0
 40
16.0
 40
16.0
 40
17.0
 40
17.0
 40
17.0
 40
18.0
 40
18.0
 40
18.0
 40
18.0
 10
3.062689887152775
 20
9.168088107638887
 30
0.0
 10
3.735172526041666
 20
7.739062499999997
 30
0.0
 10
4.110687934027776
 20
6.116422526041666
 30
0.0
 10
4.189236111111108
 20
4.299479166666666
 30
0.0
 10
4.189236111111108
 20
4.299479166666666
 30
0.0
 10
2.866319444444443
 20
4.299479166666666
 30
0.0
 10
2.866319444444443
 20
4.299479166666666
 30
0.0
 10
2.720936414930555
 20
5.667871093749997
 30
0.0
 10
2.435682508680555
 20
6.752387152777776
 30
0.0
 10
2.009868706597218
 20
7.553027343749997
 30
0.0
 10
1.584054904513888
 20
8.352978515624997
 30
0.0
 10
0.9839192708333332
 20
8.753298611111111
 30
0.0
 10
0.2101508246527778
 20
8.753298611111111
 30
0.0
 10
-0.7386284722222222
 20
8.753298611111111
 30
0.0
 10
-1.503439670138888
 20
8.010536024305555
 30
0.0
 10
-2.083593749999999
 20
6.526388888888886
 30
0.0
 10
-2.664436848958333
 20
5.042241753472221
 30
0.0
 10
-2.954513888888888
 20
2.767100694444443
 30
0.0
 10
-2.954513888888888
 20
-0.2990342881944444
 30
0.0
 10
-2.954513888888888
 20
-2.811197916666666
 30
0.0
 10
-2.693375651041666
 20
-4.847938368055555
 30
0.0
 10
-2.17041015625
 20
-6.409944661458332
 30
0.0
 10
-1.648133680555553
 20
-7.972639973958332
 30
0.0
 10
-0.8640299479166666
 20
-8.753298611111111
 30
0.0
 10
0.1812120225694444
 20
-8.753298611111111
 30
0.0
 10
1.138948567708333
 20
-8.753298611111111
 30
0.0
 10
1.865174696180553
 20
-7.927853732638887
 30
0.0
 10
2.359201388888884
 20
-6.275585937499998
 30
0.0
 10
2.62998589409722
 20
-5.406043836805555
 30
0.0
 10
2.828423394097221
 20
-4.262272135416666
 30
0.0
 10
2.954513888888888
 20
-2.844270833333331
 30
0.0
 10
2.954513888888888
 20
-2.844270833333331
 30
0.0
 10
4.277430555555555
 20
-2.844270833333331
 30
0.0
 10
4.277430555555555
 20
-2.844270833333331
 30
0.0
 10
4.169943576388888
 20
-5.109765624999996
 30
0.0
 10
3.795117187499998
 20
-7.009391276041665
 30
0.0
 10
3.151573350694443
 20
-8.542458767361106
 30
0.0
 10
2.381249999999999
 20
-10.38834092881943
 30
0.0
 10
1.347721354166665
 20
-11.3109375
 30
0.0
 10
0.0509874131944445
 20
-11.3109375
 30
0.0
 10
-1.07004665798611
 20
-11.3109375
 30
0.0
 10
-2.010557725694444
 20
-10.55577256944443
 30
0.0
 10
-2.771234809027776
 20
-9.04475368923611
 30
0.0
 10
-3.775824652777775
 20
-7.046598307291666
 30
0.0
 10
-4.277430555555555
 20
-3.961170789930555
 30
0.0
 10
-4.277430555555555
 20
0.2115288628472222
 30
0.0
 10
-4.277430555555555
 20
3.379638671874998
 30
0.0
 10
-3.902604166666666
 20
5.977929687499997
 30
0.0
 10
-3.151573350694443
 20
8.005712890624996
 30
0.0
 10
-2.333018663194443
 20
10.20919596354165
 30
0.0
 10
-1.20647243923611
 20
11.3109375
 30
0.0
 10
0.2266872829861111
 20
11.3109375
 30
0.0
 10
1.444873046875
 20
11.3109375
 30
0.0
 10
2.390207248263884
 20
10.59642469618055
 30
0.0
 10
3.062689887152775
 20
9.168088107638887
 30
0.0
  0
ENDBLK
  5
479
330
476
100
AcDbEntity
  8
0
100
AcDbBlockEnd
  0
BLOCK
  5
47D
330
47A
100
AcDbEntity
  8
0
 62
     7
100
AcDbBlockBegin
  2
AI9-BLK5
 70
     0
 10
0.0
 20
0.0
 30
0.0
  3
AI9-BLK5
  1

  0
SPLINE
  5
47B
330
47A
100
AcDbEntity
  8
LAYER_1
 62
     7
100
AcDbSpline
210
0.0
220
0.0
230
1.0
 70
    11
 71
     3
 72
    32
 73
    28
 74
     0
 42
0.0000000001
 43
0.0000000001
 40
0.0
 40
0.0
 40
0.0
 40
0.0
 40
1.0
 40
1.0
 40
1.0
 40
2.0
 40
2.0
 40
2.0
 40
3.0
 40
3.0
 40
3.0
 40
4.0
 40
4.0
 40
4.0
 40
5.0
 40
5.0
 40
5.0
 40
6.0
 40
6.0
 40
6.0
 40
7.0
 40
7.0
 40
7.0
 40
8.0
 40
8.0
 40
8.0
 40
9.0
 40
9.0
 40
9.0
 40
9.0
 10
-2.62378472222222
 20
-8.268229166666666
 30
0.0
 10
-2.62378472222222
 20
-8.268229166666666
 30
0.0
 10
-2.62378472222222
 20
8.180034722222217
 30
0.0
 10
-2.62378472222222
 20
8.180034722222217
 30
0.0
 10
-2.62378472222222
 20
8.180034722222217
 30
0.0
 10
-0.3376193576388888
 20
8.180034722222217
 30
0.0
 10
-0.3376193576388888
 20
8.180034722222217
 30
0.0
 10
0.6972873263888888
 20
8.180034722222217
 30
0.0
 10
1.449007161458333
 20
7.445540364583332
 30
0.0
 10
1.918918185763885
 20
5.977929687499997
 30
0.0
 10
2.388829210069443
 20
4.510319010416666
 30
0.0
 10
2.62378472222222
 20
2.449462890624999
 30
0.0
 10
2.62378472222222
 20
-0.204638671875
 30
0.0
 10
2.62378472222222
 20
-0.8950358072916666
 30
0.0
 10
2.590022786458332
 20
-1.643310546874999
 30
0.0
 10
2.523187934027772
 20
-2.45015190972222
 30
0.0
 10
2.408121744791666
 20
-3.80200737847222
 30
0.0
 10
2.226220703124999
 20
-4.909950086805555
 30
0.0
 10
1.976795789930553
 20
-5.774669053819441
 30
0.0
 10
1.659847005208333
 20
-6.853672960069442
 30
0.0
 10
1.252636718749998
 20
-7.583344184027778
 30
0.0
 10
0.7544759114583333
 20
-7.962304687499997
 30
0.0
 10
0.4664659288194444
 20
-8.166254340277777
 30
0.0
 10
0.1074869791666666
 20
-8.268229166666666
 30
0.0
 10
-0.3231499565972222
 20
-8.268229166666666
 30
0.0
 10
-0.3231499565972222
 20
-8.268229166666666
 30
0.0
 10
-2.62378472222222
 20
-8.268229166666666
 30
0.0
 10
-2.62378472222222
 20
-8.268229166666666
 30
0.0
  0
SPLINE
  5
47C
330
47A
100
AcDbEntity
  8
LAYER_1
 62
     7
100
AcDbSpline
210
0.0
220
0.0
230
1.0
 70
    11
 71
     3
 72
    26
 73
    22
 74
     0
 42
0.0000000001
 43
0.0000000001
 40
0.0
 40
0.0
 40
0.0
 40
0.0
 40
1.0
 40
1.0
 40
1.0
 40
2.0
 40
2.0
 40
2.0
 40
3.0
 40
3.0
 40
3.0
 40
4.0
 40
4.0
 40
4.0
 40
5.0
 40
5.0
 40
5.0
 40
6.0
 40
6.0
 40
6.0
 40
7.0
 40
7.0
 40
7.0
 40
7.0
 10
-3.946701388888888
 20
-10.7376736111111
 30
0.0
 10
-3.946701388888888
 20
-10.7376736111111
 30
0.0
 10
-0.0943956163194444
 20
-10.7376736111111
 30
0.0
 10
-0.0943956163194444
 20
-10.7376736111111
 30
0.0
 10
1.546847873263885
 20
-10.7376736111111
 30
0.0
 10
2.705777994791666
 20
-9.11021050347222
 30
0.0
 10
3.381705729166666
 20
-5.854595269097222
 30
0.0
 10
3.757910156249999
 20
-4.01284722222222
 30
0.0
 10
3.946701388888888
 20
-1.951991102430555
 30
0.0
 10
3.946701388888888
 20
0.328662109375
 30
0.0
 10
3.946701388888888
 20
3.281797960069443
 30
0.0
 10
3.622862413194443
 20
5.703700086805552
 30
0.0
 10
2.976562499999998
 20
7.594368489583332
 30
0.0
 10
2.25171440972222
 20
9.689675564236106
 30
0.0
 10
1.233344184027777
 20
10.7376736111111
 30
0.0
 10
-0.0799262152777778
 20
10.7376736111111
 30
0.0
 10
-0.0799262152777778
 20
10.7376736111111
 30
0.0
 10
-3.946701388888888
 20
10.7376736111111
 30
0.0
 10
-3.946701388888888
 20
10.7376736111111
 30
0.0
 10
-3.946701388888888
 20
10.7376736111111
 30
0.0
 10
-3.946701388888888
 20
-10.7376736111111
 30
0.0
 10
-3.946701388888888
 20
-10.7376736111111
 30
0.0
  0
ENDBLK
  5
47E
330
47A
100
AcDbEntity
  8
0
100
AcDbBlockEnd
  0
BLOCK
  5
482
330
47F
100
AcDbEntity
  8
0
 62
     7
100
AcDbBlockBegin
  2
AI9-BLK4
 70
     0
 10
0.0
 20
0.0
 30
0.0
  3
AI9-BLK4
  1

  0
SPLINE
  5
480
330
47F
100
AcDbEntity
  8
LAYER_1
 62
     7
100
AcDbSpline
210
0.0
220
0.0
230
1.0
 70
    11
 71
     3
 72
    26
 73
    22
 74
     0
 42
0.0000000001
 43
0.0000000001
 40
0.0
 40
0.0
 40
0.0
 40
0.0
 40
1.0
 40
1.0
 40
1.0
 40
2.0
 40
2.0
 40
2.0
 40
3.0
 40
3.0
 40
3.0
 40
4.0
 40
4.0
 40
4.0
 40
5.0
 40
5.0
 40
5.0
 40
6.0
 40
6.0
 40
6.0
 40
7.0
 40
7.0
 40
7.0
 40
7.0
 10
-2.645833333333333
 20
0.9039930555555551
 30
0.0
 10
-2.645833333333333
 20
0.9039930555555551
 30
0.0
 10
-2.645833333333333
 20
8.180034722222217
 30
0.0
 10
-2.645833333333333
 20
8.180034722222217
 30
0.0
 10
-2.645833333333333
 20
8.180034722222217
 30
0.0
 10
0.465087890625
 20
8.180034722222217
 30
0.0
 10
0.465087890625
 20
8.180034722222217
 30
0.0
 10
0.9026150173611108
 20
8.180034722222217
 30
0.0
 10
1.24988064236111
 20
8.034651692708331
 30
0.0
 10
1.506884765625
 20
7.745263671874997
 30
0.0
 10
2.001600477430554
 20
7.194048394097221
 30
0.0
 10
2.248958333333332
 20
6.160519748263887
 30
0.0
 10
2.248958333333332
 20
4.643299696180553
 30
0.0
 10
2.248958333333332
 20
3.232188585069443
 30
0.0
 10
2.072569444444444
 20
2.256537543402775
 30
0.0
 10
1.720480685763888
 20
1.715657552083333
 30
0.0
 10
1.368391927083333
 20
1.174088541666665
 30
0.0
 10
0.8929687499999998
 20
0.9039930555555551
 30
0.0
 10
0.2942111545138888
 20
0.9039930555555551
 30
0.0
 10
0.2942111545138888
 20
0.9039930555555551
 30
0.0
 10
-2.645833333333333
 20
0.9039930555555551
 30
0.0
 10
-2.645833333333333
 20
0.9039930555555551
 30
0.0
  0
SPLINE
  5
481
330
47F
100
AcDbEntity
  8
LAYER_1
 62
     7
100
AcDbSpline
210
0.0
220
0.0
230
1.0
 70
    11
 71
     3
 72
    68
 73
    64
 74
     0
 42
0.0000000001
 43
0.0000000001
 40
0.0
 40
0.0
 40
0.0
 40
0.0
 40
1.0
 40
1.0
 40
1.0
 40
2.0
 40
2.0
 40
2.0
 40
3.0
 40
3.0
 40
3.0
 40
4.0
 40
4.0
 40
4.0
 40
5.0
 40
5.0
 40
5.0
 40
6.0
 40
6.0
 40
6.0
 40
7.0
 40
7.0
 40
7.0
 40
8.0
 40
8.0
 40
8.0
 40
9.0
 40
9.0
 40
9.0
 40
10.0
 40
10.0
 40
10.0
 40
11.0
 40
11.0
 40
11.0
 40
12.0
 40
12.0
 40
12.0
 40
13.0
 40
13.0
 40
13.0
 40
14.0
 40
14.0
 40
14.0
 40
15.0
 40
15.0
 40
15.0
 40
16.0
 40
16.0
 40
16.0
 40
17.0
 40
17.0
 40
17.0
 40
18.0
 40
18.0
 40
18.0
 40
19.0
 40
19.0
 40
19.0
 40
20.0
 40
20.0
 40
20.0
 40
21.0
 40
21.0
 40
21.0
 40
21.0
 10
-3.968749999999998
 20
-10.7376736111111
 30
0.0
 10
-3.968749999999998
 20
-10.7376736111111
 30
0.0
 10
-2.645833333333333
 20
-10.7376736111111
 30
0.0
 10
-2.645833333333333
 20
-10.7376736111111
 30
0.0
 10
-2.645833333333333
 20
-10.7376736111111
 30
0.0
 10
-2.645833333333333
 20
-1.521354166666665
 30
0.0
 10
-2.645833333333333
 20
-1.521354166666665
 30
0.0
 10
-2.645833333333333
 20
-1.521354166666665
 30
0.0
 10
0.2390896267361111
 20
-1.521354166666665
 30
0.0
 10
0.2390896267361111
 20
-1.521354166666665
 30
0.0
 10
0.7599880642361111
 20
-1.521354166666665
 30
0.0
 10
1.143771701388887
 20
-1.65295681423611
 30
0.0
 10
1.390440538194444
 20
-1.916162109374999
 30
0.0
 10
1.816254340277773
 20
-2.39434136284722
 30
0.0
 10
2.04363064236111
 20
-3.335541449652775
 30
0.0
 10
2.072569444444444
 20
-4.739762369791666
 30
0.0
 10
2.072569444444444
 20
-4.739762369791666
 30
0.0
 10
2.160763888888888
 20
-8.324039713541665
 30
0.0
 10
2.160763888888888
 20
-8.324039713541665
 30
0.0
 10
2.18005642361111
 20
-9.163264973958332
 30
0.0
 10
2.202794053819443
 20
-9.728949652777775
 30
0.0
 10
2.227598741319444
 20
-10.02109374999998
 30
0.0
 10
2.252403428819443
 20
-10.31392686631944
 30
0.0
 10
2.28892144097222
 20
-10.55301649305555
 30
0.0
 10
2.33853081597222
 20
-10.7376736111111
 30
0.0
 10
2.33853081597222
 20
-10.7376736111111
 30
0.0
 10
3.968749999999998
 20
-10.7376736111111
 30
0.0
 10
3.968749999999998
 20
-10.7376736111111
 30
0.0
 10
3.968749999999998
 20
-10.7376736111111
 30
0.0
 10
3.968749999999998
 20
-10.25260416666666
 30
0.0
 10
3.968749999999998
 20
-10.25260416666666
 30
0.0
 10
3.766867404513888
 20
-10.05830078125
 30
0.0
 10
3.625618489583333
 20
-9.621462673611112
 30
0.0
 10
3.545692274305555
 20
-8.942089843749997
 30
0.0
 10
3.49470486111111
 20
-8.543836805555555
 30
0.0
 10
3.459564887152775
 20
-7.937499999999999
 30
0.0
 10
3.439583333333333
 20
-7.121701388888887
 30
0.0
 10
3.439583333333333
 20
-7.121701388888887
 30
0.0
 10
3.395486111111106
 20
-4.232644314236106
 30
0.0
 10
3.395486111111106
 20
-4.232644314236106
 30
0.0
 10
3.375504557291666
 20
-2.981385633680555
 30
0.0
 10
3.26870659722222
 20
-2.077392578125
 30
0.0
 10
3.075781249999999
 20
-1.522043185763888
 30
0.0
 10
2.882166883680555
 20
-0.9666937934027776
 30
0.0
 10
2.592089843749999
 20
-0.5188313802083333
 30
0.0
 10
2.204861111111104
 20
-0.1770779079861111
 30
0.0
 10
2.63618706597222
 20
0.3197048611111111
 30
0.0
 10
2.971739366319443
 20
0.9770290798611107
 30
0.0
 10
3.211518012152775
 20
1.79558376736111
 30
0.0
 10
3.451296657986107
 20
2.613449435763888
 30
0.0
 10
3.571874999999999
 20
3.66558159722222
 30
0.0
 10
3.571874999999999
 20
4.951291232638888
 30
0.0
 10
3.571874999999999
 20
7.415912543402777
 30
0.0
 10
3.124701605902775
 20
9.106076388888887
 30
0.0
 10
2.231043836805555
 20
10.02178276909722
 30
0.0
 10
1.759754774305553
 20
10.498583984375
 30
0.0
 10
1.163753255208332
 20
10.7376736111111
 30
0.0
 10
0.443039279513889
 20
10.7376736111111
 30
0.0
 10
0.443039279513889
 20
10.7376736111111
 30
0.0
 10
-3.968749999999998
 20
10.7376736111111
 30
0.0
 10
-3.968749999999998
 20
10.7376736111111
 30
0.0
 10
-3.968749999999998
 20
10.7376736111111
 30
0.0
 10
-3.968749999999998
 20
-10.7376736111111
 30
0.0
 10
-3.968749999999998
 20
-10.7376736111111
 30
0.0
  0
ENDBLK
  5
483
330
47F
100
AcDbEntity
  8
0
100
AcDbBlockEnd
  0
BLOCK
  5
487
330
484
100
AcDbEntity
  8
0
 62
     7
100
AcDbBlockBegin
  2
AI9-BLK3
 70
     0
 10
0.0
 20
0.0
 30
0.0
  3
AI9-BLK3
  1

  0
LWPOLYLINE
  5
485
330
484
100
AcDbEntity
  8
LAYER_1
 62
     7
100
AcDbPolyline
 90
        4
 70
     1
 43
0.0
 10
-0.6613722059461809
 20
10.7376736111111
 10
0.6613722059461809
 20
10.7376736111111
 10
0.6613722059461809
 20
-10.7376736111111
 10
-0.6613722059461809
 20
-10.7376736111111
  0
HATCH
  5
486
330
484
100
AcDbEntity
  8
LAYER_1
 62
     7
100
AcDbHatch
 10
0.0
 20
0.0
 30
0.0
210
0.0
220
0.0
230
1.0
  2
SOLID
 70
     1
 71
     0
 91
        1
 92
        3
 72
     0
 73
     1
 93
        4
 10
-0.6613722059461809
 20
10.7376736111111
 10
0.6613722059461809
 20
10.7376736111111
 10
0.6613722059461809
 20
-10.7376736111111
 10
-0.6613722059461809
 20
-10.7376736111111
 97
        0
 75
     2
 76
     1
 98
        1
 10
0.0
 20
0.0
  0
ENDBLK
  5
488
330
484
100
AcDbEntity
  8
0
100
AcDbBlockEnd
  0
BLOCK
  5
48C
330
489
100
AcDbEntity
  8
0
 62
     7
100
AcDbBlockBegin
  2
AI9-BLK2
 70
     0
 10
0.0
 20
0.0
 30
0.0
  3
AI9-BLK2
  1

  0
LWPOLYLINE
  5
48A
330
489
100
AcDbEntity
  8
LAYER_1
 62
     7
100
AcDbPolyline
 90
        7
 70
     1
 43
0.0
 10
-2.785704210069443
 20
10.7376736111111
 10
0.0
 20
-7.550960286458332
 10
2.771234809027776
 20
10.7376736111111
 10
4.233333333333331
 20
10.7376736111111
 10
0.6910861545138888
 20
-10.7376736111111
 10
-0.7055555555555558
 20
-10.7376736111111
 10
-4.233333333333331
 20
10.7376736111111
  0
HATCH
  5
48B
330
489
100
AcDbEntity
  8
LAYER_1
 62
     7
100
AcDbHatch
 10
0.0
 20
0.0
 30
0.0
210
0.0
220
0.0
230
1.0
  2
SOLID
 70
     1
 71
     0
 91
        1
 92
        3
 72
     0
 73
     1
 93
        7
 10
-2.785704210069443
 20
10.7376736111111
 10
0.0
 20
-7.550960286458332
 10
2.771234809027776
 20
10.7376736111111
 10
4.233333333333331
 20
10.7376736111111
 10
0.6910861545138888
 20
-10.7376736111111
 10
-0.7055555555555558
 20
-10.7376736111111
 10
-4.233333333333331
 20
10.7376736111111
 97
        0
 75
     2
 76
     1
 98
        1
 10
0.0
 20
0.0
  0
ENDBLK
  5
48D
330
489
100
AcDbEntity
  8
0
100
AcDbBlockEnd
  0
BLOCK
  5
491
330
48E
100
AcDbEntity
  8
0
 62
     7
100
AcDbBlockBegin
  2
AI9-BLK1
 70
     0
 10
0.0
 20
0.0
 30
0.0
  3
AI9-BLK1
  1

  0
LWPOLYLINE
  5
48F
330
48E
100
AcDbEntity
  8
LAYER_1
 62
     7
100
AcDbPolyline
 90
       12
 70
     1
 43
0.0
 10
-3.571874999999999
 20
10.7376736111111
 10
3.483680555555555
 20
10.7376736111111
 10
3.483680555555555
 20
8.091840277777777
 10
-2.248958333333332
 20
8.091840277777777
 10
-2.248958333333332
 20
1.565451388888888
 10
3.042708333333333
 20
1.565451388888888
 10
3.042708333333333
 20
-0.9039930555555551
 10
-2.248958333333332
 20
-0.9039930555555551
 10
-2.248958333333332
 20
-8.180034722222217
 10
3.571874999999999
 20
-8.180034722222217
 10
3.571874999999999
 20
-10.7376736111111
 10
-3.571874999999999
 20
-10.7376736111111
  0
HATCH
  5
490
330
48E
100
AcDbEntity
  8
LAYER_1
 62
     7
100
AcDbHatch
 10
0.0
 20
0.0
 30
0.0
210
0.0
220
0.0
230
1.0
  2
SOLID
 70
     1
 71
     0
 91
        1
 92
        3
 72
     0
 73
     1
 93
       12
 10
-3.571874999999999
 20
10.7376736111111
 10
3.483680555555555
 20
10.7376736111111
 10
3.483680555555555
 20
8.091840277777777
 10
-2.248958333333332
 20
8.091840277777777
 10
-2.248958333333332
 20
1.565451388888888
 10
3.042708333333333
 20
1.565451388888888
 10
3.042708333333333
 20
-0.9039930555555551
 10
-2.248958333333332
 20
-0.9039930555555551
 10
-2.248958333333332
 20
-8.180034722222217
 10
3.571874999999999
 20
-8.180034722222217
 10
3.571874999999999
 20
-10.7376736111111
 10
-3.571874999999999
 20
-10.7376736111111
 97
        0
 75
     2
 76
     1
 98
        1
 10
0.0
 20
0.0
  0
ENDBLK
  5
492
330
48E
100
AcDbEntity
  8
0
100
AcDbBlockEnd
  0
BLOCK
  5
4B6
330
493
100
AcDbEntity
  8
0
100
AcDbBlockBegin
  2
HD_LLC_logo_OT5
 70
     0
 10
0.0
 20
0.0
 30
0.0
  3
HD_LLC_logo_OT5
  1

  0
SPLINE
  5
494
102
{ACAD_REACTORS
330
4B4
102
}
330
493
100
AcDbEntity
  8
LAYER_1
 62
     7
100
AcDbSpline
210
0.0
220
0.0
230
1.0
 70
    11
 71
     3
 72
   113
 73
   109
 74
     0
 42
0.0000000001
 43
0.0000000001
 40
0.0
 40
0.0
 40
0.0
 40
0.0
 40
1.0
 40
1.0
 40
1.0
 40
2.0
 40
2.0
 40
2.0
 40
3.0
 40
3.0
 40
3.0
 40
4.0
 40
4.0
 40
4.0
 40
5.0
 40
5.0
 40
5.0
 40
6.0
 40
6.0
 40
6.0
 40
7.0
 40
7.0
 40
7.0
 40
8.0
 40
8.0
 40
8.0
 40
9.0
 40
9.0
 40
9.0
 40
10.0
 40
10.0
 40
10.0
 40
11.0
 40
11.0
 40
11.0
 40
12.0
 40
12.0
 40
12.0
 40
13.0
 40
13.0
 40
13.0
 40
14.0
 40
14.0
 40
14.0
 40
15.0
 40
15.0
 40
15.0
 40
16.0
 40
16.0
 40
16.0
 40
17.0
 40
17.0
 40
17.0
 40
18.0
 40
18.0
 40
18.0
 40
19.0
 40
19.0
 40
19.0
 40
20.0
 40
20.0
 40
20.0
 40
21.0
 40
21.0
 40
21.0
 40
22.0
 40
22.0
 40
22.0
 40
23.0
 40
23.0
 40
23.0
 40
24.0
 40
24.0
 40
24.0
 40
25.0
 40
25.0
 40
25.0
 40
26.0
 40
26.0
 40
26.0
 40
27.0
 40
27.0
 40
27.0
 40
28.0
 40
28.0
 40
28.0
 40
29.0
 40
29.0
 40
29.0
 40
30.0
 40
30.0
 40
30.0
 40
31.0
 40
31.0
 40
31.0
 40
32.0
 40
32.0
 40
32.0
 40
33.0
 40
33.0
 40
33.0
 40
34.0
 40
34.0
 40
34.0
 40
35.0
 40
35.0
 40
35.0
 40
36.0
 40
36.0
 40
36.0
 40
36.0
 10
193.3039632161458
 20
186.1548733181423
 30
0.0
 10
193.3039632161458
 20
186.1860514322916
 30
0.0
 10
193.3039632161458
 20
219.6932223849826
 30
0.0
 10
193.3039632161458
 20
219.6932223849826
 30
0.0
 10
193.3039632161458
 20
219.6932223849826
 30
0.0
 10
193.2974175347219
 20
219.7488606770833
 30
0.0
 10
193.2974175347219
 20
219.7488606770833
 30
0.0
 10
191.5293945312499
 20
235.455740017361
 30
0.0
 10
175.1458984374999
 20
235.2467949761284
 30
0.0
 10
174.9808783637151
 20
235.2428331163193
 30
0.0
 10
174.9808783637151
 20
235.2428331163193
 30
0.0
 10
125.8827555338541
 20
235.2430053710937
 30
0.0
 10
125.8827555338541
 20
235.2430053710937
 30
0.0
 10
125.8827555338541
 20
235.2430053710937
 30
0.0
 10
125.8827555338541
 20
255.5278998480901
 30
0.0
 10
125.8827555338541
 20
255.5278998480901
 30
0.0
 10
125.8827555338541
 20
255.5278998480901
 30
0.0
 10
84.5626247829861
 20
255.5278998480901
 30
0.0
 10
84.5626247829861
 20
255.5278998480901
 30
0.0
 10
84.5626247829861
 20
255.5278998480901
 30
0.0
 10
84.55711263020829
 20
233.7919311523436
 30
0.0
 10
84.55711263020829
 20
233.7919311523436
 30
0.0
 10
84.55711263020829
 20
233.7919311523436
 30
0.0
 10
64.42052951388888
 20
233.7919311523436
 30
0.0
 10
64.42052951388888
 20
233.7919311523436
 30
0.0
 10
64.42052951388888
 20
233.7919311523436
 30
0.0
 10
64.41501736111111
 20
255.5278998480901
 30
0.0
 10
64.41501736111111
 20
255.5278998480901
 30
0.0
 10
64.41501736111111
 20
255.5278998480901
 30
0.0
 10
23.91757541232637
 20
255.5278998480901
 30
0.0
 10
23.91757541232637
 20
255.5278998480901
 30
0.0
 10
23.91757541232637
 20
255.5278998480901
 30
0.0
 10
23.91757541232637
 20
233.2393378363715
 30
0.0
 10
23.91757541232637
 20
233.2393378363715
 30
0.0
 10
23.91757541232637
 20
233.2393378363715
 30
0.0
 10
43.65624999999999
 20
233.2393378363715
 30
0.0
 10
43.65624999999999
 20
233.2393378363715
 30
0.0
 10
43.65624999999999
 20
233.2393378363715
 30
0.0
 10
43.65624999999999
 20
211.5188720703125
 30
0.0
 10
43.65624999999999
 20
211.5188720703125
 30
0.0
 10
43.65624999999999
 20
211.5188720703125
 30
0.0
 10
23.91757541232637
 20
211.5188720703125
 30
0.0
 10
23.91757541232637
 20
211.5188720703125
 30
0.0
 10
23.91757541232637
 20
211.5188720703125
 30
0.0
 10
23.91757541232637
 20
189.2303100585936
 30
0.0
 10
23.91757541232637
 20
189.2303100585936
 30
0.0
 10
23.91757541232637
 20
189.2303100585936
 30
0.0
 10
64.41501736111111
 20
189.2303100585936
 30
0.0
 10
64.41501736111111
 20
189.2303100585936
 30
0.0
 10
64.41501736111111
 20
189.2303100585936
 30
0.0
 10
64.42052951388888
 20
211.069976128472
 30
0.0
 10
64.42052951388888
 20
211.069976128472
 30
0.0
 10
64.42052951388888
 20
211.069976128472
 30
0.0
 10
84.55711263020829
 20
211.069976128472
 30
0.0
 10
84.55711263020829
 20
211.069976128472
 30
0.0
 10
84.55711263020829
 20
211.069976128472
 30
0.0
 10
84.5626247829861
 20
189.2303100585936
 30
0.0
 10
84.5626247829861
 20
189.2303100585936
 30
0.0
 10
84.5626247829861
 20
189.2303100585936
 30
0.0
 10
125.8827555338541
 20
189.2303100585936
 30
0.0
 10
125.8827555338541
 20
189.2303100585936
 30
0.0
 10
125.8827555338541
 20
189.2303100585936
 30
0.0
 10
125.8827555338541
 20
211.5188720703125
 30
0.0
 10
125.8827555338541
 20
211.5188720703125
 30
0.0
 10
125.8827555338541
 20
211.5188720703125
 30
0.0
 10
105.3213921440971
 20
211.5188720703125
 30
0.0
 10
105.3213921440971
 20
211.5188720703125
 30
0.0
 10
105.3213921440971
 20
211.5188720703125
 30
0.0
 10
105.3213921440971
 20
233.2393378363715
 30
0.0
 10
105.3213921440971
 20
233.2393378363715
 30
0.0
 10
105.3213921440971
 20
233.2393378363715
 30
0.0
 10
175.0046495225693
 20
233.243127441406
 30
0.0
 10
175.0046495225693
 20
233.243127441406
 30
0.0
 10
175.6268337673611
 20
233.2560465494791
 30
0.0
 10
189.7165852864583
 20
233.3962619357638
 30
0.0
 10
191.3037407769094
 20
219.5690266927083
 30
0.0
 10
191.3037407769094
 20
219.4332899305555
 30
0.0
 10
191.3037407769094
 20
186.1142211914062
 30
0.0
 10
191.3037407769094
 20
186.1142211914062
 30
0.0
 10
191.3037407769094
 20
186.1142211914062
 30
0.0
 10
191.3051188151039
 20
186.0880384657115
 30
0.0
 10
191.3051188151039
 20
186.0880384657115
 30
0.0
 10
191.3054633246526
 20
186.0787367078991
 30
0.0
 10
191.3109754774304
 20
185.9566080729166
 30
0.0
 10
191.3109754774304
 20
185.7399115668401
 30
0.0
 10
191.3109754774304
 20
184.2090833875865
 30
0.0
 10
191.0488037109374
 20
177.9643310546874
 30
0.0
 10
186.9866916232638
 20
173.5652886284722
 30
0.0
 10
184.2540418836804
 20
170.6064683702255
 30
0.0
 10
180.3224989149304
 20
169.0308539496526
 30
0.0
 10
175.300927734375
 20
168.8825425889756
 30
0.0
 10
175.300927734375
 20
168.8825425889756
 30
0.0
 10
107.0094889322916
 20
168.8828870985243
 30
0.0
 10
107.0094889322916
 20
168.8828870985243
 30
0.0
 10
107.0094889322916
 20
168.8828870985243
 30
0.0
 10
107.0094889322916
 20
166.8830091688368
 30
0.0
 10
107.0094889322916
 20
166.8830091688368
 30
0.0
 10
107.0094889322916
 20
166.8830091688368
 30
0.0
 10
175.3305555555555
 20
166.8830091688368
 30
0.0
 10
175.3305555555555
 20
166.8830091688368
 30
0.0
 10
180.9467502170138
 20
167.0485460069444
 30
0.0
 10
185.3571614583333
 20
168.8448187934026
 30
0.0
 10
188.4687717013888
 20
172.2223904079861
 30
0.0
 10
192.9649658203124
 20
177.1034016927083
 30
0.0
 10
193.3136094835069
 20
183.7202243381076
 30
0.0
 10
193.3136094835069
 20
185.6520616319443
 30
0.0
 10
193.3136094835069
 20
185.9247409396701
 30
0.0
 10
193.3070638020833
 20
186.0868326822916
 30
0.0
 10
193.3039632161458
 20
186.1548733181423
 30
0.0
  0
INSERT
  5
495
102
{ACAD_REACTORS
330
4B5
102
}
330
493
100
AcDbEntity
  8
LAYER_1
 62
     7
100
AcDbBlockReference
  2
AI9-BLK14
 10
159.5625257703993
 20
200.5118781195744
 30
0.0
  0
INSERT
  5
496
330
493
100
AcDbEntity
  8
LAYER_1
 62
     7
100
AcDbBlockReference
  2
AI9-BLK13
 10
27.69615614149305
 20
179.2145562065971
 30
0.0
 42
0.9200000000000001
  0
INSERT
  5
497
102
{ACAD_REACTORS
330
4A2
102
}
330
493
100
AcDbEntity
  8
LAYER_1
 62
     7
100
AcDbBlockReference
  2
AI9-BLK11
 10
44.76591525607638
 20
179.2145562065971
 30
0.0
 42
0.9200000000000001
  0
INSERT
  5
498
102
{ACAD_REACTORS
330
4B0
102
}
330
493
100
AcDbEntity
  8
LAYER_1
 62
     7
100
AcDbBlockReference
  2
AI9-BLK10
 10
54.04665798611111
 20
179.2145562065971
 30
0.0
 42
0.9200000000000001
  0
INSERT
  5
499
102
{ACAD_REACTORS
330
4AF
102
}
330
493
100
AcDbEntity
  8
LAYER_1
 62
     7
100
AcDbBlockReference
  2
AI9-BLK9
 10
62.79013807508679
 20
179.2145562065971
 30
0.0
 42
0.9
  0
INSERT
  5
49A
330
493
100
AcDbEntity
  8
LAYER_1
 62
     7
100
AcDbBlockReference
  2
AI9-BLK8
 10
71.03046196831595
 20
179.2145562065971
 30
0.0
 42
0.9200000000000001
  0
INSERT
  5
49B
330
493
100
AcDbEntity
  8
LAYER_1
 62
     7
100
AcDbBlockReference
  2
AI9-BLK7
 10
76.93793945312498
 20
179.2145562065971
 30
0.0
 42
0.9200000000000001
  0
INSERT
  5
49C
102
{ACAD_REACTORS
330
4A3
102
}
330
493
100
AcDbEntity
  8
LAYER_1
 62
     7
100
AcDbBlockReference
  2
AI9-BLK6
 10
82.55602891710069
 20
179.2145562065971
 30
0.0
 42
0.9
  0
INSERT
  5
49D
102
{ACAD_REACTORS
330
4B1
102
}
330
493
100
AcDbEntity
  8
LAYER_1
 62
     7
100
AcDbBlockReference
  2
AI9-BLK5
 10
94.32430284288193
 20
179.2145562065971
 30
0.0
 42
0.9200000000000001
  0
INSERT
  5
49E
102
{ACAD_REACTORS
330
4B2
102
}
330
493
100
AcDbEntity
  8
LAYER_1
 62
     7
100
AcDbBlockReference
  2
AI9-BLK4
 10
103.2081705729166
 20
179.2145562065971
 30
0.0
 42
0.9200000000000001
  0
INSERT
  5
49F
330
493
100
AcDbEntity
  8
LAYER_1
 62
     7
100
AcDbBlockReference
  2
AI9-BLK3
 10
108.850978597005
 20
179.2145562065971
 30
0.0
 42
0.9200000000000001
  0
INSERT
  5
4A0
330
493
100
AcDbEntity
  8
LAYER_1
 62
     7
100
AcDbBlockReference
  2
AI9-BLK2
 10
114.2045708550346
 20
179.2145562065971
 30
0.0
 42
0.9200000000000001
  0
INSERT
  5
4A1
330
493
100
AcDbEntity
  8
LAYER_1
 62
     7
100
AcDbBlockReference
  2
AI9-BLK1
 10
122.4125108506944
 20
179.2145562065971
 30
0.0
 42
0.9200000000000001
  0
HATCH
  5
4A2
330
493
100
AcDbEntity
  8
0
  6
Continuous
100
AcDbHatch
 10
0.0
 20
0.0
 30
0.0
210
0.0
220
0.0
230
1.0
  2
SOLID
 70
     1
 71
     1
 91
        2
 92
       16
 93
        1
 72
     4
 94
        3
 73
     0
 74
     0
 95
       26
 96
       22
 40
0.0
 40
0.0
 40
0.0
 40
0.0
 40
1.0
 40
1.0
 40
1.0
 40
2.0
 40
2.0
 40
2.0
 40
3.0
 40
3.0
 40
3.0
 40
4.0
 40
4.0
 40
4.0
 40
5.0
 40
5.0
 40
5.0
 40
6.0
 40
6.0
 40
6.0
 40
7.0
 40
7.0
 40
7.0
 40
7.0
 10
42.12008192274304
 20
180.046229817708
 10
42.12008192274304
 20
180.046229817708
 10
42.12008192274304
 20
186.7401881510414
 10
42.12008192274304
 20
186.7401881510414
 10
42.12008192274304
 20
186.7401881510414
 10
45.23100314670138
 20
186.7401881510414
 10
45.23100314670138
 20
186.7401881510414
 10
45.66853027343749
 20
186.7401881510414
 10
46.01579589843749
 20
186.6064357638887
 10
46.27280002170138
 20
186.3401987847216
 10
46.76751573350694
 20
185.8330807291664
 10
47.01487358940972
 20
184.8822343749995
 10
47.01487358940972
 20
183.4863919270832
 10
47.01487358940972
 20
182.188169704861
 10
46.83848470052082
 20
181.2905707465276
 10
46.48639594184028
 20
180.7929611545137
 10
46.13430718315971
 20
180.2947176649304
 10
45.65888400607638
 20
180.046229817708
 10
45.06012641059028
 20
180.046229817708
 10
45.06012641059028
 20
180.046229817708
 10
42.12008192274304
 20
180.046229817708
 10
42.12008192274304
 20
180.046229817708
 97
        1
330
497
 92
        1
 93
        1
 72
     4
 94
        3
 73
     0
 74
     0
 95
       68
 96
       64
 40
0.0
 40
0.0
 40
0.0
 40
0.0
 40
1.0
 40
1.0
 40
1.0
 40
2.0
 40
2.0
 40
2.0
 40
3.0
 40
3.0
 40
3.0
 40
4.0
 40
4.0
 40
4.0
 40
5.0
 40
5.0
 40
5.0
 40
6.0
 40
6.0
 40
6.0
 40
7.0
 40
7.0
 40
7.0
 40
8.0
 40
8.0
 40
8.0
 40
9.0
 40
9.0
 40
9.0
 40
10.0
 40
10.0
 40
10.0
 40
11.0
 40
11.0
 40
11.0
 40
12.0
 40
12.0
 40
12.0
 40
13.0
 40
13.0
 40
13.0
 40
14.0
 40
14.0
 40
14.0
 40
15.0
 40
15.0
 40
15.0
 40
16.0
 40
16.0
 40
16.0
 40
17.0
 40
17.0
 40
17.0
 40
18.0
 40
18.0
 40
18.0
 40
19.0
 40
19.0
 40
19.0
 40
20.0
 40
20.0
 40
20.0
 40
21.0
 40
21.0
 40
21.0
 40
21.0
 10
40.79716525607638
 20
169.3358964843748
 10
40.79716525607638
 20
169.3358964843748
 10
42.12008192274304
 20
169.3358964843748
 10
42.12008192274304
 20
169.3358964843748
 10
42.12008192274304
 20
169.3358964843748
 10
42.12008192274304
 20
177.8149103732637
 10
42.12008192274304
 20
177.8149103732637
 10
42.12008192274304
 20
177.8149103732637
 10
45.00500488281249
 20
177.8149103732637
 10
45.00500488281249
 20
177.8149103732637
 10
45.52590332031249
 20
177.8149103732637
 10
45.90968695746528
 20
177.6938359374998
 10
46.15635579427083
 20
177.4516870659717
 10
46.58216959635415
 20
177.0117621527776
 10
46.80954589843749
 20
176.1458580729164
 10
46.83848470052082
 20
174.8539748263887
 10
46.83848470052082
 20
174.8539748263887
 10
46.92667914496527
 20
171.5564396701385
 10
46.92667914496527
 20
171.5564396701385
 10
46.94597167968749
 20
170.7843524305554
 10
46.96870930989581
 20
170.2639225260415
 10
46.99351399739582
 20
169.9951499565971
 10
47.01831868489581
 20
169.725743489583
 10
47.0548366970486
 20
169.5057810329859
 10
47.10444607204859
 20
169.3358964843748
 10
47.10444607204859
 20
169.3358964843748
 10
48.73466525607638
 20
169.3358964843748
 10
48.73466525607638
 20
169.3358964843748
 10
48.73466525607638
 20
169.3358964843748
 10
48.73466525607638
 20
169.7821603732633
 10
48.73466525607638
 20
169.7821603732633
 10
48.53278266059028
 20
169.9609194878471
 10
48.39153374565971
 20
170.3628105468748
 10
48.31160753038194
 20
170.9878335503471
 10
48.26062011718749
 20
171.3542263454858
 10
48.22548014322915
 20
171.9120562065971
 10
48.20549858940971
 20
172.6625909288193
 10
48.20549858940971
 20
172.6625909288193
 10
48.16140136718749
 20
175.3205234374999
 10
48.16140136718749
 20
175.3205234374999
 10
48.14141981336803
 20
176.4716814236109
 10
48.03462185329859
 20
177.3033550347219
 10
47.84169650607638
 20
177.814276475694
 10
47.64808213975693
 20
178.3251979166665
 10
47.35800509982638
 20
178.7372313368054
 10
46.97077636718749
 20
179.0516445312498
 10
47.4021023220486
 20
179.5086846788193
 10
47.73765462239582
 20
180.1134229600693
 10
47.97743326822915
 20
180.866493272569
 10
48.21721191406249
 20
181.6189296874999
 10
48.33779025607638
 20
182.5868912760411
 10
48.33779025607638
 20
183.7697441406248
 10
48.33779025607638
 20
186.0371957465273
 10
47.89061686197913
 20
187.5921464843749
 10
46.99695909288194
 20
188.4345963541665
 10
46.52567003038194
 20
188.8732534722221
 10
45.92966851128472
 20
189.0932159288193
 10
45.20895453559027
 20
189.0932159288193
 10
45.20895453559027
 20
189.0932159288193
 10
40.79716525607638
 20
189.0932159288193
 10
40.79716525607638
 20
189.0932159288193
 10
40.79716525607638
 20
189.0932159288193
 10
40.79716525607638
 20
169.3358964843748
 10
40.79716525607638
 20
169.3358964843748
 97
        0
 75
     0
 76
     1
 98
        0
  0
HATCH
  5
4A3
330
493
100
AcDbEntity
  8
0
  6
Continuous
100
AcDbHatch
 10
0.0
 20
0.0
 30
0.0
210
0.0
220
0.0
230
1.0
  2
SOLID
 70
     1
 71
     1
 91
        1
 92
        1
 93
        1
 72
     4
 94
        3
 73
     0
 74
     0
 95
       59
 96
       55
 40
0.0
 40
0.0
 40
0.0
 40
0.0
 40
1.0
 40
1.0
 40
1.0
 40
2.0
 40
2.0
 40
2.0
 40
3.0
 40
3.0
 40
3.0
 40
4.0
 40
4.0
 40
4.0
 40
5.0
 40
5.0
 40
5.0
 40
6.0
 40
6.0
 40
6.0
 40
7.0
 40
7.0
 40
7.0
 40
8.0
 40
8.0
 40
8.0
 40
9.0
 40
9.0
 40
9.0
 40
10.0
 40
10.0
 40
10.0
 40
11.0
 40
11.0
 40
11.0
 40
12.0
 40
12.0
 40
12.0
 40
13.0
 40
13.0
 40
13.0
 40
14.0
 40
14.0
 40
14.0
 40
15.0
 40
15.0
 40
15.0
 40
16.0
 40
16.0
 40
16.0
 40
17.0
 40
17.0
 40
17.0
 40
18.0
 40
18.0
 40
18.0
 40
18.0
 10
85.61871880425345
 20
187.4658355034721
 10
86.29120144314232
 20
186.1797124565971
 10
86.66671685112847
 20
184.7193364800346
 10
86.7452650282118
 20
183.0840874565969
 10
86.7452650282118
 20
183.0840874565969
 10
85.42234836154511
 20
183.0840874565969
 10
85.42234836154511
 20
183.0840874565969
 10
85.27696533203123
 20
184.3156401909719
 10
84.99171142578125
 20
185.2917046440971
 10
84.56589762369791
 20
186.0122808159719
 10
84.14008382161458
 20
186.7322368706594
 10
83.53994818793401
 20
187.0925249565969
 10
82.76617974175342
 20
187.0925249565969
 10
81.81740044487847
 20
187.0925249565969
 10
81.05258924696178
 20
186.4240386284721
 10
80.47243516710068
 20
185.0883062065971
 10
79.89159206814234
 20
183.7525737847219
 10
79.6015150282118
 20
181.7049468315971
 10
79.6015150282118
 20
178.9454253472221
 10
79.6015150282118
 20
176.6844780815969
 10
79.86265326605901
 20
174.8514116753471
 10
80.38561876085069
 20
173.4456060112846
 10
80.90789523654512
 20
172.0391802300344
 10
81.69199896918403
 20
171.3365874565971
 10
82.73724093967013
 20
171.3365874565971
 10
83.69497748480901
 20
171.3365874565971
 10
84.42120361328125
 20
172.0794878472221
 10
84.91523030598958
 20
173.5665288628469
 10
85.18601481119791
 20
174.3491167534719
 10
85.38445231119791
 20
175.3785112847221
 10
85.51054280598959
 20
176.6547124565971
 10
85.51054280598959
 20
176.6547124565971
 10
86.83345947265625
 20
176.6547124565971
 10
86.83345947265625
 20
176.6547124565971
 10
86.72597249348957
 20
174.6157671440971
 10
86.35114610460069
 20
172.9061040581596
 10
85.70760226779514
 20
171.526343315972
 10
84.93727891710069
 20
169.8650493706596
 10
83.90375027126735
 20
169.0347124565971
 10
82.60701633029514
 20
169.0347124565971
 10
81.48598225911458
 20
169.0347124565971
 10
80.54547119140625
 20
169.7143608940971
 10
79.78479410807292
 20
171.0742778862845
 10
78.78020426432292
 20
172.8726177300344
 10
78.27859836154512
 20
175.6495024956596
 10
78.27859836154512
 20
179.4049321831594
 10
78.27859836154512
 20
182.2562310112846
 10
78.65342475043402
 20
184.5946929253469
 10
79.40445556640622
 20
186.4196978081596
 10
80.22301025390625
 20
188.4028325737846
 10
81.34955647786458
 20
189.3943999565971
 10
82.78271620008679
 20
189.3943999565971
 10
84.00090196397568
 20
189.3943999565971
 10
84.94623616536458
 20
188.7513384331594
 10
85.61871880425345
 20
187.4658355034721
 97
        1
330
49C
 75
     0
 76
     1
 98
        1
 10
0.0
 20
0.0
  0
LINE
  5
4A4
102
{ACAD_REACTORS
330
4B3
102
}
330
493
100
AcDbEntity
  8
LAYER_1
 62
     7
100
AcDbLine
 10
34.65766059027778
 20
177.4497853732638
 30
0.0
 11
36.19830729166666
 21
186.1658769531249
 31
0.0
  0
LINE
  5
4A5
102
{ACAD_REACTORS
330
4B3
102
}
330
493
100
AcDbEntity
  8
LAYER_1
 62
     7
100
AcDbLine
 10
36.19830729166666
 20
186.1658769531249
 30
0.0
 11
37.67556423611111
 21
177.4497853732638
 31
0.0
  0
LINE
  5
4A6
102
{ACAD_REACTORS
330
4B3
102
}
330
493
100
AcDbEntity
  8
LAYER_1
 62
     7
100
AcDbLine
 10
37.67556423611111
 20
177.4497853732638
 30
0.0
 11
34.65766059027778
 21
177.4497853732638
 31
0.0
  0
LINE
  5
4A7
102
{ACAD_REACTORS
330
4B3
102
}
330
493
100
AcDbEntity
  8
LAYER_1
 62
     7
100
AcDbLine
 10
31.83957248263888
 20
169.3358964843748
 30
0.0
 11
33.22450086805555
 21
169.3358964843748
 31
0.0
  0
LINE
  5
4A8
102
{ACAD_REACTORS
330
4B3
102
}
330
493
100
AcDbEntity
  8
LAYER_1
 62
     7
100
AcDbLine
 10
33.22450086805555
 20
169.3358964843748
 30
0.0
 11
34.27043185763887
 21
175.2590353732638
 31
0.0
  0
LINE
  5
4A9
102
{ACAD_REACTORS
330
4B3
102
}
330
493
100
AcDbEntity
  8
LAYER_1
 62
     7
100
AcDbLine
 10
34.27043185763887
 20
175.2590353732638
 30
0.0
 11
38.04694552951389
 21
175.2590353732638
 31
0.0
  0
LINE
  5
4AA
102
{ACAD_REACTORS
330
4B3
102
}
330
493
100
AcDbEntity
  8
LAYER_1
 62
     7
100
AcDbLine
 10
38.04694552951389
 20
175.2590353732638
 30
0.0
 11
39.05015733506942
 21
169.3358964843748
 31
0.0
  0
LINE
  5
4AB
102
{ACAD_REACTORS
330
4B3
102
}
330
493
100
AcDbEntity
  8
LAYER_1
 62
     7
100
AcDbLine
 10
39.05015733506942
 20
169.3358964843748
 30
0.0
 11
40.43508572048611
 21
169.3358964843748
 31
0.0
  0
LINE
  5
4AC
102
{ACAD_REACTORS
330
4B3
102
}
330
493
100
AcDbEntity
  8
LAYER_1
 62
     7
100
AcDbLine
 10
40.43508572048611
 20
169.3358964843748
 30
0.0
 11
36.952783203125
 21
189.0932159288193
 31
0.0
  0
LINE
  5
4AD
102
{ACAD_REACTORS
330
4B3
102
}
330
493
100
AcDbEntity
  8
LAYER_1
 62
     7
100
AcDbLine
 10
36.952783203125
 20
189.0932159288193
 30
0.0
 11
35.47828233506943
 21
189.0932159288193
 31
0.0
  0
LINE
  5
4AE
102
{ACAD_REACTORS
330
4B3
102
}
330
493
100
AcDbEntity
  8
LAYER_1
 62
     7
100
AcDbLine
 10
35.47828233506943
 20
189.0932159288193
 30
0.0
 11
31.83957248263888
 21
169.3358964843748
 31
0.0
  0
HATCH
  5
4AF
330
493
100
AcDbEntity
  8
0
  6
Continuous
100
AcDbHatch
 10
0.0
 20
0.0
 30
0.0
210
0.0
220
0.0
230
1.0
  2
SOLID
 70
     1
 71
     1
 91
        2
 92
       16
 93
        1
 72
     4
 94
        3
 73
     0
 74
     0
 95
       29
 96
       25
 40
0.0
 40
0.0
 40
0.0
 40
0.0
 40
1.0
 40
1.0
 40
1.0
 40
2.0
 40
2.0
 40
2.0
 40
3.0
 40
3.0
 40
3.0
 40
4.0
 40
4.0
 40
4.0
 40
5.0
 40
5.0
 40
5.0
 40
6.0
 40
6.0
 40
6.0
 40
7.0
 40
7.0
 40
7.0
 40
8.0
 40
8.0
 40
8.0
 40
8.0
 10
62.85697292751734
 20
171.3365874565971
 10
61.88338894314235
 20
171.3365874565971
 10
61.18058946397566
 20
172.0714263237844
 10
60.74857449001735
 20
173.5411040581594
 10
60.31587049696178
 20
175.0107817925344
 10
60.10020751953123
 20
176.8165630425341
 10
60.10020751953123
 20
178.9578276909721
 10
60.10020751953123
 20
181.6342534722221
 10
60.35101047092013
 20
183.6589360894094
 10
60.85261637369789
 20
185.0324956597219
 10
61.35422227647566
 20
186.4054351128471
 10
62.00741238064235
 20
187.0925249565969
 10
62.81218668619789
 20
187.0925249565969
 10
63.6369425455729
 20
187.0925249565969
 10
64.28806559244789
 20
186.3992339409721
 10
64.76486680772568
 20
185.0126519097221
 10
65.24166802300347
 20
183.6260698784719
 10
65.48006863064235
 20
181.7961040581594
 10
65.48006863064235
 20
179.5239946831596
 10
65.48006863064235
 20
177.3734282769096
 10
65.27336290147568
 20
175.4715288628467
 10
64.86132948133678
 20
173.8176763237846
 10
64.4492960611979
 20
172.1632036675344
 10
63.78094753689235
 20
171.3365874565971
 10
62.85697292751734
 20
171.3365874565971
 97
        1
330
499
 92
        1
 93
        1
 72
     4
 94
        3
 73
     0
 74
     0
 95
       29
 96
       25
 40
0.0
 40
0.0
 40
0.0
 40
0.0
 40
1.0
 40
1.0
 40
1.0
 40
2.0
 40
2.0
 40
2.0
 40
3.0
 40
3.0
 40
3.0
 40
4.0
 40
4.0
 40
4.0
 40
5.0
 40
5.0
 40
5.0
 40
6.0
 40
6.0
 40
6.0
 40
7.0
 40
7.0
 40
7.0
 40
8.0
 40
8.0
 40
8.0
 40
8.0
 10
62.76119927300346
 20
189.4340874565971
 10
61.47273356119789
 20
189.4340874565971
 10
60.50121663411457
 20
188.2397417534719
 10
59.84733751085068
 20
185.8516704644094
 10
59.3395304361979
 20
183.9900786675344
 10
59.08597140842012
 20
181.7514556206596
 10
59.08597140842012
 20
179.1351812065971
 10
59.08597140842012
 20
176.2379937065971
 10
59.3836276584201
 20
173.8412407769094
 10
59.9789401584201
 20
171.9449224175346
 10
60.6424655490451
 20
169.9779106987846
 10
61.5602389865451
 20
168.9950249565971
 10
62.7315714518229
 20
168.9950249565971
 10
63.9904093424479
 20
168.9950249565971
 10
64.95641411675345
 20
170.1186773003469
 10
65.63027479383679
 20
172.3659819878471
 10
66.20629475911457
 20
174.2796636284719
 10
66.49430474175345
 20
176.6813774956591
 10
66.49430474175345
 20
179.5698833550344
 10
66.49430474175345
 20
182.2388677300341
 10
66.24005669487845
 20
184.4291216362844
 10
65.73293863932289
 20
186.1412651909719
 10
65.08870578342011
 20
188.3364800347219
 10
64.09789632161457
 20
189.4340874565971
 10
62.76119927300346
 20
189.4340874565971
 97
        0
 75
     0
 76
     1
 98
        0
  0
HATCH
  5
4B0
330
493
100
AcDbEntity
  8
0
  6
Continuous
100
AcDbHatch
 10
0.0
 20
0.0
 30
0.0
210
0.0
220
0.0
230
1.0
  2
SOLID
 70
     1
 71
     1
 91
        1
 92
        1
 93
        1
 72
     4
 94
        3
 73
     0
 74
     0
 95
       59
 96
       55
 40
0.0
 40
0.0
 40
0.0
 40
0.0
 40
1.0
 40
1.0
 40
1.0
 40
2.0
 40
2.0
 40
2.0
 40
3.0
 40
3.0
 40
3.0
 40
4.0
 40
4.0
 40
4.0
 40
5.0
 40
5.0
 40
5.0
 40
6.0
 40
6.0
 40
6.0
 40
7.0
 40
7.0
 40
7.0
 40
8.0
 40
8.0
 40
8.0
 40
9.0
 40
9.0
 40
9.0
 40
10.0
 40
10.0
 40
10.0
 40
11.0
 40
11.0
 40
11.0
 40
12.0
 40
12.0
 40
12.0
 40
13.0
 40
13.0
 40
13.0
 40
14.0
 40
14.0
 40
14.0
 40
15.0
 40
15.0
 40
15.0
 40
16.0
 40
16.0
 40
16.0
 40
17.0
 40
17.0
 40
17.0
 40
18.0
 40
18.0
 40
18.0
 40
18.0
 10
49.39440104166666
 20
189.0932159288193
 10
49.39440104166666
 20
189.0932159288193
 10
51.24786241319444
 20
189.0932159288193
 10
51.24786241319444
 20
189.0932159288193
 10
51.24786241319444
 20
189.0932159288193
 10
54.04665798611111
 20
172.3887471788193
 10
54.04665798611111
 20
172.3887471788193
 10
54.04665798611111
 20
172.3887471788193
 10
56.83994140624999
 20
189.0932159288193
 10
56.83994140624999
 20
189.0932159288193
 10
56.83994140624999
 20
189.0932159288193
 10
58.69891493055553
 20
189.0932159288193
 10
58.69891493055553
 20
189.0932159288193
 10
58.69891493055553
 20
189.0932159288193
 10
58.69891493055553
 20
169.3358964843748
 10
58.69891493055553
 20
169.3358964843748
 10
58.69891493055553
 20
169.3358964843748
 10
57.46419270833333
 20
169.3358964843748
 10
57.46419270833333
 20
169.3358964843748
 10
57.46419270833333
 20
169.3358964843748
 10
57.46419270833333
 20
180.9964422743054
 10
57.46419270833333
 20
180.9964422743054
 10
57.46419270833333
 20
181.3996011284721
 10
57.47108289930555
 20
182.0677291666664
 10
57.48624131944444
 20
183.0001924913193
 10
57.50071072048609
 20
183.9326558159721
 10
57.50828993055553
 20
184.932312282986
 10
57.50828993055553
 20
185.9997957899304
 10
57.50828993055553
 20
185.9997957899304
 10
54.700537109375
 20
169.3358964843748
 10
54.700537109375
 20
169.3358964843748
 10
54.700537109375
 20
169.3358964843748
 10
53.38382161458333
 20
169.3358964843748
 10
53.38382161458333
 20
169.3358964843748
 10
53.38382161458333
 20
169.3358964843748
 10
50.58502604166665
 20
185.9997957899304
 10
50.58502604166665
 20
185.9997957899304
 10
50.58502604166665
 20
185.9997957899304
 10
50.58502604166665
 20
185.3944236111109
 10
50.58502604166665
 20
185.3944236111109
 10
50.58502604166665
 20
184.9101258680554
 10
50.59191623263888
 20
184.1729029947915
 10
50.60707465277777
 20
183.1821210937498
 10
50.62154405381942
 20
182.1913391927082
 10
50.62912326388889
 20
181.4629908854165
 10
50.62912326388889
 20
180.9964422743054
 10
50.62912326388889
 20
180.9964422743054
 10
50.62912326388889
 20
169.3358964843748
 10
50.62912326388889
 20
169.3358964843748
 10
50.62912326388889
 20
169.3358964843748
 10
49.39440104166666
 20
169.3358964843748
 10
49.39440104166666
 20
169.3358964843748
 10
49.39440104166666
 20
169.3358964843748
 10
49.39440104166666
 20
189.0932159288193
 10
49.39440104166666
 20
189.0932159288193
 97
        1
330
498
 75
     0
 76
     1
 98
        1
 10
0.0
 20
0.0
  0
HATCH
  5
4B1
330
493
100
AcDbEntity
  8
0
  6
Continuous
100
AcDbHatch
 10
0.0
 20
0.0
 30
0.0
210
0.0
220
0.0
230
1.0
  2
SOLID
 70
     1
 71
     1
 91
        2
 92
       16
 93
        1
 72
     4
 94
        3
 73
     0
 74
     0
 95
       32
 96
       28
 40
0.0
 40
0.0
 40
0.0
 40
0.0
 40
1.0
 40
1.0
 40
1.0
 40
2.0
 40
2.0
 40
2.0
 40
3.0
 40
3.0
 40
3.0
 40
4.0
 40
4.0
 40
4.0
 40
5.0
 40
5.0
 40
5.0
 40
6.0
 40
6.0
 40
6.0
 40
7.0
 40
7.0
 40
7.0
 40
8.0
 40
8.0
 40
8.0
 40
9.0
 40
9.0
 40
9.0
 40
9.0
 10
91.70051812065969
 20
171.6077853732634
 10
91.70051812065969
 20
171.6077853732634
 10
91.70051812065969
 20
186.7401881510414
 10
91.70051812065969
 20
186.7401881510414
 10
91.70051812065969
 20
186.7401881510414
 10
93.98668348524305
 20
186.7401881510414
 10
93.98668348524305
 20
186.7401881510414
 10
95.02159016927082
 20
186.7401881510414
 10
95.77331000434028
 20
186.0644533420137
 10
96.24322102864582
 20
184.7142515190969
 10
96.71313205295138
 20
183.3640496961804
 10
96.94808756510417
 20
181.4680620659721
 10
96.94808756510417
 20
179.0262886284719
 10
96.94808756510417
 20
178.3911232638887
 10
96.91432562934028
 20
177.7027105034721
 10
96.84749077690971
 20
176.9604164496524
 10
96.7324245876736
 20
175.7167094184024
 10
96.55052354600693
 20
174.6974021267359
 10
96.30109863281248
 20
173.901860677083
 10
95.98414984809028
 20
172.9091770833332
 10
95.57693956163193
 20
172.2378795572914
 10
95.07877875434026
 20
171.8892358940971
 10
94.79076877170138
 20
171.7016022135415
 10
94.43178982204859
 20
171.6077853732634
 10
94.00115288628471
 20
171.6077853732634
 10
94.00115288628471
 20
171.6077853732634
 10
91.70051812065969
 20
171.6077853732634
 10
91.70051812065969
 20
171.6077853732634
 97
        1
330
49D
 92
        1
 93
        1
 72
     4
 94
        3
 73
     0
 74
     0
 95
       26
 96
       22
 40
0.0
 40
0.0
 40
0.0
 40
0.0
 40
1.0
 40
1.0
 40
1.0
 40
2.0
 40
2.0
 40
2.0
 40
3.0
 40
3.0
 40
3.0
 40
4.0
 40
4.0
 40
4.0
 40
5.0
 40
5.0
 40
5.0
 40
6.0
 40
6.0
 40
6.0
 40
7.0
 40
7.0
 40
7.0
 40
7.0
 10
90.37760145399305
 20
169.3358964843748
 10
90.37760145399305
 20
169.3358964843748
 10
94.22990722656248
 20
169.3358964843748
 10
94.22990722656248
 20
169.3358964843748
 10
95.87115071614581
 20
169.3358964843748
 10
97.03008083767359
 20
170.8331625434026
 10
97.70600857204859
 20
173.8283285590274
 10
98.08221299913194
 20
175.5227367621523
 10
98.27100423177082
 20
177.4187243923609
 10
98.27100423177082
 20
179.5169253472221
 10
98.27100423177082
 20
182.233810329861
 10
97.94716525607638
 20
184.4619602864582
 10
97.30086534288195
 20
186.2013752170135
 10
96.57601725260416
 20
188.1290577256939
 10
95.5576470269097
 20
189.0932159288193
 10
94.24437662760416
 20
189.0932159288193
 10
94.24437662760416
 20
189.0932159288193
 10
90.37760145399305
 20
189.0932159288193
 10
90.37760145399305
 20
189.0932159288193
 10
90.37760145399305
 20
189.0932159288193
 10
90.37760145399305
 20
169.3358964843748
 10
90.37760145399305
 20
169.3358964843748
 97
        0
 75
     0
 76
     1
 98
        0
  0
HATCH
  5
4B2
330
493
100
AcDbEntity
  8
0
  6
Continuous
100
AcDbHatch
 10
0.0
 20
0.0
 30
0.0
210
0.0
220
0.0
230
1.0
  2
SOLID
 70
     1
 71
     1
 91
        2
 92
       16
 93
        1
 72
     4
 94
        3
 73
     0
 74
     0
 95
       26
 96
       22
 40
0.0
 40
0.0
 40
0.0
 40
0.0
 40
1.0
 40
1.0
 40
1.0
 40
2.0
 40
2.0
 40
2.0
 40
3.0
 40
3.0
 40
3.0
 40
4.0
 40
4.0
 40
4.0
 40
5.0
 40
5.0
 40
5.0
 40
6.0
 40
6.0
 40
6.0
 40
7.0
 40
7.0
 40
7.0
 40
7.0
 10
100.5623372395832
 20
180.046229817708
 10
100.5623372395832
 20
180.046229817708
 10
100.5623372395832
 20
186.7401881510414
 10
100.5623372395832
 20
186.7401881510414
 10
100.5623372395832
 20
186.7401881510414
 10
103.6732584635416
 20
186.7401881510414
 10
103.6732584635416
 20
186.7401881510414
 10
104.1107855902777
 20
186.7401881510414
 10
104.4580512152777
 20
186.6064357638887
 10
104.7150553385415
 20
186.3401987847216
 10
105.2097710503471
 20
185.8330807291664
 10
105.4571289062495
 20
184.8822343749995
 10
105.4571289062495
 20
183.4863919270832
 10
105.4571289062495
 20
182.188169704861
 10
105.280740017361
 20
181.2905707465276
 10
104.9286512586804
 20
180.7929611545137
 10
104.5765624999999
 20
180.2947176649304
 10
104.1011393229166
 20
180.046229817708
 10
103.5023817274304
 20
180.046229817708
 10
103.5023817274304
 20
180.046229817708
 10
100.5623372395832
 20
180.046229817708
 10
100.5623372395832
 20
180.046229817708
 97
        1
330
49E
 92
        1
 93
        1
 72
     4
 94
        3
 73
     0
 74
     0
 95
       68
 96
       64
 40
0.0
 40
0.0
 40
0.0
 40
0.0
 40
1.0
 40
1.0
 40
1.0
 40
2.0
 40
2.0
 40
2.0
 40
3.0
 40
3.0
 40
3.0
 40
4.0
 40
4.0
 40
4.0
 40
5.0
 40
5.0
 40
5.0
 40
6.0
 40
6.0
 40
6.0
 40
7.0
 40
7.0
 40
7.0
 40
8.0
 40
8.0
 40
8.0
 40
9.0
 40
9.0
 40
9.0
 40
10.0
 40
10.0
 40
10.0
 40
11.0
 40
11.0
 40
11.0
 40
12.0
 40
12.0
 40
12.0
 40
13.0
 40
13.0
 40
13.0
 40
14.0
 40
14.0
 40
14.0
 40
15.0
 40
15.0
 40
15.0
 40
16.0
 40
16.0
 40
16.0
 40
17.0
 40
17.0
 40
17.0
 40
18.0
 40
18.0
 40
18.0
 40
19.0
 40
19.0
 40
19.0
 40
20.0
 40
20.0
 40
20.0
 40
21.0
 40
21.0
 40
21.0
 40
21.0
 10
99.23942057291661
 20
169.3358964843748
 10
99.23942057291661
 20
169.3358964843748
 10
100.5623372395832
 20
169.3358964843748
 10
100.5623372395832
 20
169.3358964843748
 10
100.5623372395832
 20
169.3358964843748
 10
100.5623372395832
 20
177.8149103732637
 10
100.5623372395832
 20
177.8149103732637
 10
100.5623372395832
 20
177.8149103732637
 10
103.4472601996527
 20
177.8149103732637
 10
103.4472601996527
 20
177.8149103732637
 10
103.9681586371527
 20
177.8149103732637
 10
104.3519422743053
 20
177.6938359374998
 10
104.5986111111109
 20
177.4516870659717
 10
105.0244249131943
 20
177.0117621527776
 10
105.2518012152777
 20
176.1458580729164
 10
105.280740017361
 20
174.8539748263887
 10
105.280740017361
 20
174.8539748263887
 10
105.3689344618053
 20
171.5564396701385
 10
105.3689344618053
 20
171.5564396701385
 10
105.3882269965277
 20
170.7843524305554
 10
105.4109646267359
 20
170.2639225260415
 10
105.4357693142359
 20
169.9951499565971
 10
105.4605740017358
 20
169.725743489583
 10
105.4970920138888
 20
169.5057810329859
 10
105.5467013888887
 20
169.3358964843748
 10
105.5467013888887
 20
169.3358964843748
 10
107.1769205729166
 20
169.3358964843748
 10
107.1769205729166
 20
169.3358964843748
 10
107.1769205729166
 20
169.3358964843748
 10
107.1769205729166
 20
169.7821603732633
 10
107.1769205729166
 20
169.7821603732633
 10
106.9750379774303
 20
169.9609194878471
 10
106.8337890624996
 20
170.3628105468748
 10
106.7538628472221
 20
170.9878335503471
 10
106.7028754340274
 20
171.3542263454858
 10
106.6677354600692
 20
171.9120562065971
 10
106.6477539062496
 20
172.6625909288193
 10
106.6477539062496
 20
172.6625909288193
 10
106.6036566840277
 20
175.3205234374999
 10
106.6036566840277
 20
175.3205234374999
 10
106.5836751302082
 20
176.4716814236109
 10
106.4768771701387
 20
177.3033550347219
 10
106.2839518229166
 20
177.814276475694
 10
106.0903374565971
 20
178.3251979166665
 10
105.8002604166666
 20
178.7372313368054
 10
105.4130316840276
 20
179.0516445312498
 10
105.8443576388885
 20
179.5086846788193
 10
106.179909939236
 20
180.1134229600693
 10
106.4196885850692
 20
180.866493272569
 10
106.6594672309027
 20
181.6189296874999
 10
106.7800455729166
 20
182.5868912760411
 10
106.7800455729166
 20
183.7697441406248
 10
106.7800455729166
 20
186.0371957465273
 10
106.3328721788193
 20
187.5921464843749
 10
105.4392144097221
 20
188.4345963541665
 10
104.9679253472221
 20
188.8732534722221
 10
104.3719238281249
 20
189.0932159288193
 10
103.6512098524303
 20
189.0932159288193
 10
103.6512098524303
 20
189.0932159288193
 10
99.23942057291661
 20
189.0932159288193
 10
99.23942057291661
 20
189.0932159288193
 10
99.23942057291661
 20
189.0932159288193
 10
99.23942057291661
 20
169.3358964843748
 10
99.23942057291661
 20
169.3358964843748
 97
        0
 75
     0
 76
     1
 98
        0
  0
HATCH
  5
4B3
330
493
100
AcDbEntity
  8
0
  6
Continuous
100
AcDbHatch
 10
0.0
 20
0.0
 30
0.0
210
0.0
220
0.0
230
1.0
  2
SOLID
 70
     1
 71
     1
 91
        2
 92
        1
 93
        8
 72
     1
 10
35.47828233506943
 20
189.0932159288193
 11
31.83957248263888
 21
169.3358964843748
 72
     1
 10
31.83957248263888
 20
169.3358964843748
 11
33.22450086805555
 21
169.3358964843748
 72
     1
 10
33.22450086805555
 20
169.3358964843748
 11
34.27043185763887
 21
175.2590353732638
 72
     1
 10
34.27043185763887
 20
175.2590353732638
 11
38.04694552951389
 21
175.2590353732638
 72
     1
 10
38.04694552951389
 20
175.2590353732638
 11
39.05015733506942
 21
169.3358964843748
 72
     1
 10
39.05015733506942
 20
169.3358964843748
 11
40.43508572048611
 21
169.3358964843748
 72
     1
 10
40.43508572048611
 20
169.3358964843748
 11
36.952783203125
 21
189.0932159288193
 72
     1
 10
36.952783203125
 20
189.0932159288193
 11
35.47828233506943
 21
189.0932159288193
 97
        8
330
4AE
330
4A7
330
4A8
330
4A9
330
4AA
330
4AB
330
4AC
330
4AD
 92
       16
 93
        3
 72
     1
 10
37.67556423611111
 20
177.4497853732638
 11
34.65766059027778
 21
177.4497853732638
 72
     1
 10
34.65766059027778
 20
177.4497853732638
 11
36.19830729166666
 21
186.1658769531249
 72
     1
 10
36.19830729166666
 20
186.1658769531249
 11
37.67556423611111
 21
177.4497853732638
 97
        3
330
4A6
330
4A4
330
4A5
 75
     0
 76
     1
 98
        1
 10
0.0
 20
0.0
  0
HATCH
  5
4B4
330
493
100
AcDbEntity
  8
0
  6
Continuous
100
AcDbHatch
 10
0.0
 20
0.0
 30
0.0
210
0.0
220
0.0
230
1.0
  2
SOLID
 70
     1
 71
     1
 91
        1
 92
        1
 93
        1
 72
     4
 94
        3
 73
     0
 74
     0
 95
      113
 96
      109
 40
0.0
 40
0.0
 40
0.0
 40
0.0
 40
1.0
 40
1.0
 40
1.0
 40
2.0
 40
2.0
 40
2.0
 40
3.0
 40
3.0
 40
3.0
 40
4.0
 40
4.0
 40
4.0
 40
5.0
 40
5.0
 40
5.0
 40
6.0
 40
6.0
 40
6.0
 40
7.0
 40
7.0
 40
7.0
 40
8.0
 40
8.0
 40
8.0
 40
9.0
 40
9.0
 40
9.0
 40
10.0
 40
10.0
 40
10.0
 40
11.0
 40
11.0
 40
11.0
 40
12.0
 40
12.0
 40
12.0
 40
13.0
 40
13.0
 40
13.0
 40
14.0
 40
14.0
 40
14.0
 40
15.0
 40
15.0
 40
15.0
 40
16.0
 40
16.0
 40
16.0
 40
17.0
 40
17.0
 40
17.0
 40
18.0
 40
18.0
 40
18.0
 40
19.0
 40
19.0
 40
19.0
 40
20.0
 40
20.0
 40
20.0
 40
21.0
 40
21.0
 40
21.0
 40
22.0
 40
22.0
 40
22.0
 40
23.0
 40
23.0
 40
23.0
 40
24.0
 40
24.0
 40
24.0
 40
25.0
 40
25.0
 40
25.0
 40
26.0
 40
26.0
 40
26.0
 40
27.0
 40
27.0
 40
27.0
 40
28.0
 40
28.0
 40
28.0
 40
29.0
 40
29.0
 40
29.0
 40
30.0
 40
30.0
 40
30.0
 40
31.0
 40
31.0
 40
31.0
 40
32.0
 40
32.0
 40
32.0
 40
33.0
 40
33.0
 40
33.0
 40
34.0
 40
34.0
 40
34.0
 40
35.0
 40
35.0
 40
35.0
 40
36.0
 40
36.0
 40
36.0
 40
36.0
 10
193.3039632161458
 20
186.1548733181423
 10
193.3039632161458
 20
186.1860514322916
 10
193.3039632161458
 20
219.6932223849826
 10
193.3039632161458
 20
219.6932223849826
 10
193.3039632161458
 20
219.6932223849826
 10
193.2974175347219
 20
219.7488606770833
 10
193.2974175347219
 20
219.7488606770833
 10
191.5293945312499
 20
235.455740017361
 10
175.1458984374999
 20
235.2467949761284
 10
174.9808783637151
 20
235.2428331163193
 10
174.9808783637151
 20
235.2428331163193
 10
125.8827555338541
 20
235.2430053710937
 10
125.8827555338541
 20
235.2430053710937
 10
125.8827555338541
 20
235.2430053710937
 10
125.8827555338541
 20
255.5278998480901
 10
125.8827555338541
 20
255.5278998480901
 10
125.8827555338541
 20
255.5278998480901
 10
84.5626247829861
 20
255.5278998480901
 10
84.5626247829861
 20
255.5278998480901
 10
84.5626247829861
 20
255.5278998480901
 10
84.55711263020829
 20
233.7919311523436
 10
84.55711263020829
 20
233.7919311523436
 10
84.55711263020829
 20
233.7919311523436
 10
64.42052951388888
 20
233.7919311523436
 10
64.42052951388888
 20
233.7919311523436
 10
64.42052951388888
 20
233.7919311523436
 10
64.41501736111111
 20
255.5278998480901
 10
64.41501736111111
 20
255.5278998480901
 10
64.41501736111111
 20
255.5278998480901
 10
23.91757541232637
 20
255.5278998480901
 10
23.91757541232637
 20
255.5278998480901
 10
23.91757541232637
 20
255.5278998480901
 10
23.91757541232637
 20
233.2393378363715
 10
23.91757541232637
 20
233.2393378363715
 10
23.91757541232637
 20
233.2393378363715
 10
43.65624999999999
 20
233.2393378363715
 10
43.65624999999999
 20
233.2393378363715
 10
43.65624999999999
 20
233.2393378363715
 10
43.65624999999999
 20
211.5188720703125
 10
43.65624999999999
 20
211.5188720703125
 10
43.65624999999999
 20
211.5188720703125
 10
23.91757541232637
 20
211.5188720703125
 10
23.91757541232637
 20
211.5188720703125
 10
23.91757541232637
 20
211.5188720703125
 10
23.91757541232637
 20
189.2303100585936
 10
23.91757541232637
 20
189.2303100585936
 10
23.91757541232637
 20
189.2303100585936
 10
64.41501736111111
 20
189.2303100585936
 10
64.41501736111111
 20
189.2303100585936
 10
64.41501736111111
 20
189.2303100585936
 10
64.42052951388888
 20
211.069976128472
 10
64.42052951388888
 20
211.069976128472
 10
64.42052951388888
 20
211.069976128472
 10
84.55711263020829
 20
211.069976128472
 10
84.55711263020829
 20
211.069976128472
 10
84.55711263020829
 20
211.069976128472
 10
84.5626247829861
 20
189.2303100585936
 10
84.5626247829861
 20
189.2303100585936
 10
84.5626247829861
 20
189.2303100585936
 10
125.8827555338541
 20
189.2303100585936
 10
125.8827555338541
 20
189.2303100585936
 10
125.8827555338541
 20
189.2303100585936
 10
125.8827555338541
 20
211.5188720703125
 10
125.8827555338541
 20
211.5188720703125
 10
125.8827555338541
 20
211.5188720703125
 10
105.3213921440971
 20
211.5188720703125
 10
105.3213921440971
 20
211.5188720703125
 10
105.3213921440971
 20
211.5188720703125
 10
105.3213921440971
 20
233.2393378363715
 10
105.3213921440971
 20
233.2393378363715
 10
105.3213921440971
 20
233.2393378363715
 10
175.0046495225693
 20
233.243127441406
 10
175.0046495225693
 20
233.243127441406
 10
175.6268337673611
 20
233.2560465494791
 10
189.7165852864583
 20
233.3962619357638
 10
191.3037407769094
 20
219.5690266927083
 10
191.3037407769094
 20
219.4332899305555
 10
191.3037407769094
 20
186.1142211914062
 10
191.3037407769094
 20
186.1142211914062
 10
191.3037407769094
 20
186.1142211914062
 10
191.3051188151039
 20
186.0880384657115
 10
191.3051188151039
 20
186.0880384657115
 10
191.3054633246526
 20
186.0787367078991
 10
191.3109754774304
 20
185.9566080729166
 10
191.3109754774304
 20
185.7399115668401
 10
191.3109754774304
 20
184.2090833875865
 10
191.0488037109374
 20
177.9643310546874
 10
186.9866916232638
 20
173.5652886284722
 10
184.2540418836804
 20
170.6064683702255
 10
180.3224989149304
 20
169.0308539496526
 10
175.300927734375
 20
168.8825425889756
 10
175.300927734375
 20
168.8825425889756
 10
107.0094889322916
 20
168.8828870985243
 10
107.0094889322916
 20
168.8828870985243
 10
107.0094889322916
 20
168.8828870985243
 10
107.0094889322916
 20
166.8830091688368
 10
107.0094889322916
 20
166.8830091688368
 10
107.0094889322916
 20
166.8830091688368
 10
175.3305555555555
 20
166.8830091688368
 10
175.3305555555555
 20
166.8830091688368
 10
180.9467502170138
 20
167.0485460069444
 10
185.3571614583333
 20
168.8448187934026
 10
188.4687717013888
 20
172.2223904079861
 10
192.9649658203124
 20
177.1034016927083
 10
193.3136094835069
 20
183.7202243381076
 10
193.3136094835069
 20
185.6520616319443
 10
193.3136094835069
 20
185.9247409396701
 10
193.3070638020833
 20
186.0868326822916
 10
193.3039632161458
 20
186.1548733181423
 97
        1
330
494
 75
     0
 76
     1
 98
        1
 10
0.0
 20
0.0
  0
HATCH
  5
4B5
330
493
100
AcDbEntity
  8
0
  6
Continuous
100
AcDbHatch
 10
0.0
 20
0.0
 30
0.0
210
0.0
220
0.0
230
1.0
  2
SOLID
 70
     1
 71
     1
 91
        2
 92
        1
 93
        1
 72
     4
 94
        3
 73
     0
 74
     0
 95
       23
 96
       19
 40
0.0
 40
0.0
 40
0.0
 40
0.0
 40
1.0
 40
1.0
 40
1.0
 40
2.0
 40
2.0
 40
2.0
 40
3.0
 40
3.0
 40
3.0
 40
4.0
 40
4.0
 40
4.0
 40
5.0
 40
5.0
 40
5.0
 40
6.0
 40
6.0
 40
6.0
 40
6.0
 10
148.6593153211804
 20
211.3929538302948
 10
148.6593153211804
 20
211.3929538302948
 10
148.6593153211804
 20
189.6308024088539
 10
148.6593153211804
 20
189.6308024088539
 10
148.6593153211804
 20
189.6308024088539
 10
161.3152180989583
 20
189.6308024088539
 10
161.3152180989583
 20
189.6308024088539
 10
162.8431179470483
 20
189.6308024088539
 10
170.4657362196178
 20
190.1880466037321
 10
170.4657362196178
 20
201.1911648220483
 10
170.4657362196178
 20
211.1288872612844
 10
162.3356553819444
 20
211.3914035373261
 10
162.2536621093749
 20
211.3927815755205
 10
162.2536621093749
 20
211.3927815755205
 10
149.6594265407986
 20
211.3929538302948
 10
149.6594265407986
 20
211.3929538302948
 10
149.6594265407986
 20
211.3929538302948
 10
148.6593153211804
 20
211.3929538302948
 10
148.6593153211804
 20
211.3929538302948
 97
        1
330
495
 92
       16
 93
        1
 72
     4
 94
        3
 73
     0
 74
     0
 95
       20
 96
       16
 40
0.0
 40
0.0
 40
0.0
 40
0.0
 40
1.0
 40
1.0
 40
1.0
 40
2.0
 40
2.0
 40
2.0
 40
3.0
 40
3.0
 40
3.0
 40
4.0
 40
4.0
 40
4.0
 40
5.0
 40
5.0
 40
5.0
 40
5.0
 10
162.2354031032983
 20
209.3930759006072
 10
162.467947048611
 20
209.3861857096351
 10
168.4655137803819
 20
209.1283203124997
 10
168.4655137803819
 20
201.1911648220483
 10
168.4655137803819
 20
192.3202162000865
 10
162.9926350911458
 20
191.6306803385413
 10
161.3152180989583
 20
191.6306803385413
 10
161.3152180989583
 20
191.6306803385413
 10
152.3310980902776
 20
191.6306803385413
 10
150.6595377604166
 20
191.6306803385413
 10
150.6595377604166
 20
193.3373806423608
 10
150.6595377604166
 20
207.6863755967879
 10
150.6595377604166
 20
209.3930759006072
 10
152.3538357204859
 20
209.3930759006072
 10
162.2354031032983
 20
209.3930759006072
 10
162.2354031032983
 20
209.3930759006072
 97
        0
 75
     0
 76
     1
 98
        0
  0
ENDBLK
  5
4B7
330
493
100
AcDbEntity
  8
0
100
AcDbBlockEnd
  0
BLOCK
  5
4BA
330
4B8
100
AcDbEntity
  8
0
100
AcDbBlockBegin
  2
HD logo-new
 70
     0
 10
0.0
 20
0.0
 30
0.0
  3
HD logo-new
  1

  0
INSERT
  5
4B9
330
4B8
100
AcDbEntity
  8
0
 62
     3
100
AcDbBlockReference
  2
HD_LLC_logo_OT5
 10
-27.1607188578505
 20
-68.37367811463031
 30
0.0
 41
0.2999999999999971
 42
0.3000000000000007
 43
0.3
  0
ENDBLK
  5
4BB
330
4B8
100
AcDbEntity
  8
0
100
AcDbBlockEnd
  0
BLOCK
  5
4C5
330
4C3
100
AcDbEntity
  8
0
100
AcDbBlockBegin
  2
HD LLC
 70
     0
 10
0.0
 20
0.0
 30
0.0
  3
HD LLC
  1

  0
MTEXT
  5
4C4
330
4C3
100
AcDbEntity
  8
0
100
AcDbMText
 10
-2.314970886968865
 20
1.247205085865914
 30
0.0
 40
5.675387507387601
 41
236.1828726592229
 71
     5
 72
     5
  1
Harmonic Drive LLC\P800-921-3332\Pwww.harmonicdrive.net
 73
     1
 44
1.0
  0
ENDBLK
  5
4C6
330
4C3
100
AcDbEntity
  8
0
100
AcDbBlockEnd
  0
ENDSEC
  0
SECTION
  2
ENTITIES
  0
LINE
  5
5F
330
1E
100
AcDbEntity
  8
1
  6
CENTER
 62
     3
100
AcDbLine
 10
-29.24451438220706
 20
0.0000000022096955
 30
0.0
 11
32.36399720706405
 21
0.0000000022096955
 31
0.0
  0
LINE
  5
60
330
1E
100
AcDbEntity
  8
1
 62
     7
100
AcDbLine
 10
2.232046074797037
 20
-68.80084805191341
 30
0.0
 11
3.241587193012148
 21
-67.80683833551711
 31
0.0
  0
LINE
  5
61
330
1E
100
AcDbEntity
  8
1
 62
     7
100
AcDbLine
 10
3.241587193012148
 20
-67.80683833551711
 30
0.0
 11
0.5000000001360796
 21
-65.99999999779031
 31
0.0
  0
LINE
  5
62
330
1E
100
AcDbEntity
  8
1
 62
     7
100
AcDbLine
 10
2.232046074797037
 20
-68.80084805191341
 30
0.0
 11
0.5000000001360796
 21
-65.99999999779031
 31
0.0
  0
LINE
  5
63
330
1E
100
AcDbEntity
  8
1
 62
     7
100
AcDbLine
 10
0.5000000001360796
 20
-65.99999999779031
 30
0.0
 11
7.500000000136079
 21
-72.99999999779031
 31
0.0
  0
LINE
  5
64
330
1E
100
AcDbEntity
  8
1
 62
     7
100
AcDbLine
 10
7.500000000136079
 20
-72.99999999779031
 30
0.0
 11
7.500000000136079
 21
-65.99999999779031
 31
0.0
  0
LINE
  5
65
330
1E
100
AcDbEntity
  8
1
 62
     7
100
AcDbLine
 10
7.500000000136079
 20
-65.99999999779031
 30
0.0
 11
0.5000000001360796
 21
-65.99999999779031
 31
0.0
  0
LINE
  5
66
330
1E
100
AcDbEntity
  8
1
 62
     7
100
AcDbLine
 10
0.5000000001360796
 20
-65.99999999779031
 30
0.0
 11
0.5000000001360796
 21
-72.99999999779031
 31
0.0
  0
LINE
  5
67
330
1E
100
AcDbEntity
  8
1
 62
     7
100
AcDbLine
 10
0.5000000001360796
 20
-72.99999999779031
 30
0.0
 11
7.500000000136079
 21
-72.99999999779031
 31
0.0
  0
LINE
  5
68
330
1E
100
AcDbEntity
  8
1
 62
     7
100
AcDbLine
 10
3.241587193012148
 20
67.80683833993649
 30
0.0
 11
2.232046074797037
 21
68.80084805633277
 31
0.0
  0
LINE
  5
69
330
1E
100
AcDbEntity
  8
1
 62
     7
100
AcDbLine
 10
0.5000000001360796
 20
66.00000000220967
 30
0.0
 11
3.241587193012148
 21
67.80683833993649
 31
0.0
  0
LINE
  5
6A
330
1E
100
AcDbEntity
  8
1
 62
     7
100
AcDbLine
 10
0.5000000001360796
 20
66.00000000220967
 30
0.0
 11
2.232046074797037
 21
68.80084805633277
 31
0.0
  0
LINE
  5
6B
330
1E
100
AcDbEntity
  8
1
 62
     7
100
AcDbLine
 10
7.500000000136079
 20
73.00000000220967
 30
0.0
 11
0.5000000001360796
 21
66.00000000220967
 31
0.0
  0
LINE
  5
6C
330
1E
100
AcDbEntity
  8
1
 62
     7
100
AcDbLine
 10
7.500000000136079
 20
66.00000000220967
 30
0.0
 11
7.500000000136079
 21
73.00000000220967
 31
0.0
  0
LINE
  5
6D
330
1E
100
AcDbEntity
  8
1
 62
     7
100
AcDbLine
 10
0.5000000001360796
 20
66.00000000220967
 30
0.0
 11
7.500000000136079
 21
66.00000000220967
 31
0.0
  0
LINE
  5
6E
330
1E
100
AcDbEntity
  8
1
 62
     7
100
AcDbLine
 10
0.5000000001360796
 20
73.00000000220967
 30
0.0
 11
0.5000000001360796
 21
66.00000000220967
 31
0.0
  0
LINE
  5
6F
330
1E
100
AcDbEntity
  8
1
 62
     7
100
AcDbLine
 10
7.500000000136079
 20
73.00000000220967
 30
0.0
 11
0.5000000001360796
 21
73.00000000220967
 31
0.0
  0
LINE
  5
70
330
1E
100
AcDbEntity
  8
1
 62
     7
100
AcDbLine
 10
13.58630249879603
 20
-45.54762723399512
 30
0.0
 11
12.14000000013594
 21
-45.58549999779034
 31
0.0
  0
LINE
  5
71
330
1E
100
AcDbEntity
  8
1
 62
     7
100
AcDbLine
 10
12.14000000013594
 20
-45.58549999779034
 30
0.0
 11
11.03000000013605
 21
-45.58549999779034
 31
0.0
  0
LINE
  5
72
330
1E
100
AcDbEntity
  8
1
 62
     7
100
AcDbLine
 10
10.63000000013596
 20
-42.25323856898017
 30
0.0
 11
10.63000000013596
 21
-45.18549999779031
 31
0.0
  0
LINE
  5
73
330
1E
100
AcDbEntity
  8
1
 62
     7
100
AcDbLine
 10
10.63000000013596
 20
-42.25323856898017
 30
0.0
 11
10.285099294024
 21
-39.44424773515236
 31
0.0
  0
LINE
  5
74
330
1E
100
AcDbEntity
  8
1
 62
     7
100
AcDbLine
 10
12.14000000013594
 20
-45.58549999779034
 30
0.0
 11
12.14000000013594
 21
-38.99549999779029
 31
0.0
  0
LINE
  5
75
330
1E
100
AcDbEntity
  8
1
 62
     7
100
AcDbLine
 10
10.68211775468114
 20
-38.99549999779029
 30
0.0
 11
13.70753221678399
 21
-38.99549999779029
 31
0.0
  0
LINE
  5
76
330
1E
100
AcDbEntity
  8
1
 62
     7
100
AcDbLine
 10
12.14000000013594
 20
38.98450000220971
 30
0.0
 11
12.14000000013594
 21
45.57450000220957
 31
0.0
  0
LINE
  5
77
330
1E
100
AcDbEntity
  8
1
 62
     7
100
AcDbLine
 10
10.68211775468114
 20
38.98450000220971
 30
0.0
 11
13.70753221678399
 21
38.98450000220971
 31
0.0
  0
LINE
  5
78
330
1E
100
AcDbEntity
  8
1
 62
     7
100
AcDbLine
 10
10.285099294024
 20
39.43324773957175
 30
0.0
 11
10.63000000013596
 21
42.24223857339945
 31
0.0
  0
LINE
  5
79
330
1E
100
AcDbEntity
  8
1
 62
     7
100
AcDbLine
 10
10.63000000013596
 20
45.17450000220978
 30
0.0
 11
10.63000000013596
 21
42.24223857339945
 31
0.0
  0
LINE
  5
7A
330
1E
100
AcDbEntity
  8
1
 62
     7
100
AcDbLine
 10
11.03000000013605
 20
45.57450000220957
 30
0.0
 11
12.14000000013594
 21
45.57450000220957
 31
0.0
  0
LINE
  5
7B
330
1E
100
AcDbEntity
  8
1
 62
     7
100
AcDbLine
 10
12.14000000013594
 20
45.57450000220957
 30
0.0
 11
13.58630249879603
 21
45.53662723841449
 31
0.0
  0
LINE
  5
7C
330
1E
100
AcDbEntity
  8
1
 62
     7
100
AcDbLine
 10
23.74000000013608
 20
-49.09099999779033
 30
0.0
 11
10.46500000013599
 21
-49.09099999779033
 31
0.0
  0
LINE
  5
7D
330
1E
100
AcDbEntity
  8
1
 62
     3
100
AcDbLine
 10
-24.09999999986405
 20
-77.59999999779029
 30
0.0
 11
-15.49999999986392
 21
-77.59999999779029
 31
0.0
  0
LINE
  5
7E
330
1E
100
AcDbEntity
  8
1
 62
     3
100
AcDbLine
 10
-24.09999999986405
 20
-80.39999999779031
 30
0.0
 11
-15.49999999986392
 21
-80.39999999779031
 31
0.0
  0
LINE
  5
7F
330
1E
100
AcDbEntity
  8
1
 62
     3
100
AcDbLine
 10
-24.09999999986405
 20
-77.59999999779029
 30
0.0
 11
-25.13923048440495
 21
-76.9999999977903
 31
0.0
  0
LINE
  5
80
330
1E
100
AcDbEntity
  8
1
 62
     3
100
AcDbLine
 10
-24.09999999986405
 20
-80.39999999779031
 30
0.0
 11
-25.13923048440495
 21
-80.99999999779031
 31
0.0
  0
LINE
  5
81
330
1E
100
AcDbEntity
  8
1
 62
     7
100
AcDbLine
 10
-25.49999999986392
 20
-78.99999999779028
 30
0.0
 11
-25.49999999986392
 21
-76.99999999779031
 31
0.0
  0
LINE
  5
82
330
1E
100
AcDbEntity
  8
1
 62
     7
100
AcDbLine
 10
-25.49999999986392
 20
-75.49999999779029
 30
0.0
 11
-29.19999999986396
 21
-75.49999999779029
 31
0.0
  0
LINE
  5
83
330
1E
100
AcDbEntity
  8
1
 62
     7
100
AcDbLine
 10
-29.19999999986396
 20
-75.49999999779029
 30
0.0
 11
-29.49999999986392
 21
-75.7999999977903
 31
0.0
  0
LINE
  5
84
330
1E
100
AcDbEntity
  8
1
 62
     7
100
AcDbLine
 10
-29.49999999986392
 20
-75.7999999977903
 30
0.0
 11
-29.49999999986392
 21
-82.1999999977903
 31
0.0
  0
LINE
  5
85
330
1E
100
AcDbEntity
  8
1
 62
     7
100
AcDbLine
 10
-29.49999999986392
 20
-82.1999999977903
 30
0.0
 11
-29.19999999986396
 21
-82.49999999779031
 31
0.0
  0
LINE
  5
86
330
1E
100
AcDbEntity
  8
1
 62
     7
100
AcDbLine
 10
-29.19999999986396
 20
-82.49999999779031
 30
0.0
 11
-25.49999999986392
 21
-82.49999999779031
 31
0.0
  0
LINE
  5
87
330
1E
100
AcDbEntity
  8
1
 62
     7
100
AcDbLine
 10
-25.49999999986392
 20
-82.49999999779031
 30
0.0
 11
-25.49999999986392
 21
-81.19999999779031
 31
0.0
  0
LINE
  5
88
330
1E
100
AcDbEntity
  8
1
 62
     7
100
AcDbLine
 10
-25.29999999986388
 20
-80.99999999779031
 30
0.0
 11
-24.09999999986405
 21
-80.99999999779031
 31
0.0
  0
LINE
  5
89
330
1E
100
AcDbEntity
  8
1
 62
     7
100
AcDbLine
 10
-25.49999999986392
 20
-80.99999999779031
 30
0.0
 11
-25.49999999986392
 21
-78.99999999779028
 31
0.0
  0
LINE
  5
8A
330
1E
100
AcDbEntity
  8
1
 62
     7
100
AcDbLine
 10
-16.09999999986406
 20
-80.99999999779031
 30
0.0
 11
-15.49999999986392
 21
-80.39999999779031
 31
0.0
  0
LINE
  5
8B
330
1E
100
AcDbEntity
  8
1
 62
     7
100
AcDbLine
 10
-15.49999999986392
 20
-80.39999999779031
 30
0.0
 11
-15.49999999986392
 21
-77.59999999779029
 31
0.0
  0
LINE
  5
8C
330
1E
100
AcDbEntity
  8
1
 62
     7
100
AcDbLine
 10
-15.49999999986392
 20
-77.59999999779029
 30
0.0
 11
-16.09999999986406
 21
-76.9999999977903
 31
0.0
  0
LINE
  5
8D
330
1E
100
AcDbEntity
  8
1
 62
     7
100
AcDbLine
 10
-16.09999999986406
 20
-76.9999999977903
 30
0.0
 11
-24.09999999986405
 21
-76.9999999977903
 31
0.0
  0
LINE
  5
8E
330
1E
100
AcDbEntity
  8
1
 62
     7
100
AcDbLine
 10
-25.49999999986392
 20
-76.79999999779029
 30
0.0
 11
-25.49999999986392
 21
-75.49999999779029
 31
0.0
  0
LINE
  5
8F
330
1E
100
AcDbEntity
  8
1
 62
     7
100
AcDbLine
 10
-24.09999999986405
 20
-76.9999999977903
 30
0.0
 11
-24.09999999986405
 21
-80.99999999779031
 31
0.0
  0
LINE
  5
90
330
1E
100
AcDbEntity
  8
1
 62
     7
100
AcDbLine
 10
-24.09999999986405
 20
-80.99999999779031
 30
0.0
 11
-16.09999999986406
 21
-80.99999999779031
 31
0.0
  0
LINE
  5
91
330
1E
100
AcDbEntity
  8
1
 62
     7
100
AcDbLine
 10
-24.09999999986405
 20
-76.9999999977903
 30
0.0
 11
-25.29999999986388
 21
-76.9999999977903
 31
0.0
  0
LINE
  5
92
330
1E
100
AcDbEntity
  8
1
 62
     7
100
AcDbLine
 10
-16.09999999986406
 20
-80.99999999779031
 30
0.0
 11
-16.09999999986406
 21
-76.9999999977903
 31
0.0
  0
LINE
  5
93
330
1E
100
AcDbEntity
  8
1
 62
     7
100
AcDbLine
 10
-29.19999999986396
 20
-75.49999999779029
 30
0.0
 11
-29.19999999986396
 21
-82.49999999779031
 31
0.0
  0
LINE
  5
94
330
1E
100
AcDbEntity
  8
1
 62
     7
100
AcDbLine
 10
-25.49999999986392
 20
-76.99999999779031
 30
0.0
 11
-25.49999999986392
 21
-76.79999999779029
 31
0.0
  0
LINE
  5
95
330
1E
100
AcDbEntity
  8
1
 62
     7
100
AcDbLine
 10
-25.49999999986392
 20
-80.99999999779031
 30
0.0
 11
-25.49999999986392
 21
-81.19999999779031
 31
0.0
  0
LINE
  5
96
330
1E
100
AcDbEntity
  8
1
 62
     3
100
AcDbLine
 10
18.40000000013594
 20
-62.7999999977903
 30
0.0
 11
0.0000000001360796
 21
-62.7999999977903
 31
0.0
  0
LINE
  5
97
330
1E
100
AcDbEntity
  8
1
 62
     3
100
AcDbLine
 10
18.40000000013594
 20
-59.1999999977903
 30
0.0
 11
0.0000000001360796
 21
-59.1999999977903
 31
0.0
  0
LINE
  5
98
330
1E
100
AcDbEntity
  8
1
 62
     3
100
AcDbLine
 10
18.40000000013594
 20
-62.7999999977903
 30
0.0
 11
19.61243556543411
 21
-63.49999999779029
 31
0.0
  0
LINE
  5
99
330
1E
100
AcDbEntity
  8
1
 62
     3
100
AcDbLine
 10
18.40000000013594
 20
-59.1999999977903
 30
0.0
 11
19.61243556543411
 21
-58.49999999779029
 31
0.0
  0
LINE
  5
9A
330
1E
100
AcDbEntity
  8
1
 62
     7
100
AcDbLine
 10
20.00000000013607
 20
-60.99999999779029
 30
0.0
 11
20.00000000013607
 21
-63.49999999779029
 31
0.0
  0
LINE
  5
9B
330
1E
100
AcDbEntity
  8
1
 62
     7
100
AcDbLine
 10
20.00000000013607
 20
-65.2499999977903
 30
0.0
 11
24.70000000013612
 21
-65.2499999977903
 31
0.0
  0
LINE
  5
9C
330
1E
100
AcDbEntity
  8
1
 62
     7
100
AcDbLine
 10
24.70000000013612
 20
-65.2499999977903
 30
0.0
 11
25.00000000013608
 21
-64.9499999977903
 31
0.0
  0
LINE
  5
9D
330
1E
100
AcDbEntity
  8
1
 62
     7
100
AcDbLine
 10
25.00000000013608
 20
-64.9499999977903
 30
0.0
 11
25.00000000013608
 21
-57.0499999977903
 31
0.0
  0
LINE
  5
9E
330
1E
100
AcDbEntity
  8
1
 62
     7
100
AcDbLine
 10
25.00000000013608
 20
-57.0499999977903
 30
0.0
 11
24.70000000013612
 21
-56.74999999779029
 31
0.0
  0
LINE
  5
9F
330
1E
100
AcDbEntity
  8
1
 62
     7
100
AcDbLine
 10
24.70000000013612
 20
-56.74999999779029
 30
0.0
 11
20.00000000013607
 21
-56.74999999779029
 31
0.0
  0
LINE
  5
A0
330
1E
100
AcDbEntity
  8
1
 62
     7
100
AcDbLine
 10
20.00000000013607
 20
-56.74999999779029
 30
0.0
 11
20.00000000013607
 21
-58.2999999977903
 31
0.0
  0
LINE
  5
A1
330
1E
100
AcDbEntity
  8
1
 62
     7
100
AcDbLine
 10
19.80000000013603
 20
-58.49999999779029
 30
0.0
 11
18.40000000013594
 21
-58.49999999779029
 31
0.0
  0
LINE
  5
A2
330
1E
100
AcDbEntity
  8
1
 62
     7
100
AcDbLine
 10
20.00000000013607
 20
-58.49999999779029
 30
0.0
 11
20.00000000013607
 21
-60.99999999779029
 31
0.0
  0
LINE
  5
A3
330
1E
100
AcDbEntity
  8
1
 62
     7
100
AcDbLine
 10
0.7000000001361251
 20
-58.49999999779029
 30
0.0
 11
0.0000000001360796
 21
-59.1999999977903
 31
0.0
  0
LINE
  5
A4
330
1E
100
AcDbEntity
  8
1
 62
     7
100
AcDbLine
 10
0.0000000001360796
 20
-59.1999999977903
 30
0.0
 11
0.0000000001360796
 21
-62.7999999977903
 31
0.0
  0
LINE
  5
A5
330
1E
100
AcDbEntity
  8
1
 62
     7
100
AcDbLine
 10
0.0000000001360796
 20
-62.7999999977903
 30
0.0
 11
0.7000000001361251
 21
-63.49999999779029
 31
0.0
  0
LINE
  5
A6
330
1E
100
AcDbEntity
  8
1
 62
     7
100
AcDbLine
 10
0.7000000001361251
 20
-63.49999999779029
 30
0.0
 11
18.40000000013594
 21
-63.49999999779029
 31
0.0
  0
LINE
  5
A7
330
1E
100
AcDbEntity
  8
1
 62
     7
100
AcDbLine
 10
20.00000000013607
 20
-63.6999999977903
 30
0.0
 11
20.00000000013607
 21
-65.2499999977903
 31
0.0
  0
LINE
  5
A8
330
1E
100
AcDbEntity
  8
1
 62
     7
100
AcDbLine
 10
18.40000000013594
 20
-63.49999999779029
 30
0.0
 11
18.40000000013594
 21
-58.49999999779029
 31
0.0
  0
LINE
  5
A9
330
1E
100
AcDbEntity
  8
1
 62
     7
100
AcDbLine
 10
18.40000000013594
 20
-58.49999999779029
 30
0.0
 11
0.7000000001361251
 21
-58.49999999779029
 31
0.0
  0
LINE
  5
AA
330
1E
100
AcDbEntity
  8
1
 62
     7
100
AcDbLine
 10
18.40000000013594
 20
-63.49999999779029
 30
0.0
 11
19.80000000013603
 21
-63.49999999779029
 31
0.0
  0
LINE
  5
AB
330
1E
100
AcDbEntity
  8
1
 62
     7
100
AcDbLine
 10
0.7000000001361251
 20
-58.49999999779029
 30
0.0
 11
0.7000000001361251
 21
-63.49999999779029
 31
0.0
  0
LINE
  5
AC
330
1E
100
AcDbEntity
  8
1
 62
     7
100
AcDbLine
 10
24.70000000013612
 20
-65.2499999977903
 30
0.0
 11
24.70000000013612
 21
-56.74999999779029
 31
0.0
  0
LINE
  5
AD
330
1E
100
AcDbEntity
  8
1
 62
     7
100
AcDbLine
 10
20.00000000013607
 20
-63.49999999779029
 30
0.0
 11
20.00000000013607
 21
-63.6999999977903
 31
0.0
  0
LINE
  5
AE
330
1E
100
AcDbEntity
  8
1
 62
     7
100
AcDbLine
 10
20.00000000013607
 20
-58.49999999779029
 30
0.0
 11
20.00000000013607
 21
-58.2999999977903
 31
0.0
  0
LINE
  5
AF
330
1E
100
AcDbEntity
  8
0
 62
     7
100
AcDbLine
 10
0.4000000001359433
 20
16.39999975588905
 30
0.0
 11
0.4000000001359433
 21
33.75000000220967
 31
0.0
  0
LINE
  5
B0
330
1E
100
AcDbEntity
  8
1
 62
     7
100
AcDbLine
 10
144.8966332873383
 20
6.538348318709914
 30
0.0
 11
144.8966332873383
 21
9.299999862627663
 31
0.0
  0
LINE
  5
B1
330
1E
100
AcDbEntity
  8
1
 62
     7
100
AcDbLine
 10
144.8966332873383
 20
9.299999862627663
 30
0.0
 11
149.8966332129883
 21
9.299999862627663
 31
0.0
  0
LINE
  5
B2
330
1E
100
AcDbEntity
  8
1
 62
     7
100
AcDbLine
 10
149.8966332129883
 20
9.299999862627663
 30
0.0
 11
149.8966332129883
 21
6.538348319315005
 31
0.0
  0
LINE
  5
B3
330
1E
100
AcDbEntity
  8
0
 62
     7
100
AcDbLine
 10
25.00000000013608
 20
18.99999971685855
 30
0.0
 11
25.00000000013608
 21
15.14999977470036
 31
0.0
  0
LINE
  5
B4
330
1E
100
AcDbEntity
  8
0
 62
     7
100
AcDbLine
 10
23.34999998265414
 20
18.99999971685855
 30
0.0
 11
25.00000000013608
 21
18.99999971685855
 31
0.0
  0
LINE
  5
B5
330
1E
100
AcDbEntity
  8
0
 62
     7
100
AcDbLine
 10
25.00000000013608
 20
-18.99999971238827
 30
0.0
 11
25.00000000013608
 21
-15.14999977027571
 31
0.0
  0
LINE
  5
B6
330
1E
100
AcDbEntity
  8
0
 62
     7
100
AcDbLine
 10
23.34999998265414
 20
-18.99999971238827
 30
0.0
 11
25.00000000013608
 21
-18.99999971238827
 31
0.0
  0
LINE
  5
B7
330
1E
100
AcDbEntity
  8
0
 62
     7
100
AcDbLine
 10
23.34999998265414
 20
-16.99999974243331
 30
0.0
 11
22.19999999993012
 21
-16.99999974243331
 31
0.0
  0
LINE
  5
B8
330
1E
100
AcDbEntity
  8
0
 62
     7
100
AcDbLine
 10
23.34999998265414
 20
-21.49999967485752
 30
0.0
 11
23.34999998265414
 21
-15.14999977027571
 31
0.0
  0
LINE
  5
B9
330
1E
100
AcDbEntity
  8
0
 62
     7
100
AcDbLine
 10
22.19999999993012
 20
-21.49999967485752
 30
0.0
 11
23.34999998265414
 21
-21.49999967485752
 31
0.0
  0
LINE
  5
BA
330
1E
100
AcDbEntity
  8
0
 62
     7
100
AcDbLine
 10
23.34999998265414
 20
16.9999997468604
 30
0.0
 11
22.19999999993012
 21
16.9999997468604
 31
0.0
  0
LINE
  5
BB
330
1E
100
AcDbEntity
  8
0
 62
     7
100
AcDbLine
 10
23.34999998265414
 20
21.4999996793328
 30
0.0
 11
23.34999998265414
 21
15.14999977470036
 31
0.0
  0
LINE
  5
BC
330
1E
100
AcDbEntity
  8
0
 62
     7
100
AcDbLine
 10
22.19999999993012
 20
21.4999996793328
 30
0.0
 11
23.34999998265414
 21
21.4999996793328
 31
0.0
  0
LINE
  5
BD
330
1E
100
AcDbEntity
  8
0
 62
     7
100
AcDbLine
 10
0.4000000001359433
 20
-16.99999974243331
 30
0.0
 11
5.600000000135987
 21
-16.99999974243331
 31
0.0
  0
LINE
  5
BE
330
1E
100
AcDbEntity
  8
0
 62
     7
100
AcDbLine
 10
0.0000000001360796
 20
-6.999999892658187
 30
0.0
 11
27.50000000013608
 21
-6.999999892658187
 31
0.0
  0
LINE
  5
BF
330
1E
100
AcDbEntity
  8
0
 62
     7
100
AcDbLine
 10
0.0000000001360796
 20
6.99999989708278
 30
0.0
 11
27.50000000013608
 21
6.99999989708278
 31
0.0
  0
LINE
  5
C0
330
1E
100
AcDbEntity
  8
0
 62
     7
100
AcDbLine
 10
0.0000000001360796
 20
9.299999862520911
 30
0.0
 11
27.50000000013608
 21
9.299999862520911
 31
0.0
  0
LINE
  5
C1
330
1E
100
AcDbEntity
  8
0
 62
     7
100
AcDbLine
 10
27.50000000013608
 20
-15.49999976499242
 30
0.0
 11
27.50000000013608
 21
15.49999976943223
 31
0.0
  0
LINE
  5
C2
330
1E
100
AcDbEntity
  8
0
 62
     7
100
AcDbLine
 10
27.00000000764714
 20
-15.99999975748124
 30
0.0
 11
27.50000000013608
 21
-15.49999976499242
 31
0.0
  0
LINE
  5
C3
330
1E
100
AcDbEntity
  8
0
 62
     7
100
AcDbLine
 10
25.00000000013608
 20
-15.99999975748124
 30
0.0
 11
27.00000000764714
 21
-15.99999975748124
 31
0.0
  0
LINE
  5
C4
330
1E
100
AcDbEntity
  8
0
 62
     7
100
AcDbLine
 10
23.34999998265414
 20
-15.14999977027571
 30
0.0
 11
25.00000000013608
 21
-15.14999977027571
 31
0.0
  0
LINE
  5
C5
330
1E
100
AcDbEntity
  8
0
 62
     7
100
AcDbLine
 10
5.999999994229138
 20
-15.99999975748124
 30
0.0
 11
23.34999998265414
 21
-15.99999975748124
 31
0.0
  0
LINE
  5
C6
330
1E
100
AcDbEntity
  8
0
 62
     7
100
AcDbLine
 10
5.600000000135987
 20
-33.74999999779032
 30
0.0
 11
5.600000000135987
 21
-16.39999975144684
 31
0.0
  0
LINE
  5
C7
330
1E
100
AcDbEntity
  8
0
 62
     7
100
AcDbLine
 10
0.4000000001359433
 20
-33.74999999779032
 30
0.0
 11
5.600000000135987
 21
-33.74999999779032
 31
0.0
  0
LINE
  5
C8
330
1E
100
AcDbEntity
  8
0
 62
     7
100
AcDbLine
 10
0.4000000001359433
 20
-16.39999975144684
 30
0.0
 11
0.4000000001359433
 21
-33.74999999779032
 31
0.0
  0
LINE
  5
C9
330
1E
100
AcDbEntity
  8
0
 62
     7
100
AcDbLine
 10
0.0000000001360796
 20
-15.99999975748124
 30
0.0
 11
0.0000000062969967
 21
-15.99999975748124
 31
0.0
  0
LINE
  5
CA
330
1E
100
AcDbEntity
  8
0
 62
     7
100
AcDbLine
 10
0.0000000001360796
 20
15.99999976190834
 30
0.0
 11
0.0000000001360796
 21
-15.99999975748124
 31
0.0
  0
LINE
  5
CB
330
1E
100
AcDbEntity
  8
0
 62
     7
100
AcDbLine
 10
27.00000000764714
 20
15.99999976190834
 30
0.0
 11
27.50000000013608
 21
15.49999976943223
 31
0.0
  0
LINE
  5
CC
330
1E
100
AcDbEntity
  8
0
 62
     7
100
AcDbLine
 10
25.00000000013608
 20
15.99999976190834
 30
0.0
 11
27.00000000764714
 21
15.99999976190834
 31
0.0
  0
LINE
  5
CD
330
1E
100
AcDbEntity
  8
0
 62
     7
100
AcDbLine
 10
23.34999998265414
 20
15.14999977470036
 30
0.0
 11
25.00000000013608
 21
15.14999977470036
 31
0.0
  0
LINE
  5
CE
330
1E
100
AcDbEntity
  8
0
 62
     7
100
AcDbLine
 10
5.999999994229138
 20
15.99999976190834
 30
0.0
 11
23.34999998265414
 21
15.99999976190834
 31
0.0
  0
LINE
  5
CF
330
1E
100
AcDbEntity
  8
0
 62
     7
100
AcDbLine
 10
5.600000000135987
 20
33.75000000220967
 30
0.0
 11
5.600000000135987
 21
16.39999975588905
 31
0.0
  0
LINE
  5
D0
330
1E
100
AcDbEntity
  8
0
 62
     7
100
AcDbLine
 10
0.4000000001359433
 20
33.75000000220967
 30
0.0
 11
5.600000000135987
 21
33.75000000220967
 31
0.0
  0
LINE
  5
D1
330
1E
100
AcDbEntity
  8
0
 62
     7
100
AcDbLine
 10
0.0000000001360796
 20
15.99999976190834
 30
0.0
 11
0.0000000062969967
 21
15.99999976190834
 31
0.0
  0
LINE
  5
D2
330
1E
100
AcDbEntity
  8
0
 62
     7
100
AcDbLine
 10
10.13500021340894
 20
-15.99999975748124
 30
0.0
 11
10.135000213431
 21
-16.99999974243331
 31
0.0
  0
LINE
  5
D3
330
1E
100
AcDbEntity
  8
0
 62
     7
100
AcDbLine
 10
6.099999992626063
 20
-18.99999971238827
 30
0.0
 11
6.099999992626063
 21
-15.99999975748124
 31
0.0
  0
LINE
  5
D4
330
1E
100
AcDbEntity
  8
0
 62
     7
100
AcDbLine
 10
10.135000213431
 20
16.9999997468604
 30
0.0
 11
10.13500021340894
 21
15.99999976190834
 31
0.0
  0
LINE
  5
D5
330
1E
100
AcDbEntity
  8
0
 62
     7
100
AcDbLine
 10
6.099999992626063
 20
15.99999976190834
 30
0.0
 11
6.099999992626063
 21
18.99999971685855
 31
0.0
  0
LINE
  5
D6
330
1E
100
AcDbEntity
  8
0
 62
     7
100
AcDbLine
 10
5.600000000135987
 20
-18.99999971238827
 30
0.0
 11
5.600000000135987
 21
-33.49999949453678
 31
0.0
  0
LINE
  5
D7
330
1E
100
AcDbEntity
  8
0
 62
     7
100
AcDbLine
 10
10.135000213431
 20
-20.99999968236869
 30
0.0
 11
10.60000000013599
 21
-20.99999968236869
 31
0.0
  0
LINE
  5
D8
330
1E
100
AcDbEntity
  8
0
 62
     7
100
AcDbLine
 10
10.135000213431
 20
-16.99999974243331
 30
0.0
 11
10.135000213431
 21
-20.99999968236869
 31
0.0
  0
LINE
  5
D9
330
1E
100
AcDbEntity
  8
0
 62
     7
100
AcDbLine
 10
6.099999992626063
 20
-18.99999971238827
 30
0.0
 11
0.635000356110023
 21
-18.99999971238827
 31
0.0
  0
LINE
  5
DA
330
1E
100
AcDbEntity
  8
0
 62
     7
100
AcDbLine
 10
10.135000213431
 20
-16.99999974243331
 30
0.0
 11
6.099999992626063
 21
-16.99999974243331
 31
0.0
  0
LINE
  5
DB
330
1E
100
AcDbEntity
  8
0
 62
     7
100
AcDbLine
 10
9.03500022993796
 20
-33.49999949453678
 30
0.0
 11
10.59999999991702
 21
-33.49999949453678
 31
0.0
  0
LINE
  5
DC
330
1E
100
AcDbEntity
  8
0
 62
     7
100
AcDbLine
 10
9.03500022993796
 20
-41.9999993668456
 30
0.0
 11
9.03500022993796
 21
-33.49999949453678
 31
0.0
  0
LINE
  5
DD
330
1E
100
AcDbEntity
  8
0
 62
     7
100
AcDbLine
 10
7.035000259971067
 20
-41.9999993668456
 30
0.0
 11
9.03500022993796
 21
-41.9999993668456
 31
0.0
  0
LINE
  5
DE
330
1E
100
AcDbEntity
  8
0
 62
     7
100
AcDbLine
 10
7.035000259971067
 20
-33.49999949453678
 30
0.0
 11
7.035000259971067
 21
-41.9999993668456
 31
0.0
  0
LINE
  5
DF
330
1E
100
AcDbEntity
  8
0
 62
     7
100
AcDbLine
 10
0.635000356110023
 20
-33.49999949453678
 30
0.0
 11
7.035000259971067
 21
-33.49999949453678
 31
0.0
  0
LINE
  5
E0
330
1E
100
AcDbEntity
  8
0
 62
     7
100
AcDbLine
 10
0.635000356110023
 20
-18.99999971238827
 30
0.0
 11
0.635000356110023
 21
-33.49999949453678
 31
0.0
  0
LINE
  5
E1
330
1E
100
AcDbEntity
  8
0
 62
     7
100
AcDbLine
 10
10.135000213431
 20
16.9999997468604
 30
0.0
 11
10.135000213431
 21
20.99999968680851
 31
0.0
  0
LINE
  5
E2
330
1E
100
AcDbEntity
  8
0
 62
     7
100
AcDbLine
 10
6.099999992626063
 20
18.99999971685855
 30
0.0
 11
5.600000000135987
 21
18.99999971685855
 31
0.0
  0
LINE
  5
E3
330
1E
100
AcDbEntity
  8
0
 62
     7
100
AcDbLine
 10
10.135000213431
 20
16.9999997468604
 30
0.0
 11
6.099999992626063
 21
16.9999997468604
 31
0.0
  0
LINE
  5
E4
330
1E
100
AcDbEntity
  8
0
 62
     7
100
AcDbLine
 10
15.63500013084297
 20
20.99999968680851
 30
0.0
 11
10.135000213431
 21
20.99999968680851
 31
0.0
  0
LINE
  5
E5
330
1E
100
AcDbEntity
  8
0
 62
     7
100
AcDbLine
 10
15.63500013084297
 20
33.49999949903242
 30
0.0
 11
15.63500013084297
 21
20.99999968680851
 31
0.0
  0
LINE
  5
E6
330
1E
100
AcDbEntity
  8
0
 62
     7
100
AcDbLine
 10
9.03500022993796
 20
33.49999949903242
 30
0.0
 11
15.63500013084297
 21
33.49999949903242
 31
0.0
  0
LINE
  5
E7
330
1E
100
AcDbEntity
  8
0
 62
     7
100
AcDbLine
 10
9.03500022993796
 20
41.9999993713921
 30
0.0
 11
9.03500022993796
 21
33.49999949903242
 31
0.0
  0
LINE
  5
E8
330
1E
100
AcDbEntity
  8
0
 62
     7
100
AcDbLine
 10
7.035000259971067
 20
41.9999993713921
 30
0.0
 11
9.03500022993796
 21
41.9999993713921
 31
0.0
  0
LINE
  5
E9
330
1E
100
AcDbEntity
  8
0
 62
     7
100
AcDbLine
 10
7.035000259971067
 20
33.49999949903242
 30
0.0
 11
7.035000259971067
 21
41.9999993713921
 31
0.0
  0
LINE
  5
EA
330
1E
100
AcDbEntity
  8
0
 62
     7
100
AcDbLine
 10
5.600000000135987
 20
33.49999949903242
 30
0.0
 11
7.035000259971067
 21
33.49999949903242
 31
0.0
  0
LINE
  5
EB
330
1E
100
AcDbEntity
  8
0
 62
     7
100
AcDbLine
 10
5.600000000135987
 20
18.99999971685855
 30
0.0
 11
5.600000000135987
 21
33.49999949903242
 31
0.0
  0
LINE
  5
EC
330
1E
100
AcDbEntity
  8
0
 62
     7
100
AcDbLine
 10
15.83500012802903
 20
-20.74999968614969
 30
0.0
 11
10.60000000035403
 21
-20.74999968614969
 31
0.0
  0
LINE
  5
ED
330
1E
100
AcDbEntity
  8
0
 62
     7
100
AcDbLine
 10
15.83500012802903
 20
-16.2499997537256
 30
0.0
 11
15.83500012802903
 21
-20.74999968614969
 31
0.0
  0
LINE
  5
EE
330
1E
100
AcDbEntity
  8
0
 62
     7
100
AcDbLine
 10
22.20000000013612
 20
-16.2499997537256
 30
0.0
 11
10.60000000013599
 21
-16.2499997537256
 31
0.0
  0
LINE
  5
EF
330
1E
100
AcDbEntity
  8
0
 62
     7
100
AcDbLine
 10
22.20000000013612
 20
-35.55999946373268
 30
0.0
 11
22.20000000013612
 21
-16.2499997537256
 31
0.0
  0
LINE
  5
F0
330
1E
100
AcDbEntity
  8
0
 62
     7
100
AcDbLine
 10
10.60000000013599
 20
-16.2499997537256
 30
0.0
 11
10.60000000013599
 21
-35.55999946373268
 31
0.0
  0
LINE
  5
F1
330
1E
100
AcDbEntity
  8
0
 62
     7
100
AcDbLine
 10
15.83500012802903
 20
20.74999969057178
 30
0.0
 11
10.60000000013599
 21
20.74999969057178
 31
0.0
  0
LINE
  5
F2
330
1E
100
AcDbEntity
  8
0
 62
     7
100
AcDbLine
 10
15.83500012802903
 20
16.24999975814757
 30
0.0
 11
15.83500012802903
 21
35.55999946817752
 31
0.0
  0
LINE
  5
F3
330
1E
100
AcDbEntity
  8
0
 62
     7
100
AcDbLine
 10
22.20000000013612
 20
16.24999975814757
 30
0.0
 11
10.60000000013599
 21
16.24999975814757
 31
0.0
  0
LINE
  5
F4
330
1E
100
AcDbEntity
  8
0
 62
     7
100
AcDbLine
 10
22.20000000013612
 20
35.55999946817752
 30
0.0
 11
22.20000000013612
 21
16.24999975814757
 31
0.0
  0
LINE
  5
F5
330
1E
100
AcDbEntity
  8
0
 62
     7
100
AcDbLine
 10
10.60000000013599
 20
35.55999946817752
 30
0.0
 11
22.20000000013612
 21
35.55999946817752
 31
0.0
  0
LINE
  5
F6
330
1E
100
AcDbEntity
  8
0
 62
     7
100
AcDbLine
 10
10.60000000013599
 20
16.24999975814757
 30
0.0
 11
10.60000000013599
 21
35.55999946817752
 31
0.0
  0
LINE
  5
F7
330
1E
100
AcDbEntity
  8
0
 62
     7
100
AcDbLine
 10
142.2766333292451
 20
-18.93333304666822
 30
0.0
 11
142.2766333292451
 21
-16.76306906028656
 31
0.0
  0
LINE
  5
F8
330
1E
100
AcDbEntity
  8
0
 62
     7
100
AcDbLine
 10
146.8632999270023
 20
-19.9999996973363
 30
0.0
 11
143.3432999798592
 21
-19.9999996973363
 31
0.0
  0
LINE
  5
F9
330
1E
100
AcDbEntity
  8
0
 62
     7
100
AcDbLine
 10
146.8632999270023
 20
-15.93710540833171
 30
0.0
 11
146.8632999270023
 21
-19.9999996973363
 31
0.0
  0
LINE
  5
FA
330
1E
100
AcDbEntity
  8
0
 62
     7
100
AcDbLine
 10
152.5166331754183
 20
-18.93333304666946
 30
0.0
 11
152.5166331754183
 21
-16.76306906028656
 31
0.0
  0
LINE
  5
FB
330
1E
100
AcDbEntity
  8
0
 62
     7
100
AcDbLine
 10
147.9299665776453
 20
-19.9999996973363
 30
0.0
 11
151.4499665247901
 21
-19.9999996973363
 31
0.0
  0
LINE
  5
FC
330
1E
100
AcDbEntity
  8
0
 62
     7
100
AcDbLine
 10
147.9299665776453
 20
-15.93710540833171
 30
0.0
 11
147.9299665776453
 21
-19.9999996973363
 31
0.0
  0
LINE
  5
FD
330
1E
100
AcDbEntity
  8
1
 62
     7
100
AcDbLine
 10
-19.99999999986392
 20
-53.99999999779029
 30
0.0
 11
-17.49999999986392
 21
-51.49999999779029
 31
0.0
  0
LINE
  5
FE
330
1E
100
AcDbEntity
  8
1
 62
     7
100
AcDbLine
 10
-0.9999999997720614
 20
-52.99999999779029
 30
0.0
 11
-2.49999999977206
 21
-51.49999999779029
 31
0.0
  0
LINE
  5
FF
330
1E
100
AcDbEntity
  8
1
 62
     7
100
AcDbLine
 10
-17.49999999986392
 20
-51.49999999779029
 30
0.0
 11
-2.49999999977206
 21
-51.49999999779029
 31
0.0
  0
LINE
  5
100
330
1E
100
AcDbEntity
  8
1
 62
     7
100
AcDbLine
 10
-19.99999999986392
 20
-53.99999999779029
 30
0.0
 11
-19.99999999986392
 21
-65.99999999779031
 31
0.0
  0
LINE
  5
101
330
1E
100
AcDbEntity
  8
1
 62
     7
100
AcDbLine
 10
-0.9999999997720614
 20
-52.99999999779029
 30
0.0
 11
-0.9999999997720614
 21
-53.99999999779029
 31
0.0
  0
LINE
  5
102
330
1E
100
AcDbEntity
  8
1
 62
     7
100
AcDbLine
 10
-17.49999999986392
 20
51.50000000220968
 30
0.0
 11
-19.99999999986392
 21
54.00000000220968
 31
0.0
  0
LINE
  5
103
330
1E
100
AcDbEntity
  8
1
 62
     7
100
AcDbLine
 10
-2.49999999977206
 20
51.50000000220968
 30
0.0
 11
-0.9999999997720614
 21
53.00000000220968
 31
0.0
  0
LINE
  5
104
330
1E
100
AcDbEntity
  8
1
 62
     7
100
AcDbLine
 10
-2.49999999977206
 20
51.50000000220968
 30
0.0
 11
-17.49999999986392
 21
51.50000000220968
 31
0.0
  0
LINE
  5
105
330
1E
100
AcDbEntity
  8
1
 62
     7
100
AcDbLine
 10
-19.99999999986392
 20
54.00000000220968
 30
0.0
 11
-19.99999999986392
 21
66.00000000220967
 31
0.0
  0
LINE
  5
106
330
1E
100
AcDbEntity
  8
1
 62
     7
100
AcDbLine
 10
-0.9999999997720614
 20
54.00000000220968
 30
0.0
 11
-0.9999999997720614
 21
53.00000000220968
 31
0.0
  0
LINE
  5
107
330
1E
100
AcDbEntity
  8
1
 62
     7
100
AcDbLine
 10
7.500000000136079
 20
66.00000000220967
 30
0.0
 11
-5.468145750371039
 21
66.00000000220967
 31
0.0
  0
LINE
  5
108
330
1E
100
AcDbEntity
  8
1
 62
     7
100
AcDbLine
 10
-19.99999999986392
 20
66.00000000220967
 30
0.0
 11
-15.53185424935589
 21
66.00000000220967
 31
0.0
  0
LINE
  5
109
330
1E
100
AcDbEntity
  8
1
 62
     7
100
AcDbLine
 10
7.500000000136079
 20
-65.99999999779031
 30
0.0
 11
-5.468145750371039
 21
-65.99999999779031
 31
0.0
  0
LINE
  5
10A
330
1E
100
AcDbEntity
  8
1
 62
     7
100
AcDbLine
 10
-19.99999999986392
 20
-65.99999999779031
 30
0.0
 11
-15.53185424935703
 21
-65.99999999779031
 31
0.0
  0
LINE
  5
10B
330
1E
100
AcDbEntity
  8
1
 62
     7
100
AcDbLine
 10
8.500000000136079
 20
-54.29999999779031
 30
0.0
 11
8.200000000136125
 21
-53.99999999779032
 31
0.0
  0
LINE
  5
10C
330
1E
100
AcDbEntity
  8
1
 62
     7
100
AcDbLine
 10
8.500000000136079
 20
-55.14999999779031
 30
0.0
 11
8.500000000136079
 21
-54.29999999779031
 31
0.0
  0
LINE
  5
10D
330
1E
100
AcDbEntity
  8
1
 62
     7
100
AcDbLine
 10
8.200000000136125
 20
54.00000000220968
 30
0.0
 11
8.500000000136079
 21
54.30000000220968
 31
0.0
  0
LINE
  5
10E
330
1E
100
AcDbEntity
  8
1
 62
     7
100
AcDbLine
 10
8.500000000136079
 20
55.15000000220969
 30
0.0
 11
8.500000000136079
 21
54.30000000220968
 31
0.0
  0
LINE
  5
10F
330
1E
100
AcDbEntity
  8
1
 62
     7
100
AcDbLine
 10
-21.49999999986392
 20
-76.99999999779031
 30
0.0
 11
-21.49999999986392
 21
-69.99999999779031
 31
0.0
  0
LINE
  5
110
330
1E
100
AcDbEntity
  8
1
 62
     7
100
AcDbLine
 10
-21.49999999986392
 20
-71.29999999779029
 30
0.0
 11
-19.99999999986392
 21
-71.29999999779029
 31
0.0
  0
LINE
  5
111
330
1E
100
AcDbEntity
  8
1
 62
     7
100
AcDbLine
 10
-19.99999999986392
 20
-71.29999999779029
 30
0.0
 11
-19.99999999986392
 21
-73.99999999779031
 31
0.0
  0
LINE
  5
112
330
1E
100
AcDbEntity
  8
1
 62
     7
100
AcDbLine
 10
-19.99999999986392
 20
-73.99999999779031
 30
0.0
 11
-21.49999999986392
 21
-73.99999999779031
 31
0.0
  0
LINE
  5
113
330
1E
100
AcDbEntity
  8
1
 62
     7
100
AcDbLine
 10
8.500000000136079
 20
-65.42264972860071
 30
0.0
 11
7.500000000136079
 21
-65.99999999779031
 31
0.0
  0
LINE
  5
114
330
1E
100
AcDbEntity
  8
1
 62
     7
100
AcDbLine
 10
7.100000000135987
 20
-72.99999999779031
 30
0.0
 11
7.500000000136079
 21
-73.3999999977903
 31
0.0
  0
LINE
  5
115
330
1E
100
AcDbEntity
  8
1
 62
     7
100
AcDbLine
 10
7.100000000135987
 20
-84.99999999779031
 30
0.0
 11
7.500000000136079
 21
-84.5999999977903
 31
0.0
  0
LINE
  5
116
330
1E
100
AcDbEntity
  8
1
 62
     7
100
AcDbLine
 10
-21.09999999986405
 20
-84.99999999779031
 30
0.0
 11
-21.49999999986392
 21
-84.5999999977903
 31
0.0
  0
LINE
  5
117
330
1E
100
AcDbEntity
  8
1
 62
     7
100
AcDbLine
 10
7.500000000136079
 20
-84.5999999977903
 30
0.0
 11
7.500000000136079
 21
-73.3999999977903
 31
0.0
  0
LINE
  5
118
330
1E
100
AcDbEntity
  8
1
 62
     7
100
AcDbLine
 10
7.100000000135987
 20
-72.99999999779031
 30
0.0
 11
0.5000000001360796
 21
-72.99999999779031
 31
0.0
  0
LINE
  5
119
330
1E
100
AcDbEntity
  8
1
 62
     7
100
AcDbLine
 10
-21.49999999986392
 20
-84.5999999977903
 30
0.0
 11
-21.49999999986392
 21
-80.99999999779031
 31
0.0
  0
LINE
  5
11A
330
1E
100
AcDbEntity
  8
1
 62
     7
100
AcDbLine
 10
7.100000000135987
 20
-84.99999999779031
 30
0.0
 11
-21.09999999986405
 21
-84.99999999779031
 31
0.0
  0
LINE
  5
11B
330
1E
100
AcDbEntity
  8
1
 62
     7
100
AcDbLine
 10
-21.49999999986392
 20
70.00000000220968
 30
0.0
 11
-21.49999999986392
 21
84.60000000220967
 31
0.0
  0
LINE
  5
11C
330
1E
100
AcDbEntity
  8
1
 62
     7
100
AcDbLine
 10
-19.99999999986392
 20
71.30000000220968
 30
0.0
 11
-21.49999999986392
 21
71.30000000220968
 31
0.0
  0
LINE
  5
11D
330
1E
100
AcDbEntity
  8
1
 62
     7
100
AcDbLine
 10
-19.99999999986392
 20
74.00000000220967
 30
0.0
 11
-19.99999999986392
 21
71.30000000220968
 31
0.0
  0
LINE
  5
11E
330
1E
100
AcDbEntity
  8
1
 62
     7
100
AcDbLine
 10
-21.49999999986392
 20
74.00000000220967
 30
0.0
 11
-19.99999999986392
 21
74.00000000220967
 31
0.0
  0
LINE
  5
11F
330
1E
100
AcDbEntity
  8
1
  6
CENTER
 62
     3
100
AcDbLine
 10
-28.37704959332598
 20
79.00000000220967
 30
0.0
 11
9.481878532770107
 21
79.00000000220967
 31
0.0
  0
LINE
  5
120
330
1E
100
AcDbEntity
  8
1
  6
CENTER
 62
     3
100
AcDbLine
 10
27.07219657401504
 20
61.00000000220967
 30
0.0
 11
-6.885640645918901
 21
61.00000000220967
 31
0.0
  0
LINE
  5
121
330
1E
100
AcDbEntity
  8
1
 62
     7
100
AcDbLine
 10
-5.885640645918901
 20
61.00000000220967
 30
0.0
 11
-4.49999999986392
 21
63.40000000220967
 31
0.0
  0
LINE
  5
122
330
1E
100
AcDbEntity
  8
1
 62
     7
100
AcDbLine
 10
-4.49999999986392
 20
58.60000000220967
 30
0.0
 11
-5.885640645918901
 21
61.00000000220967
 31
0.0
  0
LINE
  5
123
330
1E
100
AcDbEntity
  8
1
 62
     7
100
AcDbLine
 10
8.500000000136079
 20
55.15000000220969
 30
0.0
 11
8.500000000136079
 21
65.42264973302008
 31
0.0
  0
LINE
  5
124
330
1E
100
AcDbEntity
  8
1
 62
     7
100
AcDbLine
 10
-4.49999999986392
 20
63.40000000220967
 30
0.0
 11
8.500000000136079
 21
63.40000000220967
 31
0.0
  0
LINE
  5
125
330
1E
100
AcDbEntity
  8
1
 62
     7
100
AcDbLine
 10
-1.499999999863919
 20
58.00000000220968
 30
0.0
 11
-1.499999999863919
 21
64.00000000220967
 31
0.0
  0
LINE
  5
126
330
1E
100
AcDbEntity
  8
1
 62
     7
100
AcDbLine
 10
-4.49999999986392
 20
58.60000000220967
 30
0.0
 11
-4.49999999986392
 21
63.40000000220967
 31
0.0
  0
LINE
  5
127
330
1E
100
AcDbEntity
  8
1
 62
     7
100
AcDbLine
 10
8.500000000136079
 20
58.60000000220967
 30
0.0
 11
-4.49999999986392
 21
58.60000000220967
 31
0.0
  0
LINE
  5
128
330
1E
100
AcDbEntity
  8
1
 62
     3
100
AcDbLine
 10
-1.499999999863919
 20
64.00000000220967
 30
0.0
 11
8.500000000136079
 21
64.00000000220967
 31
0.0
  0
LINE
  5
129
330
1E
100
AcDbEntity
  8
1
 62
     3
100
AcDbLine
 10
-2.539230484405041
 20
63.40000000220967
 30
0.0
 11
-1.499999999863919
 21
64.00000000220967
 31
0.0
  0
LINE
  5
12A
330
1E
100
AcDbEntity
  8
1
 62
     3
100
AcDbLine
 10
-1.499999999863919
 20
58.00000000220968
 30
0.0
 11
-2.539230484405041
 21
58.60000000220967
 31
0.0
  0
LINE
  5
12B
330
1E
100
AcDbEntity
  8
1
 62
     3
100
AcDbLine
 10
8.500000000136079
 20
58.00000000220968
 30
0.0
 11
-1.499999999863919
 21
58.00000000220968
 31
0.0
  0
LINE
  5
12C
330
1E
100
AcDbEntity
  8
1
 62
     7
100
AcDbLine
 10
7.500000000136079
 20
66.00000000220967
 30
0.0
 11
8.500000000136079
 21
65.42264973302008
 31
0.0
  0
LINE
  5
12D
330
1E
100
AcDbEntity
  8
1
 62
     7
100
AcDbLine
 10
7.500000000136079
 20
73.40000000220969
 30
0.0
 11
7.100000000135987
 21
73.00000000220967
 31
0.0
  0
LINE
  5
12E
330
1E
100
AcDbEntity
  8
1
 62
     7
100
AcDbLine
 10
7.500000000136079
 20
84.60000000220967
 30
0.0
 11
7.100000000135987
 21
85.00000000220968
 31
0.0
  0
LINE
  5
12F
330
1E
100
AcDbEntity
  8
1
 62
     7
100
AcDbLine
 10
-21.49999999986392
 20
84.60000000220967
 30
0.0
 11
-21.09999999986405
 21
85.00000000220968
 31
0.0
  0
LINE
  5
130
330
1E
100
AcDbEntity
  8
1
 62
     7
100
AcDbLine
 10
7.500000000136079
 20
73.40000000220969
 30
0.0
 11
7.500000000136079
 21
84.60000000220967
 31
0.0
  0
LINE
  5
131
330
1E
100
AcDbEntity
  8
1
 62
     7
100
AcDbLine
 10
0.5000000001360796
 20
73.00000000220967
 30
0.0
 11
7.100000000135987
 21
73.00000000220967
 31
0.0
  0
LINE
  5
132
330
1E
100
AcDbEntity
  8
1
 62
     7
100
AcDbLine
 10
-21.09999999986405
 20
85.00000000220968
 30
0.0
 11
7.100000000135987
 21
85.00000000220968
 31
0.0
  0
LINE
  5
133
330
1E
100
AcDbEntity
  8
1
 62
     7
100
AcDbLine
 10
8.500000000136079
 20
-63.49999999779029
 30
0.0
 11
8.500000000136079
 21
-65.42264972860071
 31
0.0
  0
LINE
  5
134
330
1E
100
AcDbEntity
  8
1
 62
     7
100
AcDbLine
 10
8.200000000136125
 20
54.00000000220968
 30
0.0
 11
-0.9999999997720614
 21
54.00000000220968
 31
0.0
  0
LINE
  5
135
330
1E
100
AcDbEntity
  8
1
 62
     7
100
AcDbLine
 10
8.500000000136079
 20
-55.14999999779031
 30
0.0
 11
8.500000000136079
 21
-58.49999999779033
 31
0.0
  0
LINE
  5
136
330
1E
100
AcDbEntity
  8
1
 62
     7
100
AcDbLine
 10
8.200000000136125
 20
-53.99999999779032
 30
0.0
 11
-0.9999999997720614
 21
-53.99999999779029
 31
0.0
  0
LINE
  5
137
330
1E
100
AcDbEntity
  8
1
 62
     7
100
AcDbLine
 10
-19.99999999986392
 20
68.50000000220967
 30
0.0
 11
-21.49999999986392
 21
70.00000000220968
 31
0.0
  0
LINE
  5
138
330
1E
100
AcDbEntity
  8
1
 62
     7
100
AcDbLine
 10
-19.99999999986392
 20
68.50000000220967
 30
0.0
 11
-19.99999999986392
 21
67.25000000220967
 31
0.0
  0
LINE
  5
139
330
1E
100
AcDbEntity
  8
1
 62
     7
100
AcDbLine
 10
-19.99999999986392
 20
67.25000000220967
 30
0.0
 11
-15.53185424935589
 21
67.25000000220967
 31
0.0
  0
LINE
  5
13A
330
1E
100
AcDbEntity
  8
1
 62
     7
100
AcDbLine
 10
-10.49999999986392
 20
72.28185425170206
 30
0.0
 11
-4.843145750371039
 21
66.62500000220967
 31
0.0
  0
LINE
  5
13B
330
1E
100
AcDbEntity
  8
1
 62
     7
100
AcDbLine
 10
-10.49999999986392
 20
72.28185425170206
 30
0.0
 11
-16.15685424935589
 21
66.62500000220967
 31
0.0
  0
LINE
  5
13C
330
1E
100
AcDbEntity
  8
1
 62
     7
100
AcDbLine
 10
-16.15685424935589
 20
66.62500000220967
 30
0.0
 11
-10.49999999986392
 21
60.96814575271729
 31
0.0
  0
LINE
  5
13D
330
1E
100
AcDbEntity
  8
1
 62
     7
100
AcDbLine
 10
-10.49999999986392
 20
60.96814575271729
 30
0.0
 11
-4.843145750371039
 21
66.62500000220967
 31
0.0
  0
LINE
  5
13E
330
1E
100
AcDbEntity
  8
1
 62
     7
100
AcDbLine
 10
-11.13999999986402
 20
61.60814575271738
 30
0.0
 11
-11.13999999986402
 21
60.82500000220969
 31
0.0
  0
LINE
  5
13F
330
1E
100
AcDbEntity
  8
1
 62
     7
100
AcDbLine
 10
-11.13999999986402
 20
60.82500000220969
 30
0.0
 11
-9.859999999864045
 21
60.82500000220969
 31
0.0
  0
LINE
  5
140
330
1E
100
AcDbEntity
  8
1
 62
     7
100
AcDbLine
 10
-9.859999999864045
 20
60.82500000220969
 30
0.0
 11
-9.859999999864045
 21
61.6081457527175
 31
0.0
  0
LINE
  5
141
330
1E
100
AcDbEntity
  8
1
 62
     7
100
AcDbLine
 10
-11.13999999986402
 20
71.64185425170217
 30
0.0
 11
-11.13999999986402
 21
72.42500000220968
 31
0.0
  0
LINE
  5
142
330
1E
100
AcDbEntity
  8
1
 62
     7
100
AcDbLine
 10
-11.13999999986402
 20
72.42500000220968
 30
0.0
 11
-9.859999999864045
 21
72.42500000220968
 31
0.0
  0
LINE
  5
143
330
1E
100
AcDbEntity
  8
1
 62
     7
100
AcDbLine
 10
-9.859999999864045
 20
72.42500000220968
 30
0.0
 11
-9.859999999864045
 21
71.64185425170197
 31
0.0
  0
LINE
  5
144
330
1E
100
AcDbEntity
  8
1
 62
     7
100
AcDbLine
 10
-0.4999999998639204
 20
67.25000000220967
 30
0.0
 11
-5.468145750371949
 21
67.25000000220967
 31
0.0
  0
LINE
  5
145
330
1E
100
AcDbEntity
  8
1
 62
     7
100
AcDbLine
 10
-0.4999999998639204
 20
68.50000000220967
 30
0.0
 11
-0.4999999998639204
 21
71.00000000220967
 31
0.0
  0
LINE
  5
146
330
1E
100
AcDbEntity
  8
1
 62
     7
100
AcDbLine
 10
-0.4999999998639204
 20
68.50000000220967
 30
0.0
 11
-0.4999999998639204
 21
67.25000000220967
 31
0.0
  0
LINE
  5
147
330
1E
100
AcDbEntity
  8
1
 62
     7
100
AcDbLine
 10
-0.4999999998639204
 20
71.00000000220967
 30
0.0
 11
0.5000000001360796
 21
71.00000000220967
 31
0.0
  0
LINE
  5
148
330
1E
100
AcDbEntity
  8
1
 62
     7
100
AcDbLine
 10
0.5000000001360796
 20
71.00000000220967
 30
0.0
 11
0.5000000001360796
 21
73.00000000220967
 31
0.0
  0
LINE
  5
149
330
1E
100
AcDbEntity
  8
1
 62
     7
100
AcDbLine
 10
-19.99999999986392
 20
-68.49999999779031
 30
0.0
 11
-21.49999999986392
 21
-69.99999999779031
 31
0.0
  0
LINE
  5
14A
330
1E
100
AcDbEntity
  8
1
 62
     7
100
AcDbLine
 10
-19.99999999986392
 20
-67.24999999779031
 30
0.0
 11
-19.99999999986392
 21
-68.49999999779031
 31
0.0
  0
LINE
  5
14B
330
1E
100
AcDbEntity
  8
1
 62
     7
100
AcDbLine
 10
-15.53185424935589
 20
-67.24999999779031
 30
0.0
 11
-19.99999999986392
 21
-67.24999999779031
 31
0.0
  0
LINE
  5
14C
330
1E
100
AcDbEntity
  8
1
 62
     7
100
AcDbLine
 10
-16.15685424935589
 20
-66.62499999779031
 30
0.0
 11
-10.49999999986392
 21
-72.28185424728268
 31
0.0
  0
LINE
  5
14D
330
1E
100
AcDbEntity
  8
1
 62
     7
100
AcDbLine
 10
-10.49999999986392
 20
-60.96814574829791
 30
0.0
 11
-16.15685424935589
 21
-66.62499999779031
 31
0.0
  0
LINE
  5
14E
330
1E
100
AcDbEntity
  8
1
 62
     7
100
AcDbLine
 10
-11.13999999986402
 20
-71.64185424728259
 30
0.0
 11
-11.13999999986402
 21
-72.42499999779029
 31
0.0
  0
LINE
  5
14F
330
1E
100
AcDbEntity
  8
1
 62
     7
100
AcDbLine
 10
-11.13999999986402
 20
-72.42499999779029
 30
0.0
 11
-9.859999999864045
 21
-72.42499999779029
 31
0.0
  0
LINE
  5
150
330
1E
100
AcDbEntity
  8
1
 62
     7
100
AcDbLine
 10
-9.859999999864045
 20
-72.42499999779029
 30
0.0
 11
-9.859999999864045
 21
-71.64185424728268
 31
0.0
  0
LINE
  5
151
330
1E
100
AcDbEntity
  8
1
 62
     7
100
AcDbLine
 10
-4.843145750371039
 20
-66.62499999779031
 30
0.0
 11
-10.49999999986392
 21
-72.28185424728268
 31
0.0
  0
LINE
  5
152
330
1E
100
AcDbEntity
  8
1
 62
     7
100
AcDbLine
 10
-11.13999999986402
 20
-61.608145748298
 30
0.0
 11
-11.13999999986402
 21
-60.82499999779031
 31
0.0
  0
LINE
  5
153
330
1E
100
AcDbEntity
  8
1
 62
     7
100
AcDbLine
 10
-11.13999999986402
 20
-60.82499999779031
 30
0.0
 11
-9.859999999864045
 21
-60.82499999779031
 31
0.0
  0
LINE
  5
154
330
1E
100
AcDbEntity
  8
1
 62
     7
100
AcDbLine
 10
-9.859999999864045
 20
-60.82499999779031
 30
0.0
 11
-9.859999999864045
 21
-61.60814574829791
 31
0.0
  0
LINE
  5
155
330
1E
100
AcDbEntity
  8
1
 62
     7
100
AcDbLine
 10
-4.843145750371039
 20
-66.62499999779031
 30
0.0
 11
-10.49999999986392
 21
-60.96814574829791
 31
0.0
  0
LINE
  5
156
330
1E
100
AcDbEntity
  8
1
 62
     7
100
AcDbLine
 10
-5.468145750371949
 20
-67.24999999779031
 30
0.0
 11
-0.4999999998639204
 21
-67.24999999779031
 31
0.0
  0
LINE
  5
157
330
1E
100
AcDbEntity
  8
1
 62
     7
100
AcDbLine
 10
-0.4999999998639204
 20
-70.99999999779031
 30
0.0
 11
-0.4999999998639204
 21
-67.24999999779031
 31
0.0
  0
LINE
  5
158
330
1E
100
AcDbEntity
  8
1
 62
     7
100
AcDbLine
 10
0.5000000001360796
 20
-70.99999999779031
 30
0.0
 11
-0.4999999998639204
 21
-70.99999999779031
 31
0.0
  0
LINE
  5
159
330
1E
100
AcDbEntity
  8
1
 62
     7
100
AcDbLine
 10
0.5000000001360796
 20
-72.99999999779031
 30
0.0
 11
0.5000000001360796
 21
-70.99999999779031
 31
0.0
  0
LINE
  5
15A
330
1E
100
AcDbEntity
  8
1
  6
CENTER
 62
     3
100
AcDbLine
 10
-10.49999999986392
 20
74.19786332579687
 30
0.0
 11
-10.49999999986392
 21
59.05213667862247
 31
0.0
  0
LINE
  5
15B
330
1E
100
AcDbEntity
  8
1
  6
CENTER
 62
     3
100
AcDbLine
 10
-18.07286332345085
 20
66.62500000220967
 30
0.0
 11
-2.927136676276976
 21
66.62500000220967
 31
0.0
  0
LINE
  5
15C
330
1E
100
AcDbEntity
  8
1
  6
CENTER
 62
     3
100
AcDbLine
 10
-10.49999999986392
 20
-58.53993725002678
 30
0.0
 11
-10.49999999986392
 21
-74.71006274555397
 31
0.0
  0
LINE
  5
15D
330
1E
100
AcDbEntity
  8
1
  6
CENTER
 62
     3
100
AcDbLine
 10
-2.414937252100006
 20
-66.62499999779035
 30
0.0
 11
-18.58506274762805
 21
-66.62499999779038
 31
0.0
  0
LINE
  5
15E
330
1E
100
AcDbEntity
  8
1
 62
     7
100
AcDbLine
 10
-183.4585953261457
 20
75.85985254296247
 30
0.0
 11
-183.9068830622298
 21
77.53288515043806
 31
0.0
  0
LINE
  5
15F
330
1E
100
AcDbEntity
  8
1
 62
     7
100
AcDbLine
 10
-184.6833401975376
 20
74.63510767157086
 30
0.0
 11
-183.4585953261457
 21
75.85985254296247
 31
0.0
  0
LINE
  5
160
330
1E
100
AcDbEntity
  8
1
 62
     7
100
AcDbLine
 10
-186.3563728050128
 20
75.08339540765487
 30
0.0
 11
-184.6833401975376
 21
74.63510767157086
 31
0.0
  0
LINE
  5
161
330
1E
100
AcDbEntity
  8
1
 62
     7
100
AcDbLine
 10
-186.8046605410968
 20
76.75642801513046
 30
0.0
 11
-186.3563728050128
 21
75.08339540765487
 31
0.0
  0
LINE
  5
162
330
1E
100
AcDbEntity
  8
1
 62
     7
100
AcDbLine
 10
-185.5799156697056
 20
77.98117288652206
 30
0.0
 11
-186.8046605410968
 21
76.75642801513046
 31
0.0
  0
LINE
  5
163
330
1E
100
AcDbEntity
  8
1
 62
     7
100
AcDbLine
 10
-183.9068830622298
 20
77.53288515043806
 30
0.0
 11
-185.5799156697056
 21
77.98117288652206
 31
0.0
  0
LINE
  5
164
330
1E
100
AcDbEntity
  8
1
 62
     7
100
AcDbLine
 10
-239.3200310398838
 20
19.99841682922494
 30
0.0
 11
-239.7683187759678
 21
21.67144943670054
 31
0.0
  0
LINE
  5
165
330
1E
100
AcDbEntity
  8
1
 62
     7
100
AcDbLine
 10
-240.5447759112758
 20
18.77367195783333
 30
0.0
 11
-239.3200310398838
 21
19.99841682922494
 31
0.0
  0
LINE
  5
166
330
1E
100
AcDbEntity
  8
1
 62
     7
100
AcDbLine
 10
-242.2178085187508
 20
19.2219596939174
 30
0.0
 11
-240.5447759112758
 21
18.77367195783333
 31
0.0
  0
LINE
  5
167
330
1E
100
AcDbEntity
  8
1
 62
     7
100
AcDbLine
 10
-242.6660962548349
 20
20.894992301393
 30
0.0
 11
-242.2178085187508
 21
19.2219596939174
 31
0.0
  0
LINE
  5
168
330
1E
100
AcDbEntity
  8
1
 62
     7
100
AcDbLine
 10
-241.4413513834437
 20
22.11973717278457
 30
0.0
 11
-242.6660962548349
 21
20.894992301393
 31
0.0
  0
LINE
  5
169
330
1E
100
AcDbEntity
  8
1
 62
     7
100
AcDbLine
 10
-239.7683187759678
 20
21.67144943670054
 30
0.0
 11
-241.4413513834437
 21
22.11973717278457
 31
0.0
  0
LINE
  5
16A
330
1E
100
AcDbEntity
  8
1
 62
     7
100
AcDbLine
 10
-218.8733264767847
 20
-56.30972344761178
 30
0.0
 11
-219.3216142128687
 21
-54.63669084013617
 31
0.0
  0
LINE
  5
16B
330
1E
100
AcDbEntity
  8
1
 62
     7
100
AcDbLine
 10
-220.0980713481758
 20
-57.53446831900336
 30
0.0
 11
-218.8733264767847
 21
-56.30972344761178
 31
0.0
  0
LINE
  5
16C
330
1E
100
AcDbEntity
  8
1
 62
     7
100
AcDbLine
 10
-221.7711039556518
 20
-57.08618058291935
 30
0.0
 11
-220.0980713481758
 21
-57.53446831900336
 31
0.0
  0
LINE
  5
16D
330
1E
100
AcDbEntity
  8
1
 62
     7
100
AcDbLine
 10
-222.2193916917358
 20
-55.41314797544373
 30
0.0
 11
-221.7711039556518
 21
-57.08618058291935
 31
0.0
  0
LINE
  5
16E
330
1E
100
AcDbEntity
  8
1
 62
     7
100
AcDbLine
 10
-220.9946468203438
 20
-54.18840310405214
 30
0.0
 11
-222.2193916917358
 21
-55.41314797544373
 31
0.0
  0
LINE
  5
16F
330
1E
100
AcDbEntity
  8
1
 62
     7
100
AcDbLine
 10
-219.3216142128687
 20
-54.63669084013617
 30
0.0
 11
-220.9946468203438
 21
-54.18840310405214
 31
0.0
  0
LINE
  5
170
330
1E
100
AcDbEntity
  8
1
 62
     7
100
AcDbLine
 10
-144.6865065435058
 20
-74.63510766715495
 30
0.0
 11
-145.9112514148966
 21
-75.85985253854623
 31
0.0
  0
LINE
  5
171
330
1E
100
AcDbEntity
  8
1
 62
     7
100
AcDbLine
 10
-145.9112514148966
 20
-75.85985253854623
 30
0.0
 11
-145.4629636788129
 21
-77.53288514602201
 31
0.0
  0
LINE
  5
172
330
1E
100
AcDbEntity
  8
1
 62
     7
100
AcDbLine
 10
-145.4629636788129
 20
-77.53288514602201
 30
0.0
 11
-143.7899310713378
 21
-77.98117288210625
 31
0.0
  0
LINE
  5
173
330
1E
100
AcDbEntity
  8
1
 62
     7
100
AcDbLine
 10
-143.7899310713378
 20
-77.98117288210625
 30
0.0
 11
-142.5651861999457
 21
-76.75642801071425
 31
0.0
  0
LINE
  5
174
330
1E
100
AcDbEntity
  8
1
 62
     7
100
AcDbLine
 10
-142.5651861999457
 20
-76.75642801071425
 30
0.0
 11
-143.0134739360298
 21
-75.08339540323895
 31
0.0
  0
LINE
  5
175
330
1E
100
AcDbEntity
  8
1
 62
     7
100
AcDbLine
 10
-143.0134739360298
 20
-75.08339540323895
 30
0.0
 11
-144.6865065435058
 21
-74.63510766715495
 31
0.0
  0
LINE
  5
176
330
1E
100
AcDbEntity
  8
1
 62
     7
100
AcDbLine
 10
-90.04981570115566
 20
-19.99841682480932
 30
0.0
 11
-89.60152796507186
 21
-21.67144943228441
 31
0.0
  0
LINE
  5
177
330
1E
100
AcDbEntity
  8
1
 62
     7
100
AcDbLine
 10
-89.60152796507186
 20
-21.67144943228441
 30
0.0
 11
-87.92849535759565
 21
-22.11973716836865
 31
0.0
  0
LINE
  5
178
330
1E
100
AcDbEntity
  8
1
 62
     7
100
AcDbLine
 10
-87.92849535759565
 20
-22.11973716836865
 30
0.0
 11
-86.70375048620483
 21
-20.89499229697712
 31
0.0
  0
LINE
  5
179
330
1E
100
AcDbEntity
  8
1
 62
     7
100
AcDbLine
 10
-86.70375048620483
 20
-20.89499229697712
 30
0.0
 11
-87.15203822228884
 21
-19.22195968950114
 31
0.0
  0
LINE
  5
17A
330
1E
100
AcDbEntity
  8
1
 62
     7
100
AcDbLine
 10
-87.15203822228884
 20
-19.22195968950114
 30
0.0
 11
-88.82507082976367
 21
-18.77367195341757
 31
0.0
  0
LINE
  5
17B
330
1E
100
AcDbEntity
  8
1
 62
     7
100
AcDbLine
 10
-88.82507082976367
 20
-18.77367195341757
 30
0.0
 11
-90.04981570115566
 21
-19.99841682480932
 31
0.0
  0
LINE
  5
17C
330
1E
100
AcDbEntity
  8
1
 62
     7
100
AcDbLine
 10
-110.0482325281689
 20
54.63669084455558
 30
0.0
 11
-108.3751999206937
 21
54.18840310847148
 31
0.0
  0
LINE
  5
17D
330
1E
100
AcDbEntity
  8
1
 62
     7
100
AcDbLine
 10
-108.3751999206937
 20
54.18840310847148
 30
0.0
 11
-107.1504550493018
 21
55.41314797986308
 31
0.0
  0
LINE
  5
17E
330
1E
100
AcDbEntity
  8
1
 62
     7
100
AcDbLine
 10
-107.1504550493018
 20
55.41314797986308
 30
0.0
 11
-107.5987427853857
 21
57.08618058733867
 31
0.0
  0
LINE
  5
17F
330
1E
100
AcDbEntity
  8
1
 62
     7
100
AcDbLine
 10
-107.5987427853857
 20
57.08618058733867
 30
0.0
 11
-109.2717753928617
 21
57.53446832342278
 31
0.0
  0
LINE
  5
180
330
1E
100
AcDbEntity
  8
1
 62
     7
100
AcDbLine
 10
-109.2717753928617
 20
57.53446832342278
 30
0.0
 11
-110.4965202642526
 21
56.30972345203119
 31
0.0
  0
LINE
  5
181
330
1E
100
AcDbEntity
  8
1
 62
     7
100
AcDbLine
 10
-110.4965202642526
 20
56.30972345203119
 30
0.0
 11
-110.0482325281689
 21
54.63669084455558
 31
0.0
  0
LINE
  5
182
330
1E
100
AcDbEntity
  8
1
  6
CENTER
 62
     3
100
AcDbLine
 10
-104.6657444579456
 20
60.01917891477878
 30
0.0
 11
-113.1861717933718
 21
51.49875157935258
 31
0.0
  0
LINE
  5
183
330
1E
100
AcDbEntity
  8
1
  6
CENTER
 62
     3
100
AcDbLine
 10
-82.69720026166371
 20
-21.96854419407741
 30
0.0
 11
-94.33632045295572
 21
-18.84985133821242
 31
0.0
  0
LINE
  5
184
330
1E
100
AcDbEntity
  8
1
  6
CENTER
 62
     3
100
AcDbLine
 10
-142.7163791742368
 20
-81.98772310664621
 30
0.0
 11
-145.8350720301026
 21
-70.34860291535512
 31
0.0
  0
LINE
  5
185
330
1E
100
AcDbEntity
  8
1
  6
CENTER
 62
     3
100
AcDbLine
 10
-127.6599233705228
 20
-64.1291811480281
 30
0.0
 11
-122.7099233705227
 21
-72.70283264549401
 31
0.0
  0
LINE
  5
186
330
1E
100
AcDbEntity
  8
1
  6
CENTER
 62
     3
100
AcDbLine
 10
-100.5557422202857
 20
-37.02499999779047
 30
0.0
 11
-91.9820907228197
 21
-41.97499999779046
 31
0.0
  0
LINE
  5
187
330
1E
100
AcDbEntity
  8
1
  6
CENTER
 62
     3
100
AcDbLine
 10
-100.5557422202848
 20
37.0250000022096
 30
0.0
 11
-91.9820907228197
 21
41.97500000220961
 31
0.0
  0
LINE
  5
188
330
1E
100
AcDbEntity
  8
1
  6
CENTER
 62
     3
100
AcDbLine
 10
-127.6599233705228
 20
64.1291811524474
 30
0.0
 11
-122.7099233705227
 21
72.70283264991326
 31
0.0
  0
LINE
  5
189
330
1E
100
AcDbEntity
  8
1
  6
CENTER
 62
     3
100
AcDbLine
 10
-257.8581236121918
 20
0.0000000022096955
 30
0.0
 11
-67.98492337052286
 21
0.0000000022096955
 31
0.0
  0
LINE
  5
18A
330
1E
100
AcDbEntity
  8
1
  6
CENTER
 62
     3
100
AcDbLine
 10
-164.6849233705227
 20
94.60000000220968
 30
0.0
 11
-164.6849233705227
 21
-94.16515064482291
 31
0.0
  0
LINE
  5
18B
330
1E
100
AcDbEntity
  8
1
  6
CENTER
 62
     3
100
AcDbLine
 10
26.50000000013608
 20
-60.99999999779029
 30
0.0
 11
-7.039230484405952
 21
-60.99999999779029
 31
0.0
  0
LINE
  5
18C
330
1E
100
AcDbEntity
  8
1
 62
     3
100
AcDbLine
 10
-1.499999999863919
 20
-63.49999999779029
 30
0.0
 11
0.7000000001361251
 21
-63.49999999779029
 31
0.0
  0
LINE
  5
18D
330
1E
100
AcDbEntity
  8
1
 62
     3
100
AcDbLine
 10
0.7000000001361251
 20
-58.49999999779029
 30
0.0
 11
-1.499999999863919
 21
-58.49999999779033
 31
0.0
  0
LINE
  5
18E
330
1E
100
AcDbEntity
  8
1
 62
     7
100
AcDbLine
 10
-1.499999999863919
 20
-58.49999999779033
 30
0.0
 11
-1.499999999863919
 21
-63.49999999779029
 31
0.0
  0
LINE
  5
18F
330
1E
100
AcDbEntity
  8
1
 62
     7
100
AcDbLine
 10
-5.539230484405952
 20
-60.99999999779029
 30
0.0
 11
-4.49999999986392
 21
-62.7999999977903
 31
0.0
  0
LINE
  5
190
330
1E
100
AcDbEntity
  8
1
 62
     7
100
AcDbLine
 10
-4.49999999986392
 20
-59.1999999977903
 30
0.0
 11
-5.539230484405952
 21
-60.99999999779029
 31
0.0
  0
LINE
  5
191
330
1E
100
AcDbEntity
  8
1
 62
     7
100
AcDbLine
 10
-4.49999999986392
 20
-62.7999999977903
 30
0.0
 11
0.0000000001360796
 21
-62.7999999977903
 31
0.0
  0
LINE
  5
192
330
1E
100
AcDbEntity
  8
1
 62
     7
100
AcDbLine
 10
-4.49999999986392
 20
-59.1999999977903
 30
0.0
 11
-4.49999999986392
 21
-62.7999999977903
 31
0.0
  0
LINE
  5
193
330
1E
100
AcDbEntity
  8
1
 62
     7
100
AcDbLine
 10
0.0000000001360796
 20
-59.1999999977903
 30
0.0
 11
-4.49999999986392
 21
-59.1999999977903
 31
0.0
  0
LINE
  5
194
330
1E
100
AcDbEntity
  8
1
 62
     7
100
AcDbLine
 10
20.00000000013607
 20
-63.7499999977903
 30
0.0
 11
20.00000000013607
 21
-65.7499999977903
 31
0.0
  0
LINE
  5
195
330
1E
100
AcDbEntity
  8
1
 62
     7
100
AcDbLine
 10
20.00000000013607
 20
-63.7499999977903
 30
0.0
 11
8.500000000136079
 21
-63.7499999977903
 31
0.0
  0
LINE
  5
196
330
1E
100
AcDbEntity
  8
1
 62
     7
100
AcDbLine
 10
20.00000000013607
 20
-58.2499999977903
 30
0.0
 11
20.00000000013607
 21
-63.7499999977903
 31
0.0
  0
LINE
  5
197
330
1E
100
AcDbEntity
  8
1
 62
     7
100
AcDbLine
 10
20.00000000013607
 20
-58.2499999977903
 30
0.0
 11
8.500000000136079
 21
-58.24999999779032
 31
0.0
  0
LINE
  5
198
330
1E
100
AcDbEntity
  8
1
 62
     7
100
AcDbLine
 10
20.00000000013607
 20
-65.7499999977903
 30
0.0
 11
25.50000000013608
 21
-65.74999999779025
 31
0.0
  0
LINE
  5
199
330
1E
100
AcDbEntity
  8
1
 62
     7
100
AcDbLine
 10
20.00000000013607
 20
-56.2499999977903
 30
0.0
 11
20.00000000013607
 21
-58.2499999977903
 31
0.0
  0
LINE
  5
19A
330
1E
100
AcDbEntity
  8
1
 62
     7
100
AcDbLine
 10
25.50000000013608
 20
-56.2499999977903
 30
0.0
 11
20.00000000013607
 21
-56.2499999977903
 31
0.0
  0
LINE
  5
19B
330
1E
100
AcDbEntity
  8
1
  6
CENTER
 62
     3
100
AcDbLine
 10
-30.69999999986396
 20
-78.99999999779028
 30
0.0
 11
-9.291709622997023
 21
-78.99999999779028
 31
0.0
  0
LINE
  5
19C
330
1E
100
AcDbEntity
  8
1
 62
     3
100
AcDbLine
 10
-13.49999999986392
 20
-76.99999999779031
 30
0.0
 11
-16.09999999986406
 21
-76.9999999977903
 31
0.0
  0
LINE
  5
19D
330
1E
100
AcDbEntity
  8
1
 62
     3
100
AcDbLine
 10
-16.09999999986406
 20
-80.99999999779031
 30
0.0
 11
-13.49999999986392
 21
-80.99999999779031
 31
0.0
  0
LINE
  5
19E
330
1E
100
AcDbEntity
  8
1
 62
     7
100
AcDbLine
 10
-13.49999999986392
 20
-80.99999999779031
 30
0.0
 11
-13.49999999986392
 21
-76.99999999779031
 31
0.0
  0
LINE
  5
19F
330
1E
100
AcDbEntity
  8
1
 62
     7
100
AcDbLine
 10
-10.49170962299707
 20
-78.99999999779028
 30
0.0
 11
-11.29999999986297
 21
-77.5999999977903
 31
0.0
  0
LINE
  5
1A0
330
1E
100
AcDbEntity
  8
1
 62
     7
100
AcDbLine
 10
-11.29999999986297
 20
-80.39999999779031
 30
0.0
 11
-10.49170962299707
 21
-78.99999999779028
 31
0.0
  0
LINE
  5
1A1
330
1E
100
AcDbEntity
  8
1
 62
     7
100
AcDbLine
 10
-11.29999999986297
 20
-77.5999999977903
 30
0.0
 11
-15.49999999986392
 21
-77.59999999779029
 31
0.0
  0
LINE
  5
1A2
330
1E
100
AcDbEntity
  8
1
 62
     7
100
AcDbLine
 10
-11.29999999986297
 20
-80.39999999779031
 30
0.0
 11
-11.29999999986297
 21
-77.5999999977903
 31
0.0
  0
LINE
  5
1A3
330
1E
100
AcDbEntity
  8
1
 62
     7
100
AcDbLine
 10
-15.49999999986392
 20
-80.39999999779031
 30
0.0
 11
-11.29999999986297
 21
-80.39999999779031
 31
0.0
  0
LINE
  5
1A4
330
1E
100
AcDbEntity
  8
1
 62
     7
100
AcDbLine
 10
-21.95646643962607
 20
52.06937298813919
 30
0.0
 11
-21.95646643962607
 21
34.5
 31
0.0
  0
LINE
  5
1A5
330
1E
100
AcDbEntity
  8
1
  6
PHANTOM
 62
     4
100
AcDbLine
 10
-23.49999999986392
 20
-44.99999999779031
 30
0.0
 11
-23.49999999986392
 21
-69.99999999779031
 31
0.0
  0
LINE
  5
1A6
330
1E
100
AcDbEntity
  8
1
  6
PHANTOM
 62
     4
100
AcDbLine
 10
-8.99999999986392
 20
-44.99999999779031
 30
0.0
 11
-23.49999999986392
 21
-44.99999999779031
 31
0.0
  0
LINE
  5
1A7
330
1E
100
AcDbEntity
  8
1
  6
DIVIDE
 62
     4
100
AcDbLine
 10
25.50000000001102
 20
-52.99999999779032
 30
0.0
 11
27.50000000013608
 21
-52.99999999779032
 31
0.0
  0
LINE
  5
1A8
330
1E
100
AcDbEntity
  8
1
  6
DIVIDE
 62
     4
100
AcDbLine
 10
27.50000000013608
 20
-52.99999999779032
 30
0.0
 11
27.50000000013608
 21
-38.16062863219764
 31
0.0
  0
LINE
  5
1A9
330
1E
100
AcDbEntity
  8
1
  6
CENTER
 62
     3
100
AcDbLine
 10
200.1014473291073
 20
-10.48363933841317
 30
0.0
 11
214.2164631508141
 21
-13.29129055111018
 31
0.0
  0
LINE
  5
1AA
330
1E
100
AcDbEntity
  8
1
  6
CENTER
 62
     3
100
AcDbLine
 10
172.6346056152643
 20
60.92985517132948
 30
0.0
 11
168.8460396348503
 21
51.78344779946788
 31
0.0
  0
LINE
  5
1AB
330
1E
100
AcDbEntity
  8
1
  6
CENTER
 62
     3
100
AcDbLine
 10
194.0303254700393
 20
46.63369222146308
 30
0.0
 11
187.0299683362931
 21
39.63333508771627
 31
0.0
  0
LINE
  5
1AC
330
1E
100
AcDbEntity
  8
1
  6
CENTER
 62
     3
100
AcDbLine
 10
208.326488419906
 20
25.23797236668798
 30
0.0
 11
199.1800810480452
 21
21.44940638627355
 31
0.0
  0
LINE
  5
1AD
330
1E
100
AcDbEntity
  8
1
  6
CENTER
 62
     3
100
AcDbLine
 10
208.3264884199072
 20
-25.23797236226748
 30
0.0
 11
199.1800810480452
 21
-21.44940638185329
 31
0.0
  0
LINE
  5
1AE
330
1E
100
AcDbEntity
  8
1
  6
CENTER
 62
     3
100
AcDbLine
 10
194.0303254700401
 20
-46.63369221704299
 30
0.0
 11
187.0299683362931
 21
-39.63333508329623
 31
0.0
  0
LINE
  5
1AF
330
1E
100
AcDbEntity
  8
1
  6
CENTER
 62
     3
100
AcDbLine
 10
172.6346056152651
 20
-60.9298551669092
 30
0.0
 11
168.8460396348503
 21
-51.7834477950476
 31
0.0
  0
LINE
  5
1B0
330
1E
100
AcDbEntity
  8
1
 62
     7
100
AcDbLine
 10
9.700000000136123
 20
-53.9999999977903
 30
0.0
 11
9.700000000136123
 21
-56.19999999779031
 31
0.0
  0
LINE
  5
1B1
330
1E
100
AcDbEntity
  8
1
 62
     7
100
AcDbLine
 10
9.700000000136123
 20
-56.19999999779031
 30
0.0
 11
8.500000000136079
 21
-56.19999999779031
 31
0.0
  0
LINE
  5
1B2
330
1E
100
AcDbEntity
  8
1
 62
     7
100
AcDbLine
 10
9.700000000136123
 20
56.20000000220969
 30
0.0
 11
9.700000000136123
 21
54.00000000220968
 31
0.0
  0
LINE
  5
1B3
330
1E
100
AcDbEntity
  8
1
 62
     7
100
AcDbLine
 10
8.500000000136079
 20
56.20000000220969
 30
0.0
 11
9.700000000136123
 21
56.20000000220969
 31
0.0
  0
LINE
  5
1B4
330
1E
100
AcDbEntity
  8
1
  6
DIVIDE
 62
     4
100
AcDbLine
 10
4.500000000234987
 20
52.20850000220968
 30
0.0
 11
25.50000000013608
 21
52.20850000220968
 31
0.0
  0
LINE
  5
1B5
330
1E
100
AcDbEntity
  8
1
 62
     7
100
AcDbLine
 10
25.50000000013608
 20
-67.09999999779032
 30
0.0
 11
25.50000000013608
 21
-50.84568541393913
 31
0.0
  0
LINE
  5
1B6
330
1E
100
AcDbEntity
  8
1
 62
     7
100
AcDbLine
 10
4.90000000022803
 20
-53.99999999779021
 30
0.0
 11
4.500000000227938
 21
-53.59999999779029
 31
0.0
  0
LINE
  5
1B7
330
1E
100
AcDbEntity
  8
1
 62
     7
100
AcDbLine
 10
4.500000000227938
 20
53.60000000220968
 30
0.0
 11
4.90000000022803
 21
54.00000000220968
 31
0.0
  0
LINE
  5
1B8
330
1E
100
AcDbEntity
  8
1
 62
     7
100
AcDbLine
 10
4.500000000227938
 20
53.60000000220968
 30
0.0
 11
4.500000000227938
 21
50.84568541838018
 31
0.0
  0
LINE
  5
1B9
330
1E
100
AcDbEntity
  8
1
 62
     7
100
AcDbLine
 10
4.90000000022803
 20
54.00000000220968
 30
0.0
 11
9.700000000136123
 21
54.00000000220968
 31
0.0
  0
LINE
  5
1BA
330
1E
100
AcDbEntity
  8
1
  6
CENTER
 62
     3
100
AcDbLine
 10
-206.6599233705228
 20
-72.70283264549401
 30
0.0
 11
-201.7099233705228
 21
-64.1291811480281
 31
0.0
  0
LINE
  5
1BB
330
1E
100
AcDbEntity
  8
1
  6
CENTER
 62
     3
100
AcDbLine
 10
-237.3877560182259
 20
-41.97499999779046
 30
0.0
 11
-228.8141045207598
 21
-37.02499999779047
 31
0.0
  0
LINE
  5
1BC
330
1E
100
AcDbEntity
  8
1
  6
CENTER
 62
     3
100
AcDbLine
 10
-237.3877560182259
 20
41.97500000220961
 30
0.0
 11
-228.8141045207607
 21
37.0250000022096
 31
0.0
  0
LINE
  5
1BD
330
1E
100
AcDbEntity
  8
1
  6
CENTER
 62
     3
100
AcDbLine
 10
-206.6599233705228
 20
72.70283264991326
 30
0.0
 11
-201.7099233705228
 21
64.1291811524474
 31
0.0
  0
LINE
  5
1BE
330
1E
100
AcDbEntity
  8
1
 62
     7
100
AcDbLine
 10
8.500000000136079
 20
-58.49999999779033
 30
0.0
 11
8.500000000136079
 21
-58.24999999779032
 31
0.0
  0
LINE
  5
1BF
330
1E
100
AcDbEntity
  8
1
 62
     7
100
AcDbLine
 10
-21.49999999986392
 20
-76.99999999779031
 30
0.0
 11
-21.49999999986392
 21
-52.38200000326572
 31
0.0
  0
LINE
  5
1C0
330
1E
100
AcDbEntity
  8
1
 62
     7
100
AcDbLine
 10
25.10000000013599
 20
-67.49999999779031
 30
0.0
 11
8.900000000135943
 21
-67.49999999779031
 31
0.0
  0
LINE
  5
1C1
330
1E
100
AcDbEntity
  8
1
 62
     7
100
AcDbLine
 10
8.500000000136079
 20
-67.09999999779032
 30
0.0
 11
8.500000000136079
 21
-63.49999999779029
 31
0.0
  0
LINE
  5
1C2
330
1E
100
AcDbEntity
  8
1
 62
     7
100
AcDbLine
 10
25.50000000013608
 20
-67.09999999779032
 30
0.0
 11
25.10000000013599
 21
-67.49999999779031
 31
0.0
  0
LINE
  5
1C3
330
1E
100
AcDbEntity
  8
1
 62
     7
100
AcDbLine
 10
8.500000000136079
 20
-67.09999999779032
 30
0.0
 11
8.900000000135943
 21
-67.49999999779031
 31
0.0
  0
LINE
  5
1C4
330
1E
100
AcDbEntity
  8
1
 62
     7
100
AcDbLine
 10
-21.49999999986392
 20
-84.99999999779031
 30
0.0
 11
-21.49999999986392
 21
-80.99999999779031
 31
0.0
  0
LINE
  5
1C5
330
1E
100
AcDbEntity
  8
1
 62
     7
100
AcDbLine
 10
-25.49999999986392
 20
-69.99999999779031
 30
0.0
 11
-23.49999999986392
 21
-69.99999999779031
 31
0.0
  0
LINE
  5
1C6
330
1E
100
AcDbEntity
  8
1
 62
     7
100
AcDbLine
 10
-21.49999999986392
 20
-84.99999999779031
 30
0.0
 11
-25.49999999986392
 21
-84.99999999779031
 31
0.0
  0
LINE
  5
1C7
330
1E
100
AcDbEntity
  8
1
 62
     7
100
AcDbLine
 10
-25.49999999986392
 20
-69.99999999779031
 30
0.0
 11
-22.55646643962597
 21
-69.99999999779031
 31
0.0
  0
LINE
  5
1C8
330
1E
100
AcDbEntity
  8
0
 62
     7
100
AcDbLine
 10
4.500000000257042
 20
-50.84568541393174
 30
0.0
 11
4.500000000227938
 21
-53.59999999779029
 31
0.0
  0
LINE
  5
1C9
330
1E
100
AcDbEntity
  8
1
 62
     7
100
AcDbLine
 10
-21.95646643962607
 20
-52.06937298371982
 30
0.0
 11
-21.95646643962607
 21
-69.39999999779042
 31
0.0
  0
LINE
  5
1CA
330
1E
100
AcDbEntity
  8
1
 62
     7
100
AcDbLine
 10
-9.462828914526998
 20
-49.07999999779033
 30
0.0
 11
-18.98486167107797
 21
-49.22589736740263
 31
0.0
  0
LINE
  5
1CB
330
1E
100
AcDbEntity
  8
1
 62
     7
100
AcDbLine
 10
7.490839159513287
 20
-51.1161447702215
 30
0.0
 11
24.1294455456201
 21
-51.17055445230644
 31
0.0
  0
LINE
  5
1CC
330
1E
100
AcDbEntity
  8
1
 62
     7
100
AcDbLine
 10
25.4414213563731
 20
-49.85857864155303
 30
0.0
 11
24.1294455456201
 21
-51.17055445230644
 31
0.0
  0
LINE
  5
1CD
330
1E
100
AcDbEntity
  8
1
 62
     7
100
AcDbLine
 10
24.30000000013603
 20
-49.07999999779033
 30
0.0
 11
25.3104671913851
 21
-49.13295633932193
 31
0.0
  0
LINE
  5
1CE
330
1E
100
AcDbEntity
  8
1
 62
     7
100
AcDbLine
 10
-9.462828914526998
 20
-49.07999999779033
 30
0.0
 11
24.30000000013603
 21
-49.07999999779033
 31
0.0
  0
LINE
  5
1CF
330
1E
100
AcDbEntity
  8
1
 62
     7
100
AcDbLine
 10
25.50000000013608
 20
-49.71715728531563
 30
0.0
 11
25.50000000013608
 21
-45.6457300300177
 31
0.0
  0
LINE
  5
1D0
330
1E
100
AcDbEntity
  8
0
 62
     7
100
AcDbLine
 10
25.50000000013608
 20
-51.21399999779033
 30
0.0
 11
4.50000000007105
 21
-51.21399999779033
 31
0.0
  0
LINE
  5
1D1
330
1E
100
AcDbEntity
  8
0
 62
     7
100
AcDbLine
 10
5.065685416643074
 20
-50.27999999762313
 30
0.0
 11
4.500000000257042
 21
-50.84568541393174
 31
0.0
  0
LINE
  5
1D2
330
1E
100
AcDbEntity
  8
0
 62
     7
100
AcDbLine
 10
24.93431458348993
 20
-50.27999999780082
 30
0.0
 11
5.065685416643074
 21
-50.27999999762313
 31
0.0
  0
LINE
  5
1D3
330
1E
100
AcDbEntity
  8
0
 62
     7
100
AcDbLine
 10
25.50000000013608
 20
-50.84568541393913
 30
0.0
 11
24.93431458348993
 21
-50.27999999780082
 31
0.0
  0
LINE
  5
1D4
330
1E
100
AcDbEntity
  8
1
 62
     7
100
AcDbLine
 10
-25.49999999986392
 20
-84.99999999779031
 30
0.0
 11
-25.49999999986392
 21
-80.99999999779031
 31
0.0
  0
LINE
  5
1D5
330
1E
100
AcDbEntity
  8
1
 62
     7
100
AcDbLine
 10
8.900000000135943
 20
67.50000000220968
 30
0.0
 11
25.10000000013599
 21
67.50000000220968
 31
0.0
  0
LINE
  5
1D6
330
1E
100
AcDbEntity
  8
1
 62
     7
100
AcDbLine
 10
8.500000000136079
 20
57.70000000220968
 30
0.0
 11
25.50000000013608
 21
57.70000000220968
 31
0.0
  0
LINE
  5
1D7
330
1E
100
AcDbEntity
  8
1
 62
     7
100
AcDbLine
 10
8.500000000136079
 20
64.30000000220968
 30
0.0
 11
25.50000000013608
 21
64.30000000220968
 31
0.0
  0
LINE
  5
1D8
330
1E
100
AcDbEntity
  8
1
 62
     7
100
AcDbLine
 10
25.10000000013599
 20
67.50000000220968
 30
0.0
 11
25.50000000013608
 21
67.10000000220967
 31
0.0
  0
LINE
  5
1D9
330
1E
100
AcDbEntity
  8
1
 62
     7
100
AcDbLine
 10
8.900000000135943
 20
67.50000000220968
 30
0.0
 11
8.500000000136079
 21
67.10000000220967
 31
0.0
  0
LINE
  5
1DA
330
1E
100
AcDbEntity
  8
1
 62
     7
100
AcDbLine
 10
-21.49999999986392
 20
52.1819999967338
 30
0.0
 11
-21.49999999986392
 21
85.00000000220968
 31
0.0
  0
LINE
  5
1DB
330
1E
100
AcDbEntity
  8
1
 62
     7
100
AcDbLine
 10
7.500000000136079
 20
75.70000000220964
 30
0.0
 11
-25.49999999986392
 21
75.70000000220964
 31
0.0
  0
LINE
  5
1DC
330
1E
100
AcDbEntity
  8
1
 62
     7
100
AcDbLine
 10
7.500000000136079
 20
82.30000000220968
 30
0.0
 11
-25.49999999986392
 21
82.30000000220968
 31
0.0
  0
LINE
  5
1DD
330
1E
100
AcDbEntity
  8
1
 62
     7
100
AcDbLine
 10
-25.49999999986392
 20
85.00000000220968
 30
0.0
 11
-21.49999999986392
 21
85.00000000220968
 31
0.0
  0
LINE
  5
1DE
330
1E
100
AcDbEntity
  8
1
 62
     7
100
AcDbLine
 10
-22.55646643962597
 20
70.00000000220968
 30
0.0
 11
-25.49999999986392
 21
70.00000000220968
 31
0.0
  0
LINE
  5
1DF
330
1E
100
AcDbEntity
  8
1
 62
     7
100
AcDbLine
 10
-25.49999999986392
 20
-76.99999999779031
 30
0.0
 11
-25.49999999986392
 21
-39.2
 31
0.0
  0
LINE
  5
1E0
330
1E
100
AcDbEntity
  8
1
 62
     7
100
AcDbLine
 10
25.50000000013608
 20
67.10000000220967
 30
0.0
 11
25.50000000013608
 21
50.84568541835848
 31
0.0
  0
LINE
  5
1E1
330
1E
100
AcDbEntity
  8
1
 62
     7
100
AcDbLine
 10
-21.95646643962607
 20
69.4000000022098
 30
0.0
 11
-21.95646643962607
 21
52.06937298813919
 31
0.0
  0
LINE
  5
1E2
330
1E
100
AcDbEntity
  8
1
 62
     7
100
AcDbLine
 10
-18.98486167107797
 20
49.22589737182208
 30
0.0
 11
-9.462828914526998
 21
49.08000000220978
 31
0.0
  0
LINE
  5
1E3
330
1E
100
AcDbEntity
  8
1
 62
     7
100
AcDbLine
 10
24.1294455456201
 20
51.17055445672579
 30
0.0
 11
7.490839177042968
 21
51.11614477469828
 31
0.0
  0
LINE
  5
1E4
330
1E
100
AcDbEntity
  8
1
 62
     7
100
AcDbLine
 10
24.1294455456201
 20
51.17055445672579
 30
0.0
 11
25.4414213563731
 21
49.85857864597248
 31
0.0
  0
LINE
  5
1E5
330
1E
100
AcDbEntity
  8
1
 62
     7
100
AcDbLine
 10
25.3104671913851
 20
49.13295634374137
 30
0.0
 11
24.30000000013603
 21
49.08000000220978
 31
0.0
  0
LINE
  5
1E6
330
1E
100
AcDbEntity
  8
1
 62
     7
100
AcDbLine
 10
24.30000000013603
 20
49.08000000220978
 30
0.0
 11
-9.462828914526998
 21
49.08000000220978
 31
0.0
  0
LINE
  5
1E7
330
1E
100
AcDbEntity
  8
1
 62
     7
100
AcDbLine
 10
25.50000000013608
 20
45.64573003443709
 30
0.0
 11
25.50000000013608
 21
49.71715728973507
 31
0.0
  0
LINE
  5
1E8
330
1E
100
AcDbEntity
  8
0
 62
     7
100
AcDbLine
 10
4.50000000007105
 20
51.21400000220968
 30
0.0
 11
25.50000000013608
 21
51.21400000220968
 31
0.0
  0
LINE
  5
1E9
330
1E
100
AcDbEntity
  8
0
 62
     7
100
AcDbLine
 10
4.500000000227938
 20
50.84568541838018
 30
0.0
 11
5.065685416643074
 21
50.28000000204247
 31
0.0
  0
LINE
  5
1EA
330
1E
100
AcDbEntity
  8
0
 62
     7
100
AcDbLine
 10
5.065685416643074
 20
50.28000000204247
 30
0.0
 11
24.93431458348993
 21
50.28000000222018
 31
0.0
  0
LINE
  5
1EB
330
1E
100
AcDbEntity
  8
0
 62
     7
100
AcDbLine
 10
24.93431458348993
 20
50.28000000222018
 30
0.0
 11
25.50000000013608
 21
50.84568541835848
 31
0.0
  0
LINE
  5
1EC
330
1E
100
AcDbEntity
  8
1
 62
     7
100
AcDbLine
 10
-21.49999999986392
 20
-81.24999999779031
 30
0.0
 11
-25.49999999986392
 21
-81.24999999779031
 31
0.0
  0
LINE
  5
1ED
330
1E
100
AcDbEntity
  8
1
 62
     7
100
AcDbLine
 10
-25.49999999986392
 20
-76.74999999779031
 30
0.0
 11
-21.49999999986392
 21
-76.74999999779031
 31
0.0
  0
LINE
  5
1EE
330
1E
100
AcDbEntity
  8
1
  6
CENTER
 62
     3
100
AcDbLine
 10
-186.7046207835858
 20
82.17862951505487
 30
0.0
 11
-183.8295875927479
 21
71.44885957340206
 31
0.0
  0
LINE
  5
1EF
330
1E
100
AcDbEntity
  8
1
  6
CENTER
 62
     3
100
AcDbLine
 10
-246.7291094605039
 20
21.98367340868901
 30
0.0
 11
-235.9527918642867
 21
19.0961678114012
 31
0.0
  0
LINE
  5
1F0
330
1E
100
AcDbEntity
  8
1
  6
CENTER
 62
     3
100
AcDbLine
 10
-224.7041022830917
 20
-60.0191789103594
 30
0.0
 11
-216.1836749476658
 21
-51.49875157493323
 31
0.0
  0
LINE
  5
1F1
330
1E
100
AcDbEntity
  8
1
 62
     7
100
AcDbLine
 10
8.500000000136079
 20
56.20000000220969
 30
0.0
 11
8.500000000136079
 21
67.10000000220967
 31
0.0
  0
LINE
  5
1F2
330
1E
100
AcDbEntity
  8
1
 62
     7
100
AcDbLine
 10
9.700000000136123
 20
-53.9999999977903
 30
0.0
 11
4.90000000022803
 21
-53.99999999779021
 31
0.0
  0
LINE
  5
1F3
330
1E
100
AcDbEntity
  8
1
 62
     7
100
AcDbLine
 10
8.500000000136079
 20
-58.24999999779032
 30
0.0
 11
8.500000000136079
 21
-56.19999999779031
 31
0.0
  0
LINE
  5
1F4
330
1E
100
AcDbEntity
  8
1
  6
CENTER
 62
     3
100
AcDbLine
 10
157.8802725914093
 20
52.70481408052988
 30
0.0
 11
160.6879238041063
 21
66.81982990223727
 31
0.0
  0
LINE
  5
1F5
330
1E
100
AcDbEntity
  8
1
  6
CENTER
 62
     3
100
AcDbLine
 10
94.69181917026821
 20
10.48363934061099
 30
0.0
 11
80.57680334856081
 21
13.291290553308
 31
0.0
  0
LINE
  5
1F6
330
1E
100
AcDbEntity
  8
1
  6
CENTER
 62
     3
100
AcDbLine
 10
122.15866088411
 20
60.92985516910784
 30
0.0
 11
125.9472268645245
 21
51.78344779724689
 31
0.0
  0
LINE
  5
1F7
330
1E
100
AcDbEntity
  8
1
  6
CENTER
 62
     3
100
AcDbLine
 10
100.762941029335
 20
46.63369221924102
 30
0.0
 11
107.7632981630818
 21
39.63333508549493
 31
0.0
  0
LINE
  5
1F8
330
1E
100
AcDbEntity
  8
1
  6
CENTER
 62
     3
100
AcDbLine
 10
86.46677807946867
 20
25.23797236446598
 30
0.0
 11
95.61318545133007
 21
21.449406384052
 31
0.0
  0
LINE
  5
1F9
330
1E
100
AcDbEntity
  8
1
  6
CENTER
 62
     3
100
AcDbLine
 10
122.158660886332
 20
-60.92985517132961
 30
0.0
 11
125.947226866746
 21
-51.7834477994682
 31
0.0
  0
LINE
  5
1FA
330
1E
100
AcDbEntity
  8
1
  6
CENTER
 62
     3
100
AcDbLine
 10
100.7629410315569
 20
-46.63369222146326
 30
0.0
 11
107.763298165303
 21
-39.63333508771647
 31
0.0
  0
LINE
  5
1FB
330
1E
100
AcDbEntity
  8
1
  6
CENTER
 62
     3
100
AcDbLine
 10
86.46677808169011
 20
-25.2379723666882
 30
0.0
 11
95.61318545355108
 21
-21.44940638627377
 31
0.0
  0
LINE
  5
1FC
330
1E
100
AcDbEntity
  8
1
  6
CENTER
 62
     3
100
AcDbLine
 10
136.912993910187
 20
-52.70481408053006
 30
0.0
 11
134.1053426974899
 21
-66.81982990223747
 31
0.0
  0
LINE
  5
1FD
330
1E
100
AcDbEntity
  8
1
 62
     7
100
AcDbLine
 10
158.5548102464863
 20
62.01474356747789
 30
0.0
 11
157.0321163111373
 21
60.27844390653617
 31
0.0
  0
LINE
  5
1FE
330
1E
100
AcDbEntity
  8
1
 62
     7
100
AcDbLine
 10
157.0321163111373
 20
60.27844390653617
 30
0.0
 11
157.7744489584213
 21
58.0916024458651
 31
0.0
  0
LINE
  5
1FF
330
1E
100
AcDbEntity
  8
1
 62
     7
100
AcDbLine
 10
157.7744489584213
 20
58.0916024458651
 30
0.0
 11
160.0394755410531
 21
57.64106064613578
 31
0.0
  0
LINE
  5
200
330
1E
100
AcDbEntity
  8
1
 62
     7
100
AcDbLine
 10
160.0394755410531
 20
57.64106064613578
 30
0.0
 11
161.5621694764021
 21
59.37736030707747
 31
0.0
  0
LINE
  5
201
330
1E
100
AcDbEntity
  8
1
 62
     7
100
AcDbLine
 10
161.5621694764021
 20
59.37736030707747
 30
0.0
 11
160.8198368291182
 21
61.56420176774859
 31
0.0
  0
LINE
  5
202
330
1E
100
AcDbEntity
  8
1
 62
     7
100
AcDbLine
 10
160.8198368291182
 20
61.56420176774859
 30
0.0
 11
158.5548102464863
 21
62.01474356747789
 31
0.0
  0
LINE
  5
203
330
1E
100
AcDbEntity
  8
1
 62
     7
100
AcDbLine
 10
208.9608350163261
 20
-13.42320357612237
 30
0.0
 11
209.4113768160553
 21
-11.15817699349024
 31
0.0
  0
LINE
  5
204
330
1E
100
AcDbEntity
  8
1
 62
     7
100
AcDbLine
 10
206.7739935556553
 20
-14.16553622340637
 30
0.0
 11
208.9608350163261
 21
-13.42320357612237
 31
0.0
  0
LINE
  5
205
330
1E
100
AcDbEntity
  8
1
 62
     7
100
AcDbLine
 10
205.0376938947131
 20
-12.64284228805734
 30
0.0
 11
206.7739935556553
 21
-14.16553622340637
 31
0.0
  0
LINE
  5
206
330
1E
100
AcDbEntity
  8
1
 62
     7
100
AcDbLine
 10
205.4882356944421
 20
-10.37781570542523
 30
0.0
 11
205.0376938947131
 21
-12.64284228805734
 31
0.0
  0
LINE
  5
207
330
1E
100
AcDbEntity
  8
1
 62
     7
100
AcDbLine
 10
207.6750771551132
 20
-9.635483058141227
 30
0.0
 11
205.4882356944421
 21
-10.37781570542523
 31
0.0
  0
LINE
  5
208
330
1E
100
AcDbEntity
  8
1
 62
     7
100
AcDbLine
 10
209.4113768160553
 20
-11.15817699349024
 30
0.0
 11
207.6750771551132
 21
-9.635483058141227
 31
0.0
  0
LINE
  5
209
330
1E
100
AcDbEntity
  8
1
 62
     7
100
AcDbLine
 10
136.2384562551099
 20
-62.01474356747809
 30
0.0
 11
137.7611501904589
 21
-60.27844390653632
 31
0.0
  0
LINE
  5
20A
330
1E
100
AcDbEntity
  8
1
 62
     7
100
AcDbLine
 10
137.7611501904589
 20
-60.27844390653632
 30
0.0
 11
137.0188175431749
 21
-58.09160244586524
 31
0.0
  0
LINE
  5
20B
330
1E
100
AcDbEntity
  8
1
 62
     7
100
AcDbLine
 10
137.0188175431749
 20
-58.09160244586524
 30
0.0
 11
134.753790960543
 21
-57.64106064613593
 31
0.0
  0
LINE
  5
20C
330
1E
100
AcDbEntity
  8
1
 62
     7
100
AcDbLine
 10
134.753790960543
 20
-57.64106064613593
 30
0.0
 11
133.231097025194
 21
-59.3773603070777
 31
0.0
  0
LINE
  5
20D
330
1E
100
AcDbEntity
  8
1
 62
     7
100
AcDbLine
 10
133.231097025194
 20
-59.3773603070777
 30
0.0
 11
133.973429672478
 21
-61.56420176774878
 31
0.0
  0
LINE
  5
20E
330
1E
100
AcDbEntity
  8
1
 62
     7
100
AcDbLine
 10
133.973429672478
 20
-61.56420176774878
 30
0.0
 11
136.2384562551099
 21
-62.01474356747809
 31
0.0
  0
LINE
  5
20F
330
1E
100
AcDbEntity
  8
1
 62
     7
100
AcDbLine
 10
85.8324314830495
 20
13.42320357831995
 30
0.0
 11
85.3818896833202
 21
11.15817699568806
 31
0.0
  0
LINE
  5
210
330
1E
100
AcDbEntity
  8
1
 62
     7
100
AcDbLine
 10
88.01927294372056
 20
14.16553622560394
 30
0.0
 11
85.8324314830495
 21
13.42320357831995
 31
0.0
  0
LINE
  5
211
330
1E
100
AcDbEntity
  8
1
 62
     7
100
AcDbLine
 10
89.75557260466235
 20
12.64284229025492
 30
0.0
 11
88.01927294372056
 21
14.16553622560394
 31
0.0
  0
LINE
  5
212
330
1E
100
AcDbEntity
  8
1
 62
     7
100
AcDbLine
 10
89.30503080493306
 20
10.37781570762303
 30
0.0
 11
89.75557260466235
 21
12.64284229025492
 31
0.0
  0
LINE
  5
213
330
1E
100
AcDbEntity
  8
1
 62
     7
100
AcDbLine
 10
87.11818934426196
 20
9.635483060339034
 30
0.0
 11
89.30503080493306
 21
10.37781570762303
 31
0.0
  0
LINE
  5
214
330
1E
100
AcDbEntity
  8
1
 62
     7
100
AcDbLine
 10
85.3818896833202
 20
11.15817699568806
 30
0.0
 11
87.11818934426196
 21
9.635483060339034
 31
0.0
  0
LINE
  5
215
330
1E
100
AcDbEntity
  8
1
  6
CENTER
 62
     3
100
AcDbLine
 10
71.72225376561141
 20
0.0000000022096955
 30
0.0
 11
219.446633250787
 21
0.0000000022101361
 31
0.0
  0
LINE
  5
216
330
1E
100
AcDbEntity
  8
1
  6
CENTER
 62
     3
100
AcDbLine
 10
147.3966332507873
 20
73.00000000220967
 30
0.0
 11
147.3966332507873
 21
-73.5844192947109
 31
0.0
  0
LINE
  5
217
330
1E
100
AcDbEntity
  8
1
 62
     7
100
AcDbLine
 10
19.19128104419024
 20
46.49294095556125
 30
0.0
 11
24.04000000013605
 21
46.49294095556125
 31
0.0
  0
LINE
  5
218
330
1E
100
AcDbEntity
  8
1
 62
     7
100
AcDbLine
 10
24.04000000013605
 20
46.49294095556125
 30
0.0
 11
24.34000000013599
 21
46.79294095556119
 31
0.0
  0
LINE
  5
219
330
1E
100
AcDbEntity
  8
1
 62
     7
100
AcDbLine
 10
24.34000000013599
 20
46.79294095556119
 30
0.0
 11
24.34000000013599
 21
48.73358983848618
 31
0.0
  0
LINE
  5
21A
330
1E
100
AcDbEntity
  8
1
 62
     7
100
AcDbLine
 10
23.74000000013614
 20
49.08000000000004
 30
0.0
 11
24.34000000013599
 21
48.73358983848618
 31
0.0
  0
LINE
  5
21B
330
1E
100
AcDbEntity
  8
1
 62
     7
100
AcDbLine
 10
10.16500000013605
 20
46.49294095556125
 30
0.0
 11
15.0137189560819
 21
46.49294095556125
 31
0.0
  0
LINE
  5
21C
330
1E
100
AcDbEntity
  8
1
 62
     7
100
AcDbLine
 10
9.865000000136149
 20
46.79294095556119
 30
0.0
 11
10.16500000013605
 21
46.49294095556125
 31
0.0
  0
LINE
  5
21D
330
1E
100
AcDbEntity
  8
1
 62
     7
100
AcDbLine
 10
9.865000000136149
 20
48.73358983848618
 30
0.0
 11
9.865000000136149
 21
46.79294095556119
 31
0.0
  0
LINE
  5
21E
330
1E
100
AcDbEntity
  8
1
 62
     7
100
AcDbLine
 10
9.865000000136149
 20
48.73358983848618
 30
0.0
 11
10.46500000013599
 21
49.08000000000004
 31
0.0
  0
LINE
  5
21F
330
1E
100
AcDbEntity
  8
1
 62
     7
100
AcDbLine
 10
12.4575000001359
 20
38.23310353913214
 30
0.0
 11
14.86657038362302
 21
38.23310353913214
 31
0.0
  0
LINE
  5
220
330
1E
100
AcDbEntity
  8
1
 62
     7
100
AcDbLine
 10
12.4575000001359
 20
38.23310353913214
 30
0.0
 11
11.95750000013589
 21
37.73310353913214
 31
0.0
  0
LINE
  5
221
330
1E
100
AcDbEntity
  8
1
 62
     7
100
AcDbLine
 10
11.95750000013589
 20
36.05449999999996
 30
0.0
 11
11.95750000013589
 21
37.73310353913214
 31
0.0
  0
LINE
  5
222
330
1E
100
AcDbEntity
  8
1
 62
     7
100
AcDbLine
 10
11.95750000013589
 20
36.05449999999996
 30
0.0
 11
12.4575000001359
 21
35.55449999999996
 31
0.0
  0
LINE
  5
223
330
1E
100
AcDbEntity
  8
1
 62
     7
100
AcDbLine
 10
19.33842961664891
 20
38.23310353913214
 30
0.0
 11
21.74750000013592
 21
38.23310353913214
 31
0.0
  0
LINE
  5
224
330
1E
100
AcDbEntity
  8
1
 62
     7
100
AcDbLine
 10
22.24750000013592
 20
37.73310353913214
 30
0.0
 11
21.74750000013592
 21
38.23310353913214
 31
0.0
  0
LINE
  5
225
330
1E
100
AcDbEntity
  8
1
 62
     7
100
AcDbLine
 10
22.24750000013592
 20
37.73310353913214
 30
0.0
 11
22.24750000013592
 21
36.05449999999996
 31
0.0
  0
LINE
  5
226
330
1E
100
AcDbEntity
  8
1
 62
     7
100
AcDbLine
 10
21.74750000013592
 20
35.55449999999996
 30
0.0
 11
22.24750000013592
 21
36.05449999999996
 31
0.0
  0
LINE
  5
227
330
1E
100
AcDbEntity
  8
0
 62
     7
100
AcDbLine
 10
10.60000000013599
 20
-35.55999946373268
 30
0.0
 11
22.20000000013612
 21
-35.55999946373268
 31
0.0
  0
LINE
  5
228
330
1E
100
AcDbEntity
  8
1
 62
     7
100
AcDbLine
 10
10.46500000013599
 20
-49.08000000000004
 30
0.0
 11
9.865000000136149
 21
-48.73358983848618
 31
0.0
  0
LINE
  5
229
330
1E
100
AcDbEntity
  8
1
 62
     7
100
AcDbLine
 10
9.865000000136149
 20
-46.79294095556119
 30
0.0
 11
9.865000000136149
 21
-48.73358983848618
 31
0.0
  0
LINE
  5
22A
330
1E
100
AcDbEntity
  8
1
 62
     7
100
AcDbLine
 10
10.16500000013605
 20
-46.49294095556125
 30
0.0
 11
9.865000000136149
 21
-46.79294095556119
 31
0.0
  0
LINE
  5
22B
330
1E
100
AcDbEntity
  8
1
 62
     7
100
AcDbLine
 10
15.0137189560819
 20
-46.49294095556125
 30
0.0
 11
10.16500000013605
 21
-46.49294095556125
 31
0.0
  0
LINE
  5
22C
330
1E
100
AcDbEntity
  8
1
 62
     7
100
AcDbLine
 10
24.34000000013599
 20
-48.73358983848618
 30
0.0
 11
23.74000000013614
 21
-49.08000000000004
 31
0.0
  0
LINE
  5
22D
330
1E
100
AcDbEntity
  8
1
 62
     7
100
AcDbLine
 10
24.34000000013599
 20
-48.73358983848618
 30
0.0
 11
24.34000000013599
 21
-46.79294095556119
 31
0.0
  0
LINE
  5
22E
330
1E
100
AcDbEntity
  8
1
 62
     7
100
AcDbLine
 10
24.34000000013599
 20
-46.79294095556119
 30
0.0
 11
24.04000000013605
 21
-46.49294095556125
 31
0.0
  0
LINE
  5
22F
330
1E
100
AcDbEntity
  8
1
 62
     7
100
AcDbLine
 10
24.04000000013605
 20
-46.49294095556125
 30
0.0
 11
19.19128104419024
 21
-46.49294095556125
 31
0.0
  0
LINE
  5
230
330
1E
100
AcDbEntity
  8
1
 62
     7
100
AcDbLine
 10
12.4575000001359
 20
-35.55449999999996
 30
0.0
 11
11.95750000013589
 21
-36.05449999999996
 31
0.0
  0
LINE
  5
231
330
1E
100
AcDbEntity
  8
1
 62
     7
100
AcDbLine
 10
11.95750000013589
 20
-37.73310353913214
 30
0.0
 11
11.95750000013589
 21
-36.05449999999996
 31
0.0
  0
LINE
  5
232
330
1E
100
AcDbEntity
  8
1
 62
     7
100
AcDbLine
 10
11.95750000013589
 20
-37.73310353913214
 30
0.0
 11
12.4575000001359
 21
-38.23310353913214
 31
0.0
  0
LINE
  5
233
330
1E
100
AcDbEntity
  8
1
 62
     7
100
AcDbLine
 10
14.86657038362302
 20
-38.23310353913214
 30
0.0
 11
12.4575000001359
 21
-38.23310353913214
 31
0.0
  0
LINE
  5
234
330
1E
100
AcDbEntity
  8
1
 62
     7
100
AcDbLine
 10
22.24750000013592
 20
-36.05449999999996
 30
0.0
 11
21.74750000013592
 21
-35.55449999999996
 31
0.0
  0
LINE
  5
235
330
1E
100
AcDbEntity
  8
1
 62
     7
100
AcDbLine
 10
22.24750000013592
 20
-36.05449999999996
 30
0.0
 11
22.24750000013592
 21
-37.73310353913214
 31
0.0
  0
LINE
  5
236
330
1E
100
AcDbEntity
  8
1
 62
     7
100
AcDbLine
 10
21.74750000013592
 20
-38.23310353913214
 30
0.0
 11
22.24750000013592
 21
-37.73310353913214
 31
0.0
  0
LINE
  5
237
330
1E
100
AcDbEntity
  8
1
  6
PHANTOM
 62
     4
100
AcDbLine
 10
-23.5
 20
44.99999999999997
 30
0.0
 11
-9.0
 21
44.99999999999997
 31
0.0
  0
LINE
  5
238
330
1E
100
AcDbEntity
  8
1
  6
PHANTOM
 62
     4
100
AcDbLine
 10
-23.5
 20
69.99999999999997
 30
0.0
 11
-23.5
 21
44.99999999999997
 31
0.0
  0
LINE
  5
239
330
1E
100
AcDbEntity
  8
1
 62
     7
100
AcDbLine
 10
-25.49999999986392
 20
34.47810105666899
 30
0.0
 11
-25.49999999986392
 21
85.00000000220968
 31
0.0
  0
LINE
  5
23A
330
1E
100
AcDbEntity
  8
1
 62
     7
100
AcDbLine
 10
-21.95646643962607
 20
-39.2
 30
0.0
 11
-21.95646643962607
 21
-52.06937298371982
 31
0.0
  0
LINE
  5
23B
330
1E
100
AcDbEntity
  8
1
  6
DIVIDE
 62
     4
100
AcDbLine
 10
27.50000000013608
 20
38.16062863219764
 30
0.0
 11
27.50000000013608
 21
52.99999999779032
 31
0.0
  0
LINE
  5
23C
330
1E
100
AcDbEntity
  8
1
  6
DIVIDE
 62
     4
100
AcDbLine
 10
27.50000000013608
 20
52.99999999779032
 30
0.0
 11
25.50000000001102
 21
52.99999999779032
 31
0.0
  0
LINE
  5
23D
330
1E
100
AcDbEntity
  8
1
 62
     7
100
AcDbLine
 10
-19.0
 20
49.88199999999988
 30
0.0
 11
-3.124000000000136
 21
49.88199999999999
 31
0.0
  0
LINE
  5
23E
330
1E
100
AcDbEntity
  8
1
 62
     7
100
AcDbLine
 10
-3.124000000000136
 20
-49.88200000000002
 30
0.0
 11
-19.20000000000221
 21
-49.88199999999991
 31
0.0
  0
ARC
  5
243
330
1E
100
AcDbEntity
  8
1
 62
     7
100
AcDbCircle
 10
147.3966332509541
 20
0.0000000022096813
 30
0.0
 40
6.999999894711502
100
AcDbArc
 50
110.92483243832
 51
69.0751675755424
  0
ARC
  5
244
330
1E
100
AcDbEntity
  8
0
 62
     7
100
AcDbCircle
 10
5.99999999416502
 20
-16.39999975151027
 30
0.0
 40
0.3999999940290291
100
AcDbArc
 50
89.99999999081571
 51
179.9999999909143
  0
ARC
  5
245
330
1E
100
AcDbEntity
  8
0
 62
     7
100
AcDbCircle
 10
0.0000000062340142
 20
-16.39999975138328
 30
0.0
 40
0.399999993901929
100
AcDbArc
 50
359.9999999908975
 51
89.99999999097841
  0
ARC
  5
246
330
1E
100
AcDbEntity
  8
0
 62
     7
100
AcDbCircle
 10
5.999999994172977
 20
16.39999975594498
 30
0.0
 40
0.3999999940369889
100
AcDbArc
 50
180.0000000080115
 51
270.0000000080445
  0
ARC
  5
247
330
1E
100
AcDbEntity
  8
0
 62
     7
100
AcDbCircle
 10
0.0000000062260561
 20
16.39999975581799
 30
0.0
 40
0.3999999939096508
100
AcDbArc
 50
270.0000000101614
 51
0.000000010178284
  0
ARC
  5
248
330
1E
100
AcDbEntity
  8
0
 62
     7
100
AcDbCircle
 10
147.396633252324
 20
0.9333333215571995
 30
0.0
 40
17.67999973441135
100
AcDbArc
 50
90.00000000000586
 51
250.7303611221084
  0
ARC
  5
249
330
1E
100
AcDbEntity
  8
0
 62
     7
100
AcDbCircle
 10
141.2099666785844
 20
-16.7630690602968
 30
0.0
 40
1.066666650660778
100
AcDbArc
 50
0.0000000005499815
 51
70.73036112211358
  0
ARC
  5
24A
330
1E
100
AcDbEntity
  8
0
 62
     7
100
AcDbCircle
 10
143.3432999798863
 20
-18.93333304666822
 30
0.0
 40
1.066666650641109
100
AcDbArc
 50
180.0
 51
269.999999998545
  0
ARC
  5
24B
330
1E
100
AcDbEntity
  8
0
 62
     7
100
AcDbCircle
 10
153.5832998260673
 20
-16.76306906028656
 30
0.0
 40
1.066666651654474
100
AcDbArc
 50
109.2696388867748
 51
180.0
  0
ARC
  5
24C
330
1E
100
AcDbEntity
  8
0
 62
     7
100
AcDbCircle
 10
151.4499665247763
 20
-18.93333304666946
 30
0.0
 40
1.066666650666828
100
AcDbArc
 50
270.0000000007465
 51
0.0
  0
ARC
  5
24D
330
1E
100
AcDbEntity
  8
1
 62
     7
100
AcDbCircle
 10
-19.05699999986394
 20
-52.12499999779033
 30
0.0
 40
2.900000000000158
100
AcDbArc
 50
88.5746040833265
 51
178.9009004778781
  0
ARC
  5
24E
330
1E
100
AcDbEntity
  8
1
 62
     7
100
AcDbCircle
 10
-19.05699999986394
 20
52.12500000220978
 30
0.0
 40
2.900000000000221
100
AcDbArc
 50
181.0990995221234
 51
271.4253959166735
  0
ARC
  5
24F
330
1E
100
AcDbEntity
  8
0
 62
     7
100
AcDbCircle
 10
147.3966332492504
 20
0.9333333215571995
 30
0.0
 40
17.67999973447476
100
AcDbArc
 50
289.2696388867796
 51
89.99999999999419
  0
ARC
  5
250
330
1E
100
AcDbEntity
  8
1
 62
     7
100
AcDbCircle
 10
141.6326989945433
 20
-41.93573609350814
 30
0.0
 40
4.762499999999834
100
AcDbArc
 50
108.6218937579249
 51
234.780281965728
  0
ARC
  5
251
330
1E
100
AcDbEntity
  8
1
 62
     7
100
AcDbCircle
 10
105.1653142509524
 20
-2.888701355516815
 30
0.0
 40
4.76250000000053
100
AcDbArc
 50
211.3066745560147
 51
337.4650627638069
  0
ARC
  5
252
330
1E
100
AcDbEntity
  8
1
 62
     7
100
AcDbCircle
 10
107.5107284174982
 20
-14.17545398098813
 30
0.0
 40
4.762500000000248
100
AcDbArc
 50
226.958848469059
 51
353.1172366768511
  0
ARC
  5
253
330
1E
100
AcDbEntity
  8
1
 62
     7
100
AcDbCircle
 10
112.8142976796552
 20
-24.4108780329126
 30
0.0
 40
4.762499999999943
100
AcDbArc
 50
242.6110223821073
 51
8.769410589894661
  0
ARC
  5
254
330
1E
100
AcDbEntity
  8
1
 62
     7
100
AcDbCircle
 10
120.6826805674664
 20
-32.83585893330835
 30
0.0
 40
4.762500000000144
100
AcDbArc
 50
258.2631962951418
 51
24.42158450294101
  0
ARC
  5
255
330
1E
100
AcDbEntity
  8
1
 62
     7
100
AcDbCircle
 10
130.5323151175964
 20
-38.8255543905161
 30
0.0
 40
4.762500000000009
100
AcDbArc
 50
273.9153702081924
 51
40.07375841597903
  0
ARC
  5
256
330
1E
100
AcDbEntity
  8
1
 62
     7
100
AcDbCircle
 10
105.1653142509524
 20
-2.888701355516815
 30
0.0
 40
4.762499999999738
100
AcDbArc
 50
30.36102419271536
 51
156.5194124005055
  0
ARC
  5
257
330
1E
100
AcDbEntity
  8
1
 62
     7
100
AcDbCircle
 10
107.5107284174982
 20
-14.17545398098813
 30
0.0
 40
4.762500000000017
100
AcDbArc
 50
46.0131981057568
 51
172.1715863135469
  0
ARC
  5
258
330
1E
100
AcDbEntity
  8
1
 62
     7
100
AcDbCircle
 10
112.8142976796552
 20
-24.4108780329126
 30
0.0
 40
4.762500000000133
100
AcDbArc
 50
61.66537201879766
 51
187.8237602265915
  0
ARC
  5
259
330
1E
100
AcDbEntity
  8
1
 62
     7
100
AcDbCircle
 10
120.6826805674664
 20
-32.83585893330835
 30
0.0
 40
4.7624999999999
100
AcDbArc
 50
77.31754593184956
 51
203.4759341396294
  0
ARC
  5
25A
330
1E
100
AcDbEntity
  8
1
 62
     7
100
AcDbCircle
 10
130.5323151175964
 20
-38.8255543905161
 30
0.0
 40
4.762500000000009
100
AcDbArc
 50
92.96971984488401
 51
219.1281080526739
  0
ARC
  5
25B
330
1E
100
AcDbEntity
  8
1
 62
     7
100
AcDbCircle
 10
135.9761359277104
 20
40.76028877564199
 30
0.0
 40
4.762499999999691
100
AcDbArc
 50
133.0458049907967
 51
259.2041931985944
  0
ARC
  5
25C
330
1E
100
AcDbEntity
  8
1
 62
     7
100
AcDbCircle
 10
125.4026446457874
 20
36.1675733966625
 30
0.0
 40
4.76249999999962
100
AcDbArc
 50
148.6979789038415
 51
274.8563671116438
  0
ARC
  5
25D
330
1E
100
AcDbEntity
  8
1
 62
     7
100
AcDbCircle
 10
116.4603468828943
 20
28.89247455465529
 30
0.0
 40
4.762499999998952
100
AcDbArc
 50
164.3501528168843
 51
290.5085410246785
  0
ARC
  5
25E
330
1E
100
AcDbEntity
  8
1
 62
     7
100
AcDbCircle
 10
109.8124519558155
 20
19.47455304936935
 30
0.0
 40
4.762500000000018
100
AcDbArc
 50
180.0023267299316
 51
306.1607149377176
  0
ARC
  5
25F
330
1E
100
AcDbEntity
  8
1
 62
     7
100
AcDbCircle
 10
105.9520038191954
 20
8.612293034727692
 30
0.0
 40
4.762499999999803
100
AcDbArc
 50
195.6545006429758
 51
321.8128888507661
  0
ARC
  5
260
330
1E
100
AcDbEntity
  8
1
 62
     7
100
AcDbCircle
 10
135.9761359277104
 20
40.76028877564199
 30
0.0
 40
4.762500000000785
100
AcDbArc
 50
312.1001546275063
 51
78.25854283527561
  0
ARC
  5
261
330
1E
100
AcDbEntity
  8
1
 62
     7
100
AcDbCircle
 10
125.4026446457874
 20
36.1675733966625
 30
0.0
 40
4.762500000000796
100
AcDbArc
 50
327.7523285405456
 51
93.91071674832291
  0
ARC
  5
262
330
1E
100
AcDbEntity
  8
1
 62
     7
100
AcDbCircle
 10
116.4603468828943
 20
28.89247455465529
 30
0.0
 40
4.762500000000625
100
AcDbArc
 50
343.4045024535855
 51
109.5628906613699
  0
ARC
  5
263
330
1E
100
AcDbEntity
  8
1
 62
     7
100
AcDbCircle
 10
109.8124519558155
 20
19.47455304936935
 30
0.0
 40
4.762499999999985
100
AcDbArc
 50
359.0566763666263
 51
125.2150645744139
  0
ARC
  5
264
330
1E
100
AcDbEntity
  8
1
 62
     7
100
AcDbCircle
 10
105.9520038191954
 20
8.612293034727692
 30
0.0
 40
4.762500000000061
100
AcDbArc
 50
14.7088502796697
 51
140.8672384874626
  0
ARC
  5
265
330
1E
100
AcDbEntity
  8
1
 62
     7
100
AcDbCircle
 10
147.3966332507873
 20
0.0000000022119337
 30
0.0
 40
46.60999999999784
100
AcDbArc
 50
95.73857734496106
 51
264.2614226550394
  0
ARC
  5
266
330
1E
100
AcDbEntity
  8
1
 62
     7
100
AcDbCircle
 10
147.3966332507873
 20
42.33000000220968
 30
0.0
 40
4.762499999999933
100
AcDbArc
 50
296.4479807144513
 51
62.60636892224241
  0
ARC
  5
267
330
1E
100
AcDbEntity
  8
1
 62
     7
100
AcDbCircle
 10
147.3966332507873
 20
42.33000000220968
 30
0.0
 40
4.762500000000133
100
AcDbArc
 50
117.3936310777594
 51
243.5520192855371
  0
ARC
  5
268
330
1E
100
AcDbEntity
  8
1
 62
     7
100
AcDbCircle
 10
141.6326989945433
 20
-41.93573609350814
 30
0.0
 40
4.762499999999863
100
AcDbArc
 50
289.5675441212301
 51
55.72593232902836
  0
ARC
  5
269
330
1E
100
AcDbEntity
  8
1
 62
     7
100
AcDbCircle
 10
153.1605675070311
 20
-41.93573609350814
 30
0.0
 40
4.762499999999666
100
AcDbArc
 50
305.2197180342732
 51
71.37810624207273
  0
ARC
  5
26A
330
1E
100
AcDbEntity
  8
1
 62
     7
100
AcDbCircle
 10
164.2609513839781
 20
-38.8255543905161
 30
0.0
 40
4.762500000000306
100
AcDbArc
 50
320.8718919473257
 51
87.03028015511739
  0
ARC
  5
26B
330
1E
100
AcDbEntity
  8
1
 62
     7
100
AcDbCircle
 10
174.1105859341083
 20
-32.83585893330835
 30
0.0
 40
4.762500000000708
100
AcDbArc
 50
336.52406586037
 51
102.6824540681515
  0
ARC
  5
26C
330
1E
100
AcDbEntity
  8
1
 62
     7
100
AcDbCircle
 10
181.9789688219194
 20
-24.4108780329126
 30
0.0
 40
4.76249999999921
100
AcDbArc
 50
352.1762397734083
 51
118.3346279812024
  0
ARC
  5
26D
330
1E
100
AcDbEntity
  8
1
 62
     7
100
AcDbCircle
 10
187.2825380840764
 20
-14.17545398098813
 30
0.0
 40
4.762500000000223
100
AcDbArc
 50
7.828413686453035
 51
133.9868018942441
  0
ARC
  5
26E
330
1E
100
AcDbEntity
  8
1
 62
     7
100
AcDbCircle
 10
189.6279522506221
 20
-2.888701355516815
 30
0.0
 40
4.762500000000582
100
AcDbArc
 50
23.4805875994939
 51
149.6389758072846
  0
ARC
  5
26F
330
1E
100
AcDbEntity
  8
1
 62
     7
100
AcDbCircle
 10
188.8412626823791
 20
8.612293034727692
 30
0.0
 40
4.762500000000315
100
AcDbArc
 50
39.13276151253738
 51
165.2911497203303
  0
ARC
  5
270
330
1E
100
AcDbEntity
  8
1
 62
     7
100
AcDbCircle
 10
184.980814545759
 20
19.47455304936935
 30
0.0
 40
4.762499999999868
100
AcDbArc
 50
54.78493542558608
 51
180.9433236333736
  0
ARC
  5
271
330
1E
100
AcDbEntity
  8
1
 62
     7
100
AcDbCircle
 10
178.3329196186803
 20
28.89247455465529
 30
0.0
 40
4.762499999999943
100
AcDbArc
 50
70.4371093386301
 51
196.5954975464144
  0
ARC
  5
272
330
1E
100
AcDbEntity
  8
1
 62
     7
100
AcDbCircle
 10
169.3906218557871
 20
36.1675733966625
 30
0.0
 40
4.762499999999987
100
AcDbArc
 50
86.08928325167607
 51
212.2476714594544
  0
ARC
  5
273
330
1E
100
AcDbEntity
  8
1
 62
     7
100
AcDbCircle
 10
158.8171305738642
 20
40.76028877564199
 30
0.0
 40
4.762500000000219
100
AcDbArc
 50
101.7414571647244
 51
227.8998453724945
  0
ARC
  5
274
330
1E
100
AcDbEntity
  8
1
 62
     7
100
AcDbCircle
 10
153.1605675070311
 20
-41.93573609350814
 30
0.0
 40
4.762500000000403
100
AcDbArc
 50
124.2740676709815
 51
250.4324558787586
  0
ARC
  5
275
330
1E
100
AcDbEntity
  8
1
 62
     7
100
AcDbCircle
 10
164.2609513839781
 20
-38.8255543905161
 30
0.0
 40
4.762500000000341
100
AcDbArc
 50
139.9262415840209
 51
266.0846297918075
  0
ARC
  5
276
330
1E
100
AcDbEntity
  8
1
 62
     7
100
AcDbCircle
 10
174.1105859341083
 20
-32.83585893330835
 30
0.0
 40
4.762499999999585
100
AcDbArc
 50
155.578415497059
 51
281.7368037048581
  0
ARC
  5
277
330
1E
100
AcDbEntity
  8
1
 62
     7
100
AcDbCircle
 10
181.9789688219194
 20
-24.4108780329126
 30
0.0
 40
4.762500000000325
100
AcDbArc
 50
171.2305894101054
 51
297.3889776178926
  0
ARC
  5
278
330
1E
100
AcDbEntity
  8
1
 62
     7
100
AcDbCircle
 10
187.2825380840764
 20
-14.17545398098813
 30
0.0
 40
4.762499999999715
100
AcDbArc
 50
186.8827633231487
 51
313.04115153094
  0
ARC
  5
279
330
1E
100
AcDbEntity
  8
1
 62
     7
100
AcDbCircle
 10
189.6279522506221
 20
-2.888701355516815
 30
0.0
 40
4.762499999999614
100
AcDbArc
 50
202.5349372361935
 51
328.6933254439853
  0
ARC
  5
27A
330
1E
100
AcDbEntity
  8
1
 62
     7
100
AcDbCircle
 10
188.8412626823791
 20
8.612293034727692
 30
0.0
 40
4.762500000000176
100
AcDbArc
 50
218.1871111492338
 51
344.3454993570245
  0
ARC
  5
27B
330
1E
100
AcDbEntity
  8
1
 62
     7
100
AcDbCircle
 10
184.980814545759
 20
19.47455304936935
 30
0.0
 40
4.762499999999735
100
AcDbArc
 50
233.8392850622834
 51
359.9976732700682
  0
ARC
  5
27C
330
1E
100
AcDbEntity
  8
1
 62
     7
100
AcDbCircle
 10
178.3329196186803
 20
28.89247455465529
 30
0.0
 40
4.762499999999987
100
AcDbArc
 50
249.4914589753226
 51
15.64984718311532
  0
ARC
  5
27D
330
1E
100
AcDbEntity
  8
1
 62
     7
100
AcDbCircle
 10
169.3906218557871
 20
36.1675733966625
 30
0.0
 40
4.762500000000052
100
AcDbArc
 50
265.1436328883574
 51
31.30202109615848
  0
ARC
  5
27E
330
1E
100
AcDbEntity
  8
1
 62
     7
100
AcDbCircle
 10
158.8171305738642
 20
40.76028877564199
 30
0.0
 40
4.762499999999968
100
AcDbArc
 50
280.7958068014065
 51
46.95419500920322
  0
ARC
  5
27F
330
1E
100
AcDbEntity
  8
1
 62
     7
100
AcDbCircle
 10
147.3966332507873
 20
0.0000000022096955
 30
0.0
 40
46.61000000000003
100
AcDbArc
 50
264.2614226550391
 51
95.73857734496076
  0
ARC
  5
280
330
1E
100
AcDbEntity
  8
1
 62
     7
100
AcDbCircle
 10
141.6326989945433
 20
-41.93573609350814
 30
0.0
 40
5.200000000000365
100
AcDbArc
 50
129.4559863668035
 51
208.1587317556461
  0
ARC
  5
281
330
1E
100
AcDbEntity
  8
1
 62
     7
100
AcDbCircle
 10
147.3966332507873
 20
0.0000000022096955
 30
0.0
 40
38.99000000000009
100
AcDbArc
 50
252.1449141300908
 51
256.5507380438211
  0
ARC
  5
282
330
1E
100
AcDbEntity
  8
1
 62
     7
100
AcDbCircle
 10
130.5323151175964
 20
-38.8255543905161
 30
0.0
 40
5.199999999999628
100
AcDbArc
 50
300.5369204182593
 51
19.23966580711832
  0
ARC
  5
283
330
1E
100
AcDbEntity
  8
1
 62
     7
100
AcDbCircle
 10
147.3966332507873
 20
0.0000000022096955
 30
0.0
 40
45.57999999999998
100
AcDbArc
 50
251.8185157681109
 51
256.8771364058019
  0
ARC
  5
284
330
1E
100
AcDbEntity
  8
1
 62
     7
100
AcDbCircle
 10
130.5323151175964
 20
-38.8255543905161
 30
0.0
 40
5.200000000000228
100
AcDbArc
 50
113.8038124537606
 51
192.5065578426018
  0
ARC
  5
285
330
1E
100
AcDbEntity
  8
1
 62
     7
100
AcDbCircle
 10
147.3966332507873
 20
0.0000000022096955
 30
0.0
 40
38.99000000000004
100
AcDbArc
 50
236.4927402170477
 51
240.8985641307783
  0
ARC
  5
286
330
1E
100
AcDbEntity
  8
1
 62
     7
100
AcDbCircle
 10
120.6826805674664
 20
-32.83585893330835
 30
0.0
 40
5.199999999999818
100
AcDbArc
 50
284.8847465052156
 51
3.587491894071915
  0
ARC
  5
287
330
1E
100
AcDbEntity
  8
1
 62
     7
100
AcDbCircle
 10
147.3966332507873
 20
0.0000000022096955
 30
0.0
 40
45.57999999999979
100
AcDbArc
 50
236.1663418550678
 51
241.2249624927583
  0
ARC
  5
288
330
1E
100
AcDbEntity
  8
1
 62
     7
100
AcDbCircle
 10
120.6826805674664
 20
-32.83585893330835
 30
0.0
 40
5.200000000000118
100
AcDbArc
 50
98.15163854072073
 51
176.8543839295608
  0
ARC
  5
289
330
1E
100
AcDbEntity
  8
1
 62
     7
100
AcDbCircle
 10
147.3966332507873
 20
0.0000000022096955
 30
0.0
 40
38.98999999999995
100
AcDbArc
 50
220.8405663040043
 51
225.2463902177348
  0
ARC
  5
28A
330
1E
100
AcDbEntity
  8
1
 62
     7
100
AcDbCircle
 10
112.8142976796552
 20
-24.4108780329126
 30
0.0
 40
5.199999999999964
100
AcDbArc
 50
269.2325725921774
 51
347.9353179810279
  0
ARC
  5
28B
330
1E
100
AcDbEntity
  8
1
 62
     7
100
AcDbCircle
 10
147.3966332507873
 20
0.0000000022096955
 30
0.0
 40
45.58000000000004
100
AcDbArc
 50
220.5141679420238
 51
225.5727885797153
  0
ARC
  5
28C
330
1E
100
AcDbEntity
  8
1
 62
     7
100
AcDbCircle
 10
112.8142976796552
 20
-24.4108780329126
 30
0.0
 40
5.199999999999954
100
AcDbArc
 50
82.49946462767175
 51
161.202210016516
  0
ARC
  5
28D
330
1E
100
AcDbEntity
  8
1
 62
     7
100
AcDbCircle
 10
147.3966332507873
 20
0.0000000022096955
 30
0.0
 40
38.99000000000018
100
AcDbArc
 50
205.1883923909607
 51
209.594216304691
  0
ARC
  5
28E
330
1E
100
AcDbEntity
  8
1
 62
     7
100
AcDbCircle
 10
107.5107284174982
 20
-14.17545398098813
 30
0.0
 40
5.200000000000099
100
AcDbArc
 50
253.5803986791295
 51
332.2831440679798
  0
ARC
  5
28F
330
1E
100
AcDbEntity
  8
1
 62
     7
100
AcDbCircle
 10
147.3966332507873
 20
0.0000000022096955
 30
0.0
 40
45.57999999999982
100
AcDbArc
 50
204.8619940289805
 51
209.9206146666718
  0
ARC
  5
290
330
1E
100
AcDbEntity
  8
1
 62
     7
100
AcDbCircle
 10
107.5107284174982
 20
-14.17545398098813
 30
0.0
 40
5.199999999999728
100
AcDbArc
 50
66.84729071463184
 51
145.550036103477
  0
ARC
  5
291
330
1E
100
AcDbEntity
  8
1
 62
     7
100
AcDbCircle
 10
147.3966332507873
 20
0.0000000022096955
 30
0.0
 40
38.99000000000013
100
AcDbArc
 50
189.5362184779173
 51
193.9420423916478
  0
ARC
  5
292
330
1E
100
AcDbEntity
  8
1
 62
     7
100
AcDbCircle
 10
105.1653142509524
 20
-2.888701355516815
 30
0.0
 40
5.200000000000027
100
AcDbArc
 50
237.9282247660901
 51
316.6309701549351
  0
ARC
  5
293
330
1E
100
AcDbEntity
  8
1
 62
     7
100
AcDbCircle
 10
147.3966332507873
 20
0.0000000022096955
 30
0.0
 40
45.5799999999995
100
AcDbArc
 50
189.209820115937
 51
194.2684407536281
  0
ARC
  5
294
330
1E
100
AcDbEntity
  8
1
 62
     7
100
AcDbCircle
 10
105.1653142509524
 20
-2.888701355516815
 30
0.0
 40
5.199999999999491
100
AcDbArc
 50
51.19511680158814
 51
129.8978621904369
  0
ARC
  5
295
330
1E
100
AcDbEntity
  8
1
 62
     7
100
AcDbCircle
 10
147.3966332507873
 20
0.0000000022096955
 30
0.0
 40
38.99000000000002
100
AcDbArc
 50
173.8840445648739
 51
178.2898684786043
  0
ARC
  5
296
330
1E
100
AcDbEntity
  8
1
 62
     7
100
AcDbCircle
 10
105.9520038191954
 20
8.612293034727692
 30
0.0
 40
5.200000000000748
100
AcDbArc
 50
222.2760508530403
 51
300.9787962418893
  0
ARC
  5
297
330
1E
100
AcDbEntity
  8
1
 62
     7
100
AcDbCircle
 10
147.3966332507873
 20
0.0000000022096955
 30
0.0
 40
45.58000000000022
100
AcDbArc
 50
173.5576462028936
 51
178.6162668405846
  0
ARC
  5
298
330
1E
100
AcDbEntity
  8
1
 62
     7
100
AcDbCircle
 10
105.9520038191954
 20
8.612293034727692
 30
0.0
 40
5.199999999999438
100
AcDbArc
 50
35.54294288854186
 51
114.2456882773996
  0
ARC
  5
299
330
1E
100
AcDbEntity
  8
1
 62
     7
100
AcDbCircle
 10
147.3966332507873
 20
0.0000000022096955
 30
0.0
 40
38.98999999999945
100
AcDbArc
 50
158.23187065183
 51
162.6376945655608
  0
ARC
  5
29A
330
1E
100
AcDbEntity
  8
1
 62
     7
100
AcDbCircle
 10
109.8124519558155
 20
19.47455304936935
 30
0.0
 40
5.200000000000249
100
AcDbArc
 50
206.6238769400031
 51
285.3266223288521
  0
ARC
  5
29B
330
1E
100
AcDbEntity
  8
1
 62
     7
100
AcDbCircle
 10
147.3966332507873
 20
0.0000000022096955
 30
0.0
 40
45.57999999999959
100
AcDbArc
 50
157.9054722898499
 51
162.9640929275414
  0
ARC
  5
29C
330
1E
100
AcDbEntity
  8
1
 62
     7
100
AcDbCircle
 10
109.8124519558155
 20
19.47455304936935
 30
0.0
 40
5.199999999999735
100
AcDbArc
 50
19.89076897549512
 51
98.59351436434501
  0
ARC
  5
29D
330
1E
100
AcDbEntity
  8
1
 62
     7
100
AcDbCircle
 10
147.3966332507873
 20
0.0000000022096955
 30
0.0
 40
38.98999999999972
100
AcDbArc
 50
142.5796967387866
 51
146.9855206525169
  0
ARC
  5
29E
330
1E
100
AcDbEntity
  8
1
 62
     7
100
AcDbCircle
 10
116.4603468828943
 20
28.89247455465529
 30
0.0
 40
5.199999999999592
100
AcDbArc
 50
190.9717030269618
 51
269.674448415814
  0
ARC
  5
29F
330
1E
100
AcDbEntity
  8
1
 62
     7
100
AcDbCircle
 10
147.3966332507873
 20
0.0000000022096955
 30
0.0
 40
45.57999999999968
100
AcDbArc
 50
142.2532983768063
 51
147.3119190144974
  0
ARC
  5
2A0
330
1E
100
AcDbEntity
  8
1
 62
     7
100
AcDbCircle
 10
116.4603468828943
 20
28.89247455465529
 30
0.0
 40
5.199999999999761
100
AcDbArc
 50
4.238595062450805
 51
82.94134045130123
  0
ARC
  5
2A1
330
1E
100
AcDbEntity
  8
1
 62
     7
100
AcDbCircle
 10
147.3966332507873
 20
0.0000000022096955
 30
0.0
 40
38.99000000000004
100
AcDbArc
 50
126.9275228257436
 51
131.3333467394741
  0
ARC
  5
2A2
330
1E
100
AcDbEntity
  8
1
 62
     7
100
AcDbCircle
 10
125.4026446457874
 20
36.1675733966625
 30
0.0
 40
5.1999999999995
100
AcDbArc
 50
175.3195291139171
 51
254.0222745027654
  0
ARC
  5
2A3
330
1E
100
AcDbEntity
  8
1
 62
     7
100
AcDbCircle
 10
147.3966332507873
 20
0.0000000022096955
 30
0.0
 40
45.57999999999967
100
AcDbArc
 50
126.6011244637627
 51
131.6597451014544
  0
ARC
  5
2A4
330
1E
100
AcDbEntity
  8
1
 62
     7
100
AcDbCircle
 10
125.4026446457874
 20
36.1675733966625
 30
0.0
 40
5.200000000000106
100
AcDbArc
 50
348.5864211494073
 51
67.28916653825272
  0
ARC
  5
2A5
330
1E
100
AcDbEntity
  8
1
 62
     7
100
AcDbCircle
 10
147.3966332507873
 20
0.0000000022096955
 30
0.0
 40
38.99000000000003
100
AcDbArc
 50
111.2753489127002
 51
115.6811728264303
  0
ARC
  5
2A6
330
1E
100
AcDbEntity
  8
1
 62
     7
100
AcDbCircle
 10
135.9761359277104
 20
40.76028877564199
 30
0.0
 40
5.199999999999582
100
AcDbArc
 50
159.6673552008726
 51
238.3701005897223
  0
ARC
  5
2A7
330
1E
100
AcDbEntity
  8
1
 62
     7
100
AcDbCircle
 10
147.3966332507873
 20
0.0000000022096955
 30
0.0
 40
45.57999999999982
100
AcDbArc
 50
110.9489505507192
 51
116.0075711884104
  0
ARC
  5
2A8
330
1E
100
AcDbEntity
  8
1
 62
     7
100
AcDbCircle
 10
135.9761359277104
 20
40.76028877564199
 30
0.0
 40
5.199999999999874
100
AcDbArc
 50
332.9342472363628
 51
51.63699262521218
  0
ARC
  5
2A9
330
1E
100
AcDbEntity
  8
1
 62
     7
100
AcDbCircle
 10
147.3966332507873
 20
0.0000000022096955
 30
0.0
 40
38.98999999999995
100
AcDbArc
 50
95.6231749996567
 51
100.0289989133871
  0
ARC
  5
2AA
330
1E
100
AcDbEntity
  8
1
 62
     7
100
AcDbCircle
 10
147.3966332507873
 20
42.33000000220968
 30
0.0
 40
5.200000000000144
100
AcDbArc
 50
144.0151812878329
 51
222.7179266766794
  0
ARC
  5
2AB
330
1E
100
AcDbEntity
  8
1
 62
     7
100
AcDbCircle
 10
147.3966332507873
 20
0.0000000022096955
 30
0.0
 40
45.57999999999995
100
AcDbArc
 50
95.2967766376765
 51
100.3553972753674
  0
ARC
  5
2AC
330
1E
100
AcDbEntity
  8
1
 62
     7
100
AcDbCircle
 10
147.3966332507873
 20
0.0000000022096955
 30
0.0
 40
45.57999999999985
100
AcDbArc
 50
79.64460272463316
 51
84.70322336232397
  0
ARC
  5
2AD
330
1E
100
AcDbEntity
  8
1
 62
     7
100
AcDbCircle
 10
147.3966332507873
 20
42.33000000220968
 30
0.0
 40
5.199999999999853
100
AcDbArc
 50
317.2820733233178
 51
35.98481871216936
  0
ARC
  5
2AE
330
1E
100
AcDbEntity
  8
1
 62
     7
100
AcDbCircle
 10
147.3966332507873
 20
0.0000000022096955
 30
0.0
 40
38.98999999999992
100
AcDbArc
 50
79.97100108661335
 51
84.37682500034382
  0
ARC
  5
2AF
330
1E
100
AcDbEntity
  8
1
 62
     7
100
AcDbCircle
 10
158.8171305738642
 20
40.76028877564199
 30
0.0
 40
5.200000000000241
100
AcDbArc
 50
128.3630073747915
 51
207.0657527636349
  0
ARC
  5
2B0
330
1E
100
AcDbEntity
  8
1
 62
     7
100
AcDbCircle
 10
147.3966332507873
 20
0.0000000022096955
 30
0.0
 40
45.57999999999963
100
AcDbArc
 50
63.99242881159
 51
69.05104944928118
  0
ARC
  5
2B1
330
1E
100
AcDbEntity
  8
1
 62
     7
100
AcDbCircle
 10
158.8171305738642
 20
40.76028877564199
 30
0.0
 40
5.199999999999824
100
AcDbArc
 50
301.6298994102738
 51
20.3326447991288
  0
ARC
  5
2B2
330
1E
100
AcDbEntity
  8
1
 62
     7
100
AcDbCircle
 10
147.3966332507873
 20
0.0000000022096955
 30
0.0
 40
38.98999999999975
100
AcDbArc
 50
64.31882717357026
 51
68.72465108730027
  0
ARC
  5
2B3
330
1E
100
AcDbEntity
  8
1
 62
     7
100
AcDbCircle
 10
169.3906218557871
 20
36.1675733966625
 30
0.0
 40
5.200000000000257
100
AcDbArc
 50
112.7108334617513
 51
191.4135788505916
  0
ARC
  5
2B4
330
1E
100
AcDbEntity
  8
1
 62
     7
100
AcDbCircle
 10
147.3966332507873
 20
0.0000000022096955
 30
0.0
 40
45.57999999999984
100
AcDbArc
 50
48.34025489854596
 51
53.39887553623774
  0
ARC
  5
2B5
330
1E
100
AcDbEntity
  8
1
 62
     7
100
AcDbCircle
 10
169.3906218557871
 20
36.1675733966625
 30
0.0
 40
5.199999999999909
100
AcDbArc
 50
285.9777254972302
 51
4.680470886083163
  0
ARC
  5
2B6
330
1E
100
AcDbEntity
  8
1
 62
     7
100
AcDbCircle
 10
147.3966332507873
 20
0.0000000022096955
 30
0.0
 40
38.9899999999999
100
AcDbArc
 50
48.66665326052622
 51
53.07247717425681
  0
ARC
  5
2B7
330
1E
100
AcDbEntity
  8
1
 62
     7
100
AcDbCircle
 10
178.3329196186803
 20
28.89247455465529
 30
0.0
 40
5.200000000000032
100
AcDbArc
 50
97.05865954870331
 51
175.7614049375495
  0
ARC
  5
2B8
330
1E
100
AcDbEntity
  8
1
 62
     7
100
AcDbCircle
 10
147.3966332507873
 20
0.0000000022096955
 30
0.0
 40
45.57999999999918
100
AcDbArc
 50
32.6880809855029
 51
37.74670162319397
  0
ARC
  5
2B9
330
1E
100
AcDbEntity
  8
1
 62
     7
100
AcDbCircle
 10
178.3329196186803
 20
28.89247455465529
 30
0.0
 40
5.199999999999977
100
AcDbArc
 50
270.3255515841805
 51
349.0282969730373
  0
ARC
  5
2BA
330
1E
100
AcDbEntity
  8
1
 62
     7
100
AcDbCircle
 10
147.3966332507873
 20
0.0000000022096955
 30
0.0
 40
38.98999999999929
100
AcDbArc
 50
33.0144793474833
 51
37.42030326121374
  0
ARC
  5
2BB
330
1E
100
AcDbEntity
  8
1
 62
     7
100
AcDbCircle
 10
184.980814545759
 20
19.47455304936935
 30
0.0
 40
5.199999999999941
100
AcDbArc
 50
81.40648563565948
 51
160.1092310245063
  0
ARC
  5
2BC
330
1E
100
AcDbEntity
  8
1
 62
     7
100
AcDbCircle
 10
147.3966332507873
 20
0.0000000022096955
 30
0.0
 40
45.58000000000009
100
AcDbArc
 50
17.03590707245874
 51
22.09452771015031
  0
ARC
  5
2BD
330
1E
100
AcDbEntity
  8
1
 62
     7
100
AcDbCircle
 10
184.980814545759
 20
19.47455304936935
 30
0.0
 40
5.200000000000051
100
AcDbArc
 50
254.6733776711434
 51
333.3761230599948
  0
ARC
  5
2BE
330
1E
100
AcDbEntity
  8
1
 62
     7
100
AcDbCircle
 10
147.3966332507873
 20
0.0000000022096955
 30
0.0
 40
38.98999999999952
100
AcDbArc
 50
17.36230543443938
 51
21.7681293481701
  0
ARC
  5
2BF
330
1E
100
AcDbEntity
  8
1
 62
     7
100
AcDbCircle
 10
188.8412626823791
 20
8.612293034727692
 30
0.0
 40
5.200000000000343
100
AcDbArc
 50
65.75431172260437
 51
144.4570571114607
  0
ARC
  5
2C0
330
1E
100
AcDbEntity
  8
1
 62
     7
100
AcDbCircle
 10
147.3966332507873
 20
0.0000000022096955
 30
0.0
 40
45.57999999999971
100
AcDbArc
 50
1.383733159415335
 51
6.442353797106482
  0
ARC
  5
2C1
330
1E
100
AcDbEntity
  8
1
 62
     7
100
AcDbCircle
 10
188.8412626823791
 20
8.612293034727692
 30
0.0
 40
5.199999999999766
100
AcDbArc
 50
239.0212037581067
 51
317.7239491469568
  0
ARC
  5
2C2
330
1E
100
AcDbEntity
  8
1
 62
     7
100
AcDbCircle
 10
147.3966332507873
 20
0.0000000022096955
 30
0.0
 40
38.98999999999981
100
AcDbArc
 50
1.710131521395706
 51
6.11595543512616
  0
ARC
  5
2C3
330
1E
100
AcDbEntity
  8
1
 62
     7
100
AcDbCircle
 10
189.6279522506221
 20
-2.888701355516815
 30
0.0
 40
5.200000000000192
100
AcDbArc
 50
50.10213780956725
 51
128.8048831984152
  0
ARC
  5
2C4
330
1E
100
AcDbEntity
  8
1
 62
     7
100
AcDbCircle
 10
147.3966332507873
 20
0.0000000022096955
 30
0.0
 40
45.57999999999954
100
AcDbArc
 50
345.7315592463717
 51
350.7901798840628
  0
ARC
  5
2C5
330
1E
100
AcDbEntity
  8
1
 62
     7
100
AcDbCircle
 10
189.6279522506221
 20
-2.888701355516815
 30
0.0
 40
5.199999999999723
100
AcDbArc
 50
223.3690298450618
 51
302.0717752339061
  0
ARC
  5
2C6
330
1E
100
AcDbEntity
  8
1
 62
     7
100
AcDbCircle
 10
147.3966332507873
 20
0.0000000022096955
 30
0.0
 40
38.98999999999968
100
AcDbArc
 50
346.0579576083521
 51
350.4637815220826
  0
ARC
  5
2C7
330
1E
100
AcDbEntity
  8
1
 62
     7
100
AcDbCircle
 10
187.2825380840764
 20
-14.17545398098813
 30
0.0
 40
5.200000000000061
100
AcDbArc
 50
34.44996389652604
 51
113.1527092853731
  0
ARC
  5
2C8
330
1E
100
AcDbEntity
  8
1
 62
     7
100
AcDbCircle
 10
147.3966332507873
 20
0.0000000022096955
 30
0.0
 40
45.57999999999945
100
AcDbArc
 50
330.079385333328
 51
335.1380059710193
  0
ARC
  5
2C9
330
1E
100
AcDbEntity
  8
1
 62
     7
100
AcDbCircle
 10
187.2825380840764
 20
-14.17545398098813
 30
0.0
 40
5.199999999999641
100
AcDbArc
 50
207.7168559320175
 51
286.4196013208651
  0
ARC
  5
2CA
330
1E
100
AcDbEntity
  8
1
 62
     7
100
AcDbCircle
 10
147.3966332507873
 20
0.0000000022096955
 30
0.0
 40
38.98999999999995
100
AcDbArc
 50
330.4057836953087
 51
334.8116076090391
  0
ARC
  5
2CB
330
1E
100
AcDbEntity
  8
1
 62
     7
100
AcDbCircle
 10
181.9789688219194
 20
-24.4108780329126
 30
0.0
 40
5.199999999999294
100
AcDbArc
 50
18.79778998348567
 51
97.5005353723337
  0
ARC
  5
2CC
330
1E
100
AcDbEntity
  8
1
 62
     7
100
AcDbCircle
 10
147.3966332507873
 20
0.0000000022096955
 30
0.0
 40
45.57999999999954
100
AcDbArc
 50
314.4272114202844
 51
319.4858320579758
  0
ARC
  5
2CD
330
1E
100
AcDbEntity
  8
1
 62
     7
100
AcDbCircle
 10
181.9789688219194
 20
-24.4108780329126
 30
0.0
 40
5.200000000000512
100
AcDbArc
 50
192.0646820189709
 51
270.7674274078158
  0
ARC
  5
2CE
330
1E
100
AcDbEntity
  8
1
 62
     7
100
AcDbCircle
 10
147.3966332507873
 20
0.0000000022096955
 30
0.0
 40
38.98999999999965
100
AcDbArc
 50
314.7536097822646
 51
319.1594336959953
  0
ARC
  5
2CF
330
1E
100
AcDbEntity
  8
1
 62
     7
100
AcDbCircle
 10
174.1105859341083
 20
-32.83585893330835
 30
0.0
 40
5.200000000000191
100
AcDbArc
 50
3.145616070439546
 51
81.84836145928468
  0
ARC
  5
2D0
330
1E
100
AcDbEntity
  8
1
 62
     7
100
AcDbCircle
 10
147.3966332507873
 20
0.0000000022096955
 30
0.0
 40
45.57999999999993
100
AcDbArc
 50
298.7750375072413
 51
303.8336581449318
  0
ARC
  5
2D1
330
1E
100
AcDbEntity
  8
1
 62
     7
100
AcDbCircle
 10
174.1105859341083
 20
-32.83585893330835
 30
0.0
 40
5.199999999999453
100
AcDbArc
 50
176.4125081059284
 51
255.1152534947791
  0
ARC
  5
2D2
330
1E
100
AcDbEntity
  8
1
 62
     7
100
AcDbCircle
 10
147.3966332507873
 20
0.0000000022096955
 30
0.0
 40
38.98999999999978
100
AcDbArc
 50
299.1014358692211
 51
303.5072597829517
  0
ARC
  5
2D3
330
1E
100
AcDbEntity
  8
1
 62
     7
100
AcDbCircle
 10
164.2609513839781
 20
-38.8255543905161
 30
0.0
 40
5.200000000000348
100
AcDbArc
 50
347.493442157397
 51
66.1961875462445
  0
ARC
  5
2D4
330
1E
100
AcDbEntity
  8
1
 62
     7
100
AcDbCircle
 10
147.3966332507873
 20
0.0000000022096955
 30
0.0
 40
45.5799999999999
100
AcDbArc
 50
283.1228635941976
 51
288.1814842318886
  0
ARC
  5
2D5
330
1E
100
AcDbEntity
  8
1
 62
     7
100
AcDbCircle
 10
164.2609513839781
 20
-38.8255543905161
 30
0.0
 40
5.199999999999564
100
AcDbArc
 50
160.7603341928835
 51
239.4630795817355
  0
ARC
  5
2D6
330
1E
100
AcDbEntity
  8
1
 62
     7
100
AcDbCircle
 10
147.3966332507873
 20
0.0000000022096955
 30
0.0
 40
38.99
100
AcDbArc
 50
283.4492619561783
 51
287.8550858699087
  0
ARC
  5
2D7
330
1E
100
AcDbEntity
  8
1
 62
     7
100
AcDbCircle
 10
153.1605675070311
 20
-41.93573609350814
 30
0.0
 40
5.199999999999943
100
AcDbArc
 50
331.8412682443522
 51
50.54401363319893
  0
ARC
  5
2D8
330
1E
100
AcDbEntity
  8
1
 62
     7
100
AcDbCircle
 10
147.3966332507873
 20
0.0000000022096955
 30
0.0
 40
45.58000000000001
100
AcDbArc
 50
267.4706896811536
 51
272.5293103188449
  0
ARC
  5
2D9
330
1E
100
AcDbEntity
  8
1
 62
     7
100
AcDbCircle
 10
153.1605675070311
 20
-41.93573609350814
 30
0.0
 40
5.20000000000057
100
AcDbArc
 50
145.1081602798464
 51
223.8109056686889
  0
ARC
  5
2DA
330
1E
100
AcDbEntity
  8
1
 62
     7
100
AcDbCircle
 10
147.3966332507873
 20
0.0000000022096955
 30
0.0
 40
38.98999999999999
100
AcDbArc
 50
267.7970880431345
 51
272.2029119568638
  0
ARC
  5
2DB
330
1E
100
AcDbEntity
  8
1
 62
     7
100
AcDbCircle
 10
141.6326989945433
 20
-41.93573609350814
 30
0.0
 40
5.199999999999469
100
AcDbArc
 50
316.1890943313034
 51
34.89183972015984
  0
ARC
  5
2DC
330
1E
100
AcDbEntity
  8
1
 62
     7
100
AcDbCircle
 10
-2.383848840081343
 20
89.78200000000001
 30
0.0
 40
39.90686436867132
100
AcDbArc
 50
268.9372763306205
 51
284.3262739453489
  0
ARC
  5
2DD
330
1E
100
AcDbEntity
  8
1
 62
     7
100
AcDbCircle
 10
-2.38384884008134
 20
-89.78200000000002
 30
0.0
 40
39.90686436867132
100
AcDbArc
 50
75.67372608062683
 51
91.06272366937938
  0
CIRCLE
  5
2DE
330
1E
100
AcDbEntity
  8
1
 62
     7
100
AcDbCircle
 10
147.3966332507981
 20
0.0
 30
0.0
 40
15.99999975989411
  0
CIRCLE
  5
2DF
330
1E
100
AcDbEntity
  8
1
 62
     7
100
AcDbCircle
 10
147.3966332507981
 20
0.0
 30
0.0
 40
21.49999967727108
  0
CIRCLE
  5
2E0
330
1E
100
AcDbEntity
  8
0
 62
     7
100
AcDbCircle
 10
144.5699666281231
 20
-17.43999973582486
 30
0.0
 40
1.066666650639092
  0
CIRCLE
  5
2E1
330
1E
100
AcDbEntity
  8
0
 62
     7
100
AcDbCircle
 10
150.2232998765291
 20
-17.43999973582486
 30
0.0
 40
1.066666650643981
  0
CIRCLE
  5
2E2
330
1E
100
AcDbEntity
  8
1
 62
     7
100
AcDbCircle
 10
-185.1316279336216
 20
76.30814027904648
 30
0.0
 40
2.980384757729293
  0
CIRCLE
  5
2E3
330
1E
100
AcDbEntity
  8
1
 62
     7
100
AcDbCircle
 10
-185.1316279336216
 20
76.30814027904648
 30
0.0
 40
3.500000000000242
  0
CIRCLE
  5
2E4
330
1E
100
AcDbEntity
  8
1
 62
     7
100
AcDbCircle
 10
-240.9930636473597
 20
20.44670456530896
 30
0.0
 40
2.980384757729296
  0
CIRCLE
  5
2E5
330
1E
100
AcDbEntity
  8
1
 62
     7
100
AcDbCircle
 10
-240.9930636473597
 20
20.44670456530896
 30
0.0
 40
3.500000000000369
  0
CIRCLE
  5
2E6
330
1E
100
AcDbEntity
  8
1
 62
     7
100
AcDbCircle
 10
-220.5463590842597
 20
-55.86143571152774
 30
0.0
 40
2.980384757729263
  0
CIRCLE
  5
2E7
330
1E
100
AcDbEntity
  8
1
 62
     7
100
AcDbCircle
 10
-220.5463590842597
 20
-55.86143571152774
 30
0.0
 40
3.499999999999372
  0
CIRCLE
  5
2E8
330
1E
100
AcDbEntity
  8
1
 62
     7
100
AcDbCircle
 10
-144.2382188074218
 20
-76.30814027463003
 30
0.0
 40
3.499999999999228
  0
CIRCLE
  5
2E9
330
1E
100
AcDbEntity
  8
1
 62
     7
100
AcDbCircle
 10
-144.2382188074218
 20
-76.30814027463003
 30
0.0
 40
2.980384757729198
  0
CIRCLE
  5
2EA
330
1E
100
AcDbEntity
  8
1
 62
     7
100
AcDbCircle
 10
-88.37678309368081
 20
-20.44670456089288
 30
0.0
 40
3.499999999999142
  0
CIRCLE
  5
2EB
330
1E
100
AcDbEntity
  8
1
 62
     7
100
AcDbCircle
 10
-88.37678309368081
 20
-20.44670456089288
 30
0.0
 40
2.980384757729085
  0
CIRCLE
  5
2EC
330
1E
100
AcDbEntity
  8
1
 62
     7
100
AcDbCircle
 10
-108.8234876567778
 20
55.86143571594718
 30
0.0
 40
3.499999999999217
  0
CIRCLE
  5
2ED
330
1E
100
AcDbEntity
  8
1
 62
     7
100
AcDbCircle
 10
-108.8234876567778
 20
55.86143571594718
 30
0.0
 40
2.980384757729305
  0
CIRCLE
  5
2EE
330
1E
100
AcDbEntity
  8
1
 62
     7
100
AcDbCircle
 10
-164.6849233705188
 20
0.0000000022095747
 30
0.0
 40
49.2157123576861
  0
CIRCLE
  5
2EF
330
1E
100
AcDbEntity
  8
1
 62
     7
100
AcDbCircle
 10
-164.6849233705227
 20
0.0000000022096813
 30
0.0
 40
70.0
  0
CIRCLE
  5
2F0
330
1E
100
AcDbEntity
  8
1
  6
CENTER
 62
     3
100
AcDbCircle
 10
-164.6849233705227
 20
0.0000000022096813
 30
0.0
 40
79.00000000000019
  0
CIRCLE
  5
2F1
330
1E
100
AcDbEntity
  8
1
 62
     7
100
AcDbCircle
 10
-164.6849233705227
 20
0.0000000022096813
 30
0.0
 40
84.99999999999998
  0
CIRCLE
  5
2F2
330
1E
100
AcDbEntity
  8
1
 62
     7
100
AcDbCircle
 10
-125.1849233705227
 20
-68.4160068967611
 30
0.0
 40
3.299999999999356
  0
CIRCLE
  5
2F3
330
1E
100
AcDbEntity
  8
1
 62
     7
100
AcDbCircle
 10
-96.26891647155272
 20
-39.49999999779047
 30
0.0
 40
3.299999999999899
  0
CIRCLE
  5
2F4
330
1E
100
AcDbEntity
  8
1
 62
     7
100
AcDbCircle
 10
-85.68492337052269
 20
0.0000000022095392
 30
0.0
 40
3.299999999999941
  0
CIRCLE
  5
2F5
330
1E
100
AcDbEntity
  8
1
 62
     7
100
AcDbCircle
 10
-96.26891647155183
 20
39.5000000022096
 30
0.0
 40
3.299999999999893
  0
CIRCLE
  5
2F6
330
1E
100
AcDbEntity
  8
1
 62
     7
100
AcDbCircle
 10
-125.1849233705227
 20
68.41600690118028
 30
0.0
 40
3.300000000000316
  0
CIRCLE
  5
2F7
330
1E
100
AcDbEntity
  8
1
 62
     7
100
AcDbCircle
 10
207.2245353553841
 20
-11.90050964077425
 30
0.0
 40
4.75
  0
CIRCLE
  5
2F8
330
1E
100
AcDbEntity
  8
1
 62
     7
100
AcDbCircle
 10
170.7403226250571
 20
56.35665148539868
 30
0.0
 40
2.400000000000871
  0
CIRCLE
  5
2F9
330
1E
100
AcDbEntity
  8
1
 62
     7
100
AcDbCircle
 10
170.7403226250571
 20
56.35665148539868
 30
0.0
 40
3.299999999999873
  0
CIRCLE
  5
2FA
330
1E
100
AcDbEntity
  8
1
 62
     3
100
AcDbCircle
 10
170.7403226250571
 20
56.35665148539868
 30
0.0
 40
3.000000000000251
  0
CIRCLE
  5
2FB
330
1E
100
AcDbEntity
  8
1
 62
     7
100
AcDbCircle
 10
190.5301469031663
 20
43.13351365458953
 30
0.0
 40
2.400000000001195
  0
CIRCLE
  5
2FC
330
1E
100
AcDbEntity
  8
1
 62
     7
100
AcDbCircle
 10
190.5301469031663
 20
43.13351365458953
 30
0.0
 40
3.30000000000042
  0
CIRCLE
  5
2FD
330
1E
100
AcDbEntity
  8
1
 62
     3
100
AcDbCircle
 10
190.5301469031663
 20
43.13351365458953
 30
0.0
 40
3.000000000000346
  0
CIRCLE
  5
2FE
330
1E
100
AcDbEntity
  8
1
 62
     7
100
AcDbCircle
 10
203.7532847339762
 20
23.34368937648066
 30
0.0
 40
2.400000000000594
  0
CIRCLE
  5
2FF
330
1E
100
AcDbEntity
  8
1
 62
     7
100
AcDbCircle
 10
203.7532847339762
 20
23.34368937648066
 30
0.0
 40
3.300000000000053
  0
CIRCLE
  5
300
330
1E
100
AcDbEntity
  8
1
 62
     3
100
AcDbCircle
 10
203.7532847339762
 20
23.34368937648066
 30
0.0
 40
2.999999999999946
  0
CIRCLE
  5
301
330
1E
100
AcDbEntity
  8
1
 62
     7
100
AcDbCircle
 10
208.3966332507872
 20
0.0000000022096955
 30
0.0
 40
2.400000000000559
  0
CIRCLE
  5
302
330
1E
100
AcDbEntity
  8
1
 62
     7
100
AcDbCircle
 10
208.3966332507872
 20
0.0000000022096955
 30
0.0
 40
3.299999999999741
  0
CIRCLE
  5
303
330
1E
100
AcDbEntity
  8
1
 62
     3
100
AcDbCircle
 10
208.3966332507872
 20
0.0000000022096955
 30
0.0
 40
2.999999999999566
  0
CIRCLE
  5
304
330
1E
100
AcDbEntity
  8
1
 62
     7
100
AcDbCircle
 10
203.7532847339762
 20
-23.34368937206038
 30
0.0
 40
2.400000000001348
  0
CIRCLE
  5
305
330
1E
100
AcDbEntity
  8
1
 62
     7
100
AcDbCircle
 10
203.7532847339762
 20
-23.34368937206038
 30
0.0
 40
3.300000000000187
  0
CIRCLE
  5
306
330
1E
100
AcDbEntity
  8
1
 62
     3
100
AcDbCircle
 10
203.7532847339762
 20
-23.34368937206038
 30
0.0
 40
3.000000000000281
  0
CIRCLE
  5
307
330
1E
100
AcDbEntity
  8
1
 62
     7
100
AcDbCircle
 10
190.5301469031671
 20
-43.13351365016949
 30
0.0
 40
2.400000000001764
  0
CIRCLE
  5
308
330
1E
100
AcDbEntity
  8
1
 62
     7
100
AcDbCircle
 10
190.5301469031671
 20
-43.13351365016949
 30
0.0
 40
3.300000000000501
  0
CIRCLE
  5
309
330
1E
100
AcDbEntity
  8
1
 62
     3
100
AcDbCircle
 10
190.5301469031671
 20
-43.13351365016949
 30
0.0
 40
3.000000000000336
  0
CIRCLE
  5
30A
330
1E
100
AcDbEntity
  8
1
 62
     7
100
AcDbCircle
 10
170.7403226250571
 20
-56.35665148097842
 30
0.0
 40
2.400000000000048
  0
CIRCLE
  5
30B
330
1E
100
AcDbEntity
  8
1
 62
     7
100
AcDbCircle
 10
170.7403226250571
 20
-56.35665148097842
 30
0.0
 40
3.299999999999716
  0
CIRCLE
  5
30C
330
1E
100
AcDbEntity
  8
1
 62
     3
100
AcDbCircle
 10
170.7403226250571
 20
-56.35665148097842
 30
0.0
 40
2.999999999999167
  0
CIRCLE
  5
30D
330
1E
100
AcDbEntity
  8
1
 62
     7
100
AcDbCircle
 10
147.3966332507873
 20
-60.99999999779001
 30
0.0
 40
2.400000000001
  0
CIRCLE
  5
30E
330
1E
100
AcDbEntity
  8
1
 62
     7
100
AcDbCircle
 10
147.3966332507873
 20
-60.99999999779001
 30
0.0
 40
3.300000000000181
  0
CIRCLE
  5
30F
330
1E
100
AcDbEntity
  8
1
 62
     3
100
AcDbCircle
 10
147.3966332507873
 20
-60.99999999779001
 30
0.0
 40
3.0
  0
CIRCLE
  5
310
330
1E
100
AcDbEntity
  8
1
 62
     7
100
AcDbCircle
 10
-164.6849233705227
 20
-78.99999999779031
 30
0.0
 40
3.300000000000181
  0
CIRCLE
  5
311
330
1E
100
AcDbEntity
  8
1
 62
     7
100
AcDbCircle
 10
-204.1849233705226
 20
-68.4160068967611
 30
0.0
 40
3.299999999999516
  0
CIRCLE
  5
312
330
1E
100
AcDbEntity
  8
1
 62
     7
100
AcDbCircle
 10
-233.1009302694929
 20
-39.49999999779047
 30
0.0
 40
3.299999999999871
  0
CIRCLE
  5
313
330
1E
100
AcDbEntity
  8
1
 62
     7
100
AcDbCircle
 10
-243.6849233705226
 20
0.0000000022095392
 30
0.0
 40
3.299999999999941
  0
CIRCLE
  5
314
330
1E
100
AcDbEntity
  8
1
 62
     7
100
AcDbCircle
 10
-233.1009302694938
 20
39.5000000022096
 30
0.0
 40
3.300000000000006
  0
CIRCLE
  5
315
330
1E
100
AcDbEntity
  8
1
 62
     7
100
AcDbCircle
 10
-204.1849233705226
 20
68.41600690118028
 30
0.0
 40
3.300000000000156
  0
CIRCLE
  5
316
330
1E
100
AcDbEntity
  8
1
 62
     7
100
AcDbCircle
 10
-164.6849233705227
 20
79.00000000220967
 30
0.0
 40
3.300000000000011
  0
CIRCLE
  5
317
330
1E
100
AcDbEntity
  8
1
 62
     7
100
AcDbCircle
 10
147.3966332507873
 20
61.00000000220959
 30
0.0
 40
2.400000000001
  0
CIRCLE
  5
318
330
1E
100
AcDbEntity
  8
1
 62
     7
100
AcDbCircle
 10
147.3966332507873
 20
61.00000000220959
 30
0.0
 40
3.300000000000011
  0
CIRCLE
  5
319
330
1E
100
AcDbEntity
  8
1
 62
     3
100
AcDbCircle
 10
147.3966332507873
 20
61.00000000220959
 30
0.0
 40
3.0
  0
CIRCLE
  5
31A
330
1E
100
AcDbEntity
  8
1
 62
     7
100
AcDbCircle
 10
159.2971428937703
 20
59.82790210680679
 30
0.0
 40
4.75
  0
CIRCLE
  5
31B
330
1E
100
AcDbEntity
  8
1
 62
     7
100
AcDbCircle
 10
147.3966332507873
 20
0.0000000022096955
 30
0.0
 40
67.50000000000003
  0
CIRCLE
  5
31C
330
1E
100
AcDbEntity
  8
1
  6
CENTER
 62
     3
100
AcDbCircle
 10
147.3966332507873
 20
0.0000000022096955
 30
0.0
 40
61.00000000000004
  0
CIRCLE
  5
31D
330
1E
100
AcDbEntity
  8
1
 62
     7
100
AcDbCircle
 10
147.3966332507873
 20
0.0000000022096955
 30
0.0
 40
51.21400000000003
  0
CIRCLE
  5
31E
330
1E
100
AcDbEntity
  8
1
 62
     7
100
AcDbCircle
 10
147.3966332507873
 20
0.0000000022096955
 30
0.0
 40
49.99999999999997
  0
CIRCLE
  5
31F
330
1E
100
AcDbEntity
  8
1
 62
     7
100
AcDbCircle
 10
87.56873114399125
 20
11.90050964297206
 30
0.0
 40
4.75
  0
CIRCLE
  5
320
330
1E
100
AcDbEntity
  8
1
 62
     3
100
AcDbCircle
 10
124.0529438743174
 20
56.35665148317793
 30
0.0
 40
2.999999999999968
  0
CIRCLE
  5
321
330
1E
100
AcDbEntity
  8
1
 62
     7
100
AcDbCircle
 10
124.0529438743174
 20
56.35665148317793
 30
0.0
 40
3.300000000000068
  0
CIRCLE
  5
322
330
1E
100
AcDbEntity
  8
1
 62
     7
100
AcDbCircle
 10
124.0529438743174
 20
56.35665148317793
 30
0.0
 40
2.400000000000614
  0
CIRCLE
  5
323
330
1E
100
AcDbEntity
  8
1
 62
     3
100
AcDbCircle
 10
104.2631195962085
 20
43.13351365236799
 30
0.0
 40
3.000000000000365
  0
CIRCLE
  5
324
330
1E
100
AcDbEntity
  8
1
 62
     7
100
AcDbCircle
 10
104.2631195962085
 20
43.13351365236799
 30
0.0
 40
3.300000000000446
  0
CIRCLE
  5
325
330
1E
100
AcDbEntity
  8
1
 62
     7
100
AcDbCircle
 10
104.2631195962085
 20
43.13351365236799
 30
0.0
 40
2.400000000001286
  0
CIRCLE
  5
326
330
1E
100
AcDbEntity
  8
1
 62
     3
100
AcDbCircle
 10
91.03998176539947
 20
23.34368937425888
 30
0.0
 40
3.000000000000144
  0
CIRCLE
  5
327
330
1E
100
AcDbEntity
  8
1
 62
     7
100
AcDbCircle
 10
91.03998176539947
 20
23.34368937425888
 30
0.0
 40
3.299999999999821
  0
CIRCLE
  5
328
330
1E
100
AcDbEntity
  8
1
 62
     7
100
AcDbCircle
 10
91.03998176539947
 20
23.34368937425888
 30
0.0
 40
2.400000000000809
  0
CIRCLE
  5
329
330
1E
100
AcDbEntity
  8
1
 62
     7
100
AcDbCircle
 10
124.0529438765391
 20
-56.35665148539878
 30
0.0
 40
2.400000000000809
  0
CIRCLE
  5
32A
330
1E
100
AcDbEntity
  8
1
 62
     7
100
AcDbCircle
 10
124.0529438765391
 20
-56.35665148539878
 30
0.0
 40
3.299999999999883
  0
CIRCLE
  5
32B
330
1E
100
AcDbEntity
  8
1
 62
     3
100
AcDbCircle
 10
124.0529438765391
 20
-56.35665148539878
 30
0.0
 40
3.000000000000158
  0
CIRCLE
  5
32C
330
1E
100
AcDbEntity
  8
1
 62
     7
100
AcDbCircle
 10
104.26311959843
 20
-43.13351365458975
 30
0.0
 40
2.400000000001275
  0
CIRCLE
  5
32D
330
1E
100
AcDbEntity
  8
1
 62
     7
100
AcDbCircle
 10
104.26311959843
 20
-43.13351365458975
 30
0.0
 40
3.300000000000495
  0
CIRCLE
  5
32E
330
1E
100
AcDbEntity
  8
1
 62
     3
100
AcDbCircle
 10
104.26311959843
 20
-43.13351365458975
 30
0.0
 40
3.000000000000351
  0
CIRCLE
  5
32F
330
1E
100
AcDbEntity
  8
1
 62
     7
100
AcDbCircle
 10
91.03998176762001
 20
-23.34368937648087
 30
0.0
 40
2.400000000000594
  0
CIRCLE
  5
330
330
1E
100
AcDbEntity
  8
1
 62
     7
100
AcDbCircle
 10
91.03998176762001
 20
-23.34368937648087
 30
0.0
 40
3.300000000000061
  0
CIRCLE
  5
331
330
1E
100
AcDbEntity
  8
1
 62
     3
100
AcDbCircle
 10
91.03998176762001
 20
-23.34368937648087
 30
0.0
 40
2.999999999999935
  0
CIRCLE
  5
332
330
1E
100
AcDbEntity
  8
1
 62
     7
100
AcDbCircle
 10
135.4961236078259
 20
-59.827902106807
 30
0.0
 40
4.750000000000006
  0
CIRCLE
  5
333
330
1E
100
AcDbEntity
  8
1
 62
     3
100
AcDbCircle
 10
86.39663324858839
 20
-0.0000000000109637
 30
0.0
 40
3.0
  0
CIRCLE
  5
334
330
1E
100
AcDbEntity
  8
1
 62
     7
100
AcDbCircle
 10
86.39663324858839
 20
-0.0000000000109637
 30
0.0
 40
3.299999999999955
  0
CIRCLE
  5
335
330
1E
100
AcDbEntity
  8
1
 62
     7
100
AcDbCircle
 10
86.39663324858839
 20
-0.0000000000109637
 30
0.0
 40
2.400000000001
  0
CIRCLE
  5
336
330
1E
100
AcDbEntity
  8
1
 62
     7
100
AcDbCircle
 10
159.2971428937703
 20
59.82790210680679
 30
0.0
 40
4.25
  0
CIRCLE
  5
337
330
1E
100
AcDbEntity
  8
1
 62
     7
100
AcDbCircle
 10
159.2971428937703
 20
59.82790210680679
 30
0.0
 40
3.730384757729381
  0
CIRCLE
  5
338
330
1E
100
AcDbEntity
  8
1
 62
     7
100
AcDbCircle
 10
207.2245353553841
 20
-11.90050964077425
 30
0.0
 40
3.730384757729098
  0
CIRCLE
  5
339
330
1E
100
AcDbEntity
  8
1
 62
     7
100
AcDbCircle
 10
207.2245353553841
 20
-11.90050964077425
 30
0.0
 40
4.25
  0
CIRCLE
  5
33A
330
1E
100
AcDbEntity
  8
1
 62
     7
100
AcDbCircle
 10
147.3966332507873
 20
0.0000000022096955
 30
0.0
 40
35.56000000000004
  0
CIRCLE
  5
33B
330
1E
100
AcDbEntity
  8
1
 62
     7
100
AcDbCircle
 10
147.3966332507873
 20
0.0000000022096955
 30
0.0
 40
38.12500000000005
  0
CIRCLE
  5
33C
330
1E
100
AcDbEntity
  8
1
 62
     7
100
AcDbCircle
 10
147.3966332507873
 20
0.0000000022096955
 30
0.0
 40
49.08550000000001
  0
CIRCLE
  5
33D
330
1E
100
AcDbEntity
  8
1
 62
     7
100
AcDbCircle
 10
135.4961236078259
 20
-59.827902106807
 30
0.0
 40
4.250000000000006
  0
CIRCLE
  5
33E
330
1E
100
AcDbEntity
  8
1
 62
     7
100
AcDbCircle
 10
135.4961236078259
 20
-59.827902106807
 30
0.0
 40
3.730384757729332
  0
CIRCLE
  5
33F
330
1E
100
AcDbEntity
  8
1
 62
     7
100
AcDbCircle
 10
87.56873114399125
 20
11.90050964297206
 30
0.0
 40
3.730384757729325
  0
CIRCLE
  5
340
330
1E
100
AcDbEntity
  8
1
 62
     7
100
AcDbCircle
 10
87.56873114399125
 20
11.90050964297206
 30
0.0
 40
4.25
  0
CIRCLE
  5
341
330
1E
100
AcDbEntity
  8
1
 62
     7
100
AcDbCircle
 10
17.10250000013605
 20
42.32449999999993
 30
0.0
 40
4.66250000000009
  0
CIRCLE
  5
342
330
1E
100
AcDbEntity
  8
1
 62
     7
100
AcDbCircle
 10
17.10250000013605
 20
-42.32449999999993
 30
0.0
 40
4.66250000000009
  0
LWPOLYLINE
  5
343
330
1E
100
AcDbEntity
  8
1
 62
     7
100
AcDbPolyline
 90
       54
 70
     1
 43
0.0
 10
9.047446414830744
 20
-56.1963723811298
 42
-0.020533393446306
 10
8.995811093535827
 20
-56.18584466845296
 42
-0.0438768435396656
 10
8.944027037047602
 20
-56.16793964909501
 42
-0.0019603567409766
 10
8.893131349133938
 20
-56.14287308566507
 42
-0.0538285485823753
 10
8.800000000135939
 20
-56.07516958042077
 42
-0.0500413751690784
 10
8.755014789474202
 20
-56.03058948817122
 42
-0.0016227996162876
 10
8.712800094011051
 20
-55.980022650103
 42
-0.0397353565971304
 10
8.640373334264682
 20
-55.86716845336338
 42
-0.0368593312328549
 10
8.608058476800685
 20
-55.80170213075057
 42
-0.0008460763611686
 10
8.579709621436673
 20
-55.73231059437222
 42
-0.0314408412052988
 10
8.536184427664355
 20
-55.58692929297361
 42
-0.0300061526206984
 10
8.52034868389137
 20
-55.50888895228467
 42
-0.0002528395951551
 10
8.509034837992356
 20
-55.42934015945093
 42
-0.0282929422767255
 10
8.500000000135539
 20
-55.268253077884
 42
-0.028043517733633
 10
8.509034837992356
 20
-55.10716599631706
 42
-0.0282076311243217
 10
8.52034868389137
 20
-55.02761720348332
 42
-0.0005281746565235
 10
8.536184427664354
 20
-54.9495768627944
 42
-0.030645683437291
 10
8.579709621436673
 20
-54.80419556139579
 42
-0.0318789292344126
 10
8.608058476800685
 20
-54.73480402501742
 42
-0.0012191253791898
 10
8.640373334264808
 20
-54.66933770240463
 42
-0.0382669168360151
 10
8.712800094011582
 20
-54.55648350566503
 42
-0.0409687735299257
 10
8.755014789474037
 20
-54.50591666759677
 42
-0.0019581572989694
 10
8.800000000135243
 20
-54.46133657534724
 42
-0.0520492890632595
 10
8.893131349134337
 20
-54.39363307010295
 42
-0.0564400266833904
 10
8.944027037047483
 20
-54.36856650667301
 42
-0.0013094960077924
 10
8.995811093535081
 20
-54.35066148731502
 42
-0.0659499260917998
 10
9.100000000135876
 20
-54.3365061579777
 42
-0.0659736208099625
 10
9.204188906736348
 20
-54.35066148731504
 42
-0.0657689324408632
 10
9.255972963224598
 20
-54.36856650667299
 42
-0.0019603567410929
 10
9.306868651138268
 20
-54.39363307010293
 42
-0.0538285485830166
 10
9.40000000013614
 20
-54.46133657534723
 42
-0.0500413751686337
 10
9.444985210797456
 20
-54.50591666759677
 42
-0.0016227996163559
 10
9.487199906260274
 20
-54.556483505665
 42
-0.0397353565959611
 10
9.559626666007195
 20
-54.66933770240463
 42
-0.0368593312356475
 10
9.591941523471401
 20
-54.7348040250174
 42
-0.0008460763612598
 10
9.620290378835504
 20
-54.80419556139579
 42
-0.0314408412056522
 10
9.663815572607825
 20
-54.9495768627944
 42
-0.0300061526192597
 10
9.679651316380722
 20
-55.02761720348332
 42
-0.0002528395951674
 10
9.690965162279649
 20
-55.10716599631706
 42
-0.0282929422765478
 10
9.700000000136437
 20
-55.26825307788399
 42
-0.0280435177334731
 10
9.690965162279649
 20
-55.42934015945093
 42
-0.0282076311243943
 10
9.679651316380722
 20
-55.50888895228467
 42
-0.0005281746565198
 10
9.663815572607825
 20
-55.58692929297361
 42
-0.0306456834376858
 10
9.6202903788355
 20
-55.73231059437222
 42
-0.0318789292366109
 10
9.591941523471405
 20
-55.8017021307506
 42
-0.0012191253791926
 10
9.55962666600735
 20
-55.86716845336336
 42
-0.0382669168376652
 10
9.487199906261126
 20
-55.98002265010298
 42
-0.0409687735329958
 10
9.444985210798016
 20
-56.03058948817125
 42
-0.0019581572987544
 10
9.400000000136335
 20
-56.07516958042078
 42
-0.0520492890637629
 10
9.306868651138264
 20
-56.14287308566503
 42
-0.0564400266939365
 10
9.25597296322458
 20
-56.16793964909501
 42
-0.0013094960078658
 10
9.204188906736339
 20
-56.18584466845296
 42
-0.0659499260916565
 10
9.100000000136015
 20
-56.19999999779031
 10
9.047446414830744
 20
-56.1963723811298
  0
LWPOLYLINE
  5
37B
330
1E
100
AcDbEntity
  8
1
 62
     7
100
AcDbPolyline
 90
       54
 70
     1
 43
0.0
 10
9.047446414830744
 20
56.1963723855492
 42
0.0205333934463685
 10
8.995811093535827
 20
56.18584467287237
 42
0.0438768435399019
 10
8.944027037047602
 20
56.16793965351442
 42
0.0019603567409726
 10
8.893131349133938
 20
56.14287309008446
 42
0.0538285485823538
 10
8.800000000135939
 20
56.0751695848401
 42
0.050041375171211
 10
8.755014789474202
 20
56.03058949259057
 42
0.0016227996163711
 10
8.712800094011051
 20
55.98002265452239
 42
0.0397353565972253
 10
8.640373334264682
 20
55.86716845778275
 42
0.0368593312328549
 10
8.608058476800685
 20
55.80170213516997
 42
0.0008460763612034
 10
8.579709621436673
 20
55.73231059879159
 42
0.0314408412053051
 10
8.536184427664355
 20
55.58692929739301
 42
0.0300061526207516
 10
8.52034868389137
 20
55.50888895670406
 42
0.0002528395951547
 10
8.509034837992356
 20
55.42934016387029
 42
0.0282929422767182
 10
8.500000000135539
 20
55.26825308230339
 42
0.028043517733633
 10
8.509034837992356
 20
55.10716600073646
 42
0.0282076311242968
 10
8.52034868389137
 20
55.02761720790271
 42
0.000528174656524
 10
8.536184427664354
 20
54.94957686721376
 42
0.0306456834373209
 10
8.579709621436673
 20
54.80419556581519
 42
0.0318789292343768
 10
8.608058476800685
 20
54.73480402943679
 42
0.0012191253791898
 10
8.640373334264808
 20
54.66933770682402
 42
0.0382669168359999
 10
8.712800094011582
 20
54.55648351008445
 42
0.0409687735299257
 10
8.755014789474037
 20
54.5059166720162
 42
0.001958157299052
 10
8.800000000135243
 20
54.46133657976665
 42
0.05204928906316
 10
8.893131349134337
 20
54.39363307452236
 42
0.0564400266862912
 10
8.944027037047483
 20
54.36856651109239
 42
0.0013094960079173
 10
8.995811093535081
 20
54.3506614917344
 42
0.0659499260918645
 10
9.100000000135876
 20
54.33650616239708
 42
0.0659736208100969
 10
9.204188906736348
 20
54.3506614917344
 42
0.0657689324407415
 10
9.255972963224598
 20
54.36856651109234
 42
0.0019603567409726
 10
9.306868651138268
 20
54.39363307452229
 42
0.0538285485829454
 10
9.40000000013614
 20
54.46133657976663
 42
0.0500413751707662
 10
9.444985210797456
 20
54.50591667201618
 42
0.0016227996163617
 10
9.487199906260274
 20
54.55648351008439
 42
0.0397353565959372
 10
9.559626666007195
 20
54.66933770682399
 42
0.0368593312342907
 10
9.591941523471401
 20
54.73480402943678
 42
0.000846076361223
 10
9.620290378835504
 20
54.80419556581519
 42
0.0314408412056285
 10
9.663815572607825
 20
54.94957686721376
 42
0.0300061526193129
 10
9.679651316380722
 20
55.02761720790271
 42
0.0002528395951671
 10
9.690965162279649
 20
55.10716600073646
 42
0.0282929422765577
 10
9.700000000136437
 20
55.26825308230338
 42
0.0280435177334732
 10
9.690965162279649
 20
55.42934016387031
 42
0.028207631124357
 10
9.679651316380722
 20
55.50888895670406
 42
0.0005281746565381
 10
9.663815572607825
 20
55.586929297393
 42
0.0306456834376651
 10
9.6202903788355
 20
55.73231059879159
 42
0.0318789292366109
 10
9.591941523471405
 20
55.80170213516997
 42
0.0012191253791953
 10
9.55962666600735
 20
55.86716845778275
 42
0.0382669168377043
 10
9.487199906261126
 20
55.9800226545224
 42
0.0409687735329268
 10
9.444985210798016
 20
56.03058949259068
 42
0.0019581572988252
 10
9.400000000136335
 20
56.07516958484018
 42
0.0520492890637798
 10
9.306868651138264
 20
56.14287309008441
 42
0.0564400266904766
 10
9.25597296322458
 20
56.16793965351439
 42
0.0013094960079908
 10
9.204188906736339
 20
56.18584467287236
 42
0.0659499260918543
 10
9.100000000136015
 20
56.20000000220969
 10
9.047446414830744
 20
56.1963723855492
  0
LWPOLYLINE
  5
3B3
330
1E
100
AcDbEntity
  8
1
 62
     7
100
AcDbPolyline
 90
       54
 70
     1
 43
0.0
 10
-20.8156786959645
 20
-73.99552656459949
 42
-0.020357667581651
 10
-20.88023613311443
 20
-73.98252891375434
 42
-0.0433820001068446
 10
-20.94493319074151
 20
-73.96044381151302
 42
-0.0018760173074077
 10
-21.00850941763755
 20
-73.92953420750231
 42
-0.0536087993280469
 10
-21.12499999986368
 20
-73.84592921214242
 42
-0.0499828845875424
 10
-21.18119970406822
 20
-73.79093935599883
 42
-0.0015837743012537
 10
-21.23394738740608
 20
-73.72856253660069
 42
-0.0399361159949588
 10
-21.3245333322031
 20
-73.58920574892984
 42
-0.0371248068875007
 10
-21.36491385071289
 20
-73.50843178956154
 42
-0.0008361528322532
 10
-21.40034499819648
 20
-73.42280643457832
 42
-0.0317712372006982
 10
-21.45476946545345
 20
-73.24332316261489
 42
-0.0303532482328933
 10
-21.47456173135489
 20
-73.14701479267839
 42
-0.0002512490076074
 10
-21.48870458419426
 20
-73.04883648555549
 42
-0.0286491564810397
 10
-21.49999999986357
 20
-72.84999999779031
 42
-0.0284012436330695
 10
-21.48870458419357
 20
-72.65116351002515
 42
-0.0285665426020331
 10
-21.47456173135446
 20
-72.55298520290228
 42
-0.0005238099744481
 10
-21.45476946545323
 20
-72.45667683296581
 42
-0.0309843850381675
 10
-21.4003449981958
 20
-72.27719356100227
 42
-0.0322104661010598
 10
-21.36491385071246
 20
-72.19156820601906
 42
-0.0011984908378672
 10
-21.324533332203
 20
-72.11079424665081
 42
-0.0384992598218471
 10
-21.2339473874062
 20
-71.97143745897999
 42
-0.0411594748735829
 10
-21.18119970406869
 20
-71.9090606395818
 42
-0.0018933140900749
 10
-21.1249999998642
 20
-71.8540707834382
 42
-0.0519000667285799
 10
-21.00850941763681
 20
-71.77046578807837
 42
-0.0561445152255119
 10
-20.94493319074096
 20
-71.73955618406764
 42
-0.0012419433466023
 10
-20.88023613311429
 20
-71.71747108182628
 42
-0.0651864887714823
 10
-20.74999999986395
 20
-71.69999999779031
 42
-0.0652082256123004
 10
-20.61976386661372
 20
-71.71747108182628
 42
-0.0650285838259952
 10
-20.55506680898699
 20
-71.73955618406764
 42
-0.0018760173073477
 10
-20.49149058209106
 20
-71.77046578807837
 42
-0.0536087993271587
 10
-20.37499999986355
 20
-71.85407078343821
 42
-0.0499828845890511
 10
-20.31880029565871
 20
-71.9090606395818
 42
-0.0015837743012336
 10
-20.26605261232096
 20
-71.97143745897999
 42
-0.0399361159955308
 10
-20.17546666752492
 20
-72.11079424665079
 42
-0.0371248068902462
 10
-20.13508614901561
 20
-72.19156820601906
 42
-0.0008361528321562
 10
-20.09965500153226
 20
-72.27719356100227
 42
-0.0317712372005692
 10
-20.04523053427484
 20
-72.45667683296581
 42
-0.030353248235091
 10
-20.02543826837361
 20
-72.55298520290228
 42
-0.0002512490075285
 10
-20.01129541553435
 20
-72.65116351002515
 42
-0.0286491564805074
 10
-19.99999999986361
 20
-72.84999999779031
 42
-0.0284012436350447
 10
-20.01129541553348
 20
-73.04883648555549
 42
-0.0285665426000328
 10
-20.02543826837305
 20
-73.14701479267839
 42
-0.0005238099744661
 10
-20.04523053427456
 20
-73.24332316261489
 42
-0.0309843850382598
 10
-20.0996550015314
 20
-73.42280643457835
 42
-0.0322104661033849
 10
-20.13508614901506
 20
-73.50843178956154
 42
-0.0011984908377154
 10
-20.17546666752478
 20
-73.58920574892984
 42
-0.0384992598226423
 10
-20.26605261232112
 20
-73.72856253660069
 42
-0.0411594748762689
 10
-20.3188002956593
 20
-73.79093935599883
 42
-0.001893314089897
 10
-20.37499999986427
 20
-73.84592921214242
 42
-0.0519000667287433
 10
-20.49149058209051
 20
-73.92953420750231
 42
-0.0561445152292936
 10
-20.55506680898655
 20
-73.96044381151302
 42
-0.0012419433461935
 10
-20.61976386661361
 20
-73.98252891375436
 42
-0.0651864887709306
 10
-20.74999999986395
 20
-73.99999999779031
 10
-20.8156786959645
 20
-73.99552656459949
  0
LWPOLYLINE
  5
3EB
330
1E
100
AcDbEntity
  8
1
 62
     7
100
AcDbPolyline
 90
       54
 70
     1
 43
0.0
 10
-20.8156786959645
 20
73.99552656901886
 42
0.0203576675818624
 10
-20.88023613311443
 20
73.9825289181737
 42
0.0433820001066484
 10
-20.94493319074151
 20
73.96044381593239
 42
0.0018760173070337
 10
-21.00850941763755
 20
73.92953421192169
 42
0.0536087993279583
 10
-21.12499999986368
 20
73.8459292165618
 42
0.049982884591111
 10
-21.18119970406822
 20
73.79093936041821
 42
0.0015837743011369
 10
-21.23394738740608
 20
73.72856254102005
 42
0.0399361159950054
 10
-21.3245333322031
 20
73.5892057533492
 42
0.037124806885089
 10
-21.36491385071289
 20
73.5084317939809
 42
0.0008361528321962
 10
-21.40034499819648
 20
73.42280643899771
 42
0.031771237200693
 10
-21.45476946545345
 20
73.24332316703423
 42
0.0303532482348298
 10
-21.47456173135489
 20
73.14701479709777
 42
0.0002512490076276
 10
-21.48870458419426
 20
73.04883648997483
 42
0.0286491564810519
 10
-21.49999999986357
 20
72.85000000220967
 42
0.0284012436330695
 10
-21.48870458419357
 20
72.65116351444452
 42
0.0285665426019922
 10
-21.47456173135446
 20
72.5529852073216
 42
0.0005238099744776
 10
-21.45476946545323
 20
72.45667683738512
 42
0.0309843850382164
 10
-21.4003449981958
 20
72.27719356542164
 42
0.0322104661010598
 10
-21.36491385071246
 20
72.19156821043845
 42
0.0011984908378693
 10
-21.324533332203
 20
72.11079425107017
 42
0.0384992598219184
 10
-21.2339473874062
 20
71.97143746339929
 42
0.041159474873807
 10
-21.18119970406869
 20
71.90906064400116
 42
0.0018933140900609
 10
-21.1249999998642
 20
71.85407078785758
 42
0.0519000667285889
 10
-21.00850941763681
 20
71.77046579249777
 42
0.0561445152307413
 10
-20.94493319074096
 20
71.73955618848703
 42
0.001241943346606
 10
-20.88023613311429
 20
71.71747108624566
 42
0.0651864887714823
 10
-20.74999999986395
 20
71.70000000220969
 42
0.0652082256124069
 10
-20.61976386661372
 20
71.71747108624566
 42
0.0650285838259952
 10
-20.55506680898699
 20
71.73955618848703
 42
0.001876017307167
 10
-20.49149058209106
 20
71.77046579249777
 42
0.05360879932699
 10
-20.37499999986355
 20
71.85407078785759
 42
0.0499828845887936
 10
-20.31880029565871
 20
71.90906064400116
 42
0.0015837743012427
 10
-20.26605261232096
 20
71.97143746339929
 42
0.0399361159956702
 10
-20.17546666752492
 20
72.11079425107016
 42
0.037124806887975
 10
-20.13508614901561
 20
72.19156821043845
 42
0.0008361528321578
 10
-20.09965500153226
 20
72.27719356542166
 42
0.0317712372005795
 10
-20.04523053427484
 20
72.45667683738512
 42
0.0303532482370565
 10
-20.02543826837361
 20
72.5529852073216
 42
0.0002512490075487
 10
-20.01129541553435
 20
72.65116351444452
 42
0.0286491564805074
 10
-19.99999999986361
 20
72.85000000220967
 42
0.0284012436350487
 10
-20.01129541553348
 20
73.04883648997485
 42
0.0285665426000124
 10
-20.02543826837305
 20
73.14701479709777
 42
0.0005238099744362
 10
-20.04523053427456
 20
73.24332316703423
 42
0.0309843850382767
 10
-20.0996550015314
 20
73.42280643899771
 42
0.0322104661013103
 10
-20.13508614901506
 20
73.5084317939809
 42
0.001198490837643
 10
-20.17546666752478
 20
73.5892057533492
 42
0.0384992598226815
 10
-20.26605261232112
 20
73.72856254102005
 42
0.0411594748733934
 10
-20.3188002956593
 20
73.79093936041821
 42
0.0018933140900262
 10
-20.37499999986427
 20
73.8459292165618
 42
0.0519000667288948
 10
-20.49149058209051
 20
73.92953421192169
 42
0.056144515234523
 10
-20.55506680898655
 20
73.96044381593239
 42
0.0012419433463902
 10
-20.61976386661361
 20
73.98252891817373
 42
0.0651864887711408
 10
-20.74999999986395
 20
74.00000000220967
 10
-20.8156786959645
 20
73.99552656901886
  0
ARC
  5
423
330
1E
100
AcDbEntity
  8
1
 62
     7
100
AcDbCircle
 10
11.03000000013605
 20
-45.18549999779031
 30
0.0
 40
0.4000000000000909
100
AcDbArc
 50
180.0
 51
270.0
  0
ARC
  5
424
330
1E
100
AcDbEntity
  8
1
 62
     7
100
AcDbCircle
 10
10.68211775468114
 20
-39.39549999779028
 30
0.0
 40
0.3999999999999915
100
AcDbArc
 50
90.0
 51
186.9999999999929
  0
ARC
  5
425
330
1E
100
AcDbEntity
  8
1
 62
     7
100
AcDbCircle
 10
10.68211775468114
 20
39.38450000220967
 30
0.0
 40
0.40000000000061
100
AcDbArc
 50
173.000000000007
 51
270.0
  0
ARC
  5
426
330
1E
100
AcDbEntity
  8
1
 62
     7
100
AcDbCircle
 10
11.03000000013605
 20
45.17450000220978
 30
0.0
 40
0.3999999999997996
100
AcDbArc
 50
90.0
 51
180.0
  0
ARC
  5
427
330
1E
100
AcDbEntity
  8
1
 62
     7
100
AcDbCircle
 10
-25.29999999986388
 20
-76.79999999779029
 30
0.0
 40
0.2000000000000419
100
AcDbArc
 50
180.0
 51
270.0
  0
ARC
  5
428
330
1E
100
AcDbEntity
  8
1
 62
     7
100
AcDbCircle
 10
-25.29999999986388
 20
-81.19999999779031
 30
0.0
 40
0.2000000000000028
100
AcDbArc
 50
90.0
 51
180.0
  0
ARC
  5
429
330
1E
100
AcDbEntity
  8
1
 62
     7
100
AcDbCircle
 10
19.80000000013603
 20
-63.6999999977903
 30
0.0
 40
0.200000000000049
100
AcDbArc
 50
0.0
 51
90.0
  0
ARC
  5
42A
330
1E
100
AcDbEntity
  8
1
 62
     7
100
AcDbCircle
 10
19.80000000013603
 20
-58.2999999977903
 30
0.0
 40
0.1999999999999957
100
AcDbArc
 50
270.0
 51
0.0
  0
ARC
  5
42B
330
1E
100
AcDbEntity
  8
1
 62
     7
100
AcDbCircle
 10
-22.55646643962597
 20
-69.39999999779042
 30
0.0
 40
0.5999999999998949
100
AcDbArc
 50
270.0
 51
0.0
  0
ARC
  5
42C
330
1E
100
AcDbEntity
  8
1
 62
     7
100
AcDbCircle
 10
25.30000000013603
 20
-49.71715728531563
 30
0.0
 40
0.1999999999998966
100
AcDbArc
 50
314.9999999999332
 51
0.0
  0
ARC
  5
42D
330
1E
100
AcDbEntity
  8
1
 62
     7
100
AcDbCircle
 10
25.30000000013603
 20
-49.33268224627283
 30
0.0
 40
0.200000000000049
100
AcDbArc
 50
0.0
 51
86.99999999986211
  0
ARC
  5
42E
330
1E
100
AcDbEntity
  8
1
 62
     7
100
AcDbCircle
 10
-22.55646643962597
 20
69.4000000022098
 30
0.0
 40
0.5999999999999091
100
AcDbArc
 50
0.0
 51
90.0
  0
ARC
  5
42F
330
1E
100
AcDbEntity
  8
1
 62
     7
100
AcDbCircle
 10
25.30000000013603
 20
49.71715728973507
 30
0.0
 40
0.200000000000049
100
AcDbArc
 50
0.0
 51
45.00000000006692
  0
ARC
  5
430
330
1E
100
AcDbEntity
  8
1
 62
     7
100
AcDbCircle
 10
25.30000000013603
 20
49.33268225069228
 30
0.0
 40
0.2000000000000132
100
AcDbArc
 50
273.0000000001378
 51
0.0
  0
ARC
  5
431
330
1E
100
AcDbEntity
  8
1
 62
     7
100
AcDbCircle
 10
-19.1
 20
52.28199999999988
 30
0.0
 40
2.402082429892868
100
AcDbArc
 50
182.3859441083608
 51
272.3859440303887
  0
ARC
  5
432
330
1E
100
AcDbEntity
  8
1
 62
     7
100
AcDbCircle
 10
-19.1
 20
-52.28199999999982
 30
0.0
 40
2.40208242989286
100
AcDbArc
 50
92.38594403044178
 51
182.3859441083567
  0
TEXT
  5
437
330
1E
100
AcDbEntity
  8
1
 62
     0
100
AcDbText
 10
106.0512667574991
 20
-140.3871727297963
 30
0.0
 40
6.0
  1
SHF-40-XXX-2SO.dxf
 41
0.9
100
AcDbText
  0
TEXT
  5
438
330
1E
100
AcDbEntity
  8
1
 62
     0
100
AcDbText
 10
-92.44597592186844
 20
-123.3529211750826
 30
0.0
 40
4.599999999999999
  1
REMARKS:  M.H.C = MINIMUM HOUSING CLEARANCE
 41
0.9
 72
     1
 11
-10.33597592186856
 21
-121.0529211750827
 31
0.0
100
AcDbText
 73
     2
  0
TEXT
  5
43C
330
1E
100
AcDbEntity
  8
1
 62
     3
100
AcDbText
 10
-234.0251050253098
 20
-186.2423762927107
 30
0.0
 40
3.799999999999998
  1
 
 41
0.9
100
AcDbText
  0
DIMENSION
  5
443
330
1E
100
AcDbEntity
  8
1
  6
Continuous
 62
     2
100
AcDbDimension
  2
*D0
 10
-55.5
 20
44.99999999999998
 30
0.0
 11
-59.31875000000001
 21
0.6872072227421312
 31
0.0
  1
M.H.C <>
 71
     5
 42
-1.0
  3
DMST_1
100
AcDbAlignedDimension
 13
-23.49999999986392
 23
-44.99999999779031
 33
0.0
 14
-23.5
 24
44.99999999999997
 34
0.0
 50
90.0
100
AcDbRotatedDimension
  0
DIMENSION
  5
444
330
1E
100
AcDbEntity
  8
1
  6
Continuous
 62
     2
100
AcDbDimension
  2
*D1
 10
-25.49999999986392
 20
23.2487180193644
 30
0.0
 11
-34.8139737385142
 21
26.9987180193644
 31
0.0
 71
     5
 42
-1.0
  3
DMST_1
100
AcDbAlignedDimension
 13
-23.5
 23
44.99999999999997
 33
0.0
 14
-25.49999999986392
 24
34.47810105666899
 34
0.0
100
AcDbRotatedDimension
  0
DIMENSION
  5
445
330
1E
100
AcDbEntity
  8
1
  6
Continuous
 62
     2
100
AcDbDimension
  2
*D2
 10
27.50000000013608
 20
-97.49999898648979
 30
0.0
 11
50.4428608559818
 21
-93.68124898648979
 31
0.0
  1
M.H.C <>
 71
     5
 42
-1.0
  3
DMST_1
100
AcDbAlignedDimension
 13
25.50000000013608
 23
-67.09999999779032
 33
0.0
 14
27.50000000013608
 24
-52.99999999779032
 34
0.0
100
AcDbRotatedDimension
  0
DIMENSION
  5
446
330
1E
100
AcDbEntity
  8
1
  6
Continuous
 62
     2
100
AcDbDimension
  2
*D3
 10
57.50000000000002
 20
-52.99999999779032
 30
0.0
 11
53.68125000000002
 21
-0.4830262183862291
 31
0.0
  1
M.H.C <>
 71
     5
 42
-1.0
  3
DMST_1
100
AcDbAlignedDimension
 13
27.50000000013608
 23
52.99999999779032
 33
0.0
 14
27.50000000013608
 24
-52.99999999779032
 34
0.0
 50
90.0
100
AcDbRotatedDimension
  0
INSERT
  5
453
330
1E
100
AcDbEntity
  8
0
100
AcDbBlockReference
  2
NTC
 10
-279.2782410213344
 20
-177.944101322313
 30
0.0
 41
0.85
 42
0.85
 43
0.85
  0
INSERT
  5
4C2
330
1E
100
AcDbEntity
  8
0
100
AcDbBlockReference
  2
HD logo-new
 10
45.72957313333921
 20
-225.9587073399389
 30
0.0
 41
1.199999999999999
 42
1.199999999999999
 43
1.199999999999999
  0
INSERT
  5
4CC
330
1E
100
AcDbEntity
  8
0
100
AcDbBlockReference
  2
HD LLC
 10
174.5067657890758
 20
-236.3229803072032
 30
0.0
 41
1.319979605266694
 42
1.319979605266694
 43
1.319979605266694
  0
ENDSEC
  0
SECTION
  2
OBJECTS
  0
DICTIONARY
  5
C
330
0
100
AcDbDictionary
281
     1
  3
ACAD_GROUP
350
D
  3
ACAD_LAYOUT
350
19
  3
ACAD_MLINESTYLE
350
16
  3
ACAD_PLOTSETTINGS
350
18
  3
ACAD_PLOTSTYLENAME
350
E
  3
AcDbVariableDictionary
350
4CD
  0
DICTIONARY
  5
D
102
{ACAD_REACTORS
330
C
102
}
330
C
100
AcDbDictionary
281
     1
  0
DICTIONARY
  5
19
102
{ACAD_REACTORS
330
C
102
}
330
C
100
AcDbDictionary
281
     1
  3
Layout1
350
1D
  3
Model
350
21
  0
DICTIONARY
  5
16
102
{ACAD_REACTORS
330
C
102
}
330
C
100
AcDbDictionary
281
     1
  3
Standard
350
17
  0
DICTIONARY
  5
18
102
{ACAD_REACTORS
330
C
102
}
330
C
100
AcDbDictionary
281
     1
  0
ACDBDICTIONARYWDFLT
  5
E
102
{ACAD_REACTORS
330
C
102
}
330
C
100
AcDbDictionary
281
     1
  3
Normal
350
F
100
AcDbDictionaryWithDefault
340
F
  0
DICTIONARY
  5
4CD
102
{ACAD_REACTORS
330
C
102
}
330
C
100
AcDbDictionary
281
     1
  3
DIMASSOC
350
4CE
  0
LAYOUT
  5
1D
102
{ACAD_REACTORS
330
19
102
}
330
19
100
AcDbPlotSettings
  1

  2
\\SERVER9\HP LaserJet 5100 PCL 5e
  4

  6

 40
0.0
 41
0.0
 42
0.0
 43
0.0
 44
0.0
 45
0.0
 46
0.0
 47
0.0
 48
0.0
 49
0.0
140
0.0
141
0.0
142
1.0
143
1.0
 70
   688
 72
     0
 73
     0
 74
     5
  7

 75
    16
147
1.0
148
0.0
149
0.0
100
AcDbLayout
  1
Layout1
 70
     1
 71
     1
 10
0.0
 20
0.0
 11
12.0
 21
9.0
 12
0.0
 22
0.0
 32
0.0
 14
1.000000000000000E+20
 24
1.000000000000000E+20
 34
1.000000000000000E+20
 15
-1.000000000000000E+20
 25
-1.000000000000000E+20
 35
-1.000000000000000E+20
146
0.0
 13
0.0
 23
0.0
 33
0.0
 16
1.0
 26
0.0
 36
0.0
 17
0.0
 27
1.0
 37
0.0
 76
     0
330
1A
  0
LAYOUT
  5
21
102
{ACAD_REACTORS
330
19
102
}
330
19
100
AcDbPlotSettings
  1

  2
\\SERVER9\HP LaserJet 5100 PCL 5e
  4

  6

 40
0.0
 41
0.0
 42
0.0
 43
0.0
 44
0.0
 45
0.0
 46
0.0
 47
0.0
 48
0.0
 49
0.0
140
0.0
141
0.0
142
1.0
143
1.0
 70
  1712
 72
     0
 73
     0
 74
     0
  7

 75
     0
147
1.0
148
0.0
149
0.0
100
AcDbLayout
  1
Model
 70
     1
 71
     0
 10
0.0
 20
0.0
 11
12.0
 21
9.0
 12
0.0
 22
0.0
 32
0.0
 14
0.0
 24
0.0
 34
0.0
 15
0.0
 25
0.0
 35
0.0
146
0.0
 13
0.0
 23
0.0
 33
0.0
 16
1.0
 26
0.0
 36
0.0
 17
0.0
 27
1.0
 37
0.0
 76
     0
330
1E
  0
MLINESTYLE
  5
17
102
{ACAD_REACTORS
330
16
102
}
330
16
100
AcDbMlineStyle
  2
STANDARD
 70
     0
  3

 62
   256
 51
90.0
 52
90.0
 71
     2
 49
0.5
 62
   256
  6
BYLAYER
 49
-0.5
 62
   256
  6
BYLAYER
  0
ACDBPLACEHOLDER
  5
F
102
{ACAD_REACTORS
330
E
102
}
330
E
  0
DICTIONARYVAR
  5
4CE
102
{ACAD_REACTORS
330
4CD
102
}
330
4CD
100
DictionaryVariables
280
     0
  1
1
  0
ENDSEC
  0
EOF
