  0
SECTION
  2
HEADER
  9
$ACADVER
  1
AC1015
  9
$ACADMAINTVER
 70
    13
  9
$DWGCODEPAGE
  3
ANSI_1252
  9
$INSBASE
 10
0.0
 20
0.0
 30
0.0
  9
$EXTMIN
 10
-185.3181170987673
 20
-194.524591435529
 30
0.0
  9
$EXTMAX
 10
161.6960087422643
 20
52.12067633855491
 30
0.0
  9
$LIMMIN
 10
-132.3565232895014
 20
-129.4807136525425
  9
$LIMMAX
 10
132.3430776959755
 20
52.1206763385549
  9
$ORTHOMODE
 70
     0
  9
$REGENMODE
 70
     1
  9
$FILLMODE
 70
     1
  9
$QTEXTMODE
 70
     0
  9
$MIRRTEXT
 70
     1
  9
$LTSCALE
 40
1.0
  9
$ATTMODE
 70
     1
  9
$TEXTSIZE
 40
3.5
  9
$TRACEWID
 40
0.5
  9
$TEXTSTYLE
  7
STANDARD
  9
$CLAYER
  8
0
  9
$CELTYPE
  6
ByLayer
  9
$CECOLOR
 62
   256
  9
$CELTSCALE
 40
1.0
  9
$DISPSILH
 70
     0
  9
$DIMSCALE
 40
1.0
  9
$DIMASZ
 40
0.18
  9
$DIMEXO
 40
0.0625
  9
$DIMDLI
 40
0.38
  9
$DIMRND
 40
0.0
  9
$DIMDLE
 40
0.0
  9
$DIMEXE
 40
0.18
  9
$DIMTP
 40
0.0
  9
$DIMTM
 40
0.0
  9
$DIMTXT
 40
0.18
  9
$DIMCEN
 40
0.09
  9
$DIMTSZ
 40
0.0
  9
$DIMTOL
 70
     0
  9
$DIMLIM
 70
     0
  9
$DIMTIH
 70
     1
  9
$DIMTOH
 70
     1
  9
$DIMSE1
 70
     0
  9
$DIMSE2
 70
     0
  9
$DIMTAD
 70
     0
  9
$DIMZIN
 70
     0
  9
$DIMBLK
  1

  9
$DIMASO
 70
     1
  9
$DIMSHO
 70
     1
  9
$DIMPOST
  1

  9
$DIMAPOST
  1

  9
$DIMALT
 70
     0
  9
$DIMALTD
 70
     2
  9
$DIMALTF
 40
25.4
  9
$DIMLFAC
 40
1.0
  9
$DIMTOFL
 70
     0
  9
$DIMTVP
 40
0.0
  9
$DIMTIX
 70
     0
  9
$DIMSOXD
 70
     0
  9
$DIMSAH
 70
     0
  9
$DIMBLK1
  1

  9
$DIMBLK2
  1

  9
$DIMSTYLE
  2
DMST_1
  9
$DIMCLRD
 70
     0
  9
$DIMCLRE
 70
     0
  9
$DIMCLRT
 70
     0
  9
$DIMTFAC
 40
1.0
  9
$DIMGAP
 40
0.09
  9
$DIMJUST
 70
     0
  9
$DIMSD1
 70
     0
  9
$DIMSD2
 70
     0
  9
$DIMTOLJ
 70
     1
  9
$DIMTZIN
 70
     0
  9
$DIMALTZ
 70
     0
  9
$DIMALTTZ
 70
     0
  9
$DIMUPT
 70
     0
  9
$DIMDEC
 70
     4
  9
$DIMTDEC
 70
     4
  9
$DIMALTU
 70
     2
  9
$DIMALTTD
 70
     2
  9
$DIMTXSTY
  7
STANDARD
  9
$DIMAUNIT
 70
     0
  9
$DIMADEC
 70
     0
  9
$DIMALTRND
 40
0.0
  9
$DIMAZIN
 70
     0
  9
$DIMDSEP
 70
    46
  9
$DIMATFIT
 70
     3
  9
$DIMFRAC
 70
     0
  9
$DIMLDRBLK
  1

  9
$DIMLUNIT
 70
     2
  9
$DIMLWD
 70
    -2
  9
$DIMLWE
 70
    -2
  9
$DIMTMOVE
 70
     0
  9
$LUNITS
 70
     2
  9
$LUPREC
 70
     4
  9
$SKETCHINC
 40
0.1
  9
$FILLETRAD
 40
2.0
  9
$AUNITS
 70
     0
  9
$AUPREC
 70
     0
  9
$MENU
  1
ACAD
  9
$ELEVATION
 40
0.0
  9
$PELEVATION
 40
0.0
  9
$THICKNESS
 40
0.0
  9
$LIMCHECK
 70
     0
  9
$CHAMFERA
 40
0.0
  9
$CHAMFERB
 40
0.0
  9
$CHAMFERC
 40
0.0
  9
$CHAMFERD
 40
0.0
  9
$SKPOLY
 70
     0
  9
$TDCREATE
 40
2453854.480805474
  9
$TDUCREATE
 40
2453854.647472141
  9
$TDUPDATE
 40
2453865.596614942
  9
$TDUUPDATE
 40
2453865.763281608
  9
$TDINDWG
 40
0.0039628588
  9
$TDUSRTIMER
 40
0.0039628588
  9
$USRTIMER
 70
     1
  9
$ANGBASE
 50
0.0
  9
$ANGDIR
 70
     0
  9
$PDMODE
 70
     0
  9
$PDSIZE
 40
0.0
  9
$PLINEWID
 40
0.0
  9
$SPLFRAME
 70
     0
  9
$SPLINETYPE
 70
     6
  9
$SPLINESEGS
 70
     8
  9
$HANDSEED
  5
3A0
  9
$SURFTAB1
 70
     6
  9
$SURFTAB2
 70
     6
  9
$SURFTYPE
 70
     6
  9
$SURFU
 70
     6
  9
$SURFV
 70
     6
  9
$UCSBASE
  2

  9
$UCSNAME
  2

  9
$UCSORG
 10
0.0
 20
0.0
 30
0.0
  9
$UCSXDIR
 10
1.0
 20
0.0
 30
0.0
  9
$UCSYDIR
 10
0.0
 20
1.0
 30
0.0
  9
$UCSORTHOREF
  2

  9
$UCSORTHOVIEW
 70
     0
  9
$UCSORGTOP
 10
0.0
 20
0.0
 30
0.0
  9
$UCSORGBOTTOM
 10
0.0
 20
0.0
 30
0.0
  9
$UCSORGLEFT
 10
0.0
 20
0.0
 30
0.0
  9
$UCSORGRIGHT
 10
0.0
 20
0.0
 30
0.0
  9
$UCSORGFRONT
 10
0.0
 20
0.0
 30
0.0
  9
$UCSORGBACK
 10
0.0
 20
0.0
 30
0.0
  9
$PUCSBASE
  2

  9
$PUCSNAME
  2

  9
$PUCSORG
 10
0.0
 20
0.0
 30
0.0
  9
$PUCSXDIR
 10
1.0
 20
0.0
 30
0.0
  9
$PUCSYDIR
 10
0.0
 20
1.0
 30
0.0
  9
$PUCSORTHOREF
  2

  9
$PUCSORTHOVIEW
 70
     0
  9
$PUCSORGTOP
 10
0.0
 20
0.0
 30
0.0
  9
$PUCSORGBOTTOM
 10
0.0
 20
0.0
 30
0.0
  9
$PUCSORGLEFT
 10
0.0
 20
0.0
 30
0.0
  9
$PUCSORGRIGHT
 10
0.0
 20
0.0
 30
0.0
  9
$PUCSORGFRONT
 10
0.0
 20
0.0
 30
0.0
  9
$PUCSORGBACK
 10
0.0
 20
0.0
 30
0.0
  9
$USERI1
 70
     0
  9
$USERI2
 70
     0
  9
$USERI3
 70
     0
  9
$USERI4
 70
     0
  9
$USERI5
 70
     0
  9
$USERR1
 40
0.0
  9
$USERR2
 40
0.0
  9
$USERR3
 40
0.0
  9
$USERR4
 40
0.0
  9
$USERR5
 40
0.0
  9
$WORLDVIEW
 70
     1
  9
$SHADEDGE
 70
     3
  9
$SHADEDIF
 70
    70
  9
$TILEMODE
 70
     1
  9
$MAXACTVP
 70
    64
  9
$PINSBASE
 10
0.0
 20
0.0
 30
0.0
  9
$PLIMCHECK
 70
     0
  9
$PEXTMIN
 10
1.000000000000000E+20
 20
1.000000000000000E+20
 30
1.000000000000000E+20
  9
$PEXTMAX
 10
-1.000000000000000E+20
 20
-1.000000000000000E+20
 30
-1.000000000000000E+20
  9
$PLIMMIN
 10
0.0
 20
0.0
  9
$PLIMMAX
 10
12.0
 20
9.0
  9
$UNITMODE
 70
     0
  9
$VISRETAIN
 70
     1
  9
$PLINEGEN
 70
     0
  9
$PSLTSCALE
 70
     1
  9
$TREEDEPTH
 70
  3020
  9
$CMLSTYLE
  2
Standard
  9
$CMLJUST
 70
     0
  9
$CMLSCALE
 40
1.0
  9
$PROXYGRAPHICS
 70
     1
  9
$MEASUREMENT
 70
     0
  9
$CELWEIGHT
370
    -1
  9
$ENDCAPS
280
     0
  9
$JOINSTYLE
280
     0
  9
$LWDISPLAY
290
     0
  9
$INSUNITS
 70
     0
  9
$HYPERLINKBASE
  1

  9
$STYLESHEET
  1

  9
$XEDIT
290
     1
  9
$CEPSNTYPE
380
     0
  9
$PSTYLEMODE
290
     1
  9
$FINGERPRINTGUID
  2
{22BB7E98-CE5C-4AEB-A727-B75A702987A9}
  9
$VERSIONGUID
  2
{1F5D524B-3F44-4EC0-95D1-A1F69EF0F886}
  9
$EXTNAMES
290
     1
  9
$PSVPSCALE
 40
0.0
  9
$OLESTARTUP
290
     0
  0
ENDSEC
  0
SECTION
  2
CLASSES
  0
CLASS
  1
ACDBDICTIONARYWDFLT
  2
AcDbDictionaryWithDefault
  3
AutoCAD 2000
 90
        0
280
     0
281
     0
  0
CLASS
  1
ACDBPLACEHOLDER
  2
AcDbPlaceHolder
  3
AutoCAD 2000
 90
        0
280
     0
281
     0
  0
CLASS
  1
LAYOUT
  2
AcDbLayout
  3
AutoCAD 2000
 90
        0
280
     0
281
     0
  0
CLASS
  1
DICTIONARYVAR
  2
AcDbDictionaryVar
  3
AutoCAD 2000
 90
        0
280
     0
281
     0
  0
ENDSEC
  0
SECTION
  2
TABLES
  0
TABLE
  2
VPORT
  5
8
330
0
100
AcDbSymbolTable
 70
     2
  0
VPORT
  5
39F
330
8
100
AcDbSymbolTableRecord
100
AcDbViewportTableRecord
  2
*Active
 70
     0
 10
0.0
 20
0.0
 11
1.0
 21
1.0
 12
-0.0067693896781122
 22
-39.19961184553887
 13
0.0
 23
0.0
 14
1.0
 24
1.0
 15
0.0
 25
0.0
 16
0.0
 26
0.0
 36
1.0
 17
0.0
 27
0.0
 37
0.0
 40
302.9788072021696
 41
1.182835820895522
 42
50.0
 43
0.0
 44
0.0
 50
0.0
 51
0.0
 71
     0
 72
   100
 73
     1
 74
     1
 75
     0
 76
     0
 77
     0
 78
     0
281
     0
 65
     1
110
0.0
120
0.0
130
0.0
111
1.0
121
0.0
131
0.0
112
0.0
122
1.0
132
0.0
 79
     0
146
0.0
  0
ENDTAB
  0
TABLE
  2
LTYPE
  5
5
330
0
100
AcDbSymbolTable
 70
     9
  0
LTYPE
  5
13
330
5
100
AcDbSymbolTableRecord
100
AcDbLinetypeTableRecord
  2
ByBlock
 70
     0
  3

 72
    65
 73
     0
 40
0.0
  0
LTYPE
  5
14
330
5
100
AcDbSymbolTableRecord
100
AcDbLinetypeTableRecord
  2
ByLayer
 70
     0
  3

 72
    65
 73
     0
 40
0.0
  0
LTYPE
  5
15
330
5
100
AcDbSymbolTableRecord
100
AcDbLinetypeTableRecord
  2
CONTINUOUS
 70
     0
  3
Solid line
 72
    65
 73
     0
 40
0.0
  0
LTYPE
  5
24
330
5
100
AcDbSymbolTableRecord
100
AcDbLinetypeTableRecord
  2
BORDER
 70
     0
  3
__ __ . __ __ .
 72
    65
 73
     6
 40
12.19011320327855
 49
3.482889486651015
 74
     0
 49
-1.741444743325505
 74
     0
 49
3.482889486651015
 74
     0
 49
-1.741444743325505
 74
     0
 49
0.0
 74
     0
 49
-1.741444743325505
 74
     0
  0
LTYPE
  5
25
330
5
100
AcDbSymbolTableRecord
100
AcDbLinetypeTableRecord
  2
CENTER
 70
     0
  3
____ _ ____ _
 72
    65
 73
     4
 40
13.93155794660406
 49
8.707223716627535
 74
     0
 49
-1.741444743325505
 74
     0
 49
1.741444743325505
 74
     0
 49
-1.741444743325505
 74
     0
  0
LTYPE
  5
26
330
5
100
AcDbSymbolTableRecord
100
AcDbLinetypeTableRecord
  2
DASHDOT
 70
     0
  3
__ . __ . __ .
 72
    65
 73
     4
 40
6.965778973302026
 49
3.482889486651015
 74
     0
 49
-1.741444743325505
 74
     0
 49
0.0
 74
     0
 49
-1.741444743325505
 74
     0
  0
LTYPE
  5
27
330
5
100
AcDbSymbolTableRecord
100
AcDbLinetypeTableRecord
  2
DASHED
 70
     0
  3
__ __ __ __ __
 72
    65
 73
     2
 40
5.224334229976522
 49
3.482889486651015
 74
     0
 49
-1.741444743325505
 74
     0
  0
LTYPE
  5
28
330
5
100
AcDbSymbolTableRecord
100
AcDbLinetypeTableRecord
  2
DIVIDE
 70
     0
  3
__ . . __ . . 
 72
    65
 73
     6
 40
8.707223716627535
 49
3.482889486651015
 74
     0
 49
-1.741444743325505
 74
     0
 49
0.0
 74
     0
 49
-1.741444743325505
 74
     0
 49
0.0
 74
     0
 49
-1.741444743325505
 74
     0
  0
LTYPE
  5
29
330
5
100
AcDbSymbolTableRecord
100
AcDbLinetypeTableRecord
  2
DOT
 70
     0
  3
..............
 72
    65
 73
     4
 40
3.482889486651015
 49
0.0
 74
     0
 49
-1.741444743325505
 74
     0
 49
0.0
 74
     0
 49
-1.741444743325505
 74
     0
  0
LTYPE
  5
2A
330
5
100
AcDbSymbolTableRecord
100
AcDbLinetypeTableRecord
  2
HIDDEN
 70
     0
  3
_ _ _ _ _ _ _
 72
    65
 73
     2
 40
2.612167114988261
 49
1.741444743325505
 74
     0
 49
-0.8707223716627535
 74
     0
  0
LTYPE
  5
2B
330
5
100
AcDbSymbolTableRecord
100
AcDbLinetypeTableRecord
  2
PHANTOM
 70
     0
  3
_____ _ _ _____ _ _ 
 72
    65
 73
     6
 40
17.41444743325507
 49
8.707223716627535
 74
     0
 49
-1.741444743325505
 74
     0
 49
1.741444743325505
 74
     0
 49
-1.741444743325505
 74
     0
 49
1.741444743325505
 74
     0
 49
-1.741444743325505
 74
     0
  0
ENDTAB
  0
TABLE
  2
LAYER
  5
2
330
0
100
AcDbSymbolTable
 70
     3
  0
LAYER
  5
10
330
2
100
AcDbSymbolTableRecord
100
AcDbLayerTableRecord
  2
0
 70
     0
 62
     7
  6
CONTINUOUS
370
    -3
390
F
  0
LAYER
  5
2C
330
2
100
AcDbSymbolTableRecord
100
AcDbLayerTableRecord
  2
1
 70
     0
 62
     7
  6
CONTINUOUS
370
    -3
390
F
  0
LAYER
  5
378
330
2
100
AcDbSymbolTableRecord
100
AcDbLayerTableRecord
  2
LAYER_1
 70
     0
 62
     5
  6
CONTINUOUS
370
    -3
390
F
  0
ENDTAB
  0
TABLE
  2
STYLE
  5
3
330
0
100
AcDbSymbolTable
 70
     4
  0
STYLE
  5
11
330
3
100
AcDbSymbolTableRecord
100
AcDbTextStyleTableRecord
  2
STANDARD
 70
     0
 40
0.0
 41
1.0
 50
0.0
 71
     0
 42
3.5
  3
txt
  4

  0
STYLE
  5
2D
330
3
100
AcDbSymbolTableRecord
100
AcDbTextStyleTableRecord
  2
SIMPLEX
 70
     0
 40
0.0
 41
1.0
 50
0.0
 71
     0
 42
3.5
  3
simplex
  4

  0
STYLE
  5
2E
330
3
100
AcDbSymbolTableRecord
100
AcDbTextStyleTableRecord
  2
COMPLEX
 70
     0
 40
0.0
 41
1.0
 50
0.0
 71
     0
 42
3.5
  3
complex
  4

  0
STYLE
  5
2F
330
3
100
AcDbSymbolTableRecord
100
AcDbTextStyleTableRecord
  2
ITALIC
 70
     0
 40
0.0
 41
1.0
 50
0.0
 71
     0
 42
3.5
  3
italic
  4

  0
ENDTAB
  0
TABLE
  2
VIEW
  5
6
330
0
100
AcDbSymbolTable
 70
     0
  0
ENDTAB
  0
TABLE
  2
UCS
  5
7
330
0
100
AcDbSymbolTable
 70
     0
  0
ENDTAB
  0
TABLE
  2
APPID
  5
9
330
0
100
AcDbSymbolTable
 70
     1
  0
APPID
  5
12
330
9
100
AcDbSymbolTableRecord
100
AcDbRegAppTableRecord
  2
ACAD
 70
     0
  0
ENDTAB
  0
TABLE
  2
DIMSTYLE
  5
A
330
0
100
AcDbSymbolTable
 70
     3
100
AcDbDimStyleTable
 71
     0
  0
DIMSTYLE
105
22
102
{ACAD_REACTORS
330
306
330
308
330
309
330
30A
330
30B
102
}
330
A
100
AcDbSymbolTableRecord
100
AcDbDimStyleTableRecord
  2
DMST_1
 70
     0
 41
2.7
 42
1.0
 43
7.0
 44
1.0
 73
     0
 74
     0
 77
     1
 78
     9
140
2.7
141
0.0
176
     2
177
     2
178
     2
279
     2
340
11
  0
DIMSTYLE
105
23
102
{ACAD_REACTORS
330
307
102
}
330
A
100
AcDbSymbolTableRecord
100
AcDbDimStyleTableRecord
  2
DMST_2
 70
     0
 41
3.0
 42
1.0
 43
7.0
 44
1.0
 73
     0
 74
     0
 77
     1
 78
     9
140
3.0
141
0.0
176
     2
177
     2
178
     2
279
     2
340
11
  0
DIMSTYLE
105
379
330
A
100
AcDbSymbolTableRecord
100
AcDbDimStyleTableRecord
  2
Standard
 70
     0
340
11
  0
ENDTAB
  0
TABLE
  2
BLOCK_RECORD
  5
1
330
0
100
AcDbSymbolTable
 70
    25
  0
BLOCK_RECORD
  5
1E
330
1
100
AcDbSymbolTableRecord
100
AcDbBlockTableRecord
  2
*Model_Space
340
21
  0
BLOCK_RECORD
  5
1A
330
1
100
AcDbSymbolTableRecord
100
AcDbBlockTableRecord
  2
*Paper_Space
340
1D
  0
BLOCK_RECORD
  5
35
330
1
100
AcDbSymbolTableRecord
100
AcDbBlockTableRecord
  2
*D0
340
0
  0
BLOCK_RECORD
  5
3F
330
1
100
AcDbSymbolTableRecord
100
AcDbBlockTableRecord
  2
*D1
340
0
  0
BLOCK_RECORD
  5
4A
330
1
100
AcDbSymbolTableRecord
100
AcDbBlockTableRecord
  2
*D2
340
0
  0
BLOCK_RECORD
  5
53
330
1
100
AcDbSymbolTableRecord
100
AcDbBlockTableRecord
  2
*D3
340
0
  0
BLOCK_RECORD
  5
5C
330
1
100
AcDbSymbolTableRecord
100
AcDbBlockTableRecord
  2
*D4
340
0
  0
BLOCK_RECORD
  5
65
330
1
100
AcDbSymbolTableRecord
100
AcDbBlockTableRecord
  2
*D5
340
0
  0
BLOCK_RECORD
  5
30C
330
1
100
AcDbSymbolTableRecord
100
AcDbBlockTableRecord
  2
AI9-BLK14
340
0
310
2800000020000000200000000100080000000000000400000000000000000000000000000000000000000000000080000080000000808000800000008000800080800000C0C0C000C0DCC000F0CAA6000020400000206000002080000020A0000020C0000020E00000400000004020000040400000406000004080000040A0
310
000040C0000040E00000600000006020000060400000606000006080000060A0000060C0000060E00000800000008020000080400000806000008080000080A0000080C0000080E00000A0000000A0200000A0400000A0600000A0800000A0A00000A0C00000A0E00000C0000000C0200000C0400000C0600000C0800000C0
310
A00000C0C00000C0E00000E0000000E0200000E0400000E0600000E0800000E0A00000E0C00000E0E00040000000400020004000400040006000400080004000A0004000C0004000E00040200000402020004020400040206000402080004020A0004020C0004020E000404000004040200040404000404060004040800040
310
40A0004040C0004040E00040600000406020004060400040606000406080004060A0004060C0004060E00040800000408020004080400040806000408080004080A0004080C0004080E00040A0000040A0200040A0400040A0600040A0800040A0A00040A0C00040A0E00040C0000040C0200040C0400040C0600040C08000
310
40C0A00040C0C00040C0E00040E0000040E0200040E0400040E0600040E0800040E0A00040E0C00040E0E00080000000800020008000400080006000800080008000A0008000C0008000E00080200000802020008020400080206000802080008020A0008020C0008020E00080400000804020008040400080406000804080
310
008040A0008040C0008040E00080600000806020008060400080606000806080008060A0008060C0008060E00080800000808020008080400080806000808080008080A0008080C0008080E00080A0000080A0200080A0400080A0600080A0800080A0A00080A0C00080A0E00080C0000080C0200080C0400080C0600080C0
310
800080C0A00080C0C00080C0E00080E0000080E0200080E0400080E0600080E0800080E0A00080E0C00080E0E000C0000000C0002000C0004000C0006000C0008000C000A000C000C000C000E000C0200000C0202000C0204000C0206000C0208000C020A000C020C000C020E000C0400000C0402000C0404000C0406000C0
310
408000C040A000C040C000C040E000C0600000C0602000C0604000C0606000C0608000C060A000C060C000C060E000C0800000C0802000C0804000C0806000C0808000C080A000C080C000C080E000C0A00000C0A02000C0A04000C0A06000C0A08000C0A0A000C0A0C000C0A0E000C0C00000C0C02000C0C04000C0C06000
310
C0C08000C0C0A000F0FBFF00A4A0A000808080000000FF0000FF000000FFFF00FF000000FF00FF00FFFF0000FFFFFF00FF00FFFFFFFF00FFFFFFFFFFFFFFFFFFFFFFFFFFFFFFFFFFFFFFFFFFFFFFFFFFFF00FFFFFFFF00FFFFFFFFFFFFFFFFFFFFFFFFFFFFFFFFFFFFFFFFFFFFFFFFFFFF00FFFFFFFF00FFFFFFFFFFFFFFFF
310
FFFFFFFFFFFFFFFFFFFFFFFFFFFFFFFFFFFF00FFFFFFFF00FFFFFFFFFFFFFFFFFFFFFFFFFFFFFFFFFFFFFFFFFFFFFFFFFFFF00FFFFFFFF00FFFFFFFFFFFFFFFFFFFFFFFFFFFFFFFFFFFFFFFFFFFFFFFFFFFF00FFFFFFFF00FFFFFFFFFFFFFFFFFFFFFFFFFFFFFFFFFFFFFFFFFFFFFFFFFFFF00FFFFFFFF00FFFFFFFFFFFFFF
310
FFFFFFFFFFFFFFFFFFFFFFFFFFFFFFFFFFFFFF00FFFFFFFF00FFFFFFFFFFFFFFFFFFFFFFFFFFFFFFFFFFFFFFFFFFFFFFFFFFFF00FFFFFFFF00FFFFFFFFFFFFFFFFFFFFFFFFFFFFFFFFFFFFFFFFFFFFFFFFFFFF00FFFFFFFF00FFFFFFFFFFFFFFFFFFFFFFFFFFFFFFFFFFFFFFFFFFFFFFFFFFFF00FFFFFFFF00FFFFFFFFFFFF
310
FFFFFFFFFFFFFFFFFFFFFFFFFFFFFFFFFFFFFFFF00FFFFFFFF00FFFFFFFFFFFFFFFFFFFFFFFFFFFFFFFFFFFFFFFFFFFFFFFFFFFF00FFFFFFFF00FFFFFFFFFFFFFFFFFFFFFFFFFFFFFFFFFFFFFFFFFFFFFFFFFFFF00FFFFFFFF0000000000000000000000000000000000000000000000000000FF00FFFFFFFFFFFFFFFFFFFF
310
FFFFFFFFFFFFFFFFFFFFFFFFFFFFFFFFFFFFFFFFFF00FFFFFFFFFFFFFFFFFFFFFFFFFFFFFFFFFFFFFFFFFFFFFFFFFFFFFFFFFFFFFF00FFFFFFFFFFFFFFFFFFFFFFFFFFFFFFFFFFFFFFFFFFFFFFFFFFFFFFFFFFFFFF00FFFFFFFFFFFFFFFFFFFFFFFFFFFFFFFFFFFFFFFFFFFFFFFFFFFFFFFFFF00FF00000000000000000000
310
0000000000000000000000000000000000000000FFFFFFFFFFFFFFFFFFFFFFFFFFFFFFFFFFFFFFFFFFFFFFFFFFFFFFFFFFFFFFFFFFFFFFFFFFFFFFFFFFFFFFFFFFFFFFFFFFFFFFFFFFFFFFFFFFFFFFFFFFFFFFFFFFFFFFFFFFFFFFFFFFFFFFFFFFFFFFFFFFFFFFFFFFFFFFFFFFFFFFFFFFFFFFFFFFFFFFFFFFFFFFFFFFFFFF
310
FFFFFFFFFFFFFFFFFFFFFFFFFFFFFFFFFFFFFFFFFFFFFFFFFFFFFFFFFFFFFFFFFFFFFFFFFFFFFFFFFFFFFFFFFFFFFFFFFFFFFFFFFFFFFFFFFFFFFFFFFFFFFFFFFFFFFFFFFFFFFFFFFFFFFFFFFFFFFFFFFFFFFFFFFFFFFFFFFFFFFFFFFFFFFFFFFFFFFFFFFFFFFFFFFFFFFFFFFFFFFFFFFFFFFFFFFFFFFFFFFFFFFFFFFFFFFF
310
FFFFFFFFFFFFFFFFFFFFFFFFFFFFFFFFFFFFFFFFFFFFFFFFFFFFFFFFFFFFFFFFFFFFFFFFFFFFFFFFFFFFFFFFFFFFFFFFFFFFFFFFFFFFFFFFFFFFFFFFFFFFFFFFFFFFFFFFFFFFFFFFFFFFFFFFFFFFFFFFFFFFFFFFFFFFFFFFFFFFFFFFFFFFFFFFFFFFFFFFFFFFFFFFFFFFFFFFFFFFFFFFFFFFFFFFFFFFFFFFFFFFFFFFFFFFFF
310
FFFFFFFFFFFFFFFFFFFFFFFFFFFFFFFFFFFFFFFFFFFFFFFFFFFFFFFFFFFFFFFFFFFFFFFFFFFFFFFFFFFFFFFFFFFFFFFFFFFFFFFFFFFFFFFF
102
{BLKREFS
331
34D
102
}
  0
BLOCK_RECORD
  5
311
330
1
100
AcDbSymbolTableRecord
100
AcDbBlockTableRecord
  2
AI9-BLK13
340
0
310
2800000020000000200000000100080000000000000400000000000000000000000000000000000000000000000080000080000000808000800000008000800080800000C0C0C000C0DCC000F0CAA6000020400000206000002080000020A0000020C0000020E00000400000004020000040400000406000004080000040A0
310
000040C0000040E00000600000006020000060400000606000006080000060A0000060C0000060E00000800000008020000080400000806000008080000080A0000080C0000080E00000A0000000A0200000A0400000A0600000A0800000A0A00000A0C00000A0E00000C0000000C0200000C0400000C0600000C0800000C0
310
A00000C0C00000C0E00000E0000000E0200000E0400000E0600000E0800000E0A00000E0C00000E0E00040000000400020004000400040006000400080004000A0004000C0004000E00040200000402020004020400040206000402080004020A0004020C0004020E000404000004040200040404000404060004040800040
310
40A0004040C0004040E00040600000406020004060400040606000406080004060A0004060C0004060E00040800000408020004080400040806000408080004080A0004080C0004080E00040A0000040A0200040A0400040A0600040A0800040A0A00040A0C00040A0E00040C0000040C0200040C0400040C0600040C08000
310
40C0A00040C0C00040C0E00040E0000040E0200040E0400040E0600040E0800040E0A00040E0C00040E0E00080000000800020008000400080006000800080008000A0008000C0008000E00080200000802020008020400080206000802080008020A0008020C0008020E00080400000804020008040400080406000804080
310
008040A0008040C0008040E00080600000806020008060400080606000806080008060A0008060C0008060E00080800000808020008080400080806000808080008080A0008080C0008080E00080A0000080A0200080A0400080A0600080A0800080A0A00080A0C00080A0E00080C0000080C0200080C0400080C0600080C0
310
800080C0A00080C0C00080C0E00080E0000080E0200080E0400080E0600080E0800080E0A00080E0C00080E0E000C0000000C0002000C0004000C0006000C0008000C000A000C000C000C000E000C0200000C0202000C0204000C0206000C0208000C020A000C020C000C020E000C0400000C0402000C0404000C0406000C0
310
408000C040A000C040C000C040E000C0600000C0602000C0604000C0606000C0608000C060A000C060C000C060E000C0800000C0802000C0804000C0806000C0808000C080A000C080C000C080E000C0A00000C0A02000C0A04000C0A06000C0A08000C0A0A000C0A0C000C0A0E000C0C00000C0C02000C0C04000C0C06000
310
C0C08000C0C0A000F0FBFF00A4A0A000808080000000FF0000FF000000FFFF00FF000000FF00FF00FFFF0000FFFFFF00FFFFFFFFFFFFFFFFFFFFFFFFFFFFFFFFFFFFFFFFFFFFFFFFFFFFFFFFFFFFFFFFFFFFFFFFFFFFFFFFFFFFFF0000FFFFFFFFFFFF0000FFFFFFFFFFFFFFFFFFFFFFFFFFFFFFFFFFFFFFFFFFFF0000FFFF
310
FFFFFFFF0000FFFFFFFFFFFFFFFFFFFFFFFFFFFFFFFFFFFFFFFFFFFF0000FFFFFFFFFFFF0000FFFFFFFFFFFFFFFFFFFFFFFFFFFFFFFFFFFFFFFFFFFF0000FFFFFFFFFFFF0000FFFFFFFFFFFFFFFFFFFFFFFFFFFFFFFFFFFFFFFFFFFF0000FFFFFFFFFFFF0000FFFFFFFFFFFFFFFFFFFFFFFFFFFFFFFFFFFFFFFFFFFF0000FF
310
FFFFFFFFFF0000FFFFFFFFFFFFFFFFFFFFFFFFFFFFFFFFFFFFFFFFFFFF0000FFFFFFFFFFFF0000FFFFFFFFFFFFFFFFFFFFFFFFFFFFFFFFFFFFFFFFFFFF0000FFFFFFFFFFFF0000FFFFFFFFFFFFFFFFFFFFFFFFFFFFFFFFFFFFFFFFFFFF0000FFFFFFFFFFFF0000FFFFFFFFFFFFFFFFFFFFFFFFFFFFFFFFFFFFFFFFFFFF0000
310
FFFFFFFFFFFF0000FFFFFFFFFFFFFFFFFFFFFFFFFFFFFFFFFFFFFFFFFFFF0000FFFFFFFFFFFF0000FFFFFFFFFFFFFFFFFFFFFFFFFFFFFFFFFFFFFFFFFFFF0000FFFFFFFFFFFF0000FFFFFFFFFFFFFFFFFFFFFFFFFFFFFFFFFFFFFFFFFFFF0000FFFFFFFFFFFF0000FFFFFFFFFFFFFFFFFFFFFFFFFFFFFFFFFFFFFFFFFFFF00
310
00FFFFFFFFFFFF0000FFFFFFFFFFFFFFFFFFFFFFFFFFFFFFFFFFFFFFFFFFFF00000000000000000000FFFFFFFFFFFFFFFFFFFFFFFFFFFFFFFFFFFFFFFFFFFF00FFFFFFFFFFFFFFFF00FFFFFFFFFFFFFFFFFFFFFFFFFFFFFFFFFFFFFFFFFFFF00FFFFFFFFFFFFFFFF00FFFFFFFFFFFFFFFFFFFFFFFFFFFFFFFFFFFFFFFFFFFF
310
00000000000000000000FFFFFFFFFFFFFFFFFFFFFFFFFFFFFFFFFFFFFFFFFFFF0000FFFFFFFFFFFF0000FFFFFFFFFFFFFFFFFFFFFFFFFFFFFFFFFFFFFFFFFFFF0000FFFFFFFFFFFF0000FFFFFFFFFFFFFFFFFFFFFFFFFFFFFFFFFFFFFFFFFFFF0000FFFFFFFFFFFF0000FFFFFFFFFFFFFFFFFFFFFFFFFFFFFFFFFFFFFFFFFF
310
FF0000FFFFFFFFFFFF0000FFFFFFFFFFFFFFFFFFFFFFFFFFFFFFFFFFFFFFFFFFFF0000FFFFFFFFFFFF0000FFFFFFFFFFFFFFFFFFFFFFFFFFFFFFFFFFFFFFFFFFFF0000FFFFFFFFFFFF0000FFFFFFFFFFFFFFFFFFFFFFFFFFFFFFFFFFFFFFFFFFFF0000FFFFFFFFFFFF0000FFFFFFFFFFFFFFFFFFFFFFFFFFFFFFFFFFFFFFFF
310
FFFF0000FFFFFFFFFFFF0000FFFFFFFFFFFFFFFFFFFFFFFFFFFFFFFFFFFFFFFFFFFF0000FFFFFFFFFFFF0000FFFFFFFFFFFFFFFFFFFFFFFFFFFFFFFFFFFFFFFFFFFF0000FFFFFFFFFFFF0000FFFFFFFFFFFFFFFFFFFFFFFFFFFFFFFFFFFFFFFFFFFF0000FFFFFFFFFFFF0000FFFFFFFFFFFFFFFFFFFFFFFFFFFFFFFFFFFFFF
310
FFFFFF0000FFFFFFFFFFFF0000FFFFFFFFFFFFFFFFFFFFFFFFFFFFFFFFFFFFFFFFFFFFFFFFFFFFFFFFFFFFFFFFFFFFFFFFFFFFFFFFFFFFFF
102
{BLKREFS
331
34E
102
}
  0
BLOCK_RECORD
  5
316
330
1
100
AcDbSymbolTableRecord
100
AcDbBlockTableRecord
  2
AI9-BLK11
340
0
310
2800000020000000200000000100080000000000000400000000000000000000000000000000000000000000000080000080000000808000800000008000800080800000C0C0C000C0DCC000F0CAA6000020400000206000002080000020A0000020C0000020E00000400000004020000040400000406000004080000040A0
310
000040C0000040E00000600000006020000060400000606000006080000060A0000060C0000060E00000800000008020000080400000806000008080000080A0000080C0000080E00000A0000000A0200000A0400000A0600000A0800000A0A00000A0C00000A0E00000C0000000C0200000C0400000C0600000C0800000C0
310
A00000C0C00000C0E00000E0000000E0200000E0400000E0600000E0800000E0A00000E0C00000E0E00040000000400020004000400040006000400080004000A0004000C0004000E00040200000402020004020400040206000402080004020A0004020C0004020E000404000004040200040404000404060004040800040
310
40A0004040C0004040E00040600000406020004060400040606000406080004060A0004060C0004060E00040800000408020004080400040806000408080004080A0004080C0004080E00040A0000040A0200040A0400040A0600040A0800040A0A00040A0C00040A0E00040C0000040C0200040C0400040C0600040C08000
310
40C0A00040C0C00040C0E00040E0000040E0200040E0400040E0600040E0800040E0A00040E0C00040E0E00080000000800020008000400080006000800080008000A0008000C0008000E00080200000802020008020400080206000802080008020A0008020C0008020E00080400000804020008040400080406000804080
310
008040A0008040C0008040E00080600000806020008060400080606000806080008060A0008060C0008060E00080800000808020008080400080806000808080008080A0008080C0008080E00080A0000080A0200080A0400080A0600080A0800080A0A00080A0C00080A0E00080C0000080C0200080C0400080C0600080C0
310
800080C0A00080C0C00080C0E00080E0000080E0200080E0400080E0600080E0800080E0A00080E0C00080E0E000C0000000C0002000C0004000C0006000C0008000C000A000C000C000C000E000C0200000C0202000C0204000C0206000C0208000C020A000C020C000C020E000C0400000C0402000C0404000C0406000C0
310
408000C040A000C040C000C040E000C0600000C0602000C0604000C0606000C0608000C060A000C060C000C060E000C0800000C0802000C0804000C0806000C0808000C080A000C080C000C080E000C0A00000C0A02000C0A04000C0A06000C0A08000C0A0A000C0A0C000C0A0E000C0C00000C0C02000C0C04000C0C06000
310
C0C08000C0C0A000F0FBFF00A4A0A000808080000000FF0000FF000000FFFF00FF000000FF00FF00FFFF0000FFFFFF00FFFFFFFFFFFFFFFFFFFFFFFFFFFFFFFFFFFFFFFFFFFFFFFFFFFFFFFFFFFFFFFFFFFFFFFFFFFFFFFFFFFFFFFFFFFF00000000FFFFFFFFFFFFFFFFFFFFFF000000FFFFFFFFFFFFFFFFFFFFFFFFFFFF00
310
FFFF00FFFFFFFFFFFFFFFFFFFFFF00FFFFFFFFFFFFFFFFFFFFFFFFFFFFFFFF00FFFF00FFFFFFFFFFFFFFFFFFFFFF00FFFFFFFFFFFFFFFFFFFFFFFFFFFFFFFF00FFFF00FFFFFFFFFFFFFFFFFFFFFF00FFFFFFFFFFFFFFFFFFFFFFFFFFFFFFFF00FFFF00FFFFFFFFFFFFFFFFFFFFFF00FFFFFFFFFFFFFFFFFFFFFFFFFFFFFFFF
310
00FFFF00FFFFFFFFFFFFFFFFFFFFFF00FFFFFFFFFFFFFFFFFFFFFFFFFFFFFFFF00FFFF00FFFFFFFFFFFFFFFFFFFFFF00FFFFFFFFFFFFFFFFFFFFFFFFFFFFFFFF00FFFF00FFFFFFFFFFFFFFFFFFFFFF00FFFFFFFFFFFFFFFFFFFFFFFFFFFFFFFF00FFFF00FFFFFFFFFFFFFFFFFFFFFF00FFFFFFFFFFFFFFFFFFFFFFFFFFFFFF
310
FF00FFFF00FFFFFFFFFFFFFFFFFFFFFF00FFFFFFFFFFFFFFFFFFFFFFFFFFFFFFFF00FFFF00FFFFFFFFFFFFFFFFFFFFFF00FFFFFFFFFFFFFFFFFFFFFFFFFFFFFFFF00FFFF00FFFFFFFFFFFFFFFFFFFFFF00FFFFFFFFFFFFFFFFFFFFFFFFFFFFFFFF00FFFF00FFFFFFFFFFFFFFFFFFFFFF00FFFFFFFFFFFFFFFFFFFFFFFFFFFF
310
FFFF00FFFF00FFFFFFFFFFFFFFFFFFFFFF00FFFFFFFFFFFFFFFFFFFFFFFFFFFFFFFF00FFFF00FFFFFFFFFFFFFFFFFFFFFF00FFFFFFFFFFFFFFFFFFFFFFFFFFFFFFFF00FFFF00FFFFFFFFFFFFFFFFFFFFFF00FFFFFFFFFFFFFFFFFFFFFFFFFFFFFFFF00FFFF00FFFFFFFFFFFFFFFFFFFF00FFFFFFFFFFFFFFFFFFFFFFFFFFFF
310
FFFFFF00FFFF00FFFFFFFFFFFFFFFFFFFF00FFFFFFFFFFFFFFFFFFFFFFFFFFFFFFFFFF00FFFF00FFFFFFFFFFFFFFFFFFFF00FFFFFFFFFFFFFFFFFFFFFFFFFFFFFFFFFF00FFFF00FFFFFFFFFFFFFFFFFFFF00FFFFFFFFFFFFFFFFFFFFFFFFFFFFFFFFFF00FFFF00FFFFFFFFFFFFFFFFFFFF00FFFFFFFFFFFFFFFFFFFFFFFFFF
310
FFFFFFFF00FFFF00FFFFFFFFFFFFFFFFFF0000FFFF00FFFFFFFFFFFFFFFFFFFFFFFFFFFF00FFFF00FFFFFFFFFFFFFFFF0000FFFFFF00FFFFFFFFFFFFFFFFFFFFFFFFFFFF00FFFF00000000000000000000FFFFFFFF00FFFFFFFFFFFFFFFFFFFFFFFFFFFF00FFFFFFFFFFFFFFFFFFFFFFFFFFFFFF00FFFFFFFFFFFFFFFFFFFF
310
FFFFFFFFFF00FFFFFFFFFFFFFFFFFFFFFFFFFFFF00FFFFFFFFFFFFFFFFFFFFFFFFFFFFFFFF00FFFFFFFFFFFFFFFFFFFFFFFFFFFF00FFFFFFFFFFFFFFFFFFFFFFFFFFFFFFFF00FFFFFFFFFFFFFFFFFFFFFFFFFFFFFF00FFFFFFFFFFFFFFFFFFFFFFFFFFFFFF00FFFFFFFFFFFFFFFFFFFFFFFFFFFFFF00FFFFFFFFFFFFFFFFFF
310
FFFFFFFFFFFF00FFFF00000000000000000000FFFFFFFF00FFFFFFFFFFFFFFFFFFFFFFFFFFFF00FFFF00FFFFFFFFFFFFFFFFFF0000FFFF00
102
{BLKREFS
331
34F
102
}
  0
BLOCK_RECORD
  5
31B
330
1
100
AcDbSymbolTableRecord
100
AcDbBlockTableRecord
  2
AI9-BLK10
340
0
310
2800000020000000200000000100080000000000000400000000000000000000000000000000000000000000000080000080000000808000800000008000800080800000C0C0C000C0DCC000F0CAA6000020400000206000002080000020A0000020C0000020E00000400000004020000040400000406000004080000040A0
310
000040C0000040E00000600000006020000060400000606000006080000060A0000060C0000060E00000800000008020000080400000806000008080000080A0000080C0000080E00000A0000000A0200000A0400000A0600000A0800000A0A00000A0C00000A0E00000C0000000C0200000C0400000C0600000C0800000C0
310
A00000C0C00000C0E00000E0000000E0200000E0400000E0600000E0800000E0A00000E0C00000E0E00040000000400020004000400040006000400080004000A0004000C0004000E00040200000402020004020400040206000402080004020A0004020C0004020E000404000004040200040404000404060004040800040
310
40A0004040C0004040E00040600000406020004060400040606000406080004060A0004060C0004060E00040800000408020004080400040806000408080004080A0004080C0004080E00040A0000040A0200040A0400040A0600040A0800040A0A00040A0C00040A0E00040C0000040C0200040C0400040C0600040C08000
310
40C0A00040C0C00040C0E00040E0000040E0200040E0400040E0600040E0800040E0A00040E0C00040E0E00080000000800020008000400080006000800080008000A0008000C0008000E00080200000802020008020400080206000802080008020A0008020C0008020E00080400000804020008040400080406000804080
310
008040A0008040C0008040E00080600000806020008060400080606000806080008060A0008060C0008060E00080800000808020008080400080806000808080008080A0008080C0008080E00080A0000080A0200080A0400080A0600080A0800080A0A00080A0C00080A0E00080C0000080C0200080C0400080C0600080C0
310
800080C0A00080C0C00080C0E00080E0000080E0200080E0400080E0600080E0800080E0A00080E0C00080E0E000C0000000C0002000C0004000C0006000C0008000C000A000C000C000C000E000C0200000C0202000C0204000C0206000C0208000C020A000C020C000C020E000C0400000C0402000C0404000C0406000C0
310
408000C040A000C040C000C040E000C0600000C0602000C0604000C0606000C0608000C060A000C060C000C060E000C0800000C0802000C0804000C0806000C0808000C080A000C080C000C080E000C0A00000C0A02000C0A04000C0A06000C0A08000C0A0A000C0A0C000C0A0E000C0C00000C0C02000C0C04000C0C06000
310
C0C08000C0C0A000F0FBFF00A4A0A000808080000000FF0000FF000000FFFF00FF000000FF00FF00FFFF0000FFFFFF00FFFFFFFFFFFFFFFFFFFFFFFFFFFFFFFF00FFFFFFFFFFFFFFFFFFFFFFFF00FFFFFFFFFFFFFFFFFFFFFFFFFFFFFFFFFFFF00FFFFFFFFFFFFFFFFFFFFFF00FFFFFFFFFFFFFFFFFFFFFFFFFFFFFFFFFFFF
310
FF00FFFFFFFFFFFFFFFFFFFFFF00FFFFFFFFFFFFFFFFFFFFFFFFFFFFFFFFFFFFFF00FFFFFFFFFFFFFFFFFFFFFF00FFFFFFFFFFFFFFFFFFFFFFFFFFFFFFFFFFFFFF00FFFFFFFFFFFFFFFFFFFFFF00FFFFFFFFFFFFFFFFFFFFFFFFFFFFFFFFFFFFFF00FFFFFFFFFFFFFFFFFFFFFF00FFFFFFFFFFFFFFFFFFFFFFFFFFFFFFFFFF
310
FFFF00FFFFFFFFFFFFFFFFFFFFFF00FFFFFFFFFFFFFFFFFFFFFFFFFFFFFFFFFFFFFF00FFFFFFFFFFFFFFFFFFFF00FFFFFFFFFFFFFFFFFFFFFFFFFFFFFFFFFFFFFFFF00FFFFFFFFFFFFFFFFFFFF00FFFFFFFFFFFFFFFFFFFFFFFFFFFFFFFFFFFFFFFF00FFFFFFFFFFFFFFFFFFFF00FFFFFFFFFFFFFFFFFFFFFFFFFFFFFFFFFF
310
FFFFFF00FFFFFFFFFFFFFFFFFFFF00FFFFFFFFFFFFFFFFFFFFFFFFFFFFFFFFFFFFFFFF00FFFFFFFFFFFFFFFFFFFF00FFFFFFFFFFFFFFFFFFFFFFFFFFFFFFFFFFFFFFFF00FFFFFFFFFFFFFFFFFFFF00FFFFFFFFFFFFFFFFFFFFFFFFFFFFFFFFFFFFFFFF00FFFFFFFFFFFFFFFFFF00FFFFFFFFFFFFFFFFFFFFFFFFFFFFFFFFFF
310
FFFFFFFF00FFFFFFFFFFFFFFFFFF00FFFFFFFFFFFFFFFFFFFFFFFFFFFFFFFFFFFFFFFFFF00FFFFFFFFFFFFFFFFFF00FFFFFFFFFFFFFFFFFFFFFFFFFFFFFFFFFFFFFFFFFF0000000000000000000000FFFFFFFFFFFFFFFFFFFFFFFFFFFFFFFFFFFFFFFFFFFFFFFFFFFFFFFFFFFFFFFFFFFFFFFFFFFFFFFFFFFFFFFFFFFFFFFF
310
FFFFFFFFFFFFFFFFFFFFFFFFFFFFFFFFFFFFFFFFFFFFFFFFFFFFFFFFFFFFFFFFFFFFFFFFFFFFFFFFFFFFFFFFFFFFFFFFFFFFFFFFFFFFFFFFFFFFFFFFFFFFFFFFFFFFFFFFFFFFFFFFFFFFFFFFFFFFFFFFFFFFFFFFFFFFFFFFFFFFFFFFFFFFFFFFFFFFFFFFFFFFFFFFFFFFFFFFFFFFFFFFFFFFFFFFFFFFFFFFFFFFFFFFFFFFFF
310
FFFFFFFFFFFFFFFFFFFFFFFFFFFFFFFFFFFFFFFFFFFFFFFFFFFFFFFFFFFFFFFFFFFFFFFFFFFFFFFFFFFFFFFFFFFFFFFFFFFFFFFFFFFFFFFFFFFFFFFFFFFFFFFFFFFFFFFFFFFFFFFFFFFFFFFFFFFFFFFFFFFFFFFFFFFFFFFFFFFFFFFFFFFFFFFFFFFFFFFFFFFFFFFFFFFFFFFFFFFFFFFFFFFFFFFFFFFFFFFFFFFFFFFFFFFFFF
310
FFFFFFFFFFFFFFFFFFFFFFFFFFFFFFFFFFFFFFFFFFFFFFFFFFFFFFFFFFFFFFFFFFFFFFFFFFFFFFFFFFFFFFFFFFFFFFFFFFFFFFFFFFFFFFFFFFFFFFFFFFFFFFFFFFFFFFFFFFFFFFFFFFFFFFFFFFFFFFFFFFFFFFFFFFFFFFFFFFFFFFFFFFFFFFFFFFFFFFFFFFFFFFFFFFFFFFFFFFFFFFFFFFFFFFFFFFFFFFFFFFFFFFFFFFFFFF
310
FFFFFFFFFFFFFFFFFFFFFFFFFFFFFFFFFFFFFFFFFFFFFFFFFFFFFFFFFFFFFFFFFFFFFFFFFFFFFFFFFFFFFFFFFFFFFFFFFFFFFFFFFFFFFFFF
102
{BLKREFS
331
350
102
}
  0
BLOCK_RECORD
  5
31F
330
1
100
AcDbSymbolTableRecord
100
AcDbBlockTableRecord
  2
AI9-BLK9
340
0
310
2800000020000000200000000100080000000000000400000000000000000000000000000000000000000000000080000080000000808000800000008000800080800000C0C0C000C0DCC000F0CAA6000020400000206000002080000020A0000020C0000020E00000400000004020000040400000406000004080000040A0
310
000040C0000040E00000600000006020000060400000606000006080000060A0000060C0000060E00000800000008020000080400000806000008080000080A0000080C0000080E00000A0000000A0200000A0400000A0600000A0800000A0A00000A0C00000A0E00000C0000000C0200000C0400000C0600000C0800000C0
310
A00000C0C00000C0E00000E0000000E0200000E0400000E0600000E0800000E0A00000E0C00000E0E00040000000400020004000400040006000400080004000A0004000C0004000E00040200000402020004020400040206000402080004020A0004020C0004020E000404000004040200040404000404060004040800040
310
40A0004040C0004040E00040600000406020004060400040606000406080004060A0004060C0004060E00040800000408020004080400040806000408080004080A0004080C0004080E00040A0000040A0200040A0400040A0600040A0800040A0A00040A0C00040A0E00040C0000040C0200040C0400040C0600040C08000
310
40C0A00040C0C00040C0E00040E0000040E0200040E0400040E0600040E0800040E0A00040E0C00040E0E00080000000800020008000400080006000800080008000A0008000C0008000E00080200000802020008020400080206000802080008020A0008020C0008020E00080400000804020008040400080406000804080
310
008040A0008040C0008040E00080600000806020008060400080606000806080008060A0008060C0008060E00080800000808020008080400080806000808080008080A0008080C0008080E00080A0000080A0200080A0400080A0600080A0800080A0A00080A0C00080A0E00080C0000080C0200080C0400080C0600080C0
310
800080C0A00080C0C00080C0E00080E0000080E0200080E0400080E0600080E0800080E0A00080E0C00080E0E000C0000000C0002000C0004000C0006000C0008000C000A000C000C000C000E000C0200000C0202000C0204000C0206000C0208000C020A000C020C000C020E000C0400000C0402000C0404000C0406000C0
310
408000C040A000C040C000C040E000C0600000C0602000C0604000C0606000C0608000C060A000C060C000C060E000C0800000C0802000C0804000C0806000C0808000C080A000C080C000C080E000C0A00000C0A02000C0A04000C0A06000C0A08000C0A0A000C0A0C000C0A0E000C0C00000C0C02000C0C04000C0C06000
310
C0C08000C0C0A000F0FBFF00A4A0A000808080000000FF0000FF000000FFFF00FF000000FF00FF00FFFF0000FFFFFF00FFFFFFFFFFFFFFFFFFFFFFFFFFFFFFFFFFFFFFFFFFFFFFFFFFFFFFFFFFFFFFFFFFFFFFFFFFFFFFFFFFFFFFFFFFFFFF0000FFFFFFFFFFFFFFFFFFFFFFFFFFFFFFFFFFFFFFFFFFFFFFFFFFFFFFFF0000
310
FF0000FFFFFFFFFFFFFFFFFFFFFFFFFFFFFFFFFFFFFFFFFFFFFFFFFFFFFF00FFFFFF0000FFFFFFFFFFFFFFFFFFFFFFFFFFFFFFFFFFFFFFFFFFFFFFFFFFFF00FFFFFFFF0000FFFFFFFFFFFFFFFFFFFFFFFFFFFFFFFFFFFFFFFFFFFFFFFF00FF00000000FF00FFFFFFFFFFFFFFFFFFFFFFFFFFFFFFFFFFFFFFFFFFFFFFFF0000
310
00FFFF00FF00FFFFFFFFFFFFFFFFFFFFFFFFFFFFFFFFFFFFFFFFFFFFFFFF0000FFFFFFFF0000FFFFFFFFFFFFFFFFFFFFFFFFFFFFFFFFFFFFFFFFFFFFFFFF0000FFFFFFFF0000FFFFFFFFFFFFFFFFFFFFFFFFFFFFFFFFFFFFFFFFFFFFFF00FF00FFFFFFFF00FF00FFFFFFFFFFFFFFFFFFFFFFFFFFFFFFFFFFFFFFFFFFFF0000
310
FFFFFFFFFF00FF00FFFFFFFFFFFFFFFFFFFFFFFFFFFFFFFFFFFFFFFFFFFF0000FFFFFFFFFFFF0000FFFFFFFFFFFFFFFFFFFFFFFFFFFFFFFFFFFFFFFFFFFF0000FFFFFFFFFFFF0000FFFFFFFFFFFFFFFFFFFFFFFFFFFFFFFFFFFFFFFFFFFF0000FFFFFFFFFFFF0000FFFFFFFFFFFFFFFFFFFFFFFFFFFFFFFFFFFFFFFFFFFF00
310
00FFFFFFFFFFFF0000FFFFFFFFFFFFFFFFFFFFFFFFFFFFFFFFFFFFFFFFFFFF0000FFFFFFFFFFFF0000FFFFFFFFFFFFFFFFFFFFFFFFFFFFFFFFFFFFFFFFFFFF0000FFFFFFFFFFFF0000FFFFFFFFFFFFFFFFFFFFFFFFFFFFFFFFFFFFFFFFFFFF0000FFFFFFFFFFFF0000FFFFFFFFFFFFFFFFFFFFFFFFFFFFFFFFFFFFFFFFFFFF
310
0000FFFFFFFFFFFF0000FFFFFFFFFFFFFFFFFFFFFFFFFFFFFFFFFFFFFFFFFFFF0000FFFFFFFFFFFF0000FFFFFFFFFFFFFFFFFFFFFFFFFFFFFFFFFFFFFFFFFFFF0000FFFFFFFFFFFF0000FFFFFFFFFFFFFFFFFFFFFFFFFFFFFFFFFFFFFFFFFFFF00FF00FFFFFFFF00FF00FFFFFFFFFFFFFFFFFFFFFFFFFFFFFFFFFFFFFFFFFF
310
FF00FF00FFFFFFFF00FF00FFFFFFFFFFFFFFFFFFFFFFFFFFFFFFFFFFFFFFFFFFFF00FF00FFFFFFFF00FF00FFFFFFFFFFFFFFFFFFFFFFFFFFFFFFFFFFFFFFFFFFFFFF0000FFFFFFFF0000FFFFFFFFFFFFFFFFFFFFFFFFFFFFFFFFFFFFFFFFFFFFFFFF00FF00FFFF00FF00FFFFFFFFFFFFFFFFFFFFFFFFFFFFFFFFFFFFFFFFFF
310
FFFFFF00FF00000000FF00FFFFFFFFFFFFFFFFFFFFFFFFFFFFFFFFFFFFFFFFFFFFFFFFFF00FFFFFFFF0000FFFFFFFFFFFFFFFFFFFFFFFFFFFFFFFFFFFFFFFFFFFFFFFFFF00FFFFFFFF00FFFFFFFFFFFFFFFFFFFFFFFFFFFFFFFFFFFFFFFFFFFFFFFFFFFFFF00000000FFFFFFFFFFFFFFFFFFFFFFFFFFFFFFFFFFFFFFFFFFFF
310
FFFFFFFFFFFFFF0000FFFFFFFFFFFFFFFFFFFFFFFFFFFFFFFFFFFFFFFFFFFFFFFFFFFFFFFFFFFFFFFFFFFFFFFFFFFFFFFFFFFFFFFFFFFFFF
102
{BLKREFS
331
351
102
}
  0
BLOCK_RECORD
  5
324
330
1
100
AcDbSymbolTableRecord
100
AcDbBlockTableRecord
  2
AI9-BLK8
340
0
310
2800000020000000200000000100080000000000000400000000000000000000000000000000000000000000000080000080000000808000800000008000800080800000C0C0C000C0DCC000F0CAA6000020400000206000002080000020A0000020C0000020E00000400000004020000040400000406000004080000040A0
310
000040C0000040E00000600000006020000060400000606000006080000060A0000060C0000060E00000800000008020000080400000806000008080000080A0000080C0000080E00000A0000000A0200000A0400000A0600000A0800000A0A00000A0C00000A0E00000C0000000C0200000C0400000C0600000C0800000C0
310
A00000C0C00000C0E00000E0000000E0200000E0400000E0600000E0800000E0A00000E0C00000E0E00040000000400020004000400040006000400080004000A0004000C0004000E00040200000402020004020400040206000402080004020A0004020C0004020E000404000004040200040404000404060004040800040
310
40A0004040C0004040E00040600000406020004060400040606000406080004060A0004060C0004060E00040800000408020004080400040806000408080004080A0004080C0004080E00040A0000040A0200040A0400040A0600040A0800040A0A00040A0C00040A0E00040C0000040C0200040C0400040C0600040C08000
310
40C0A00040C0C00040C0E00040E0000040E0200040E0400040E0600040E0800040E0A00040E0C00040E0E00080000000800020008000400080006000800080008000A0008000C0008000E00080200000802020008020400080206000802080008020A0008020C0008020E00080400000804020008040400080406000804080
310
008040A0008040C0008040E00080600000806020008060400080606000806080008060A0008060C0008060E00080800000808020008080400080806000808080008080A0008080C0008080E00080A0000080A0200080A0400080A0600080A0800080A0A00080A0C00080A0E00080C0000080C0200080C0400080C0600080C0
310
800080C0A00080C0C00080C0E00080E0000080E0200080E0400080E0600080E0800080E0A00080E0C00080E0E000C0000000C0002000C0004000C0006000C0008000C000A000C000C000C000E000C0200000C0202000C0204000C0206000C0208000C020A000C020C000C020E000C0400000C0402000C0404000C0406000C0
310
408000C040A000C040C000C040E000C0600000C0602000C0604000C0606000C0608000C060A000C060C000C060E000C0800000C0802000C0804000C0806000C0808000C080A000C080C000C080E000C0A00000C0A02000C0A04000C0A06000C0A08000C0A0A000C0A0C000C0A0E000C0C00000C0C02000C0C04000C0C06000
310
C0C08000C0C0A000F0FBFF00A4A0A000808080000000FF0000FF000000FFFF00FF000000FF00FF00FFFF0000FFFFFF00FFFFFFFFFFFFFFFFFFFFFFFFFFFFFFFFFFFFFFFFFFFFFFFFFFFFFFFFFFFFFFFFFFFFFFFFFFFFFFFFFFFFFF0000FFFFFFFFFFFF0000FFFFFFFFFFFFFFFFFFFFFFFFFFFFFFFFFFFFFFFFFFFF0000FFFF
310
FFFFFFFF0000FFFFFFFFFFFFFFFFFFFFFFFFFFFFFFFFFFFFFFFFFFFF0000FFFFFFFFFF00FF00FFFFFFFFFFFFFFFFFFFFFFFFFFFFFFFFFFFFFFFFFFFF0000FFFFFFFFFF00FF00FFFFFFFFFFFFFFFFFFFFFFFFFFFFFFFFFFFFFFFFFFFF0000FFFFFFFFFF00FF00FFFFFFFFFFFFFFFFFFFFFFFFFFFFFFFFFFFFFFFFFFFF0000FF
310
FFFFFF00FFFF00FFFFFFFFFFFFFFFFFFFFFFFFFFFFFFFFFFFFFFFFFFFF0000FFFFFFFF00FF0000FFFFFFFFFFFFFFFFFFFFFFFFFFFFFFFFFFFFFFFFFFFF0000FFFFFFFF00FF0000FFFFFFFFFFFFFFFFFFFFFFFFFFFFFFFFFFFFFFFFFFFF0000FFFFFFFF00000000FFFFFFFFFFFFFFFFFFFFFFFFFFFFFFFFFFFFFFFFFFFF0000
310
FFFFFF00FF000000FFFFFFFFFFFFFFFFFFFFFFFFFFFFFFFFFFFFFFFFFFFF0000FFFFFF00FF000000FFFFFFFFFFFFFFFFFFFFFFFFFFFFFFFFFFFFFFFFFFFF0000FFFFFF00FF000000FFFFFFFFFFFFFFFFFFFFFFFFFFFFFFFFFFFFFFFFFFFF0000FFFF00FF00FF0000FFFFFFFFFFFFFFFFFFFFFFFFFFFFFFFFFFFFFFFFFFFF00
310
00FFFF00FF00FF0000FFFFFFFFFFFFFFFFFFFFFFFFFFFFFFFFFFFFFFFFFFFF0000FFFF00FF00FF0000FFFFFFFFFFFFFFFFFFFFFFFFFFFFFFFFFFFFFFFFFFFF0000FF00FFFF00FF0000FFFFFFFFFFFFFFFFFFFFFFFFFFFFFFFFFFFFFFFFFFFF0000FF00FF00FFFF0000FFFFFFFFFFFFFFFFFFFFFFFFFFFFFFFFFFFFFFFFFFFF
310
0000FF00FF00FFFF0000FFFFFFFFFFFFFFFFFFFFFFFFFFFFFFFFFFFFFFFFFFFF0000FF00FF00FFFF0000FFFFFFFFFFFFFFFFFFFFFFFFFFFFFFFFFFFFFFFFFFFF000000FFFF00FFFF0000FFFFFFFFFFFFFFFFFFFFFFFFFFFFFFFFFFFFFFFFFFFF000000FF00FFFFFF0000FFFFFFFFFFFFFFFFFFFFFFFFFFFFFFFFFFFFFFFFFF
310
FF000000FF00FFFFFF0000FFFFFFFFFFFFFFFFFFFFFFFFFFFFFFFFFFFFFFFFFFFF0000FFFF00FFFFFF0000FFFFFFFFFFFFFFFFFFFFFFFFFFFFFFFFFFFFFFFFFFFF0000FFFF00FFFFFF0000FFFFFFFFFFFFFFFFFFFFFFFFFFFFFFFFFFFFFFFFFFFF00FFFF00FFFFFFFF0000FFFFFFFFFFFFFFFFFFFFFFFFFFFFFFFFFFFFFFFF
310
FFFF00FFFF00FFFFFFFF0000FFFFFFFFFFFFFFFFFFFFFFFFFFFFFFFFFFFFFFFFFFFF00FFFF00FFFFFFFF0000FFFFFFFFFFFFFFFFFFFFFFFFFFFFFFFFFFFFFFFFFFFF00FFFF00FFFFFFFF0000FFFFFFFFFFFFFFFFFFFFFFFFFFFFFFFFFFFFFFFFFFFF00FF00FFFFFFFFFF0000FFFFFFFFFFFFFFFFFFFFFFFFFFFFFFFFFFFFFF
310
FFFFFF000000FFFFFFFFFF0000FFFFFFFFFFFFFFFFFFFFFFFFFFFFFFFFFFFFFFFFFFFFFFFFFFFFFFFFFFFFFFFFFFFFFFFFFFFFFFFFFFFFFF
102
{BLKREFS
331
352
102
}
  0
BLOCK_RECORD
  5
329
330
1
100
AcDbSymbolTableRecord
100
AcDbBlockTableRecord
  2
AI9-BLK7
340
0
310
2800000020000000200000000100080000000000000400000000000000000000000000000000000000000000000080000080000000808000800000008000800080800000C0C0C000C0DCC000F0CAA6000020400000206000002080000020A0000020C0000020E00000400000004020000040400000406000004080000040A0
310
000040C0000040E00000600000006020000060400000606000006080000060A0000060C0000060E00000800000008020000080400000806000008080000080A0000080C0000080E00000A0000000A0200000A0400000A0600000A0800000A0A00000A0C00000A0E00000C0000000C0200000C0400000C0600000C0800000C0
310
A00000C0C00000C0E00000E0000000E0200000E0400000E0600000E0800000E0A00000E0C00000E0E00040000000400020004000400040006000400080004000A0004000C0004000E00040200000402020004020400040206000402080004020A0004020C0004020E000404000004040200040404000404060004040800040
310
40A0004040C0004040E00040600000406020004060400040606000406080004060A0004060C0004060E00040800000408020004080400040806000408080004080A0004080C0004080E00040A0000040A0200040A0400040A0600040A0800040A0A00040A0C00040A0E00040C0000040C0200040C0400040C0600040C08000
310
40C0A00040C0C00040C0E00040E0000040E0200040E0400040E0600040E0800040E0A00040E0C00040E0E00080000000800020008000400080006000800080008000A0008000C0008000E00080200000802020008020400080206000802080008020A0008020C0008020E00080400000804020008040400080406000804080
310
008040A0008040C0008040E00080600000806020008060400080606000806080008060A0008060C0008060E00080800000808020008080400080806000808080008080A0008080C0008080E00080A0000080A0200080A0400080A0600080A0800080A0A00080A0C00080A0E00080C0000080C0200080C0400080C0600080C0
310
800080C0A00080C0C00080C0E00080E0000080E0200080E0400080E0600080E0800080E0A00080E0C00080E0E000C0000000C0002000C0004000C0006000C0008000C000A000C000C000C000E000C0200000C0202000C0204000C0206000C0208000C020A000C020C000C020E000C0400000C0402000C0404000C0406000C0
310
408000C040A000C040C000C040E000C0600000C0602000C0604000C0606000C0608000C060A000C060C000C060E000C0800000C0802000C0804000C0806000C0808000C080A000C080C000C080E000C0A00000C0A02000C0A04000C0A06000C0A08000C0A0A000C0A0C000C0A0E000C0C00000C0C02000C0C04000C0C06000
310
C0C08000C0C0A000F0FBFF00A4A0A000808080000000FF0000FF000000FFFF00FF000000FF00FF00FFFF0000FFFFFF00FFFFFFFFFFFFFFFFFFFFFFFFFFFFFFFFFFFFFFFFFFFFFFFFFFFFFFFFFFFFFFFFFFFFFFFFFFFFFFFFFFFFFFFFFFFFFF0000FFFFFFFFFFFFFFFFFFFFFFFFFFFFFFFFFFFFFFFFFFFFFFFFFFFFFFFFFFFF
310
0000FFFFFFFFFFFFFFFFFFFFFFFFFFFFFFFFFFFFFFFFFFFFFFFFFFFFFFFFFFFF0000FFFFFFFFFFFFFFFFFFFFFFFFFFFFFFFFFFFFFFFFFFFFFFFFFFFFFFFFFFFF0000FFFFFFFFFFFFFFFFFFFFFFFFFFFFFFFFFFFFFFFFFFFFFFFFFFFFFFFFFFFF0000FFFFFFFFFFFFFFFFFFFFFFFFFFFFFFFFFFFFFFFFFFFFFFFFFFFFFFFFFF
310
FF0000FFFFFFFFFFFFFFFFFFFFFFFFFFFFFFFFFFFFFFFFFFFFFFFFFFFFFFFFFFFF0000FFFFFFFFFFFFFFFFFFFFFFFFFFFFFFFFFFFFFFFFFFFFFFFFFFFFFFFFFFFF0000FFFFFFFFFFFFFFFFFFFFFFFFFFFFFFFFFFFFFFFFFFFFFFFFFFFFFFFFFFFF0000FFFFFFFFFFFFFFFFFFFFFFFFFFFFFFFFFFFFFFFFFFFFFFFFFFFFFFFF
310
FFFF0000FFFFFFFFFFFFFFFFFFFFFFFFFFFFFFFFFFFFFFFFFFFFFFFFFFFFFFFFFFFF0000FFFFFFFFFFFFFFFFFFFFFFFFFFFFFFFFFFFFFFFFFFFFFFFFFFFFFFFFFFFF0000FFFFFFFFFFFFFFFFFFFFFFFFFFFFFFFFFFFFFFFFFFFFFFFFFFFFFFFFFFFF0000FFFFFFFFFFFFFFFFFFFFFFFFFFFFFFFFFFFFFFFFFFFFFFFFFFFFFF
310
FFFFFF0000FFFFFFFFFFFFFFFFFFFFFFFFFFFFFFFFFFFFFFFFFFFFFFFFFFFFFFFFFFFF0000FFFFFFFFFFFFFFFFFFFFFFFFFFFFFFFFFFFFFFFFFFFFFFFFFFFFFFFFFFFF0000FFFFFFFFFFFFFFFFFFFFFFFFFFFFFFFFFFFFFFFFFFFFFFFFFFFFFFFFFFFF0000FFFFFFFFFFFFFFFFFFFFFFFFFFFFFFFFFFFFFFFFFFFFFFFFFFFF
310
FFFFFFFF0000FFFFFFFFFFFFFFFFFFFFFFFFFFFFFFFFFFFFFFFFFFFFFFFFFFFFFFFFFFFF0000FFFFFFFFFFFFFFFFFFFFFFFFFFFFFFFFFFFFFFFFFFFFFFFFFFFFFFFFFFFF0000FFFFFFFFFFFFFFFFFFFFFFFFFFFFFFFFFFFFFFFFFFFFFFFFFFFFFFFFFFFF0000FFFFFFFFFFFFFFFFFFFFFFFFFFFFFFFFFFFFFFFFFFFFFFFFFF
310
FFFFFFFFFF0000FFFFFFFFFFFFFFFFFFFFFFFFFFFFFFFFFFFFFFFFFFFFFFFFFFFFFFFFFFFF0000FFFFFFFFFFFFFFFFFFFFFFFFFFFFFFFFFFFFFFFFFFFFFFFFFFFFFFFFFFFF0000FFFFFFFFFFFFFFFFFFFFFFFFFFFFFFFFFFFFFFFFFFFFFFFFFFFFFFFFFFFF0000FFFFFFFFFFFFFFFFFFFFFFFFFFFFFFFFFFFFFFFFFFFFFFFF
310
FFFFFFFFFFFF0000FFFFFFFFFFFFFFFFFFFFFFFFFFFFFFFFFFFFFFFFFFFFFFFFFFFFFFFFFFFF0000FFFFFFFFFFFFFFFFFFFFFFFFFFFFFFFFFFFFFFFFFFFFFFFFFFFFFFFFFFFF0000FFFFFFFFFFFFFFFFFFFFFFFFFFFFFFFFFFFFFFFFFFFFFFFFFFFFFFFFFFFF0000FFFFFFFFFFFFFFFFFFFFFFFFFFFFFFFFFFFFFFFFFFFFFF
310
FFFFFFFFFFFFFF0000FFFFFFFFFFFFFFFFFFFFFFFFFFFFFFFFFFFFFFFFFFFFFFFFFFFFFFFFFFFFFFFFFFFFFFFFFFFFFFFFFFFFFFFFFFFFFF
102
{BLKREFS
331
353
102
}
  0
BLOCK_RECORD
  5
32E
330
1
100
AcDbSymbolTableRecord
100
AcDbBlockTableRecord
  2
AI9-BLK6
340
0
310
2800000020000000200000000100080000000000000400000000000000000000000000000000000000000000000080000080000000808000800000008000800080800000C0C0C000C0DCC000F0CAA6000020400000206000002080000020A0000020C0000020E00000400000004020000040400000406000004080000040A0
310
000040C0000040E00000600000006020000060400000606000006080000060A0000060C0000060E00000800000008020000080400000806000008080000080A0000080C0000080E00000A0000000A0200000A0400000A0600000A0800000A0A00000A0C00000A0E00000C0000000C0200000C0400000C0600000C0800000C0
310
A00000C0C00000C0E00000E0000000E0200000E0400000E0600000E0800000E0A00000E0C00000E0E00040000000400020004000400040006000400080004000A0004000C0004000E00040200000402020004020400040206000402080004020A0004020C0004020E000404000004040200040404000404060004040800040
310
40A0004040C0004040E00040600000406020004060400040606000406080004060A0004060C0004060E00040800000408020004080400040806000408080004080A0004080C0004080E00040A0000040A0200040A0400040A0600040A0800040A0A00040A0C00040A0E00040C0000040C0200040C0400040C0600040C08000
310
40C0A00040C0C00040C0E00040E0000040E0200040E0400040E0600040E0800040E0A00040E0C00040E0E00080000000800020008000400080006000800080008000A0008000C0008000E00080200000802020008020400080206000802080008020A0008020C0008020E00080400000804020008040400080406000804080
310
008040A0008040C0008040E00080600000806020008060400080606000806080008060A0008060C0008060E00080800000808020008080400080806000808080008080A0008080C0008080E00080A0000080A0200080A0400080A0600080A0800080A0A00080A0C00080A0E00080C0000080C0200080C0400080C0600080C0
310
800080C0A00080C0C00080C0E00080E0000080E0200080E0400080E0600080E0800080E0A00080E0C00080E0E000C0000000C0002000C0004000C0006000C0008000C000A000C000C000C000E000C0200000C0202000C0204000C0206000C0208000C020A000C020C000C020E000C0400000C0402000C0404000C0406000C0
310
408000C040A000C040C000C040E000C0600000C0602000C0604000C0606000C0608000C060A000C060C000C060E000C0800000C0802000C0804000C0806000C0808000C080A000C080C000C080E000C0A00000C0A02000C0A04000C0A06000C0A08000C0A0A000C0A0C000C0A0E000C0C00000C0C02000C0C04000C0C06000
310
C0C08000C0C0A000F0FBFF00A4A0A000808080000000FF0000FF000000FFFF00FF000000FF00FF00FFFF0000FFFFFF00FFFFFFFFFFFFFFFFFFFFFFFF00FFFFFFFFFFFFFF00FFFFFFFFFFFFFFFFFFFFFFFFFFFFFFFFFFFFFFFFFFFFFF00FFFFFFFFFFFFFF00FFFFFFFFFFFFFFFFFFFFFFFFFFFFFFFFFFFFFFFFFFFFFF00FFFF
310
FFFFFFFFFF00FFFFFFFFFFFFFFFFFFFFFFFFFFFFFFFFFFFFFFFFFFFF00FFFFFFFFFFFFFFFF00FFFFFFFFFFFFFFFFFFFFFFFFFFFFFFFFFFFFFFFFFFFF00FFFFFFFFFFFFFF00FFFFFFFFFFFFFFFFFFFFFFFFFFFFFFFFFFFFFFFFFFFFFF00FFFFFFFFFFFFFF00FFFFFFFFFFFFFFFFFFFFFFFFFFFFFFFFFFFFFFFFFFFF00FFFFFF
310
FFFFFFFFFF00FFFFFFFFFFFFFFFFFFFFFFFFFFFFFFFFFFFFFFFFFFFF00FFFFFFFFFFFFFF00FFFFFFFFFFFFFFFFFFFFFFFFFFFFFFFFFFFFFFFFFFFF00FFFFFFFFFFFFFFFF00FFFFFFFFFFFFFFFFFFFFFFFFFFFFFFFFFFFFFFFFFF00FFFFFFFFFFFFFFFFFF00FFFFFFFFFFFFFFFFFFFFFFFFFFFFFFFFFFFFFFFF00FFFFFFFFFF
310
FFFFFFFFFF00FFFFFFFFFFFFFFFFFFFFFFFFFFFFFFFFFFFFFF00FFFFFFFFFFFFFFFFFFFF00FFFFFFFFFFFFFFFFFFFFFFFFFFFFFFFFFFFF0000FFFFFFFFFFFFFFFFFFFFFF00FFFFFFFFFFFFFFFFFFFFFFFFFFFF00000000FFFFFFFFFFFFFFFFFFFFFFFFFF00FFFFFFFFFFFFFFFFFFFFFFFFFFFFFFFFFFFFFFFFFFFFFFFFFFFF
310
FFFFFFFF00FFFFFFFFFFFFFFFFFFFFFFFFFFFFFFFFFFFFFFFFFFFFFFFFFFFFFFFFFFFFFF00FFFFFFFFFFFFFFFFFFFFFFFFFFFFFFFFFFFFFFFFFFFFFFFFFFFFFFFFFFFFFF00FFFFFFFFFFFFFFFFFFFFFFFFFFFFFFFFFFFFFFFFFFFFFFFFFFFFFFFFFFFF00FFFFFFFFFFFFFFFFFFFFFFFFFFFFFFFFFFFFFFFFFFFFFFFFFFFFFF
310
FFFFFFFF00FFFFFFFFFFFFFFFFFFFFFFFFFFFFFFFFFFFFFFFFFFFFFFFFFFFFFFFFFFFF00FFFFFFFFFFFFFFFFFFFFFFFFFFFFFFFFFFFFFFFFFFFFFFFFFFFFFFFFFFFF00FFFFFFFFFFFFFFFFFFFFFFFFFFFFFFFFFFFFFFFFFFFFFFFFFFFFFFFFFFFF00FFFFFFFFFFFFFFFFFFFFFFFFFFFFFFFFFFFFFFFFFFFFFFFFFFFFFFFFFF
310
FF00FFFFFFFFFFFFFFFFFFFFFFFFFFFFFFFFFFFFFFFFFFFFFFFFFFFFFFFFFFFFFF00FFFFFFFFFFFFFFFFFFFFFFFFFFFFFFFFFFFFFFFFFFFFFFFFFFFFFFFFFFFF00FFFFFFFFFFFFFFFFFFFFFFFFFFFFFFFFFFFFFFFFFFFFFFFFFFFFFFFFFF0000FFFFFFFFFFFFFFFFFFFFFFFFFFFFFFFFFFFFFFFFFFFFFFFFFFFFFFFF0000FF
310
FFFFFFFFFFFFFFFFFFFFFFFFFFFFFFFFFFFFFFFFFFFFFFFFFF00000000FFFFFFFFFFFFFFFFFFFFFFFFFFFFFFFFFFFFFFFFFFFFFFFFFFFF0000FFFFFFFFFFFFFFFFFFFFFFFFFFFFFFFFFFFFFFFFFFFFFFFFFFFFFFFFFFFFFFFFFFFFFFFFFFFFFFFFFFFFFFFFFFFFFFFFFFFFFFFFFFFFFFFFFFFFFFFFFFFFFFFFFFFFFFFFFFFF
310
FFFFFFFFFFFFFFFFFFFFFFFFFFFFFFFFFFFFFFFFFFFFFFFFFFFFFFFFFFFFFFFFFFFFFFFFFFFFFFFFFFFFFFFFFFFFFFFFFFFFFFFFFFFFFFFF
102
{BLKREFS
331
354
102
}
  0
BLOCK_RECORD
  5
332
330
1
100
AcDbSymbolTableRecord
100
AcDbBlockTableRecord
  2
AI9-BLK5
340
0
310
2800000020000000200000000100080000000000000400000000000000000000000000000000000000000000000080000080000000808000800000008000800080800000C0C0C000C0DCC000F0CAA6000020400000206000002080000020A0000020C0000020E00000400000004020000040400000406000004080000040A0
310
000040C0000040E00000600000006020000060400000606000006080000060A0000060C0000060E00000800000008020000080400000806000008080000080A0000080C0000080E00000A0000000A0200000A0400000A0600000A0800000A0A00000A0C00000A0E00000C0000000C0200000C0400000C0600000C0800000C0
310
A00000C0C00000C0E00000E0000000E0200000E0400000E0600000E0800000E0A00000E0C00000E0E00040000000400020004000400040006000400080004000A0004000C0004000E00040200000402020004020400040206000402080004020A0004020C0004020E000404000004040200040404000404060004040800040
310
40A0004040C0004040E00040600000406020004060400040606000406080004060A0004060C0004060E00040800000408020004080400040806000408080004080A0004080C0004080E00040A0000040A0200040A0400040A0600040A0800040A0A00040A0C00040A0E00040C0000040C0200040C0400040C0600040C08000
310
40C0A00040C0C00040C0E00040E0000040E0200040E0400040E0600040E0800040E0A00040E0C00040E0E00080000000800020008000400080006000800080008000A0008000C0008000E00080200000802020008020400080206000802080008020A0008020C0008020E00080400000804020008040400080406000804080
310
008040A0008040C0008040E00080600000806020008060400080606000806080008060A0008060C0008060E00080800000808020008080400080806000808080008080A0008080C0008080E00080A0000080A0200080A0400080A0600080A0800080A0A00080A0C00080A0E00080C0000080C0200080C0400080C0600080C0
310
800080C0A00080C0C00080C0E00080E0000080E0200080E0400080E0600080E0800080E0A00080E0C00080E0E000C0000000C0002000C0004000C0006000C0008000C000A000C000C000C000E000C0200000C0202000C0204000C0206000C0208000C020A000C020C000C020E000C0400000C0402000C0404000C0406000C0
310
408000C040A000C040C000C040E000C0600000C0602000C0604000C0606000C0608000C060A000C060C000C060E000C0800000C0802000C0804000C0806000C0808000C080A000C080C000C080E000C0A00000C0A02000C0A04000C0A06000C0A08000C0A0A000C0A0C000C0A0E000C0C00000C0C02000C0C04000C0C06000
310
C0C08000C0C0A000F0FBFF00A4A0A000808080000000FF0000FF000000FFFF00FF000000FF00FF00FFFF0000FFFFFF00FFFFFFFFFFFFFFFFFFFFFFFFFFFFFFFFFFFFFFFFFFFFFFFFFFFFFFFFFFFFFFFFFFFFFFFFFFFFFFFF000000000000000000000000000000000000000000000000FFFFFFFFFFFFFFFF00FFFFFFFFFFFF
310
FFFFFFFFFFFFFFFFFFFFFFFFFFFFFFFFFFFFFFFFFFFFFFFFFF00FFFFFFFFFFFFFFFFFFFFFFFFFFFFFFFFFFFFFFFFFFFFFFFFFFFFFFFFFFFFFF00FFFFFFFFFFFFFFFFFFFFFFFFFFFFFFFFFFFFFFFFFFFFFFFFFFFFFFFFFFFFFF00FFFFFFFFFFFFFFFFFFFFFFFFFFFFFFFFFFFFFFFFFFFFFFFFFFFFFFFFFFFFFF00FFFFFFFFFF
310
FFFFFFFFFFFFFFFFFFFFFFFFFFFFFFFFFFFFFFFFFFFFFFFFFFFF00FFFFFFFFFFFFFFFFFFFFFFFFFFFFFFFFFFFFFFFFFFFFFFFFFFFFFFFFFFFFFF00FFFFFFFFFFFFFFFFFFFFFFFFFFFFFFFFFFFFFFFFFFFFFFFFFFFFFFFFFFFFFF00FFFFFFFFFFFFFFFFFFFFFFFFFFFFFFFFFFFFFFFFFFFFFFFFFFFFFFFFFFFFFF00FFFFFFFF
310
FFFFFFFFFFFFFFFFFFFFFFFFFFFFFFFFFFFFFFFFFFFFFFFFFFFFFF00FFFFFFFFFFFFFFFFFFFFFFFFFFFFFFFFFFFFFFFFFFFFFFFFFFFFFFFFFFFFFF00FFFFFFFFFFFFFFFFFFFFFFFFFFFFFFFFFFFFFFFFFFFFFFFFFFFFFFFFFFFFFF00FFFFFFFFFFFFFFFFFFFFFFFFFFFFFFFFFFFFFFFFFFFFFFFFFFFFFFFFFFFFFF00FFFFFF
310
FFFFFFFFFFFFFFFFFFFFFFFFFFFFFFFFFFFFFFFFFFFFFFFFFFFFFFFF00FFFFFFFFFFFFFFFFFFFFFFFFFFFFFFFFFFFFFFFFFFFFFFFFFFFFFFFFFFFFFF00FFFFFFFFFFFFFFFFFFFFFFFFFFFFFFFFFFFFFFFFFFFFFFFFFFFFFFFFFFFFFF00FFFFFFFFFFFFFFFFFFFFFFFFFFFFFFFFFFFFFFFFFFFFFFFFFFFFFFFFFFFFFF00FFFF
310
FFFFFFFFFFFFFFFFFFFFFFFFFFFFFFFFFFFFFFFFFFFFFFFFFFFFFFFFFF00FFFFFFFFFFFFFFFFFFFFFFFFFFFFFFFFFFFFFFFFFFFFFFFFFFFFFFFFFFFFFF00FFFFFFFFFFFFFFFFFFFFFFFFFFFFFFFFFFFFFFFFFFFFFFFFFFFFFFFFFFFFFF00FFFFFFFFFFFFFFFFFFFFFFFFFFFFFFFFFFFFFFFFFFFFFFFFFFFFFFFFFFFFFF00FF
310
FFFFFFFFFFFFFFFFFFFFFFFFFFFFFFFFFFFFFFFFFFFFFFFFFFFFFFFFFFFF00FFFFFFFFFFFFFFFFFFFFFFFFFFFFFFFFFFFFFFFFFFFFFFFFFFFFFFFFFFFFFF00FFFFFFFFFFFFFFFFFFFFFFFFFFFFFFFFFFFFFFFFFFFFFFFFFFFFFFFFFFFFFF00FFFFFFFFFFFFFFFFFFFFFFFFFFFFFFFFFFFFFFFFFFFFFFFFFFFFFFFFFFFFFF00
310
FFFFFFFFFFFFFFFFFFFFFFFFFFFFFFFFFFFFFFFFFFFFFFFFFFFFFFFFFFFFFF00FFFFFFFFFFFFFFFFFFFFFFFFFFFFFFFFFFFFFFFFFFFFFFFFFFFFFFFFFFFFFF00FFFFFFFFFFFFFFFFFFFFFFFFFFFFFFFFFFFFFFFFFFFFFFFFFFFFFFFFFFFFFF00FFFFFFFFFFFFFFFFFFFFFFFFFFFFFFFFFFFFFFFFFFFFFFFFFFFFFFFFFFFFFF
310
00FFFFFFFFFFFFFFFFFFFFFFFFFFFF000000000000000000FFFFFFFFFFFFFFFF00FFFFFFFFFFFFFFFFFFFFFFFFFFFF00FFFFFFFFFFFFFFFF
102
{BLKREFS
331
355
102
}
  0
BLOCK_RECORD
  5
337
330
1
100
AcDbSymbolTableRecord
100
AcDbBlockTableRecord
  2
AI9-BLK4
340
0
310
2800000020000000200000000100080000000000000400000000000000000000000000000000000000000000000080000080000000808000800000008000800080800000C0C0C000C0DCC000F0CAA6000020400000206000002080000020A0000020C0000020E00000400000004020000040400000406000004080000040A0
310
000040C0000040E00000600000006020000060400000606000006080000060A0000060C0000060E00000800000008020000080400000806000008080000080A0000080C0000080E00000A0000000A0200000A0400000A0600000A0800000A0A00000A0C00000A0E00000C0000000C0200000C0400000C0600000C0800000C0
310
A00000C0C00000C0E00000E0000000E0200000E0400000E0600000E0800000E0A00000E0C00000E0E00040000000400020004000400040006000400080004000A0004000C0004000E00040200000402020004020400040206000402080004020A0004020C0004020E000404000004040200040404000404060004040800040
310
40A0004040C0004040E00040600000406020004060400040606000406080004060A0004060C0004060E00040800000408020004080400040806000408080004080A0004080C0004080E00040A0000040A0200040A0400040A0600040A0800040A0A00040A0C00040A0E00040C0000040C0200040C0400040C0600040C08000
310
40C0A00040C0C00040C0E00040E0000040E0200040E0400040E0600040E0800040E0A00040E0C00040E0E00080000000800020008000400080006000800080008000A0008000C0008000E00080200000802020008020400080206000802080008020A0008020C0008020E00080400000804020008040400080406000804080
310
008040A0008040C0008040E00080600000806020008060400080606000806080008060A0008060C0008060E00080800000808020008080400080806000808080008080A0008080C0008080E00080A0000080A0200080A0400080A0600080A0800080A0A00080A0C00080A0E00080C0000080C0200080C0400080C0600080C0
310
800080C0A00080C0C00080C0E00080E0000080E0200080E0400080E0600080E0800080E0A00080E0C00080E0E000C0000000C0002000C0004000C0006000C0008000C000A000C000C000C000E000C0200000C0202000C0204000C0206000C0208000C020A000C020C000C020E000C0400000C0402000C0404000C0406000C0
310
408000C040A000C040C000C040E000C0600000C0602000C0604000C0606000C0608000C060A000C060C000C060E000C0800000C0802000C0804000C0806000C0808000C080A000C080C000C080E000C0A00000C0A02000C0A04000C0A06000C0A08000C0A0A000C0A0C000C0A0E000C0C00000C0C02000C0C04000C0C06000
310
C0C08000C0C0A000F0FBFF00A4A0A000808080000000FF0000FF000000FFFF00FF000000FF00FF00FFFF0000FFFFFF00FFFFFFFFFFFFFFFFFFFFFFFFFFFFFFFFFFFFFFFFFFFFFFFFFFFFFFFFFFFFFFFFFFFFFFFFFFFFFFFFFFFFFFFFFFFF00000000FFFFFFFFFFFFFFFFFFFFFF000000FFFFFFFFFFFFFFFFFFFFFFFFFFFF00
310
FFFF00FFFFFFFFFFFFFFFFFFFFFF00FFFFFFFFFFFFFFFFFFFFFFFFFFFFFFFF00FFFF00FFFFFFFFFFFFFFFFFFFFFF00FFFFFFFFFFFFFFFFFFFFFFFFFFFFFFFF00FFFF00FFFFFFFFFFFFFFFFFFFFFF00FFFFFFFFFFFFFFFFFFFFFFFFFFFFFFFF00FFFF00FFFFFFFFFFFFFFFFFFFFFF00FFFFFFFFFFFFFFFFFFFFFFFFFFFFFFFF
310
00FFFF00FFFFFFFFFFFFFFFFFFFFFF00FFFFFFFFFFFFFFFFFFFFFFFFFFFFFFFF00FFFF00FFFFFFFFFFFFFFFFFFFFFF00FFFFFFFFFFFFFFFFFFFFFFFFFFFFFFFF00FFFF00FFFFFFFFFFFFFFFFFFFFFF00FFFFFFFFFFFFFFFFFFFFFFFFFFFFFFFF00FFFF00FFFFFFFFFFFFFFFFFFFFFF00FFFFFFFFFFFFFFFFFFFFFFFFFFFFFF
310
FF00FFFF00FFFFFFFFFFFFFFFFFFFFFF00FFFFFFFFFFFFFFFFFFFFFFFFFFFFFFFF00FFFF00FFFFFFFFFFFFFFFFFFFFFF00FFFFFFFFFFFFFFFFFFFFFFFFFFFFFFFF00FFFF00FFFFFFFFFFFFFFFFFFFFFF00FFFFFFFFFFFFFFFFFFFFFFFFFFFFFFFF00FFFF00FFFFFFFFFFFFFFFFFFFFFF00FFFFFFFFFFFFFFFFFFFFFFFFFFFF
310
FFFF00FFFF00FFFFFFFFFFFFFFFFFFFFFF00FFFFFFFFFFFFFFFFFFFFFFFFFFFFFFFF00FFFF00FFFFFFFFFFFFFFFFFFFFFF00FFFFFFFFFFFFFFFFFFFFFFFFFFFFFFFF00FFFF00FFFFFFFFFFFFFFFFFFFFFF00FFFFFFFFFFFFFFFFFFFFFFFFFFFFFFFF00FFFF00FFFFFFFFFFFFFFFFFFFF00FFFFFFFFFFFFFFFFFFFFFFFFFFFF
310
FFFFFF00FFFF00FFFFFFFFFFFFFFFFFFFF00FFFFFFFFFFFFFFFFFFFFFFFFFFFFFFFFFF00FFFF00FFFFFFFFFFFFFFFFFFFF00FFFFFFFFFFFFFFFFFFFFFFFFFFFFFFFFFF00FFFF00FFFFFFFFFFFFFFFFFFFF00FFFFFFFFFFFFFFFFFFFFFFFFFFFFFFFFFF00FFFF00FFFFFFFFFFFFFFFFFFFF00FFFFFFFFFFFFFFFFFFFFFFFFFF
310
FFFFFFFF00FFFF00FFFFFFFFFFFFFFFFFF0000FFFF00FFFFFFFFFFFFFFFFFFFFFFFFFFFF00FFFF00FFFFFFFFFFFFFFFF0000FFFFFF00FFFFFFFFFFFFFFFFFFFFFFFFFFFF00FFFF00000000000000000000FFFFFFFF00FFFFFFFFFFFFFFFFFFFFFFFFFFFF00FFFFFFFFFFFFFFFFFFFFFFFFFFFFFF00FFFFFFFFFFFFFFFFFFFF
310
FFFFFFFFFF00FFFFFFFFFFFFFFFFFFFFFFFFFFFF00FFFFFFFFFFFFFFFFFFFFFFFFFFFFFFFF00FFFFFFFFFFFFFFFFFFFFFFFFFFFF00FFFFFFFFFFFFFFFFFFFFFFFFFFFFFFFF00FFFFFFFFFFFFFFFFFFFFFFFFFFFFFF00FFFFFFFFFFFFFFFFFFFFFFFFFFFFFF00FFFFFFFFFFFFFFFFFFFFFFFFFFFFFF00FFFFFFFFFFFFFFFFFF
310
FFFFFFFFFFFF00FFFF00000000000000000000FFFFFFFF00FFFFFFFFFFFFFFFFFFFFFFFFFFFF00FFFF00FFFFFFFFFFFFFFFFFF0000FFFF00
102
{BLKREFS
331
356
102
}
  0
BLOCK_RECORD
  5
33C
330
1
100
AcDbSymbolTableRecord
100
AcDbBlockTableRecord
  2
AI9-BLK3
340
0
310
2800000020000000200000000100080000000000000400000000000000000000000000000000000000000000000080000080000000808000800000008000800080800000C0C0C000C0DCC000F0CAA6000020400000206000002080000020A0000020C0000020E00000400000004020000040400000406000004080000040A0
310
000040C0000040E00000600000006020000060400000606000006080000060A0000060C0000060E00000800000008020000080400000806000008080000080A0000080C0000080E00000A0000000A0200000A0400000A0600000A0800000A0A00000A0C00000A0E00000C0000000C0200000C0400000C0600000C0800000C0
310
A00000C0C00000C0E00000E0000000E0200000E0400000E0600000E0800000E0A00000E0C00000E0E00040000000400020004000400040006000400080004000A0004000C0004000E00040200000402020004020400040206000402080004020A0004020C0004020E000404000004040200040404000404060004040800040
310
40A0004040C0004040E00040600000406020004060400040606000406080004060A0004060C0004060E00040800000408020004080400040806000408080004080A0004080C0004080E00040A0000040A0200040A0400040A0600040A0800040A0A00040A0C00040A0E00040C0000040C0200040C0400040C0600040C08000
310
40C0A00040C0C00040C0E00040E0000040E0200040E0400040E0600040E0800040E0A00040E0C00040E0E00080000000800020008000400080006000800080008000A0008000C0008000E00080200000802020008020400080206000802080008020A0008020C0008020E00080400000804020008040400080406000804080
310
008040A0008040C0008040E00080600000806020008060400080606000806080008060A0008060C0008060E00080800000808020008080400080806000808080008080A0008080C0008080E00080A0000080A0200080A0400080A0600080A0800080A0A00080A0C00080A0E00080C0000080C0200080C0400080C0600080C0
310
800080C0A00080C0C00080C0E00080E0000080E0200080E0400080E0600080E0800080E0A00080E0C00080E0E000C0000000C0002000C0004000C0006000C0008000C000A000C000C000C000E000C0200000C0202000C0204000C0206000C0208000C020A000C020C000C020E000C0400000C0402000C0404000C0406000C0
310
408000C040A000C040C000C040E000C0600000C0602000C0604000C0606000C0608000C060A000C060C000C060E000C0800000C0802000C0804000C0806000C0808000C080A000C080C000C080E000C0A00000C0A02000C0A04000C0A06000C0A08000C0A0A000C0A0C000C0A0E000C0C00000C0C02000C0C04000C0C06000
310
C0C08000C0C0A000F0FBFF00A4A0A000808080000000FF0000FF000000FFFF00FF000000FF00FF00FFFF0000FFFFFF00FFFFFFFFFFFFFFFFFFFFFFFFFFFFFFFFFFFFFFFFFFFFFFFFFFFFFFFFFFFFFFFFFFFFFFFFFFFFFFFFFFFFFFFFFFFFFF0000FFFFFFFFFFFFFFFFFFFFFFFFFFFFFFFFFFFFFFFFFFFFFFFFFFFFFFFFFFFF
310
0000FFFFFFFFFFFFFFFFFFFFFFFFFFFFFFFFFFFFFFFFFFFFFFFFFFFFFFFFFFFF0000FFFFFFFFFFFFFFFFFFFFFFFFFFFFFFFFFFFFFFFFFFFFFFFFFFFFFFFFFFFF0000FFFFFFFFFFFFFFFFFFFFFFFFFFFFFFFFFFFFFFFFFFFFFFFFFFFFFFFFFFFF0000FFFFFFFFFFFFFFFFFFFFFFFFFFFFFFFFFFFFFFFFFFFFFFFFFFFFFFFFFF
310
FF0000FFFFFFFFFFFFFFFFFFFFFFFFFFFFFFFFFFFFFFFFFFFFFFFFFFFFFFFFFFFF0000FFFFFFFFFFFFFFFFFFFFFFFFFFFFFFFFFFFFFFFFFFFFFFFFFFFFFFFFFFFF0000FFFFFFFFFFFFFFFFFFFFFFFFFFFFFFFFFFFFFFFFFFFFFFFFFFFFFFFFFFFF0000FFFFFFFFFFFFFFFFFFFFFFFFFFFFFFFFFFFFFFFFFFFFFFFFFFFFFFFF
310
FFFF0000FFFFFFFFFFFFFFFFFFFFFFFFFFFFFFFFFFFFFFFFFFFFFFFFFFFFFFFFFFFF0000FFFFFFFFFFFFFFFFFFFFFFFFFFFFFFFFFFFFFFFFFFFFFFFFFFFFFFFFFFFF0000FFFFFFFFFFFFFFFFFFFFFFFFFFFFFFFFFFFFFFFFFFFFFFFFFFFFFFFFFFFF0000FFFFFFFFFFFFFFFFFFFFFFFFFFFFFFFFFFFFFFFFFFFFFFFFFFFFFF
310
FFFFFF0000FFFFFFFFFFFFFFFFFFFFFFFFFFFFFFFFFFFFFFFFFFFFFFFFFFFFFFFFFFFF0000FFFFFFFFFFFFFFFFFFFFFFFFFFFFFFFFFFFFFFFFFFFFFFFFFFFFFFFFFFFF0000FFFFFFFFFFFFFFFFFFFFFFFFFFFFFFFFFFFFFFFFFFFFFFFFFFFFFFFFFFFF0000FFFFFFFFFFFFFFFFFFFFFFFFFFFFFFFFFFFFFFFFFFFFFFFFFFFF
310
FFFFFFFF0000FFFFFFFFFFFFFFFFFFFFFFFFFFFFFFFFFFFFFFFFFFFFFFFFFFFFFFFFFFFF0000FFFFFFFFFFFFFFFFFFFFFFFFFFFFFFFFFFFFFFFFFFFFFFFFFFFFFFFFFFFF0000FFFFFFFFFFFFFFFFFFFFFFFFFFFFFFFFFFFFFFFFFFFFFFFFFFFFFFFFFFFF0000FFFFFFFFFFFFFFFFFFFFFFFFFFFFFFFFFFFFFFFFFFFFFFFFFF
310
FFFFFFFFFF0000FFFFFFFFFFFFFFFFFFFFFFFFFFFFFFFFFFFFFFFFFFFFFFFFFFFFFFFFFFFF0000FFFFFFFFFFFFFFFFFFFFFFFFFFFFFFFFFFFFFFFFFFFFFFFFFFFFFFFFFFFF0000FFFFFFFFFFFFFFFFFFFFFFFFFFFFFFFFFFFFFFFFFFFFFFFFFFFFFFFFFFFF0000FFFFFFFFFFFFFFFFFFFFFFFFFFFFFFFFFFFFFFFFFFFFFFFF
310
FFFFFFFFFFFF0000FFFFFFFFFFFFFFFFFFFFFFFFFFFFFFFFFFFFFFFFFFFFFFFFFFFFFFFFFFFF0000FFFFFFFFFFFFFFFFFFFFFFFFFFFFFFFFFFFFFFFFFFFFFFFFFFFFFFFFFFFF0000FFFFFFFFFFFFFFFFFFFFFFFFFFFFFFFFFFFFFFFFFFFFFFFFFFFFFFFFFFFF0000FFFFFFFFFFFFFFFFFFFFFFFFFFFFFFFFFFFFFFFFFFFFFF
310
FFFFFFFFFFFFFF0000FFFFFFFFFFFFFFFFFFFFFFFFFFFFFFFFFFFFFFFFFFFFFFFFFFFFFFFFFFFFFFFFFFFFFFFFFFFFFFFFFFFFFFFFFFFFFF
102
{BLKREFS
331
357
102
}
  0
BLOCK_RECORD
  5
341
330
1
100
AcDbSymbolTableRecord
100
AcDbBlockTableRecord
  2
AI9-BLK2
340
0
310
2800000020000000200000000100080000000000000400000000000000000000000000000000000000000000000080000080000000808000800000008000800080800000C0C0C000C0DCC000F0CAA6000020400000206000002080000020A0000020C0000020E00000400000004020000040400000406000004080000040A0
310
000040C0000040E00000600000006020000060400000606000006080000060A0000060C0000060E00000800000008020000080400000806000008080000080A0000080C0000080E00000A0000000A0200000A0400000A0600000A0800000A0A00000A0C00000A0E00000C0000000C0200000C0400000C0600000C0800000C0
310
A00000C0C00000C0E00000E0000000E0200000E0400000E0600000E0800000E0A00000E0C00000E0E00040000000400020004000400040006000400080004000A0004000C0004000E00040200000402020004020400040206000402080004020A0004020C0004020E000404000004040200040404000404060004040800040
310
40A0004040C0004040E00040600000406020004060400040606000406080004060A0004060C0004060E00040800000408020004080400040806000408080004080A0004080C0004080E00040A0000040A0200040A0400040A0600040A0800040A0A00040A0C00040A0E00040C0000040C0200040C0400040C0600040C08000
310
40C0A00040C0C00040C0E00040E0000040E0200040E0400040E0600040E0800040E0A00040E0C00040E0E00080000000800020008000400080006000800080008000A0008000C0008000E00080200000802020008020400080206000802080008020A0008020C0008020E00080400000804020008040400080406000804080
310
008040A0008040C0008040E00080600000806020008060400080606000806080008060A0008060C0008060E00080800000808020008080400080806000808080008080A0008080C0008080E00080A0000080A0200080A0400080A0600080A0800080A0A00080A0C00080A0E00080C0000080C0200080C0400080C0600080C0
310
800080C0A00080C0C00080C0E00080E0000080E0200080E0400080E0600080E0800080E0A00080E0C00080E0E000C0000000C0002000C0004000C0006000C0008000C000A000C000C000C000E000C0200000C0202000C0204000C0206000C0208000C020A000C020C000C020E000C0400000C0402000C0404000C0406000C0
310
408000C040A000C040C000C040E000C0600000C0602000C0604000C0606000C0608000C060A000C060C000C060E000C0800000C0802000C0804000C0806000C0808000C080A000C080C000C080E000C0A00000C0A02000C0A04000C0A06000C0A08000C0A0A000C0A0C000C0A0E000C0C00000C0C02000C0C04000C0C06000
310
C0C08000C0C0A000F0FBFF00A4A0A000808080000000FF0000FF000000FFFF00FF000000FF00FF00FFFF0000FFFFFF00FFFFFFFFFFFFFFFFFFFFFFFFFFFFFFFFFFFFFFFFFFFFFFFFFFFFFFFFFFFFFFFFFFFFFFFFFFFFFFFFFFFFFFFFFFFFFF0000FFFFFFFFFFFFFFFFFFFFFFFFFFFFFFFFFFFFFFFFFFFFFFFFFFFFFFFFFFFF
310
0000FFFFFFFFFFFFFFFFFFFFFFFFFFFFFFFFFFFFFFFFFFFFFFFFFFFFFFFFFFFF0000FFFFFFFFFFFFFFFFFFFFFFFFFFFFFFFFFFFFFFFFFFFFFFFFFFFFFFFFFF00FFFF00FFFFFFFFFFFFFFFFFFFFFFFFFFFFFFFFFFFFFFFFFFFFFFFFFFFFFFFF00FFFF00FFFFFFFFFFFFFFFFFFFFFFFFFFFFFFFFFFFFFFFFFFFFFFFFFFFFFFFF
310
00FF0000FFFFFFFFFFFFFFFFFFFFFFFFFFFFFFFFFFFFFFFFFFFFFFFFFFFFFFFF00FF0000FFFFFFFFFFFFFFFFFFFFFFFFFFFFFFFFFFFFFFFFFFFFFFFFFFFFFFFF00FF0000FFFFFFFFFFFFFFFFFFFFFFFFFFFFFFFFFFFFFFFFFFFFFFFFFFFFFFFF00000000FFFFFFFFFFFFFFFFFFFFFFFFFFFFFFFFFFFFFFFFFFFFFFFFFFFFFF
310
00FF00FF0000FFFFFFFFFFFFFFFFFFFFFFFFFFFFFFFFFFFFFFFFFFFFFFFFFFFF00FF00FF0000FFFFFFFFFFFFFFFFFFFFFFFFFFFFFFFFFFFFFFFFFFFFFFFFFFFF00FF00FF0000FFFFFFFFFFFFFFFFFFFFFFFFFFFFFFFFFFFFFFFFFFFFFFFFFFFF00FF00FF0000FFFFFFFFFFFFFFFFFFFFFFFFFFFFFFFFFFFFFFFFFFFFFFFFFF
310
FF00FF00FF0000FFFFFFFFFFFFFFFFFFFFFFFFFFFFFFFFFFFFFFFFFFFFFFFFFFFF0000FFFF0000FFFFFFFFFFFFFFFFFFFFFFFFFFFFFFFFFFFFFFFFFFFFFFFFFF00FF00FFFF00FF00FFFFFFFFFFFFFFFFFFFFFFFFFFFFFFFFFFFFFFFFFFFFFFFF00FF00FFFF00FF00FFFFFFFFFFFFFFFFFFFFFFFFFFFFFFFFFFFFFFFFFFFFFF
310
FF00FF00FFFFFF0000FFFFFFFFFFFFFFFFFFFFFFFFFFFFFFFFFFFFFFFFFFFFFFFF00FF00FFFFFF0000FFFFFFFFFFFFFFFFFFFFFFFFFFFFFFFFFFFFFFFFFFFFFFFF00FF00FFFFFF0000FFFFFFFFFFFFFFFFFFFFFFFFFFFFFFFFFFFFFFFFFFFFFFFF0000FFFFFFFF0000FFFFFFFFFFFFFFFFFFFFFFFFFFFFFFFFFFFFFFFFFFFF
310
FF00FF00FFFFFFFF00FF00FFFFFFFFFFFFFFFFFFFFFFFFFFFFFFFFFFFFFFFFFFFF00FF00FFFFFFFF00FF00FFFFFFFFFFFFFFFFFFFFFFFFFFFFFFFFFFFFFFFFFFFF00FF00FFFFFFFF00FF00FFFFFFFFFFFFFFFFFFFFFFFFFFFFFFFFFFFFFFFFFFFF00FF00FFFFFFFF00FF00FFFFFFFFFFFFFFFFFFFFFFFFFFFFFFFFFFFFFFFF
310
FFFF00FF00FFFFFFFFFF0000FFFFFFFFFFFFFFFFFFFFFFFFFFFFFFFFFFFFFFFFFFFF0000FFFFFFFFFFFF0000FFFFFFFFFFFFFFFFFFFFFFFFFFFFFFFFFFFFFFFFFF00FF00FFFFFFFFFFFF00FF00FFFFFFFFFFFFFFFFFFFFFFFFFFFFFFFFFFFFFFFF00FF00FFFFFFFFFFFF00FF00FFFFFFFFFFFFFFFFFFFFFFFFFFFFFFFFFFFF
310
FFFF000000FFFFFFFFFFFF000000FFFFFFFFFFFFFFFFFFFFFFFFFFFFFFFFFFFFFFFFFFFFFFFFFFFFFFFFFFFFFFFFFFFFFFFFFFFFFFFFFFFF
102
{BLKREFS
331
358
102
}
  0
BLOCK_RECORD
  5
346
330
1
100
AcDbSymbolTableRecord
100
AcDbBlockTableRecord
  2
AI9-BLK1
340
0
310
2800000020000000200000000100080000000000000400000000000000000000000000000000000000000000000080000080000000808000800000008000800080800000C0C0C000C0DCC000F0CAA6000020400000206000002080000020A0000020C0000020E00000400000004020000040400000406000004080000040A0
310
000040C0000040E00000600000006020000060400000606000006080000060A0000060C0000060E00000800000008020000080400000806000008080000080A0000080C0000080E00000A0000000A0200000A0400000A0600000A0800000A0A00000A0C00000A0E00000C0000000C0200000C0400000C0600000C0800000C0
310
A00000C0C00000C0E00000E0000000E0200000E0400000E0600000E0800000E0A00000E0C00000E0E00040000000400020004000400040006000400080004000A0004000C0004000E00040200000402020004020400040206000402080004020A0004020C0004020E000404000004040200040404000404060004040800040
310
40A0004040C0004040E00040600000406020004060400040606000406080004060A0004060C0004060E00040800000408020004080400040806000408080004080A0004080C0004080E00040A0000040A0200040A0400040A0600040A0800040A0A00040A0C00040A0E00040C0000040C0200040C0400040C0600040C08000
310
40C0A00040C0C00040C0E00040E0000040E0200040E0400040E0600040E0800040E0A00040E0C00040E0E00080000000800020008000400080006000800080008000A0008000C0008000E00080200000802020008020400080206000802080008020A0008020C0008020E00080400000804020008040400080406000804080
310
008040A0008040C0008040E00080600000806020008060400080606000806080008060A0008060C0008060E00080800000808020008080400080806000808080008080A0008080C0008080E00080A0000080A0200080A0400080A0600080A0800080A0A00080A0C00080A0E00080C0000080C0200080C0400080C0600080C0
310
800080C0A00080C0C00080C0E00080E0000080E0200080E0400080E0600080E0800080E0A00080E0C00080E0E000C0000000C0002000C0004000C0006000C0008000C000A000C000C000C000E000C0200000C0202000C0204000C0206000C0208000C020A000C020C000C020E000C0400000C0402000C0404000C0406000C0
310
408000C040A000C040C000C040E000C0600000C0602000C0604000C0606000C0608000C060A000C060C000C060E000C0800000C0802000C0804000C0806000C0808000C080A000C080C000C080E000C0A00000C0A02000C0A04000C0A06000C0A08000C0A0A000C0A0C000C0A0E000C0C00000C0C02000C0C04000C0C06000
310
C0C08000C0C0A000F0FBFF00A4A0A000808080000000FF0000FF000000FFFF00FF000000FF00FF00FFFF0000FFFFFF00FFFFFFFFFFFFFFFFFFFFFFFFFFFFFFFFFFFFFFFFFFFFFFFFFFFFFFFFFFFFFFFFFFFFFFFFFFFFFFFFFFFFFF00000000000000000000FFFFFFFFFFFFFFFFFFFFFFFFFFFFFFFFFFFFFFFFFFFF00FFFFFF
310
FFFFFFFFFF00FFFFFFFFFFFFFFFFFFFFFFFFFFFFFFFFFFFFFFFFFFFF00FFFFFFFFFFFFFFFF00FFFFFFFFFFFFFFFFFFFFFFFFFFFFFFFFFFFFFFFFFFFF00FFFFFFFFFFFFFFFF00FFFFFFFFFFFFFFFFFFFFFFFFFFFFFFFFFFFFFFFFFFFF00FF0000000000000000FFFFFFFFFFFFFFFFFFFFFFFFFFFFFFFFFFFFFFFFFFFF00FF00
310
FFFFFFFFFFFFFFFFFFFFFFFFFFFFFFFFFFFFFFFFFFFFFFFFFFFFFFFFFF00FF00FFFFFFFFFFFFFFFFFFFFFFFFFFFFFFFFFFFFFFFFFFFFFFFFFFFFFFFFFF00FF00FFFFFFFFFFFFFFFFFFFFFFFFFFFFFFFFFFFFFFFFFFFFFFFFFFFFFFFFFF00FF00FFFFFFFFFFFFFFFFFFFFFFFFFFFFFFFFFFFFFFFFFFFFFFFFFFFFFFFFFF00FF
310
00FFFFFFFFFFFFFFFFFFFFFFFFFFFFFFFFFFFFFFFFFFFFFFFFFFFFFFFFFF00FF00FFFFFFFFFFFFFFFFFFFFFFFFFFFFFFFFFFFFFFFFFFFFFFFFFFFFFFFFFF00FF00FFFFFFFFFFFFFFFFFFFFFFFFFFFFFFFFFFFFFFFFFFFFFFFFFFFFFFFFFF00FF00FFFFFFFFFFFFFFFFFFFFFFFFFFFFFFFFFFFFFFFFFFFFFFFFFFFFFFFFFF00
310
FF00000000000000FFFFFFFFFFFFFFFFFFFFFFFFFFFFFFFFFFFFFFFFFFFFFF00FFFFFFFFFFFFFF00FFFFFFFFFFFFFFFFFFFFFFFFFFFFFFFFFFFFFFFFFFFFFF00FFFFFFFFFFFFFF00FFFFFFFFFFFFFFFFFFFFFFFFFFFFFFFFFFFFFFFFFFFFFF00FFFFFFFFFFFFFF00FFFFFFFFFFFFFFFFFFFFFFFFFFFFFFFFFFFFFFFFFFFFFF
310
00FF00000000000000FFFFFFFFFFFFFFFFFFFFFFFFFFFFFFFFFFFFFFFFFFFFFF00FF00FFFFFFFFFFFFFFFFFFFFFFFFFFFFFFFFFFFFFFFFFFFFFFFFFFFFFFFFFF00FF00FFFFFFFFFFFFFFFFFFFFFFFFFFFFFFFFFFFFFFFFFFFFFFFFFFFFFFFFFF00FF00FFFFFFFFFFFFFFFFFFFFFFFFFFFFFFFFFFFFFFFFFFFFFFFFFFFFFFFF
310
FF00FF00FFFFFFFFFFFFFFFFFFFFFFFFFFFFFFFFFFFFFFFFFFFFFFFFFFFFFFFFFF00FF00FFFFFFFFFFFFFFFFFFFFFFFFFFFFFFFFFFFFFFFFFFFFFFFFFFFFFFFFFF00FF00FFFFFFFFFFFFFFFFFFFFFFFFFFFFFFFFFFFFFFFFFFFFFFFFFFFFFFFFFF00FF00FFFFFFFFFFFFFFFFFFFFFFFFFFFFFFFFFFFFFFFFFFFFFFFFFFFFFF
310
FFFF00FF0000000000000000FFFFFFFFFFFFFFFFFFFFFFFFFFFFFFFFFFFFFFFFFFFF00FFFFFFFFFFFFFFFF00FFFFFFFFFFFFFFFFFFFFFFFFFFFFFFFFFFFFFFFFFFFF00FFFFFFFFFFFFFFFF00FFFFFFFFFFFFFFFFFFFFFFFFFFFFFFFFFFFFFFFFFFFF00FFFFFFFFFFFFFFFF00FFFFFFFFFFFFFFFFFFFFFFFFFFFFFFFFFFFFFF
310
FFFFFF00000000000000000000FFFFFFFFFFFFFFFFFFFFFFFFFFFFFFFFFFFFFFFFFFFFFFFFFFFFFFFFFFFFFFFFFFFFFFFFFFFFFFFFFFFFFF
102
{BLKREFS
331
359
102
}
  0
BLOCK_RECORD
  5
34B
330
1
100
AcDbSymbolTableRecord
100
AcDbBlockTableRecord
  2
HD_LLC_logo_OT5
340
0
310
2800000020000000200000000100080000000000000400000000000000000000000000000000000000000000000080000080000000808000800000008000800080800000C0C0C000C0DCC000F0CAA6000020400000206000002080000020A0000020C0000020E00000400000004020000040400000406000004080000040A0
310
000040C0000040E00000600000006020000060400000606000006080000060A0000060C0000060E00000800000008020000080400000806000008080000080A0000080C0000080E00000A0000000A0200000A0400000A0600000A0800000A0A00000A0C00000A0E00000C0000000C0200000C0400000C0600000C0800000C0
310
A00000C0C00000C0E00000E0000000E0200000E0400000E0600000E0800000E0A00000E0C00000E0E00040000000400020004000400040006000400080004000A0004000C0004000E00040200000402020004020400040206000402080004020A0004020C0004020E000404000004040200040404000404060004040800040
310
40A0004040C0004040E00040600000406020004060400040606000406080004060A0004060C0004060E00040800000408020004080400040806000408080004080A0004080C0004080E00040A0000040A0200040A0400040A0600040A0800040A0A00040A0C00040A0E00040C0000040C0200040C0400040C0600040C08000
310
40C0A00040C0C00040C0E00040E0000040E0200040E0400040E0600040E0800040E0A00040E0C00040E0E00080000000800020008000400080006000800080008000A0008000C0008000E00080200000802020008020400080206000802080008020A0008020C0008020E00080400000804020008040400080406000804080
310
008040A0008040C0008040E00080600000806020008060400080606000806080008060A0008060C0008060E00080800000808020008080400080806000808080008080A0008080C0008080E00080A0000080A0200080A0400080A0600080A0800080A0A00080A0C00080A0E00080C0000080C0200080C0400080C0600080C0
310
800080C0A00080C0C00080C0E00080E0000080E0200080E0400080E0600080E0800080E0A00080E0C00080E0E000C0000000C0002000C0004000C0006000C0008000C000A000C000C000C000E000C0200000C0202000C0204000C0206000C0208000C020A000C020C000C020E000C0400000C0402000C0404000C0406000C0
310
408000C040A000C040C000C040E000C0600000C0602000C0604000C0606000C0608000C060A000C060C000C060E000C0800000C0802000C0804000C0806000C0808000C080A000C080C000C080E000C0A00000C0A02000C0A04000C0A06000C0A08000C0A0A000C0A0C000C0A0E000C0C00000C0C02000C0C04000C0C06000
310
C0C08000C0C0A000F0FBFF00A4A0A000808080000000FF0000FF000000FFFF00FF000000FF00FF00FFFF0000FFFFFF00FFFFFFFFFFFFFFFFFFFFFFFFFFFFFFFFFFFFFFFFFFFFFFFFFFFFFFFFFFFFFFFFFFFFFFFFFFFFFFFFFFFFFFFFFFFFFFFFFFFFFFFFFFFFFFFFFFFFFFFFFFFFFFFFFFFFFFFFFFFFFFFFFFFFFFFFFFFFFF
310
FFFFFFFFFFFFFFFFFFFFFFFFFFFFFFFFFFFFFFFFFFFFFFFFFFFFFFFFFFFFFFFFFFFFFFFFFFFFFFFFFFFFFFFFFFFFFFFFFFFFFFFFFFFFFFFFFFFFFFFFFFFFFFFFFFFFFFFFFFFFFFFFFFFFFFFFFFFFFFFFFFFFFFFFFFFFFFFFFFFFFFFFFFFFFFFFFFFFFFFFFFFFFFFFFFFFFFFFFFFFFFFFFFFFFFFFFFFFFFFFFFFFFFFFFFFFFF
310
FFFFFFFFFFFFFFFFFFFFFFFFFFFFFFFFFFFFFFFFFFFFFFFFFFFFFFFFFFFFFFFFFFFFFFFFFFFFFFFFFFFFFFFFFFFFFFFFFFFFFFFFFFFFFFFFFFFFFFFFFFFFFFFFFFFFFFFFFFFFFFFFFFFFFFFFFFFFFFFFFFFFFFFFFFFFFFFFFFFFFFFFFFFFFFFFFFFFFFFFFFFFFFFFFFFFFFFFFFFFFFFFFFFFFFFFFFFFFFFFFFFFFFFFFFFFFF
310
FFFFFFFFFFFFFFFFFFFFFFFFFFFFFFFFFFFFFFFFFFFFFFFFFFFFFFFFFFFFFFFFFFFFFFFFFFFFFFFFFFFFFFFFFFFFFFFFFFFFFFFF0000000000000000000000000000000000000000000000000000000000FFFFFF0000000000000000000000000000000000FFFFFFFFFFFFFFFFFFFF0000FFFFFF0000000000000000000000
310
00000000000000FFFFFFFFFFFFFFFFFFFF0000FFFF000000000000000000000000000000000000FFFFFF00000000FFFFFF0000FFFF00FFFFFFFFFFFF00FFFFFF00FFFFFFFFFF00FFFFFF0000000000FFFF0000FFFF00FFFFFFFFFFFF00FFFFFF00FFFFFFFFFF00FFFFFF00FFFF0000FFFF0000FFFF00FFFFFFFFFFFF00FFFF
310
00FFFFFFFFFFFF00FFFFFF00FFFF0000FFFF0000FFFF0000000000FFFF00000000FFFFFF00000000FFFFFF00000000FFFFFF0000FFFFFFFFFFFF00FFFFFFFFFFFFFFFFFF00FFFFFFFFFFFFFFFFFFFFFFFFFF0000FFFFFFFFFFFF00FFFFFFFFFFFFFFFFFF00FFFFFFFFFFFFFFFFFFFFFFFFFF0000FFFFFFFFFFFF00FFFFFFFF
310
FFFFFFFFFF00FFFFFFFFFFFFFFFFFFFFFFFF0000FFFFFF0000000000FFFF00000000FFFFFF0000000000000000000000000000FFFFFFFF00FFFFFFFFFFFF00FFFF00FFFFFFFFFFFF00FFFFFFFFFFFFFFFFFFFFFFFFFFFF00FFFFFFFFFFFF00FFFFFF00FFFFFFFFFF00FFFFFFFFFFFFFFFFFFFFFFFFFFFF0000000000000000
310
FFFFFF00000000000000FFFFFFFFFFFFFFFFFFFFFFFFFFFFFFFFFFFFFFFFFFFFFFFFFFFFFFFFFFFFFFFFFFFFFFFFFFFFFFFFFFFFFFFFFFFFFFFFFFFFFFFFFFFFFFFFFFFFFFFFFFFFFFFFFFFFFFFFFFFFFFFFFFFFFFFFFFFFFFFFFFFFFFFFFFFFFFFFFFFFFFFFFFFFFFFFFFFFFFFFFFFFFFFFFFFFFFFFFFFFFFFFFFFFFFFFFF
310
FFFFFFFFFFFFFFFFFFFFFFFFFFFFFFFFFFFFFFFFFFFFFFFFFFFFFFFFFFFFFFFFFFFFFFFFFFFFFFFFFFFFFFFFFFFFFFFFFFFFFFFFFFFFFFFF
102
{BLKREFS
331
371
102
}
  0
BLOCK_RECORD
  5
370
330
1
100
AcDbSymbolTableRecord
100
AcDbBlockTableRecord
  2
HD logo-new
340
0
310
2800000020000000200000000100080000000000000400000000000000000000000000000000000000000000000080000080000000808000800000008000800080800000C0C0C000C0DCC000F0CAA6000020400000206000002080000020A0000020C0000020E00000400000004020000040400000406000004080000040A0
310
000040C0000040E00000600000006020000060400000606000006080000060A0000060C0000060E00000800000008020000080400000806000008080000080A0000080C0000080E00000A0000000A0200000A0400000A0600000A0800000A0A00000A0C00000A0E00000C0000000C0200000C0400000C0600000C0800000C0
310
A00000C0C00000C0E00000E0000000E0200000E0400000E0600000E0800000E0A00000E0C00000E0E00040000000400020004000400040006000400080004000A0004000C0004000E00040200000402020004020400040206000402080004020A0004020C0004020E000404000004040200040404000404060004040800040
310
40A0004040C0004040E00040600000406020004060400040606000406080004060A0004060C0004060E00040800000408020004080400040806000408080004080A0004080C0004080E00040A0000040A0200040A0400040A0600040A0800040A0A00040A0C00040A0E00040C0000040C0200040C0400040C0600040C08000
310
40C0A00040C0C00040C0E00040E0000040E0200040E0400040E0600040E0800040E0A00040E0C00040E0E00080000000800020008000400080006000800080008000A0008000C0008000E00080200000802020008020400080206000802080008020A0008020C0008020E00080400000804020008040400080406000804080
310
008040A0008040C0008040E00080600000806020008060400080606000806080008060A0008060C0008060E00080800000808020008080400080806000808080008080A0008080C0008080E00080A0000080A0200080A0400080A0600080A0800080A0A00080A0C00080A0E00080C0000080C0200080C0400080C0600080C0
310
800080C0A00080C0C00080C0E00080E0000080E0200080E0400080E0600080E0800080E0A00080E0C00080E0E000C0000000C0002000C0004000C0006000C0008000C000A000C000C000C000E000C0200000C0202000C0204000C0206000C0208000C020A000C020C000C020E000C0400000C0402000C0404000C0406000C0
310
408000C040A000C040C000C040E000C0600000C0602000C0604000C0606000C0608000C060A000C060C000C060E000C0800000C0802000C0804000C0806000C0808000C080A000C080C000C080E000C0A00000C0A02000C0A04000C0A06000C0A08000C0A0A000C0A0C000C0A0E000C0C00000C0C02000C0C04000C0C06000
310
C0C08000C0C0A000F0FBFF00A4A0A000808080000000FF0000FF000000FFFF00FF000000FF00FF00FFFF0000FFFFFF00FFFFFFFFFFFFFFFFFFFFFFFFFFFFFFFFFFFFFFFFFFFFFFFFFFFFFFFFFFFFFFFFFFFFFFFFFFFFFFFFFFFFFFFFFFFFFFFFFFFFFFFFFFFFFFFFFFFFFFFFFFFFFFFFFFFFFFFFFFFFFFFFFFFFFFFFFFFFFF
310
FFFFFFFFFFFFFFFFFFFFFFFFFFFFFFFFFFFFFFFFFFFFFFFFFFFFFFFFFFFFFFFFFFFFFFFFFFFFFFFFFFFFFFFFFFFFFFFFFFFFFFFFFFFFFFFFFFFFFFFFFFFFFFFFFFFFFFFFFFFFFFFFFFFFFFFFFFFFFFFFFFFFFFFFFFFFFFFFFFFFFFFFFFFFFFFFFFFFFFFFFFFFFFFFFFFFFFFFFFFFFFFFFFFFFFFFFFFFFFFFFFFFFFFFFFFFFF
310
FFFFFFFFFFFFFFFFFFFFFFFFFFFFFFFFFFFFFFFFFFFFFFFFFFFFFFFFFFFFFFFFFFFFFFFFFFFFFFFFFFFFFFFFFFFFFFFFFFFFFFFFFFFFFFFFFFFFFFFFFFFFFFFFFFFFFFFFFFFFFFFFFFFFFFFFFFFFFFFFFFFFFFFFFFFFFFFFFFFFFFFFFFFFFFFFFFFFFFFFFFFFFFFFFFFFFFFFFFFFFFFFFFFFFFFFFFFFFFFFFFFFFFFFFFFFFF
310
FFFFFFFFFFFFFFFFFFFFFFFFFFFFFFFFFFFFFFFFFFFFFFFFFFFFFFFFFFFFFFFFFFFFFFFFFFFFFFFFFFFFFFFFFFFFFFFFFFFFFFFF0000000000000000000000000000000000000000000000000000000000FFFFFF0000000000000000000000000000000000FFFFFFFFFFFFFFFFFFFF0000FFFFFF0000000000000000000000
310
00000000000000FFFFFFFFFFFFFFFFFFFF0000FFFF000000000000000000000000000000000000FFFFFF00000000FFFFFF0000FFFF00FFFFFFFFFFFF00FFFFFF00FFFFFFFFFF00FFFFFF0000000000FFFF0000FFFF00FFFFFFFFFFFF00FFFFFF00FFFFFFFFFF00FFFFFF00FFFF0000FFFF0000FFFF00FFFFFFFFFFFF00FFFF
310
00FFFFFFFFFFFF00FFFFFF00FFFF0000FFFF0000FFFF0000000000FFFF00000000FFFFFF00000000FFFFFF00000000FFFFFF0000FFFFFFFFFFFF00FFFFFFFFFFFFFFFFFF00FFFFFFFFFFFFFFFFFFFFFFFFFF0000FFFFFFFFFFFF00FFFFFFFFFFFFFFFFFF00FFFFFFFFFFFFFFFFFFFFFFFFFF0000FFFFFFFFFFFF00FFFFFFFF
310
FFFFFFFFFF00FFFFFFFFFFFFFFFFFFFFFFFF0000FFFFFF0000000000FFFF00000000FFFFFF0000000000000000000000000000FFFFFFFF00FFFFFFFFFFFF00FFFF00FFFFFFFFFFFF00FFFFFFFFFFFFFFFFFFFFFFFFFFFF00FFFFFFFFFFFF00FFFFFF00FFFFFFFFFF00FFFFFFFFFFFFFFFFFFFFFFFFFFFF0000000000000000
310
FFFFFF00000000000000FFFFFFFFFFFFFFFFFFFFFFFFFFFFFFFFFFFFFFFFFFFFFFFFFFFFFFFFFFFFFFFFFFFFFFFFFFFFFFFFFFFFFFFFFFFFFFFFFFFFFFFFFFFFFFFFFFFFFFFFFFFFFFFFFFFFFFFFFFFFFFFFFFFFFFFFFFFFFFFFFFFFFFFFFFFFFFFFFFFFFFFFFFFFFFFFFFFFFFFFFFFFFFFFFFFFFFFFFFFFFFFFFFFFFFFFFF
310
FFFFFFFFFFFFFFFFFFFFFFFFFFFFFFFFFFFFFFFFFFFFFFFFFFFFFFFFFFFFFFFFFFFFFFFFFFFFFFFFFFFFFFFFFFFFFFFFFFFFFFFFFFFFFFFF
102
{BLKREFS
331
375
102
}
  0
BLOCK_RECORD
  5
374
330
1
100
AcDbSymbolTableRecord
100
AcDbBlockTableRecord
  2
HD Logo
340
0
310
2800000020000000200000000100080000000000000400000000000000000000000000000000000000000000000080000080000000808000800000008000800080800000C0C0C000C0DCC000F0CAA6000020400000206000002080000020A0000020C0000020E00000400000004020000040400000406000004080000040A0
310
000040C0000040E00000600000006020000060400000606000006080000060A0000060C0000060E00000800000008020000080400000806000008080000080A0000080C0000080E00000A0000000A0200000A0400000A0600000A0800000A0A00000A0C00000A0E00000C0000000C0200000C0400000C0600000C0800000C0
310
A00000C0C00000C0E00000E0000000E0200000E0400000E0600000E0800000E0A00000E0C00000E0E00040000000400020004000400040006000400080004000A0004000C0004000E00040200000402020004020400040206000402080004020A0004020C0004020E000404000004040200040404000404060004040800040
310
40A0004040C0004040E00040600000406020004060400040606000406080004060A0004060C0004060E00040800000408020004080400040806000408080004080A0004080C0004080E00040A0000040A0200040A0400040A0600040A0800040A0A00040A0C00040A0E00040C0000040C0200040C0400040C0600040C08000
310
40C0A00040C0C00040C0E00040E0000040E0200040E0400040E0600040E0800040E0A00040E0C00040E0E00080000000800020008000400080006000800080008000A0008000C0008000E00080200000802020008020400080206000802080008020A0008020C0008020E00080400000804020008040400080406000804080
310
008040A0008040C0008040E00080600000806020008060400080606000806080008060A0008060C0008060E00080800000808020008080400080806000808080008080A0008080C0008080E00080A0000080A0200080A0400080A0600080A0800080A0A00080A0C00080A0E00080C0000080C0200080C0400080C0600080C0
310
800080C0A00080C0C00080C0E00080E0000080E0200080E0400080E0600080E0800080E0A00080E0C00080E0E000C0000000C0002000C0004000C0006000C0008000C000A000C000C000C000E000C0200000C0202000C0204000C0206000C0208000C020A000C020C000C020E000C0400000C0402000C0404000C0406000C0
310
408000C040A000C040C000C040E000C0600000C0602000C0604000C0606000C0608000C060A000C060C000C060E000C0800000C0802000C0804000C0806000C0808000C080A000C080C000C080E000C0A00000C0A02000C0A04000C0A06000C0A08000C0A0A000C0A0C000C0A0E000C0C00000C0C02000C0C04000C0C06000
310
C0C08000C0C0A000F0FBFF00A4A0A000808080000000FF0000FF000000FFFF00FF000000FF00FF00FFFF0000FFFFFF00FFFFFFFFFFFFFFFFFFFFFFFFFFFFFFFFFFFFFFFFFFFFFFFFFFFFFFFFFFFFFFFFFFFFFFFFFFFFFFFFFFFFFFFFFFFFFFFFFFFFFFFFFFFFFFFFFFFFFFFFFFFFFFFFFFFFFFFFFFFFFFFFFFFFFFFFFFFFFF
310
FFFFFFFFFFFFFFFFFFFFFFFFFFFFFFFFFFFFFFFFFFFFFFFFFFFFFFFFFFFFFFFFFFFFFFFFFFFFFFFFFFFFFFFFFFFFFFFFFFFFFFFFFFFFFFFFFFFFFFFFFFFFFFFFFFFFFFFFFFFFFFFFFFFFFFFFFFFFFFFFFFFFFFFFFFFFFFFFFFFFFFFFFFFFFFFFFFFFFFFFFFFFFFFFFFFFFFFFFFFFFFFFFFFFFFFFFFFFFFFFFFFFFFFFFFFFFF
310
FFFFFFFFFFFFFFFFFFFFFFFFFFFFFFFFFFFFFFFFFFFFFFFFFFFFFFFFFFFFFFFFFFFFFFFFFFFFFFFFFFFFFFFFFFFFFFFFFFFFFFFFFFFFFFFFFFFFFFFFFFFFFFFFFFFFFFFFFFFFFFFFFFFFFFFFFFFFFFFFFFFFFFFFFFFFFFFFFFFFFFFFFFFFFFFFFFFFFFFFFFFFFFFFFFFFFFFFFFFFFFFFFFFFFFFFFFFFFFFFFFFFFFFFFFFFFF
310
FFFFFFFFFFFFFFFFFFFFFFFFFFFFFFFFFFFFFFFFFFFFFFFFFFFFFFFFFFFFFFFFFFFFFFFFFFFFFFFFFFFFFFFFFFFFFFFFFFFFFFFF0000000000000000000000000000000000000000000000000000000000FFFFFF0000000000000000000000000000000000FFFFFFFFFFFFFFFFFFFF0000FFFFFF0000000000000000000000
310
00000000000000FFFFFFFFFFFFFFFFFFFF0000FFFF000000000000000000000000000000000000FFFFFF00000000FFFFFF0000FFFF00FFFFFFFFFFFF00FFFFFF00FFFFFFFFFF00FFFFFF0000000000FFFF0000FFFF00FFFFFFFFFFFF00FFFFFF00FFFFFFFFFF00FFFFFF00FFFF0000FFFF0000FFFF00FFFFFFFFFFFF00FFFF
310
00FFFFFFFFFFFF00FFFFFF00FFFF0000FFFF0000FFFF0000000000FFFF00000000FFFFFF00000000FFFFFF00000000FFFFFF0000FFFFFFFFFFFF00FFFFFFFFFFFFFFFFFF00FFFFFFFFFFFFFFFFFFFFFFFFFF0000FFFFFFFFFFFF00FFFFFFFFFFFFFFFFFF00FFFFFFFFFFFFFFFFFFFFFFFFFF0000FFFFFFFFFFFF00FFFFFFFF
310
FFFFFFFFFF00FFFFFFFFFFFFFFFFFFFFFFFF0000FFFFFF0000000000FFFF00000000FFFFFF0000000000000000000000000000FFFFFFFF00FFFFFFFFFFFF00FFFF00FFFFFFFFFFFF00FFFFFFFFFFFFFFFFFFFFFFFFFFFF00FFFFFFFFFFFF00FFFFFF00FFFFFFFFFF00FFFFFFFFFFFFFFFFFFFFFFFFFFFF0000000000000000
310
FFFFFF00000000000000FFFFFFFFFFFFFFFFFFFFFFFFFFFFFFFFFFFFFFFFFFFFFFFFFFFFFFFFFFFFFFFFFFFFFFFFFFFFFFFFFFFFFFFFFFFFFFFFFFFFFFFFFFFFFFFFFFFFFFFFFFFFFFFFFFFFFFFFFFFFFFFFFFFFFFFFFFFFFFFFFFFFFFFFFFFFFFFFFFFFFFFFFFFFFFFFFFFFFFFFFFFFFFFFFFFFFFFFFFFFFFFFFFFFFFFFFF
310
FFFFFFFFFFFFFFFFFFFFFFFFFFFFFFFFFFFFFFFFFFFFFFFFFFFFFFFFFFFFFFFFFFFFFFFFFFFFFFFFFFFFFFFFFFFFFFFFFFFFFFFFFFFFFFFF
102
{BLKREFS
331
37B
331
37F
102
}
  0
BLOCK_RECORD
  5
380
330
1
100
AcDbSymbolTableRecord
100
AcDbBlockTableRecord
  2
Harmonic Drive LLC
340
0
310
2800000020000000200000000100080000000000000400000000000000000000000000000000000000000000000080000080000000808000800000008000800080800000C0C0C000C0DCC000F0CAA6000020400000206000002080000020A0000020C0000020E00000400000004020000040400000406000004080000040A0
310
000040C0000040E00000600000006020000060400000606000006080000060A0000060C0000060E00000800000008020000080400000806000008080000080A0000080C0000080E00000A0000000A0200000A0400000A0600000A0800000A0A00000A0C00000A0E00000C0000000C0200000C0400000C0600000C0800000C0
310
A00000C0C00000C0E00000E0000000E0200000E0400000E0600000E0800000E0A00000E0C00000E0E00040000000400020004000400040006000400080004000A0004000C0004000E00040200000402020004020400040206000402080004020A0004020C0004020E000404000004040200040404000404060004040800040
310
40A0004040C0004040E00040600000406020004060400040606000406080004060A0004060C0004060E00040800000408020004080400040806000408080004080A0004080C0004080E00040A0000040A0200040A0400040A0600040A0800040A0A00040A0C00040A0E00040C0000040C0200040C0400040C0600040C08000
310
40C0A00040C0C00040C0E00040E0000040E0200040E0400040E0600040E0800040E0A00040E0C00040E0E00080000000800020008000400080006000800080008000A0008000C0008000E00080200000802020008020400080206000802080008020A0008020C0008020E00080400000804020008040400080406000804080
310
008040A0008040C0008040E00080600000806020008060400080606000806080008060A0008060C0008060E00080800000808020008080400080806000808080008080A0008080C0008080E00080A0000080A0200080A0400080A0600080A0800080A0A00080A0C00080A0E00080C0000080C0200080C0400080C0600080C0
310
800080C0A00080C0C00080C0E00080E0000080E0200080E0400080E0600080E0800080E0A00080E0C00080E0E000C0000000C0002000C0004000C0006000C0008000C000A000C000C000C000E000C0200000C0202000C0204000C0206000C0208000C020A000C020C000C020E000C0400000C0402000C0404000C0406000C0
310
408000C040A000C040C000C040E000C0600000C0602000C0604000C0606000C0608000C060A000C060C000C060E000C0800000C0802000C0804000C0806000C0808000C080A000C080C000C080E000C0A00000C0A02000C0A04000C0A06000C0A08000C0A0A000C0A0C000C0A0E000C0C00000C0C02000C0C04000C0C06000
310
C0C08000C0C0A000F0FBFF00A4A0A000808080000000FF0000FF000000FFFF00FF000000FF00FF00FFFF0000FFFFFF00FFFFFFFFFFFFFFFFFFFFFFFFFFFFFFFFFFFFFFFFFFFFFFFFFFFFFFFFFFFFFFFFFFFFFFFFFFFFFFFFFFFFFFFFFFFFFFFFFFFFFFFFFFFFFFFFFFFFFFFFFFFFFFFFFFFFFFFFFFFFFFFFFFFFFFFFFFFFFF
310
FFFFFFFFFFFFFFFFFFFFFFFFFFFFFFFFFFFFFFFFFFFFFFFFFFFFFFFFFFFFFFFFFFFFFFFFFFFFFFFFFFFFFFFFFFFFFFFFFFFFFFFFFFFFFFFFFFFFFFFFFFFFFFFFFFFFFFFFFFFFFFFFFFFFFFFFFFFFFFFFFFFFFFFFFFFFFFFFFFFFFFFFFFFFFFFFFFFFFFFFFFFFFFFFFFFFFFFFFFFFFFFFFFFFFFFFFFFFFFFFFFFFFFFFFFFFFF
310
FFFFFFFFFFFFFFFFFFFFFFFFFFFFFFFFFFFFFFFFFFFFFFFFFFFFFFFFFFFFFFFFFFFFFFFFFFFFFFFFFFFFFFFFFFFFFFFFFFFFFFFFFFFFFFFFFFFFFFFFFFFFFFFFFFFFFFFFFFFFFFFFFFFFFFFFFFFFFFFFFFFFFFFFFFFFFFFFFFFFFFFFFFFFFFFFFFFFFFFFFFFFFFFFFFFFFFFFFFFFFFFFFFFFFFFFFFFFFFFFFFFFFFFFFFFFFF
310
FFFFFFFFFFFFFFFFFFFFFFFFFFFFFFFFFFFFFFFFFFFFFFFFFFFFFFFFFFFFFFFFFFFFFFFFFFFFFFFFFFFFFFFFFFFFFFFFFFFFFFFFFFFFFFFFFFFFFFFFFFFFFFFFFFFFFFFFFFFFFFFFFFFFFFFFFFFFFFFFFFFFFFFFFFFFFF000000000000000000000000000000000000000000000000FFFFFFFFFFFFFFFF0000000000000000
310
00000000000000000000000000000000FFFFFFFFFFFFFFFFFFFFFFFF00000000FF00000000FF000000000000FFFFFFFFFFFFFFFFFFFFFFFFFFFFFFFF00000000000000000000000000000000FFFFFFFFFFFFFFFFFFFFFFFFFF00000000000000000000FF000000000000FF00000000FFFFFFFFFFFFFFFFFFFF000000000000
310
00000000FF000000000000FF00000000FFFFFFFFFFFFFFFFFFFFFFFFFFFFFFFFFFFFFFFFFFFFFFFFFFFFFFFFFFFFFFFFFFFFFFFFFFFFFFFFFFFFFFFFFFFFFFFFFFFFFFFFFFFFFFFFFFFFFFFFFFFFFFFFFFFFFFFFFFFFFFFFFFFFFFFFFFFFFFFFFFFFFFFFFFFFFFFFFFFFFFFFFFFFFFFFFFFFFFFFFFFFFFFFFFFFFFFFFFFFFF
310
FFFFFFFFFFFFFFFFFFFFFFFFFFFFFFFFFFFFFFFFFFFFFFFFFFFFFFFFFFFFFFFFFFFFFFFFFFFFFFFFFFFFFFFFFFFFFFFFFFFFFFFFFFFFFFFFFFFFFFFFFFFFFFFFFFFFFFFFFFFFFFFFFFFFFFFFFFFFFFFFFFFFFFFFFFFFFFFFFFFFFFFFFFFFFFFFFFFFFFFFFFFFFFFFFFFFFFFFFFFFFFFFFFFFFFFFFFFFFFFFFFFFFFFFFFFFFF
310
FFFFFFFFFFFFFFFFFFFFFFFFFFFFFFFFFFFFFFFFFFFFFFFFFFFFFFFFFFFFFFFFFFFFFFFFFFFFFFFFFFFFFFFFFFFFFFFFFFFFFFFFFFFFFFFFFFFFFFFFFFFFFFFFFFFFFFFFFFFFFFFFFFFFFFFFFFFFFFFFFFFFFFFFFFFFFFFFFFFFFFFFFFFFFFFFFFFFFFFFFFFFFFFFFFFFFFFFFFFFFFFFFFFFFFFFFFFFFFFFFFFFFFFFFFFFFF
310
FFFFFFFFFFFFFFFFFFFFFFFFFFFFFFFFFFFFFFFFFFFFFFFFFFFFFFFFFFFFFFFFFFFFFFFFFFFFFFFFFFFFFFFFFFFFFFFFFFFFFFFFFFFFFFFF
102
{BLKREFS
331
385
331
389
102
}
  0
BLOCK_RECORD
  5
393
330
1
100
AcDbSymbolTableRecord
100
AcDbBlockTableRecord
  2
NTC
340
0
310
2800000020000000200000000100080000000000000400000000000000000000000000000000000000000000000080000080000000808000800000008000800080800000C0C0C000C0DCC000F0CAA6000020400000206000002080000020A0000020C0000020E00000400000004020000040400000406000004080000040A0
310
000040C0000040E00000600000006020000060400000606000006080000060A0000060C0000060E00000800000008020000080400000806000008080000080A0000080C0000080E00000A0000000A0200000A0400000A0600000A0800000A0A00000A0C00000A0E00000C0000000C0200000C0400000C0600000C0800000C0
310
A00000C0C00000C0E00000E0000000E0200000E0400000E0600000E0800000E0A00000E0C00000E0E00040000000400020004000400040006000400080004000A0004000C0004000E00040200000402020004020400040206000402080004020A0004020C0004020E000404000004040200040404000404060004040800040
310
40A0004040C0004040E00040600000406020004060400040606000406080004060A0004060C0004060E00040800000408020004080400040806000408080004080A0004080C0004080E00040A0000040A0200040A0400040A0600040A0800040A0A00040A0C00040A0E00040C0000040C0200040C0400040C0600040C08000
310
40C0A00040C0C00040C0E00040E0000040E0200040E0400040E0600040E0800040E0A00040E0C00040E0E00080000000800020008000400080006000800080008000A0008000C0008000E00080200000802020008020400080206000802080008020A0008020C0008020E00080400000804020008040400080406000804080
310
008040A0008040C0008040E00080600000806020008060400080606000806080008060A0008060C0008060E00080800000808020008080400080806000808080008080A0008080C0008080E00080A0000080A0200080A0400080A0600080A0800080A0A00080A0C00080A0E00080C0000080C0200080C0400080C0600080C0
310
800080C0A00080C0C00080C0E00080E0000080E0200080E0400080E0600080E0800080E0A00080E0C00080E0E000C0000000C0002000C0004000C0006000C0008000C000A000C000C000C000E000C0200000C0202000C0204000C0206000C0208000C020A000C020C000C020E000C0400000C0402000C0404000C0406000C0
310
408000C040A000C040C000C040E000C0600000C0602000C0604000C0606000C0608000C060A000C060C000C060E000C0800000C0802000C0804000C0806000C0808000C080A000C080C000C080E000C0A00000C0A02000C0A04000C0A06000C0A08000C0A0A000C0A0C000C0A0E000C0C00000C0C02000C0C04000C0C06000
310
C0C08000C0C0A000F0FBFF00A4A0A000808080000000FF0000FF000000FFFF00FF000000FF00FF00FFFF0000FFFFFF00FFFFFFFFFFFFFFFFFFFFFFFFFFFFFFFFFFFFFFFFFFFFFFFFFFFFFFFFFFFFFFFFFFFFFFFFFFFFFFFFFFFFFFFFFFFFFFFFFFFFFFFFFFFFFFFFFFFFFFFFFFFFFFFFFFFFFFFFFFFFFFFFFFFFFFFFFFFFFF
310
FFFFFFFFFFFFFFFFFFFFFFFFFFFFFFFFFFFFFFFFFFFFFFFFFFFFFFFFFFFFFFFFFFFFFFFFFFFFFFFFFFFFFFFFFFFFFFFFFFFFFFFFFFFFFFFFFFFFFFFFFFFFFFFFFFFFFFFFFFFFFFFFFFFFFFFFFFFFFFFFFFFFFFFFFFFFFFFFFFFFFFFFFFFFFFFFFFFFFFFFFFFFFFFFFFFFFFFFFFFFFFFFFFFFFFFFFFFFFFFFFFFFFFFFFFFFFF
310
FFFFFFFFFFFFFFFFFFFFFFFFFFFFFFFFFFFFFFFFFFFFFFFFFFFFFFFFFFFFFFFFFFFFFFFFFFFFFFFFFFFFFFFFFFFFFFFFFFFFFFFFFFFFFFFFFFFFFFFFFFFFFFFFFFFFFFFFFFFFFFFFFFFFFFFFFFFFFFFFFFFFFFFFFFFFFFFFFFFFFFFFFFFFFFFFFFFFFFFFFFFFFFFFFFFFFFFFFFFFFFFFFFFFFFFFFFFFFFFFFFFFFFFFFFFFFF
310
FFFFFFFFFFFFFFFFFFFFFFFFFFFFFFFFFFFFFFFF000000000000000000000000000000000000000000000000000000000000FFFF00FF0000000000000000FFFFFFFFFFFFFFFFFFFFFFFFFFFFFFFFFFFFFF00FFFF00FF0000000000000000FFFFFFFFFFFFFFFFFFFFFFFFFFFFFFFFFFFFFF00FFFF00FF000000000000000000
310
00000000000000000000000000FFFFFFFFFF00FFFF00FF0000000000000000000000000000000000000000000000000000FF00FFFF00FF0000000000000000000000000000000000000000000000000000FF00FFFF00FF0000000000000000000000000000000000000000000000000000FF00FFFF00FF0000000000000000
310
00000000000000000000000000000000FFFFFF00FFFF00FF0000000000FFFFFFFFFFFFFFFFFFFFFFFFFFFFFFFFFFFFFFFFFFFF00FFFF000000000000000000000000000000000000000000000000000000000000FFFFFFFFFFFFFFFFFFFFFFFFFFFFFFFFFFFFFFFFFFFFFFFFFFFFFFFFFFFFFFFFFFFFFFFFFFFFFFFFFFFFFF
310
FFFFFFFFFFFFFFFFFFFFFFFFFFFFFFFFFFFFFFFFFFFFFFFFFFFFFFFFFFFFFFFFFFFFFFFFFFFFFFFFFFFFFFFFFFFFFFFFFFFFFFFFFFFFFFFFFFFFFFFFFFFFFFFFFFFFFFFFFFFFFFFFFFFFFFFFFFFFFFFFFFFFFFFFFFFFFFFFFFFFFFFFFFFFFFFFFFFFFFFFFFFFFFFFFFFFFFFFFFFFFFFFFFFFFFFFFFFFFFFFFFFFFFFFFFFFFF
310
FFFFFFFFFFFFFFFFFFFFFFFFFFFFFFFFFFFFFFFFFFFFFFFFFFFFFFFFFFFFFFFFFFFFFFFFFFFFFFFFFFFFFFFFFFFFFFFFFFFFFFFFFFFFFFFFFFFFFFFFFFFFFFFFFFFFFFFFFFFFFFFFFFFFFFFFFFFFFFFFFFFFFFFFFFFFFFFFFFFFFFFFFFFFFFFFFFFFFFFFFFFFFFFFFFFFFFFFFFFFFFFFFFFFFFFFFFFFFFFFFFFFFFFFFFFFFF
310
FFFFFFFFFFFFFFFFFFFFFFFFFFFFFFFFFFFFFFFFFFFFFFFFFFFFFFFFFFFFFFFFFFFFFFFFFFFFFFFFFFFFFFFFFFFFFFFFFFFFFFFFFFFFFFFF
102
{BLKREFS
331
399
331
39E
102
}
  0
ENDTAB
  0
ENDSEC
  0
SECTION
  2
BLOCKS
  0
BLOCK
  5
1F
330
1E
100
AcDbEntity
  8
0
100
AcDbBlockBegin
  2
*Model_Space
 70
     0
 10
0.0
 20
0.0
 30
0.0
  3
*Model_Space
  1

  0
ENDBLK
  5
20
330
1E
100
AcDbEntity
  8
0
100
AcDbBlockEnd
  0
BLOCK
  5
1B
330
1A
100
AcDbEntity
 67
     1
  8
0
100
AcDbBlockBegin
  2
*Paper_Space
 70
     0
 10
0.0
 20
0.0
 30
0.0
  3
*Paper_Space
  1

  0
ENDBLK
  5
1C
330
1A
100
AcDbEntity
 67
     1
  8
0
100
AcDbBlockEnd
  0
BLOCK
  5
36
330
35
100
AcDbEntity
  8
1
100
AcDbBlockBegin
  2
*D0
 70
     1
 10
0.0
 20
0.0
 30
0.0
  3
*D0
  1

  0
LINE
  5
37
330
35
100
AcDbEntity
  8
1
 62
     2
100
AcDbLine
 10
-9.700000045035267
 20
48.35317633855488
 30
0.0
 11
8.099999954964687
 21
48.35317633855488
 31
0.0
  0
LINE
  5
38
330
35
100
AcDbEntity
  8
1
 62
     2
100
AcDbLine
 10
-9.700000045035267
 20
36.00000000000003
 30
0.0
 11
-9.700000045035267
 21
49.3531763385549
 31
0.0
  0
LINE
  5
39
330
35
100
AcDbEntity
  8
1
 62
     2
100
AcDbLine
 10
8.099999954964687
 20
35.59999948045044
 30
0.0
 11
8.099999954964687
 21
49.3531763385549
 31
0.0
  0
SOLID
  5
3A
330
35
100
AcDbEntity
  8
1
 62
     2
100
AcDbTrace
 10
8.099999954964687
 20
48.35317633855488
 30
0.0
 11
5.399999954964686
 21
48.00217633855488
 31
0.0
 12
5.399999954964686
 22
48.70417633855488
 32
0.0
 13
5.399999954964686
 23
48.70417633855488
 33
0.0
  0
SOLID
  5
3B
330
35
100
AcDbEntity
  8
1
 62
     2
100
AcDbTrace
 10
-9.700000045035267
 20
48.35317633855488
 30
0.0
 11
-7.000000045035267
 21
48.70417633855488
 31
0.0
 12
-7.000000045035267
 22
48.00217633855488
 32
0.0
 13
-7.000000045035267
 23
48.00217633855488
 33
0.0
  0
TEXT
  5
3C
330
35
100
AcDbEntity
  8
1
 62
     2
100
AcDbText
 10
2.850883539212996
 20
49.4206763385549
 30
0.0
 40
2.7
  1
17.8
 41
0.8100000000000001
100
AcDbText
  0
TEXT
  5
3D
330
35
100
AcDbEntity
  8
1
 62
     2
100
AcDbText
 10
-10.37911646078701
 20
49.4206763385549
 30
0.0
 40
2.7
  1
M.H.C 
 41
0.9
100
AcDbText
  0
ENDBLK
  5
3E
330
35
100
AcDbEntity
  8
0
100
AcDbBlockEnd
  0
BLOCK
  5
40
330
3F
100
AcDbEntity
  8
1
100
AcDbBlockBegin
  2
*D1
 70
     1
 10
0.0
 20
0.0
 30
0.0
  3
*D1
  1

  0
LINE
  5
41
330
3F
100
AcDbEntity
  8
1
 62
     2
100
AcDbLine
 10
9.600000000062891
 20
-51.05
 30
0.0
 11
15.60000000006288
 21
-51.05
 31
0.0
  0
LINE
  5
42
330
3F
100
AcDbEntity
  8
1
 62
     2
100
AcDbLine
 10
15.60000000006288
 20
-51.05
 30
0.0
 11
17.09999999990668
 21
-51.05
 31
0.0
  0
LINE
  5
43
330
3F
100
AcDbEntity
  8
1
 62
     2
100
AcDbLine
 10
17.09999999990668
 20
-51.05
 30
0.0
 11
44.41472097259832
 21
-51.05
 31
0.0
  0
LINE
  5
44
330
3F
100
AcDbEntity
  8
1
 62
     2
100
AcDbLine
 10
15.60000000006288
 20
-35.5999994803488
 30
0.0
 11
15.60000000006288
 21
-52.05
 31
0.0
  0
LINE
  5
45
330
3F
100
AcDbEntity
  8
1
 62
     2
100
AcDbLine
 10
17.09999999990668
 20
-27.5
 30
0.0
 11
17.09999999990668
 21
-52.05
 31
0.0
  0
SOLID
  5
46
330
3F
100
AcDbEntity
  8
1
 62
     2
100
AcDbTrace
 10
15.60000000006288
 20
-51.05
 30
0.0
 11
12.60000000006288
 21
-51.44
 31
0.0
 12
12.60000000006288
 22
-50.65999999999998
 32
0.0
 13
12.60000000006288
 23
-50.65999999999998
 33
0.0
  0
SOLID
  5
47
330
3F
100
AcDbEntity
  8
1
 62
     2
100
AcDbTrace
 10
17.09999999990668
 20
-51.05
 30
0.0
 11
20.09999999990669
 21
-50.65999999999998
 31
0.0
 12
20.09999999990669
 22
-51.44
 32
0.0
 13
20.09999999990669
 23
-51.44
 33
0.0
  0
TEXT
  5
48
330
3F
100
AcDbEntity
  8
1
 62
     2
100
AcDbText
 10
26.56472097259832
 20
-49.975
 30
0.0
 40
3.0
  1
M.H.C 1.5
 41
0.9
100
AcDbText
  0
ENDBLK
  5
49
330
3F
100
AcDbEntity
  8
0
100
AcDbBlockEnd
  0
BLOCK
  5
4B
330
4A
100
AcDbEntity
  8
1
100
AcDbBlockBegin
  2
*D2
 70
     1
 10
0.0
 20
0.0
 30
0.0
  3
*D2
  1

  0
LINE
  5
4C
330
4A
100
AcDbEntity
  8
1
 62
     2
100
AcDbLine
 10
-27.0474200768488
 20
-22.5
 30
0.0
 11
-27.0474200768488
 21
22.5
 31
0.0
  0
LINE
  5
4D
330
4A
100
AcDbEntity
  8
1
 62
     2
100
AcDbLine
 10
-12.39999999996439
 20
-22.5
 30
0.0
 11
-28.0474200768488
 21
-22.5
 31
0.0
  0
LINE
  5
4E
330
4A
100
AcDbEntity
  8
1
 62
     2
100
AcDbLine
 10
-12.39999999996439
 20
22.5
 30
0.0
 11
-28.0474200768488
 21
22.5
 31
0.0
  0
SOLID
  5
4F
330
4A
100
AcDbEntity
  8
1
 62
     2
100
AcDbTrace
 10
-27.0474200768488
 20
-22.5
 30
0.0
 11
-27.3984200768488
 21
-19.8
 31
0.0
 12
-26.6964200768488
 22
-19.8
 32
0.0
 13
-26.6964200768488
 23
-19.8
 33
0.0
  0
SOLID
  5
50
330
4A
100
AcDbEntity
  8
1
 62
     2
100
AcDbTrace
 10
-27.0474200768488
 20
22.5
 30
0.0
 11
-26.6964200768488
 21
19.8
 31
0.0
 12
-27.3984200768488
 22
19.8
 32
0.0
 13
-27.3984200768488
 23
19.8
 33
0.0
  0
TEXT
  5
51
330
4A
100
AcDbEntity
  8
1
 62
     2
100
AcDbText
 10
-28.1149200768488
 20
-8.170038792764712
 30
0.0
 40
2.7
  1
M.H.C 45
 50
90.0
 41
0.9
100
AcDbText
  0
ENDBLK
  5
52
330
4A
100
AcDbEntity
  8
0
100
AcDbBlockEnd
  0
BLOCK
  5
54
330
53
100
AcDbEntity
  8
1
100
AcDbBlockBegin
  2
*D3
 70
     1
 10
0.0
 20
0.0
 30
0.0
  3
*D3
  1

  0
LINE
  5
55
330
53
100
AcDbEntity
  8
1
 62
     2
100
AcDbLine
 10
-3.100670531348998
 20
-26.5
 30
0.0
 11
-3.100670531348998
 21
26.5
 31
0.0
  0
LINE
  5
56
330
53
100
AcDbEntity
  8
1
 62
     2
100
AcDbLine
 10
-0.4000000450353129
 20
-26.5
 30
0.0
 11
-4.100670531348998
 21
-26.5
 31
0.0
  0
LINE
  5
57
330
53
100
AcDbEntity
  8
1
 62
     2
100
AcDbLine
 10
-0.4000000450353129
 20
26.5
 30
0.0
 11
-4.100670531348998
 21
26.5
 31
0.0
  0
SOLID
  5
58
330
53
100
AcDbEntity
  8
1
 62
     2
100
AcDbTrace
 10
-3.100670531348998
 20
26.5
 30
0.0
 11
-2.749670531348999
 21
23.8
 31
0.0
 12
-3.451670531349001
 22
23.8
 32
0.0
 13
-3.451670531349001
 23
23.8
 33
0.0
  0
SOLID
  5
59
330
53
100
AcDbEntity
  8
1
 62
     2
100
AcDbTrace
 10
-3.100670531348998
 20
-26.5
 30
0.0
 11
-3.451670531349001
 21
-23.8
 31
0.0
 12
-2.749670531349002
 22
-23.8
 32
0.0
 13
-2.749670531349002
 23
-23.8
 33
0.0
  0
TEXT
  5
5A
330
53
100
AcDbEntity
  8
1
 62
     2
100
AcDbText
 10
-4.168170531348998
 20
-7.965000000000001
 30
0.0
 40
2.7
  1
M.H.C 53
 50
90.0
 41
0.9
100
AcDbText
  0
ENDBLK
  5
5B
330
53
100
AcDbEntity
  8
0
100
AcDbBlockEnd
  0
BLOCK
  5
5D
330
5C
100
AcDbEntity
  8
1
100
AcDbBlockBegin
  2
*D4
 70
     1
 10
0.0
 20
0.0
 30
0.0
  3
*D4
  1

  0
LINE
  5
5E
330
5C
100
AcDbEntity
  8
1
 62
     2
100
AcDbLine
 10
40.1000000000356
 20
-26.5
 30
0.0
 11
40.1000000000356
 21
26.5
 31
0.0
  0
LINE
  5
5F
330
5C
100
AcDbEntity
  8
1
 62
     2
100
AcDbLine
 10
18.09999999990669
 20
-26.5
 30
0.0
 11
41.10000000003561
 21
-26.5
 31
0.0
  0
LINE
  5
60
330
5C
100
AcDbEntity
  8
1
 62
     2
100
AcDbLine
 10
18.09999999990669
 20
26.5
 30
0.0
 11
41.10000000003561
 21
26.5
 31
0.0
  0
SOLID
  5
61
330
5C
100
AcDbEntity
  8
1
 62
     2
100
AcDbTrace
 10
40.1000000000356
 20
-26.5
 30
0.0
 11
39.74900000003561
 21
-23.8
 31
0.0
 12
40.45100000003561
 22
-23.8
 32
0.0
 13
40.45100000003561
 23
-23.8
 33
0.0
  0
SOLID
  5
62
330
5C
100
AcDbEntity
  8
1
 62
     2
100
AcDbTrace
 10
40.1000000000356
 20
26.5
 30
0.0
 11
40.45100000003561
 21
23.8
 31
0.0
 12
39.74900000003561
 22
23.8
 32
0.0
 13
39.74900000003561
 23
23.8
 33
0.0
  0
TEXT
  5
63
330
5C
100
AcDbEntity
  8
1
 62
     2
100
AcDbText
 10
39.0325000000356
 20
-8.429515349573481
 30
0.0
 40
2.7
  1
M.H.C 53
 50
90.0
 41
0.9
100
AcDbText
  0
ENDBLK
  5
64
330
5C
100
AcDbEntity
  8
0
100
AcDbBlockEnd
  0
BLOCK
  5
66
330
65
100
AcDbEntity
  8
1
100
AcDbBlockBegin
  2
*D5
 70
     1
 10
0.0
 20
0.0
 30
0.0
  3
*D5
  1

  0
LINE
  5
67
330
65
100
AcDbEntity
  8
1
 62
     2
100
AcDbLine
 10
-5.999999999964392
 20
12.2876840942782
 30
0.0
 11
-11.39999999996438
 21
12.2876840942782
 31
0.0
  0
LINE
  5
68
330
65
100
AcDbEntity
  8
1
 62
     2
100
AcDbLine
 10
-13.39999999996439
 20
12.2876840942782
 30
0.0
 11
-11.39999999996438
 21
12.2876840942782
 31
0.0
  0
LINE
  5
69
330
65
100
AcDbEntity
  8
1
 62
     2
100
AcDbLine
 10
-13.39999999996439
 20
12.2876840942782
 30
0.0
 11
-20.6214271876263
 21
12.2876840942782
 31
0.0
  0
LINE
  5
6A
330
65
100
AcDbEntity
  8
1
 62
     2
100
AcDbLine
 10
-13.39999999996439
 20
17.32
 30
0.0
 11
-13.39999999996439
 21
11.2876840942782
 31
0.0
  0
LINE
  5
6B
330
65
100
AcDbEntity
  8
1
 62
     2
100
AcDbLine
 10
-11.39999999996438
 20
21.49999999999999
 30
0.0
 11
-11.39999999996438
 21
11.2876840942782
 31
0.0
  0
SOLID
  5
6C
330
65
100
AcDbEntity
  8
1
 62
     2
100
AcDbTrace
 10
-13.39999999996439
 20
12.2876840942782
 30
0.0
 11
-16.09999999996438
 21
11.9366840942782
 31
0.0
 12
-16.09999999996438
 22
12.6386840942782
 32
0.0
 13
-16.09999999996438
 23
12.6386840942782
 33
0.0
  0
SOLID
  5
6D
330
65
100
AcDbEntity
  8
1
 62
     2
100
AcDbTrace
 10
-11.39999999996438
 20
12.2876840942782
 30
0.0
 11
-8.699999999964386
 21
12.6386840942782
 31
0.0
 12
-8.699999999964386
 22
11.9366840942782
 32
0.0
 13
-8.699999999964386
 23
11.9366840942782
 33
0.0
  0
TEXT
  5
6E
330
65
100
AcDbEntity
  8
1
 62
     2
100
AcDbText
 10
-20.6214271876263
 20
13.2876840942782
 30
0.0
 40
2.7
  1
2
 41
0.9
100
AcDbText
  0
ENDBLK
  5
6F
330
65
100
AcDbEntity
  8
0
100
AcDbBlockEnd
  0
BLOCK
  5
30F
330
30C
100
AcDbEntity
  8
0
 62
     7
100
AcDbBlockBegin
  2
AI9-BLK14
 70
     0
 10
0.0
 20
0.0
 30
0.0
  3
AI9-BLK14
  1

  0
SPLINE
  5
30D
330
30C
100
AcDbEntity
  8
LAYER_1
 62
     7
100
AcDbSpline
210
0.0
220
0.0
230
1.0
 70
    11
 71
     3
 72
    23
 73
    19
 74
     0
 42
0.0000000001
 43
0.0000000001
 40
0.0
 40
0.0
 40
0.0
 40
0.0
 40
1.0
 40
1.0
 40
1.0
 40
2.0
 40
2.0
 40
2.0
 40
3.0
 40
3.0
 40
3.0
 40
4.0
 40
4.0
 40
4.0
 40
5.0
 40
5.0
 40
5.0
 40
6.0
 40
6.0
 40
6.0
 40
6.0
 10
-10.90321044921874
 20
10.88107571072048
 30
0.0
 10
-10.90321044921874
 20
10.88107571072048
 30
0.0
 10
-10.90321044921874
 20
-10.88107571072048
 30
0.0
 10
-10.90321044921874
 20
-10.88107571072048
 30
0.0
 10
-10.90321044921874
 20
-10.88107571072048
 30
0.0
 10
1.752692328559025
 20
-10.88107571072048
 30
0.0
 10
1.752692328559025
 20
-10.88107571072048
 30
0.0
 10
3.280592176649305
 20
-10.88107571072048
 30
0.0
 10
10.90321044921874
 20
-10.32383151584201
 30
0.0
 10
10.90321044921874
 20
0.6792867024739583
 30
0.0
 10
10.90321044921874
 20
10.61700914171006
 30
0.0
 10
2.773129611545138
 20
10.87952541775172
 30
0.0
 10
2.691136338975693
 20
10.88090345594618
 30
0.0
 10
2.691136338975693
 20
10.88090345594618
 30
0.0
 10
-9.903099229600693
 20
10.88107571072048
 30
0.0
 10
-9.903099229600693
 20
10.88107571072048
 30
0.0
 10
-9.903099229600693
 20
10.88107571072048
 30
0.0
 10
-10.90321044921874
 20
10.88107571072048
 30
0.0
 10
-10.90321044921874
 20
10.88107571072048
 30
0.0
  0
SPLINE
  5
30E
330
30C
100
AcDbEntity
  8
LAYER_1
 62
     7
100
AcDbSpline
210
0.0
220
0.0
230
1.0
 70
    11
 71
     3
 72
    20
 73
    16
 74
     0
 42
0.0000000001
 43
0.0000000001
 40
0.0
 40
0.0
 40
0.0
 40
0.0
 40
1.0
 40
1.0
 40
1.0
 40
2.0
 40
2.0
 40
2.0
 40
3.0
 40
3.0
 40
3.0
 40
4.0
 40
4.0
 40
4.0
 40
5.0
 40
5.0
 40
5.0
 40
5.0
 10
2.672877332899305
 20
8.881197781032986
 30
0.0
 10
2.905421278211805
 20
8.874307590060762
 30
0.0
 10
8.902988009982637
 20
8.616442192925347
 30
0.0
 10
8.902988009982637
 20
0.6792867024739583
 30
0.0
 10
8.902988009982637
 20
-8.191661919487842
 30
0.0
 10
3.430109320746526
 20
-8.881197781032986
 30
0.0
 10
1.752692328559025
 20
-8.881197781032986
 30
0.0
 10
1.752692328559025
 20
-8.881197781032986
 30
0.0
 10
-7.231427680121528
 20
-8.881197781032986
 30
0.0
 10
-8.902988009982637
 20
-8.881197781032986
 30
0.0
 10
-8.902988009982637
 20
-7.174497477213541
 30
0.0
 10
-8.902988009982637
 20
7.174497477213541
 30
0.0
 10
-8.902988009982637
 20
8.881197781032986
 30
0.0
 10
-7.208690049913191
 20
8.881197781032986
 30
0.0
 10
2.672877332899305
 20
8.881197781032986
 30
0.0
 10
2.672877332899305
 20
8.881197781032986
 30
0.0
  0
ENDBLK
  5
310
330
30C
100
AcDbEntity
  8
0
100
AcDbBlockEnd
  0
BLOCK
  5
314
330
311
100
AcDbEntity
  8
0
 62
     7
100
AcDbBlockBegin
  2
AI9-BLK13
 70
     0
 10
0.0
 20
0.0
 30
0.0
  3
AI9-BLK13
  1

  0
LWPOLYLINE
  5
312
330
311
100
AcDbEntity
  8
LAYER_1
 62
     7
100
AcDbPolyline
 90
       12
 70
     1
 43
0.0
 10
-3.792361111111107
 20
10.7376736111111
 10
-2.469444444444443
 20
10.7376736111111
 10
-2.469444444444443
 20
1.874131944444444
 10
2.469444444444443
 20
1.874131944444444
 10
2.469444444444443
 20
10.7376736111111
 10
3.792361111111107
 20
10.7376736111111
 10
3.792361111111107
 20
-10.7376736111111
 10
2.469444444444443
 20
-10.7376736111111
 10
2.469444444444443
 20
-0.6835069444444444
 10
-2.469444444444443
 20
-0.6835069444444444
 10
-2.469444444444443
 20
-10.7376736111111
 10
-3.792361111111107
 20
-10.7376736111111
  0
HATCH
  5
313
330
311
100
AcDbEntity
  8
LAYER_1
 62
     7
100
AcDbHatch
 10
0.0
 20
0.0
 30
0.0
210
0.0
220
0.0
230
1.0
  2
SOLID
 70
     1
 71
     0
 91
        1
 92
        3
 72
     0
 73
     1
 93
       12
 10
-3.792361111111107
 20
10.7376736111111
 10
-2.469444444444443
 20
10.7376736111111
 10
-2.469444444444443
 20
1.874131944444444
 10
2.469444444444443
 20
1.874131944444444
 10
2.469444444444443
 20
10.7376736111111
 10
3.792361111111107
 20
10.7376736111111
 10
3.792361111111107
 20
-10.7376736111111
 10
2.469444444444443
 20
-10.7376736111111
 10
2.469444444444443
 20
-0.6835069444444444
 10
-2.469444444444443
 20
-0.6835069444444444
 10
-2.469444444444443
 20
-10.7376736111111
 10
-3.792361111111107
 20
-10.7376736111111
 97
        0
 75
     2
 76
     1
 98
        1
 10
0.0
 20
0.0
  0
ENDBLK
  5
315
330
311
100
AcDbEntity
  8
0
100
AcDbBlockEnd
  0
BLOCK
  5
319
330
316
100
AcDbEntity
  8
0
 62
     7
100
AcDbBlockBegin
  2
AI9-BLK11
 70
     0
 10
0.0
 20
0.0
 30
0.0
  3
AI9-BLK11
  1

  0
SPLINE
  5
317
330
316
100
AcDbEntity
  8
LAYER_1
 62
     7
100
AcDbSpline
210
0.0
220
0.0
230
1.0
 70
    11
 71
     3
 72
    26
 73
    22
 74
     0
 42
0.0000000001
 43
0.0000000001
 40
0.0
 40
0.0
 40
0.0
 40
0.0
 40
1.0
 40
1.0
 40
1.0
 40
2.0
 40
2.0
 40
2.0
 40
3.0
 40
3.0
 40
3.0
 40
4.0
 40
4.0
 40
4.0
 40
5.0
 40
5.0
 40
5.0
 40
6.0
 40
6.0
 40
6.0
 40
7.0
 40
7.0
 40
7.0
 40
7.0
 10
-2.645833333333333
 20
0.9039930555555551
 30
0.0
 10
-2.645833333333333
 20
0.9039930555555551
 30
0.0
 10
-2.645833333333333
 20
8.180034722222217
 30
0.0
 10
-2.645833333333333
 20
8.180034722222217
 30
0.0
 10
-2.645833333333333
 20
8.180034722222217
 30
0.0
 10
0.465087890625
 20
8.180034722222217
 30
0.0
 10
0.465087890625
 20
8.180034722222217
 30
0.0
 10
0.9026150173611108
 20
8.180034722222217
 30
0.0
 10
1.24988064236111
 20
8.034651692708331
 30
0.0
 10
1.506884765625
 20
7.745263671874997
 30
0.0
 10
2.001600477430554
 20
7.194048394097221
 30
0.0
 10
2.248958333333332
 20
6.160519748263887
 30
0.0
 10
2.248958333333332
 20
4.643299696180553
 30
0.0
 10
2.248958333333332
 20
3.232188585069443
 30
0.0
 10
2.072569444444444
 20
2.256537543402775
 30
0.0
 10
1.720480685763888
 20
1.715657552083333
 30
0.0
 10
1.368391927083333
 20
1.174088541666665
 30
0.0
 10
0.8929687499999998
 20
0.9039930555555551
 30
0.0
 10
0.2942111545138888
 20
0.9039930555555551
 30
0.0
 10
0.2942111545138888
 20
0.9039930555555551
 30
0.0
 10
-2.645833333333333
 20
0.9039930555555551
 30
0.0
 10
-2.645833333333333
 20
0.9039930555555551
 30
0.0
  0
SPLINE
  5
318
330
316
100
AcDbEntity
  8
LAYER_1
 62
     7
100
AcDbSpline
210
0.0
220
0.0
230
1.0
 70
    11
 71
     3
 72
    68
 73
    64
 74
     0
 42
0.0000000001
 43
0.0000000001
 40
0.0
 40
0.0
 40
0.0
 40
0.0
 40
1.0
 40
1.0
 40
1.0
 40
2.0
 40
2.0
 40
2.0
 40
3.0
 40
3.0
 40
3.0
 40
4.0
 40
4.0
 40
4.0
 40
5.0
 40
5.0
 40
5.0
 40
6.0
 40
6.0
 40
6.0
 40
7.0
 40
7.0
 40
7.0
 40
8.0
 40
8.0
 40
8.0
 40
9.0
 40
9.0
 40
9.0
 40
10.0
 40
10.0
 40
10.0
 40
11.0
 40
11.0
 40
11.0
 40
12.0
 40
12.0
 40
12.0
 40
13.0
 40
13.0
 40
13.0
 40
14.0
 40
14.0
 40
14.0
 40
15.0
 40
15.0
 40
15.0
 40
16.0
 40
16.0
 40
16.0
 40
17.0
 40
17.0
 40
17.0
 40
18.0
 40
18.0
 40
18.0
 40
19.0
 40
19.0
 40
19.0
 40
20.0
 40
20.0
 40
20.0
 40
21.0
 40
21.0
 40
21.0
 40
21.0
 10
-3.968749999999998
 20
-10.7376736111111
 30
0.0
 10
-3.968749999999998
 20
-10.7376736111111
 30
0.0
 10
-2.645833333333333
 20
-10.7376736111111
 30
0.0
 10
-2.645833333333333
 20
-10.7376736111111
 30
0.0
 10
-2.645833333333333
 20
-10.7376736111111
 30
0.0
 10
-2.645833333333333
 20
-1.521354166666665
 30
0.0
 10
-2.645833333333333
 20
-1.521354166666665
 30
0.0
 10
-2.645833333333333
 20
-1.521354166666665
 30
0.0
 10
0.2390896267361111
 20
-1.521354166666665
 30
0.0
 10
0.2390896267361111
 20
-1.521354166666665
 30
0.0
 10
0.7599880642361111
 20
-1.521354166666665
 30
0.0
 10
1.143771701388887
 20
-1.65295681423611
 30
0.0
 10
1.390440538194444
 20
-1.916162109374999
 30
0.0
 10
1.816254340277773
 20
-2.39434136284722
 30
0.0
 10
2.04363064236111
 20
-3.335541449652775
 30
0.0
 10
2.072569444444444
 20
-4.739762369791666
 30
0.0
 10
2.072569444444444
 20
-4.739762369791666
 30
0.0
 10
2.160763888888888
 20
-8.324039713541665
 30
0.0
 10
2.160763888888888
 20
-8.324039713541665
 30
0.0
 10
2.18005642361111
 20
-9.163264973958332
 30
0.0
 10
2.202794053819443
 20
-9.728949652777775
 30
0.0
 10
2.227598741319444
 20
-10.02109374999998
 30
0.0
 10
2.252403428819443
 20
-10.31392686631944
 30
0.0
 10
2.28892144097222
 20
-10.55301649305555
 30
0.0
 10
2.33853081597222
 20
-10.7376736111111
 30
0.0
 10
2.33853081597222
 20
-10.7376736111111
 30
0.0
 10
3.968749999999998
 20
-10.7376736111111
 30
0.0
 10
3.968749999999998
 20
-10.7376736111111
 30
0.0
 10
3.968749999999998
 20
-10.7376736111111
 30
0.0
 10
3.968749999999998
 20
-10.25260416666666
 30
0.0
 10
3.968749999999998
 20
-10.25260416666666
 30
0.0
 10
3.766867404513888
 20
-10.05830078125
 30
0.0
 10
3.625618489583333
 20
-9.621462673611112
 30
0.0
 10
3.545692274305555
 20
-8.942089843749997
 30
0.0
 10
3.49470486111111
 20
-8.543836805555555
 30
0.0
 10
3.459564887152775
 20
-7.937499999999999
 30
0.0
 10
3.439583333333333
 20
-7.121701388888887
 30
0.0
 10
3.439583333333333
 20
-7.121701388888887
 30
0.0
 10
3.395486111111106
 20
-4.232644314236106
 30
0.0
 10
3.395486111111106
 20
-4.232644314236106
 30
0.0
 10
3.375504557291666
 20
-2.981385633680555
 30
0.0
 10
3.26870659722222
 20
-2.077392578125
 30
0.0
 10
3.075781249999999
 20
-1.522043185763888
 30
0.0
 10
2.882166883680555
 20
-0.9666937934027776
 30
0.0
 10
2.592089843749999
 20
-0.5188313802083333
 30
0.0
 10
2.204861111111104
 20
-0.1770779079861111
 30
0.0
 10
2.63618706597222
 20
0.3197048611111111
 30
0.0
 10
2.971739366319443
 20
0.9770290798611107
 30
0.0
 10
3.211518012152775
 20
1.79558376736111
 30
0.0
 10
3.451296657986107
 20
2.613449435763888
 30
0.0
 10
3.571874999999999
 20
3.66558159722222
 30
0.0
 10
3.571874999999999
 20
4.951291232638888
 30
0.0
 10
3.571874999999999
 20
7.415912543402777
 30
0.0
 10
3.124701605902775
 20
9.106076388888887
 30
0.0
 10
2.231043836805555
 20
10.02178276909722
 30
0.0
 10
1.759754774305553
 20
10.498583984375
 30
0.0
 10
1.163753255208332
 20
10.7376736111111
 30
0.0
 10
0.443039279513889
 20
10.7376736111111
 30
0.0
 10
0.443039279513889
 20
10.7376736111111
 30
0.0
 10
-3.968749999999998
 20
10.7376736111111
 30
0.0
 10
-3.968749999999998
 20
10.7376736111111
 30
0.0
 10
-3.968749999999998
 20
10.7376736111111
 30
0.0
 10
-3.968749999999998
 20
-10.7376736111111
 30
0.0
 10
-3.968749999999998
 20
-10.7376736111111
 30
0.0
  0
ENDBLK
  5
31A
330
316
100
AcDbEntity
  8
0
100
AcDbBlockEnd
  0
BLOCK
  5
31D
330
31B
100
AcDbEntity
  8
0
 62
     7
100
AcDbBlockBegin
  2
AI9-BLK10
 70
     0
 10
0.0
 20
0.0
 30
0.0
  3
AI9-BLK10
  1

  0
SPLINE
  5
31C
330
31B
100
AcDbEntity
  8
LAYER_1
 62
     7
100
AcDbSpline
210
0.0
220
0.0
230
1.0
 70
    11
 71
     3
 72
    59
 73
    55
 74
     0
 42
0.0000000001
 43
0.0000000001
 40
0.0
 40
0.0
 40
0.0
 40
0.0
 40
1.0
 40
1.0
 40
1.0
 40
2.0
 40
2.0
 40
2.0
 40
3.0
 40
3.0
 40
3.0
 40
4.0
 40
4.0
 40
4.0
 40
5.0
 40
5.0
 40
5.0
 40
6.0
 40
6.0
 40
6.0
 40
7.0
 40
7.0
 40
7.0
 40
8.0
 40
8.0
 40
8.0
 40
9.0
 40
9.0
 40
9.0
 40
10.0
 40
10.0
 40
10.0
 40
11.0
 40
11.0
 40
11.0
 40
12.0
 40
12.0
 40
12.0
 40
13.0
 40
13.0
 40
13.0
 40
14.0
 40
14.0
 40
14.0
 40
15.0
 40
15.0
 40
15.0
 40
16.0
 40
16.0
 40
16.0
 40
17.0
 40
17.0
 40
17.0
 40
18.0
 40
18.0
 40
18.0
 40
18.0
 10
-4.652256944444443
 20
10.7376736111111
 30
0.0
 10
-4.652256944444443
 20
10.7376736111111
 30
0.0
 10
-2.798795572916666
 20
10.7376736111111
 30
0.0
 10
-2.798795572916666
 20
10.7376736111111
 30
0.0
 10
-2.798795572916666
 20
10.7376736111111
 30
0.0
 10
0.0
 20
-7.419357638888887
 30
0.0
 10
0.0
 20
-7.419357638888887
 30
0.0
 10
0.0
 20
-7.419357638888887
 30
0.0
 10
2.793283420138888
 20
10.7376736111111
 30
0.0
 10
2.793283420138888
 20
10.7376736111111
 30
0.0
 10
2.793283420138888
 20
10.7376736111111
 30
0.0
 10
4.652256944444443
 20
10.7376736111111
 30
0.0
 10
4.652256944444443
 20
10.7376736111111
 30
0.0
 10
4.652256944444443
 20
10.7376736111111
 30
0.0
 10
4.652256944444443
 20
-10.7376736111111
 30
0.0
 10
4.652256944444443
 20
-10.7376736111111
 30
0.0
 10
4.652256944444443
 20
-10.7376736111111
 30
0.0
 10
3.41753472222222
 20
-10.7376736111111
 30
0.0
 10
3.41753472222222
 20
-10.7376736111111
 30
0.0
 10
3.41753472222222
 20
-10.7376736111111
 30
0.0
 10
3.41753472222222
 20
1.936832682291665
 30
0.0
 10
3.41753472222222
 20
1.936832682291665
 30
0.0
 10
3.41753472222222
 20
2.375048828124999
 30
0.0
 10
3.424424913194443
 20
3.101274956597221
 30
0.0
 10
3.439583333333333
 20
4.11482204861111
 30
0.0
 10
3.454052734374998
 20
5.128369140624998
 30
0.0
 10
3.461631944444443
 20
6.214952256944441
 30
0.0
 10
3.461631944444443
 20
7.375260416666666
 30
0.0
 10
3.461631944444443
 20
7.375260416666666
 30
0.0
 10
0.6538791232638889
 20
-10.7376736111111
 30
0.0
 10
0.6538791232638889
 20
-10.7376736111111
 30
0.0
 10
0.6538791232638889
 20
-10.7376736111111
 30
0.0
 10
-0.6628363715277778
 20
-10.7376736111111
 30
0.0
 10
-0.6628363715277778
 20
-10.7376736111111
 30
0.0
 10
-0.6628363715277778
 20
-10.7376736111111
 30
0.0
 10
-3.461631944444443
 20
7.375260416666666
 30
0.0
 10
-3.461631944444443
 20
7.375260416666666
 30
0.0
 10
-3.461631944444443
 20
7.375260416666666
 30
0.0
 10
-3.461631944444443
 20
6.717247178819441
 30
0.0
 10
-3.461631944444443
 20
6.717247178819441
 30
0.0
 10
-3.461631944444443
 20
6.190836588541666
 30
0.0
 10
-3.45474175347222
 20
5.389507378472222
 30
0.0
 10
-3.439583333333333
 20
4.312570529513888
 30
0.0
 10
-3.425113932291666
 20
3.235633680555555
 30
0.0
 10
-3.41753472222222
 20
2.44395073784722
 30
0.0
 10
-3.41753472222222
 20
1.936832682291665
 30
0.0
 10
-3.41753472222222
 20
1.936832682291665
 30
0.0
 10
-3.41753472222222
 20
-10.7376736111111
 30
0.0
 10
-3.41753472222222
 20
-10.7376736111111
 30
0.0
 10
-3.41753472222222
 20
-10.7376736111111
 30
0.0
 10
-4.652256944444443
 20
-10.7376736111111
 30
0.0
 10
-4.652256944444443
 20
-10.7376736111111
 30
0.0
 10
-4.652256944444443
 20
-10.7376736111111
 30
0.0
 10
-4.652256944444443
 20
10.7376736111111
 30
0.0
 10
-4.652256944444443
 20
10.7376736111111
 30
0.0
  0
ENDBLK
  5
31E
330
31B
100
AcDbEntity
  8
0
100
AcDbBlockEnd
  0
BLOCK
  5
322
330
31F
100
AcDbEntity
  8
0
 62
     7
100
AcDbBlockBegin
  2
AI9-BLK9
 70
     0
 10
0.0
 20
0.0
 30
0.0
  3
AI9-BLK9
  1

  0
SPLINE
  5
320
330
31F
100
AcDbEntity
  8
LAYER_1
 62
     7
100
AcDbSpline
210
0.0
220
0.0
230
1.0
 70
    11
 71
     3
 72
    29
 73
    25
 74
     0
 42
0.0000000001
 43
0.0000000001
 40
0.0
 40
0.0
 40
0.0
 40
0.0
 40
1.0
 40
1.0
 40
1.0
 40
2.0
 40
2.0
 40
2.0
 40
3.0
 40
3.0
 40
3.0
 40
4.0
 40
4.0
 40
4.0
 40
5.0
 40
5.0
 40
5.0
 40
6.0
 40
6.0
 40
6.0
 40
7.0
 40
7.0
 40
7.0
 40
8.0
 40
8.0
 40
8.0
 40
8.0
 10
0.0668348524305556
 20
-8.753298611111111
 30
0.0
 10
-0.9067491319444444
 20
-8.753298611111111
 30
0.0
 10
-1.60954861111111
 20
-7.936810980902778
 30
0.0
 10
-2.041563585069444
 20
-6.30383572048611
 30
0.0
 10
-2.474267578124999
 20
-4.670860460069443
 30
0.0
 10
-2.689930555555555
 20
-2.664436848958333
 30
0.0
 10
-2.689930555555555
 20
-0.28525390625
 30
0.0
 10
-2.689930555555555
 20
2.68855251736111
 30
0.0
 10
-2.439127604166666
 20
4.938199869791666
 30
0.0
 10
-1.937521701388888
 20
6.464377170138886
 30
0.0
 10
-1.43591579861111
 20
7.989865451388887
 30
0.0
 10
-0.7827256944444444
 20
8.753298611111111
 30
0.0
 10
0.0220486111111111
 20
8.753298611111111
 30
0.0
 10
0.8468044704861108
 20
8.753298611111111
 30
0.0
 10
1.49792751736111
 20
7.982975260416663
 30
0.0
 10
1.974728732638888
 20
6.442328559027776
 30
0.0
 10
2.451529947916665
 20
4.901681857638886
 30
0.0
 10
2.689930555555555
 20
2.868386501736111
 30
0.0
 10
2.689930555555555
 20
0.3438205295138888
 30
0.0
 10
2.689930555555555
 20
-2.045697699652774
 30
0.0
 10
2.483224826388884
 20
-4.15891927083333
 30
0.0
 10
2.071191406249999
 20
-5.996533203124998
 30
0.0
 10
1.65915798611111
 20
-7.834836154513887
 30
0.0
 10
0.9908094618055557
 20
-8.753298611111111
 30
0.0
 10
0.0668348524305556
 20
-8.753298611111111
 30
0.0
  0
SPLINE
  5
321
330
31F
100
AcDbEntity
  8
LAYER_1
 62
     7
100
AcDbSpline
210
0.0
220
0.0
230
1.0
 70
    11
 71
     3
 72
    29
 73
    25
 74
     0
 42
0.0000000001
 43
0.0000000001
 40
0.0
 40
0.0
 40
0.0
 40
0.0
 40
1.0
 40
1.0
 40
1.0
 40
2.0
 40
2.0
 40
2.0
 40
3.0
 40
3.0
 40
3.0
 40
4.0
 40
4.0
 40
4.0
 40
5.0
 40
5.0
 40
5.0
 40
6.0
 40
6.0
 40
6.0
 40
7.0
 40
7.0
 40
7.0
 40
8.0
 40
8.0
 40
8.0
 40
8.0
 10
-0.0289388020833333
 20
11.35503472222222
 30
0.0
 10
-1.317404513888887
 20
11.35503472222222
 30
0.0
 10
-2.28892144097222
 20
10.02798394097222
 30
0.0
 10
-2.94280056423611
 20
7.374571397569441
 30
0.0
 10
-3.450607638888888
 20
5.30613606770833
 30
0.0
 10
-3.704166666666666
 20
2.81877712673611
 30
0.0
 10
-3.704166666666666
 20
-0.0881944444444445
 30
0.0
 10
-3.704166666666666
 20
-3.307291666666666
 30
0.0
 10
-3.406510416666666
 20
-5.97035047743055
 30
0.0
 10
-2.811197916666666
 20
-8.077370876736106
 30
0.0
 10
-2.147672526041664
 20
-10.26293945312499
 30
0.0
 10
-1.229899088541666
 20
-11.35503472222222
 30
0.0
 10
-0.0585666232638889
 20
-11.35503472222222
 30
0.0
 10
1.20027126736111
 20
-11.35503472222222
 30
0.0
 10
2.166276041666665
 20
-10.10653211805555
 30
0.0
 10
2.840136718749998
 20
-7.609526909722221
 30
0.0
 10
3.416156684027776
 20
-5.483213975694441
 30
0.0
 10
3.704166666666666
 20
-2.814643012152775
 30
0.0
 10
3.704166666666666
 20
0.3948079427083333
 30
0.0
 10
3.704166666666666
 20
3.360346137152776
 30
0.0
 10
3.449918619791666
 20
5.793961588541666
 30
0.0
 10
2.94280056423611
 20
7.696343315972222
 30
0.0
 10
2.298567708333333
 20
10.13547092013888
 30
0.0
 10
1.307758246527777
 20
11.35503472222222
 30
0.0
 10
-0.0289388020833333
 20
11.35503472222222
 30
0.0
  0
ENDBLK
  5
323
330
31F
100
AcDbEntity
  8
0
100
AcDbBlockEnd
  0
BLOCK
  5
327
330
324
100
AcDbEntity
  8
0
 62
     7
100
AcDbBlockBegin
  2
AI9-BLK8
 70
     0
 10
0.0
 20
0.0
 30
0.0
  3
AI9-BLK8
  1

  0
LWPOLYLINE
  5
325
330
324
100
AcDbEntity
  8
LAYER_1
 62
     7
100
AcDbPolyline
 90
       10
 70
     1
 43
0.0
 10
-3.792361111111107
 20
10.7376736111111
 10
-2.268939887152773
 20
10.7376736111111
 10
2.557638888888888
 20
-6.505718315972222
 10
2.557638888888888
 20
10.7376736111111
 10
3.792361111111107
 20
10.7376736111111
 10
3.792361111111107
 20
-10.7376736111111
 10
2.32612847222222
 20
-10.7376736111111
 10
-2.557638888888888
 20
6.549815538194441
 10
-2.557638888888888
 20
-10.7376736111111
 10
-3.792361111111107
 20
-10.7376736111111
  0
HATCH
  5
326
330
324
100
AcDbEntity
  8
LAYER_1
 62
     7
100
AcDbHatch
 10
0.0
 20
0.0
 30
0.0
210
0.0
220
0.0
230
1.0
  2
SOLID
 70
     1
 71
     0
 91
        1
 92
        3
 72
     0
 73
     1
 93
       10
 10
-3.792361111111107
 20
10.7376736111111
 10
-2.268939887152773
 20
10.7376736111111
 10
2.557638888888888
 20
-6.505718315972222
 10
2.557638888888888
 20
10.7376736111111
 10
3.792361111111107
 20
10.7376736111111
 10
3.792361111111107
 20
-10.7376736111111
 10
2.32612847222222
 20
-10.7376736111111
 10
-2.557638888888888
 20
6.549815538194441
 10
-2.557638888888888
 20
-10.7376736111111
 10
-3.792361111111107
 20
-10.7376736111111
 97
        0
 75
     2
 76
     1
 98
        1
 10
0.0
 20
0.0
  0
ENDBLK
  5
328
330
324
100
AcDbEntity
  8
0
100
AcDbBlockEnd
  0
BLOCK
  5
32C
330
329
100
AcDbEntity
  8
0
 62
     7
100
AcDbBlockBegin
  2
AI9-BLK7
 70
     0
 10
0.0
 20
0.0
 30
0.0
  3
AI9-BLK7
  1

  0
LWPOLYLINE
  5
32A
330
329
100
AcDbEntity
  8
LAYER_1
 62
     7
100
AcDbPolyline
 90
        4
 70
     1
 43
0.0
 10
-0.6614583333333333
 20
10.7376736111111
 10
0.6614583333333333
 20
10.7376736111111
 10
0.6614583333333333
 20
-10.7376736111111
 10
-0.6614583333333333
 20
-10.7376736111111
  0
HATCH
  5
32B
330
329
100
AcDbEntity
  8
LAYER_1
 62
     7
100
AcDbHatch
 10
0.0
 20
0.0
 30
0.0
210
0.0
220
0.0
230
1.0
  2
SOLID
 70
     1
 71
     0
 91
        1
 92
        3
 72
     0
 73
     1
 93
        4
 10
-0.6614583333333333
 20
10.7376736111111
 10
0.6614583333333333
 20
10.7376736111111
 10
0.6614583333333333
 20
-10.7376736111111
 10
-0.6614583333333333
 20
-10.7376736111111
 97
        0
 75
     2
 76
     1
 98
        1
 10
0.0
 20
0.0
  0
ENDBLK
  5
32D
330
329
100
AcDbEntity
  8
0
100
AcDbBlockEnd
  0
BLOCK
  5
330
330
32E
100
AcDbEntity
  8
0
 62
     7
100
AcDbBlockBegin
  2
AI9-BLK6
 70
     0
 10
0.0
 20
0.0
 30
0.0
  3
AI9-BLK6
  1

  0
SPLINE
  5
32F
330
32E
100
AcDbEntity
  8
LAYER_1
 62
     7
100
AcDbSpline
210
0.0
220
0.0
230
1.0
 70
    11
 71
     3
 72
    59
 73
    55
 74
     0
 42
0.0000000001
 43
0.0000000001
 40
0.0
 40
0.0
 40
0.0
 40
0.0
 40
1.0
 40
1.0
 40
1.0
 40
2.0
 40
2.0
 40
2.0
 40
3.0
 40
3.0
 40
3.0
 40
4.0
 40
4.0
 40
4.0
 40
5.0
 40
5.0
 40
5.0
 40
6.0
 40
6.0
 40
6.0
 40
7.0
 40
7.0
 40
7.0
 40
8.0
 40
8.0
 40
8.0
 40
9.0
 40
9.0
 40
9.0
 40
10.0
 40
10.0
 40
10.0
 40
11.0
 40
11.0
 40
11.0
 40
12.0
 40
12.0
 40
12.0
 40
13.0
 40
13.0
 40
13.0
 40
14.0
 40
14.0
 40
14.0
 40
15.0
 40
15.0
 40
15.0
 40
16.0
 40
16.0
 40
16.0
 40
17.0
 40
17.0
 40
17.0
 40
18.0
 40
18.0
 40
18.0
 40
18.0
 10
3.062689887152775
 20
9.168088107638887
 30
0.0
 10
3.735172526041666
 20
7.739062499999997
 30
0.0
 10
4.110687934027776
 20
6.116422526041666
 30
0.0
 10
4.189236111111108
 20
4.299479166666666
 30
0.0
 10
4.189236111111108
 20
4.299479166666666
 30
0.0
 10
2.866319444444443
 20
4.299479166666666
 30
0.0
 10
2.866319444444443
 20
4.299479166666666
 30
0.0
 10
2.720936414930555
 20
5.667871093749997
 30
0.0
 10
2.435682508680555
 20
6.752387152777776
 30
0.0
 10
2.009868706597218
 20
7.553027343749997
 30
0.0
 10
1.584054904513888
 20
8.352978515624997
 30
0.0
 10
0.9839192708333332
 20
8.753298611111111
 30
0.0
 10
0.2101508246527778
 20
8.753298611111111
 30
0.0
 10
-0.7386284722222222
 20
8.753298611111111
 30
0.0
 10
-1.503439670138888
 20
8.010536024305555
 30
0.0
 10
-2.083593749999999
 20
6.526388888888886
 30
0.0
 10
-2.664436848958333
 20
5.042241753472221
 30
0.0
 10
-2.954513888888888
 20
2.767100694444443
 30
0.0
 10
-2.954513888888888
 20
-0.2990342881944444
 30
0.0
 10
-2.954513888888888
 20
-2.811197916666666
 30
0.0
 10
-2.693375651041666
 20
-4.847938368055555
 30
0.0
 10
-2.17041015625
 20
-6.409944661458332
 30
0.0
 10
-1.648133680555553
 20
-7.972639973958332
 30
0.0
 10
-0.8640299479166666
 20
-8.753298611111111
 30
0.0
 10
0.1812120225694444
 20
-8.753298611111111
 30
0.0
 10
1.138948567708333
 20
-8.753298611111111
 30
0.0
 10
1.865174696180553
 20
-7.927853732638887
 30
0.0
 10
2.359201388888884
 20
-6.275585937499998
 30
0.0
 10
2.62998589409722
 20
-5.406043836805555
 30
0.0
 10
2.828423394097221
 20
-4.262272135416666
 30
0.0
 10
2.954513888888888
 20
-2.844270833333331
 30
0.0
 10
2.954513888888888
 20
-2.844270833333331
 30
0.0
 10
4.277430555555555
 20
-2.844270833333331
 30
0.0
 10
4.277430555555555
 20
-2.844270833333331
 30
0.0
 10
4.169943576388888
 20
-5.109765624999996
 30
0.0
 10
3.795117187499998
 20
-7.009391276041665
 30
0.0
 10
3.151573350694443
 20
-8.542458767361106
 30
0.0
 10
2.381249999999999
 20
-10.38834092881943
 30
0.0
 10
1.347721354166665
 20
-11.3109375
 30
0.0
 10
0.0509874131944445
 20
-11.3109375
 30
0.0
 10
-1.07004665798611
 20
-11.3109375
 30
0.0
 10
-2.010557725694444
 20
-10.55577256944443
 30
0.0
 10
-2.771234809027776
 20
-9.04475368923611
 30
0.0
 10
-3.775824652777775
 20
-7.046598307291666
 30
0.0
 10
-4.277430555555555
 20
-3.961170789930555
 30
0.0
 10
-4.277430555555555
 20
0.2115288628472222
 30
0.0
 10
-4.277430555555555
 20
3.379638671874998
 30
0.0
 10
-3.902604166666666
 20
5.977929687499997
 30
0.0
 10
-3.151573350694443
 20
8.005712890624996
 30
0.0
 10
-2.333018663194443
 20
10.20919596354165
 30
0.0
 10
-1.20647243923611
 20
11.3109375
 30
0.0
 10
0.2266872829861111
 20
11.3109375
 30
0.0
 10
1.444873046875
 20
11.3109375
 30
0.0
 10
2.390207248263884
 20
10.59642469618055
 30
0.0
 10
3.062689887152775
 20
9.168088107638887
 30
0.0
  0
ENDBLK
  5
331
330
32E
100
AcDbEntity
  8
0
100
AcDbBlockEnd
  0
BLOCK
  5
335
330
332
100
AcDbEntity
  8
0
 62
     7
100
AcDbBlockBegin
  2
AI9-BLK5
 70
     0
 10
0.0
 20
0.0
 30
0.0
  3
AI9-BLK5
  1

  0
SPLINE
  5
333
330
332
100
AcDbEntity
  8
LAYER_1
 62
     7
100
AcDbSpline
210
0.0
220
0.0
230
1.0
 70
    11
 71
     3
 72
    32
 73
    28
 74
     0
 42
0.0000000001
 43
0.0000000001
 40
0.0
 40
0.0
 40
0.0
 40
0.0
 40
1.0
 40
1.0
 40
1.0
 40
2.0
 40
2.0
 40
2.0
 40
3.0
 40
3.0
 40
3.0
 40
4.0
 40
4.0
 40
4.0
 40
5.0
 40
5.0
 40
5.0
 40
6.0
 40
6.0
 40
6.0
 40
7.0
 40
7.0
 40
7.0
 40
8.0
 40
8.0
 40
8.0
 40
9.0
 40
9.0
 40
9.0
 40
9.0
 10
-2.62378472222222
 20
-8.268229166666666
 30
0.0
 10
-2.62378472222222
 20
-8.268229166666666
 30
0.0
 10
-2.62378472222222
 20
8.180034722222217
 30
0.0
 10
-2.62378472222222
 20
8.180034722222217
 30
0.0
 10
-2.62378472222222
 20
8.180034722222217
 30
0.0
 10
-0.3376193576388888
 20
8.180034722222217
 30
0.0
 10
-0.3376193576388888
 20
8.180034722222217
 30
0.0
 10
0.6972873263888888
 20
8.180034722222217
 30
0.0
 10
1.449007161458333
 20
7.445540364583332
 30
0.0
 10
1.918918185763885
 20
5.977929687499997
 30
0.0
 10
2.388829210069443
 20
4.510319010416666
 30
0.0
 10
2.62378472222222
 20
2.449462890624999
 30
0.0
 10
2.62378472222222
 20
-0.204638671875
 30
0.0
 10
2.62378472222222
 20
-0.8950358072916666
 30
0.0
 10
2.590022786458332
 20
-1.643310546874999
 30
0.0
 10
2.523187934027772
 20
-2.45015190972222
 30
0.0
 10
2.408121744791666
 20
-3.80200737847222
 30
0.0
 10
2.226220703124999
 20
-4.909950086805555
 30
0.0
 10
1.976795789930553
 20
-5.774669053819441
 30
0.0
 10
1.659847005208333
 20
-6.853672960069442
 30
0.0
 10
1.252636718749998
 20
-7.583344184027778
 30
0.0
 10
0.7544759114583333
 20
-7.962304687499997
 30
0.0
 10
0.4664659288194444
 20
-8.166254340277777
 30
0.0
 10
0.1074869791666666
 20
-8.268229166666666
 30
0.0
 10
-0.3231499565972222
 20
-8.268229166666666
 30
0.0
 10
-0.3231499565972222
 20
-8.268229166666666
 30
0.0
 10
-2.62378472222222
 20
-8.268229166666666
 30
0.0
 10
-2.62378472222222
 20
-8.268229166666666
 30
0.0
  0
SPLINE
  5
334
330
332
100
AcDbEntity
  8
LAYER_1
 62
     7
100
AcDbSpline
210
0.0
220
0.0
230
1.0
 70
    11
 71
     3
 72
    26
 73
    22
 74
     0
 42
0.0000000001
 43
0.0000000001
 40
0.0
 40
0.0
 40
0.0
 40
0.0
 40
1.0
 40
1.0
 40
1.0
 40
2.0
 40
2.0
 40
2.0
 40
3.0
 40
3.0
 40
3.0
 40
4.0
 40
4.0
 40
4.0
 40
5.0
 40
5.0
 40
5.0
 40
6.0
 40
6.0
 40
6.0
 40
7.0
 40
7.0
 40
7.0
 40
7.0
 10
-3.946701388888888
 20
-10.7376736111111
 30
0.0
 10
-3.946701388888888
 20
-10.7376736111111
 30
0.0
 10
-0.0943956163194444
 20
-10.7376736111111
 30
0.0
 10
-0.0943956163194444
 20
-10.7376736111111
 30
0.0
 10
1.546847873263885
 20
-10.7376736111111
 30
0.0
 10
2.705777994791666
 20
-9.11021050347222
 30
0.0
 10
3.381705729166666
 20
-5.854595269097222
 30
0.0
 10
3.757910156249999
 20
-4.01284722222222
 30
0.0
 10
3.946701388888888
 20
-1.951991102430555
 30
0.0
 10
3.946701388888888
 20
0.328662109375
 30
0.0
 10
3.946701388888888
 20
3.281797960069443
 30
0.0
 10
3.622862413194443
 20
5.703700086805552
 30
0.0
 10
2.976562499999998
 20
7.594368489583332
 30
0.0
 10
2.25171440972222
 20
9.689675564236106
 30
0.0
 10
1.233344184027777
 20
10.7376736111111
 30
0.0
 10
-0.0799262152777778
 20
10.7376736111111
 30
0.0
 10
-0.0799262152777778
 20
10.7376736111111
 30
0.0
 10
-3.946701388888888
 20
10.7376736111111
 30
0.0
 10
-3.946701388888888
 20
10.7376736111111
 30
0.0
 10
-3.946701388888888
 20
10.7376736111111
 30
0.0
 10
-3.946701388888888
 20
-10.7376736111111
 30
0.0
 10
-3.946701388888888
 20
-10.7376736111111
 30
0.0
  0
ENDBLK
  5
336
330
332
100
AcDbEntity
  8
0
100
AcDbBlockEnd
  0
BLOCK
  5
33A
330
337
100
AcDbEntity
  8
0
 62
     7
100
AcDbBlockBegin
  2
AI9-BLK4
 70
     0
 10
0.0
 20
0.0
 30
0.0
  3
AI9-BLK4
  1

  0
SPLINE
  5
338
330
337
100
AcDbEntity
  8
LAYER_1
 62
     7
100
AcDbSpline
210
0.0
220
0.0
230
1.0
 70
    11
 71
     3
 72
    26
 73
    22
 74
     0
 42
0.0000000001
 43
0.0000000001
 40
0.0
 40
0.0
 40
0.0
 40
0.0
 40
1.0
 40
1.0
 40
1.0
 40
2.0
 40
2.0
 40
2.0
 40
3.0
 40
3.0
 40
3.0
 40
4.0
 40
4.0
 40
4.0
 40
5.0
 40
5.0
 40
5.0
 40
6.0
 40
6.0
 40
6.0
 40
7.0
 40
7.0
 40
7.0
 40
7.0
 10
-2.645833333333333
 20
0.9039930555555551
 30
0.0
 10
-2.645833333333333
 20
0.9039930555555551
 30
0.0
 10
-2.645833333333333
 20
8.180034722222217
 30
0.0
 10
-2.645833333333333
 20
8.180034722222217
 30
0.0
 10
-2.645833333333333
 20
8.180034722222217
 30
0.0
 10
0.465087890625
 20
8.180034722222217
 30
0.0
 10
0.465087890625
 20
8.180034722222217
 30
0.0
 10
0.9026150173611108
 20
8.180034722222217
 30
0.0
 10
1.24988064236111
 20
8.034651692708331
 30
0.0
 10
1.506884765625
 20
7.745263671874997
 30
0.0
 10
2.001600477430554
 20
7.194048394097221
 30
0.0
 10
2.248958333333332
 20
6.160519748263887
 30
0.0
 10
2.248958333333332
 20
4.643299696180553
 30
0.0
 10
2.248958333333332
 20
3.232188585069443
 30
0.0
 10
2.072569444444444
 20
2.256537543402775
 30
0.0
 10
1.720480685763888
 20
1.715657552083333
 30
0.0
 10
1.368391927083333
 20
1.174088541666665
 30
0.0
 10
0.8929687499999998
 20
0.9039930555555551
 30
0.0
 10
0.2942111545138888
 20
0.9039930555555551
 30
0.0
 10
0.2942111545138888
 20
0.9039930555555551
 30
0.0
 10
-2.645833333333333
 20
0.9039930555555551
 30
0.0
 10
-2.645833333333333
 20
0.9039930555555551
 30
0.0
  0
SPLINE
  5
339
330
337
100
AcDbEntity
  8
LAYER_1
 62
     7
100
AcDbSpline
210
0.0
220
0.0
230
1.0
 70
    11
 71
     3
 72
    68
 73
    64
 74
     0
 42
0.0000000001
 43
0.0000000001
 40
0.0
 40
0.0
 40
0.0
 40
0.0
 40
1.0
 40
1.0
 40
1.0
 40
2.0
 40
2.0
 40
2.0
 40
3.0
 40
3.0
 40
3.0
 40
4.0
 40
4.0
 40
4.0
 40
5.0
 40
5.0
 40
5.0
 40
6.0
 40
6.0
 40
6.0
 40
7.0
 40
7.0
 40
7.0
 40
8.0
 40
8.0
 40
8.0
 40
9.0
 40
9.0
 40
9.0
 40
10.0
 40
10.0
 40
10.0
 40
11.0
 40
11.0
 40
11.0
 40
12.0
 40
12.0
 40
12.0
 40
13.0
 40
13.0
 40
13.0
 40
14.0
 40
14.0
 40
14.0
 40
15.0
 40
15.0
 40
15.0
 40
16.0
 40
16.0
 40
16.0
 40
17.0
 40
17.0
 40
17.0
 40
18.0
 40
18.0
 40
18.0
 40
19.0
 40
19.0
 40
19.0
 40
20.0
 40
20.0
 40
20.0
 40
21.0
 40
21.0
 40
21.0
 40
21.0
 10
-3.968749999999998
 20
-10.7376736111111
 30
0.0
 10
-3.968749999999998
 20
-10.7376736111111
 30
0.0
 10
-2.645833333333333
 20
-10.7376736111111
 30
0.0
 10
-2.645833333333333
 20
-10.7376736111111
 30
0.0
 10
-2.645833333333333
 20
-10.7376736111111
 30
0.0
 10
-2.645833333333333
 20
-1.521354166666665
 30
0.0
 10
-2.645833333333333
 20
-1.521354166666665
 30
0.0
 10
-2.645833333333333
 20
-1.521354166666665
 30
0.0
 10
0.2390896267361111
 20
-1.521354166666665
 30
0.0
 10
0.2390896267361111
 20
-1.521354166666665
 30
0.0
 10
0.7599880642361111
 20
-1.521354166666665
 30
0.0
 10
1.143771701388887
 20
-1.65295681423611
 30
0.0
 10
1.390440538194444
 20
-1.916162109374999
 30
0.0
 10
1.816254340277773
 20
-2.39434136284722
 30
0.0
 10
2.04363064236111
 20
-3.335541449652775
 30
0.0
 10
2.072569444444444
 20
-4.739762369791666
 30
0.0
 10
2.072569444444444
 20
-4.739762369791666
 30
0.0
 10
2.160763888888888
 20
-8.324039713541665
 30
0.0
 10
2.160763888888888
 20
-8.324039713541665
 30
0.0
 10
2.18005642361111
 20
-9.163264973958332
 30
0.0
 10
2.202794053819443
 20
-9.728949652777775
 30
0.0
 10
2.227598741319444
 20
-10.02109374999998
 30
0.0
 10
2.252403428819443
 20
-10.31392686631944
 30
0.0
 10
2.28892144097222
 20
-10.55301649305555
 30
0.0
 10
2.33853081597222
 20
-10.7376736111111
 30
0.0
 10
2.33853081597222
 20
-10.7376736111111
 30
0.0
 10
3.968749999999998
 20
-10.7376736111111
 30
0.0
 10
3.968749999999998
 20
-10.7376736111111
 30
0.0
 10
3.968749999999998
 20
-10.7376736111111
 30
0.0
 10
3.968749999999998
 20
-10.25260416666666
 30
0.0
 10
3.968749999999998
 20
-10.25260416666666
 30
0.0
 10
3.766867404513888
 20
-10.05830078125
 30
0.0
 10
3.625618489583333
 20
-9.621462673611112
 30
0.0
 10
3.545692274305555
 20
-8.942089843749997
 30
0.0
 10
3.49470486111111
 20
-8.543836805555555
 30
0.0
 10
3.459564887152775
 20
-7.937499999999999
 30
0.0
 10
3.439583333333333
 20
-7.121701388888887
 30
0.0
 10
3.439583333333333
 20
-7.121701388888887
 30
0.0
 10
3.395486111111106
 20
-4.232644314236106
 30
0.0
 10
3.395486111111106
 20
-4.232644314236106
 30
0.0
 10
3.375504557291666
 20
-2.981385633680555
 30
0.0
 10
3.26870659722222
 20
-2.077392578125
 30
0.0
 10
3.075781249999999
 20
-1.522043185763888
 30
0.0
 10
2.882166883680555
 20
-0.9666937934027776
 30
0.0
 10
2.592089843749999
 20
-0.5188313802083333
 30
0.0
 10
2.204861111111104
 20
-0.1770779079861111
 30
0.0
 10
2.63618706597222
 20
0.3197048611111111
 30
0.0
 10
2.971739366319443
 20
0.9770290798611107
 30
0.0
 10
3.211518012152775
 20
1.79558376736111
 30
0.0
 10
3.451296657986107
 20
2.613449435763888
 30
0.0
 10
3.571874999999999
 20
3.66558159722222
 30
0.0
 10
3.571874999999999
 20
4.951291232638888
 30
0.0
 10
3.571874999999999
 20
7.415912543402777
 30
0.0
 10
3.124701605902775
 20
9.106076388888887
 30
0.0
 10
2.231043836805555
 20
10.02178276909722
 30
0.0
 10
1.759754774305553
 20
10.498583984375
 30
0.0
 10
1.163753255208332
 20
10.7376736111111
 30
0.0
 10
0.443039279513889
 20
10.7376736111111
 30
0.0
 10
0.443039279513889
 20
10.7376736111111
 30
0.0
 10
-3.968749999999998
 20
10.7376736111111
 30
0.0
 10
-3.968749999999998
 20
10.7376736111111
 30
0.0
 10
-3.968749999999998
 20
10.7376736111111
 30
0.0
 10
-3.968749999999998
 20
-10.7376736111111
 30
0.0
 10
-3.968749999999998
 20
-10.7376736111111
 30
0.0
  0
ENDBLK
  5
33B
330
337
100
AcDbEntity
  8
0
100
AcDbBlockEnd
  0
BLOCK
  5
33F
330
33C
100
AcDbEntity
  8
0
 62
     7
100
AcDbBlockBegin
  2
AI9-BLK3
 70
     0
 10
0.0
 20
0.0
 30
0.0
  3
AI9-BLK3
  1

  0
LWPOLYLINE
  5
33D
330
33C
100
AcDbEntity
  8
LAYER_1
 62
     7
100
AcDbPolyline
 90
        4
 70
     1
 43
0.0
 10
-0.6613722059461809
 20
10.7376736111111
 10
0.6613722059461809
 20
10.7376736111111
 10
0.6613722059461809
 20
-10.7376736111111
 10
-0.6613722059461809
 20
-10.7376736111111
  0
HATCH
  5
33E
330
33C
100
AcDbEntity
  8
LAYER_1
 62
     7
100
AcDbHatch
 10
0.0
 20
0.0
 30
0.0
210
0.0
220
0.0
230
1.0
  2
SOLID
 70
     1
 71
     0
 91
        1
 92
        3
 72
     0
 73
     1
 93
        4
 10
-0.6613722059461809
 20
10.7376736111111
 10
0.6613722059461809
 20
10.7376736111111
 10
0.6613722059461809
 20
-10.7376736111111
 10
-0.6613722059461809
 20
-10.7376736111111
 97
        0
 75
     2
 76
     1
 98
        1
 10
0.0
 20
0.0
  0
ENDBLK
  5
340
330
33C
100
AcDbEntity
  8
0
100
AcDbBlockEnd
  0
BLOCK
  5
344
330
341
100
AcDbEntity
  8
0
 62
     7
100
AcDbBlockBegin
  2
AI9-BLK2
 70
     0
 10
0.0
 20
0.0
 30
0.0
  3
AI9-BLK2
  1

  0
LWPOLYLINE
  5
342
330
341
100
AcDbEntity
  8
LAYER_1
 62
     7
100
AcDbPolyline
 90
        7
 70
     1
 43
0.0
 10
-2.785704210069443
 20
10.7376736111111
 10
0.0
 20
-7.550960286458332
 10
2.771234809027776
 20
10.7376736111111
 10
4.233333333333331
 20
10.7376736111111
 10
0.6910861545138888
 20
-10.7376736111111
 10
-0.7055555555555558
 20
-10.7376736111111
 10
-4.233333333333331
 20
10.7376736111111
  0
HATCH
  5
343
330
341
100
AcDbEntity
  8
LAYER_1
 62
     7
100
AcDbHatch
 10
0.0
 20
0.0
 30
0.0
210
0.0
220
0.0
230
1.0
  2
SOLID
 70
     1
 71
     0
 91
        1
 92
        3
 72
     0
 73
     1
 93
        7
 10
-2.785704210069443
 20
10.7376736111111
 10
0.0
 20
-7.550960286458332
 10
2.771234809027776
 20
10.7376736111111
 10
4.233333333333331
 20
10.7376736111111
 10
0.6910861545138888
 20
-10.7376736111111
 10
-0.7055555555555558
 20
-10.7376736111111
 10
-4.233333333333331
 20
10.7376736111111
 97
        0
 75
     2
 76
     1
 98
        1
 10
0.0
 20
0.0
  0
ENDBLK
  5
345
330
341
100
AcDbEntity
  8
0
100
AcDbBlockEnd
  0
BLOCK
  5
349
330
346
100
AcDbEntity
  8
0
 62
     7
100
AcDbBlockBegin
  2
AI9-BLK1
 70
     0
 10
0.0
 20
0.0
 30
0.0
  3
AI9-BLK1
  1

  0
LWPOLYLINE
  5
347
330
346
100
AcDbEntity
  8
LAYER_1
 62
     7
100
AcDbPolyline
 90
       12
 70
     1
 43
0.0
 10
-3.571874999999999
 20
10.7376736111111
 10
3.483680555555555
 20
10.7376736111111
 10
3.483680555555555
 20
8.091840277777777
 10
-2.248958333333332
 20
8.091840277777777
 10
-2.248958333333332
 20
1.565451388888888
 10
3.042708333333333
 20
1.565451388888888
 10
3.042708333333333
 20
-0.9039930555555551
 10
-2.248958333333332
 20
-0.9039930555555551
 10
-2.248958333333332
 20
-8.180034722222217
 10
3.571874999999999
 20
-8.180034722222217
 10
3.571874999999999
 20
-10.7376736111111
 10
-3.571874999999999
 20
-10.7376736111111
  0
HATCH
  5
348
330
346
100
AcDbEntity
  8
LAYER_1
 62
     7
100
AcDbHatch
 10
0.0
 20
0.0
 30
0.0
210
0.0
220
0.0
230
1.0
  2
SOLID
 70
     1
 71
     0
 91
        1
 92
        3
 72
     0
 73
     1
 93
       12
 10
-3.571874999999999
 20
10.7376736111111
 10
3.483680555555555
 20
10.7376736111111
 10
3.483680555555555
 20
8.091840277777777
 10
-2.248958333333332
 20
8.091840277777777
 10
-2.248958333333332
 20
1.565451388888888
 10
3.042708333333333
 20
1.565451388888888
 10
3.042708333333333
 20
-0.9039930555555551
 10
-2.248958333333332
 20
-0.9039930555555551
 10
-2.248958333333332
 20
-8.180034722222217
 10
3.571874999999999
 20
-8.180034722222217
 10
3.571874999999999
 20
-10.7376736111111
 10
-3.571874999999999
 20
-10.7376736111111
 97
        0
 75
     2
 76
     1
 98
        1
 10
0.0
 20
0.0
  0
ENDBLK
  5
34A
330
346
100
AcDbEntity
  8
0
100
AcDbBlockEnd
  0
BLOCK
  5
36E
330
34B
100
AcDbEntity
  8
0
100
AcDbBlockBegin
  2
HD_LLC_logo_OT5
 70
     0
 10
0.0
 20
0.0
 30
0.0
  3
HD_LLC_logo_OT5
  1

  0
SPLINE
  5
34C
102
{ACAD_REACTORS
330
36C
102
}
330
34B
100
AcDbEntity
  8
LAYER_1
 62
     7
100
AcDbSpline
210
0.0
220
0.0
230
1.0
 70
    11
 71
     3
 72
   113
 73
   109
 74
     0
 42
0.0000000001
 43
0.0000000001
 40
0.0
 40
0.0
 40
0.0
 40
0.0
 40
1.0
 40
1.0
 40
1.0
 40
2.0
 40
2.0
 40
2.0
 40
3.0
 40
3.0
 40
3.0
 40
4.0
 40
4.0
 40
4.0
 40
5.0
 40
5.0
 40
5.0
 40
6.0
 40
6.0
 40
6.0
 40
7.0
 40
7.0
 40
7.0
 40
8.0
 40
8.0
 40
8.0
 40
9.0
 40
9.0
 40
9.0
 40
10.0
 40
10.0
 40
10.0
 40
11.0
 40
11.0
 40
11.0
 40
12.0
 40
12.0
 40
12.0
 40
13.0
 40
13.0
 40
13.0
 40
14.0
 40
14.0
 40
14.0
 40
15.0
 40
15.0
 40
15.0
 40
16.0
 40
16.0
 40
16.0
 40
17.0
 40
17.0
 40
17.0
 40
18.0
 40
18.0
 40
18.0
 40
19.0
 40
19.0
 40
19.0
 40
20.0
 40
20.0
 40
20.0
 40
21.0
 40
21.0
 40
21.0
 40
22.0
 40
22.0
 40
22.0
 40
23.0
 40
23.0
 40
23.0
 40
24.0
 40
24.0
 40
24.0
 40
25.0
 40
25.0
 40
25.0
 40
26.0
 40
26.0
 40
26.0
 40
27.0
 40
27.0
 40
27.0
 40
28.0
 40
28.0
 40
28.0
 40
29.0
 40
29.0
 40
29.0
 40
30.0
 40
30.0
 40
30.0
 40
31.0
 40
31.0
 40
31.0
 40
32.0
 40
32.0
 40
32.0
 40
33.0
 40
33.0
 40
33.0
 40
34.0
 40
34.0
 40
34.0
 40
35.0
 40
35.0
 40
35.0
 40
36.0
 40
36.0
 40
36.0
 40
36.0
 10
193.3039632161458
 20
186.1548733181423
 30
0.0
 10
193.3039632161458
 20
186.1860514322916
 30
0.0
 10
193.3039632161458
 20
219.6932223849826
 30
0.0
 10
193.3039632161458
 20
219.6932223849826
 30
0.0
 10
193.3039632161458
 20
219.6932223849826
 30
0.0
 10
193.2974175347219
 20
219.7488606770833
 30
0.0
 10
193.2974175347219
 20
219.7488606770833
 30
0.0
 10
191.5293945312499
 20
235.455740017361
 30
0.0
 10
175.1458984374999
 20
235.2467949761284
 30
0.0
 10
174.9808783637151
 20
235.2428331163193
 30
0.0
 10
174.9808783637151
 20
235.2428331163193
 30
0.0
 10
125.8827555338541
 20
235.2430053710937
 30
0.0
 10
125.8827555338541
 20
235.2430053710937
 30
0.0
 10
125.8827555338541
 20
235.2430053710937
 30
0.0
 10
125.8827555338541
 20
255.5278998480901
 30
0.0
 10
125.8827555338541
 20
255.5278998480901
 30
0.0
 10
125.8827555338541
 20
255.5278998480901
 30
0.0
 10
84.5626247829861
 20
255.5278998480901
 30
0.0
 10
84.5626247829861
 20
255.5278998480901
 30
0.0
 10
84.5626247829861
 20
255.5278998480901
 30
0.0
 10
84.55711263020829
 20
233.7919311523436
 30
0.0
 10
84.55711263020829
 20
233.7919311523436
 30
0.0
 10
84.55711263020829
 20
233.7919311523436
 30
0.0
 10
64.42052951388888
 20
233.7919311523436
 30
0.0
 10
64.42052951388888
 20
233.7919311523436
 30
0.0
 10
64.42052951388888
 20
233.7919311523436
 30
0.0
 10
64.41501736111111
 20
255.5278998480901
 30
0.0
 10
64.41501736111111
 20
255.5278998480901
 30
0.0
 10
64.41501736111111
 20
255.5278998480901
 30
0.0
 10
23.91757541232637
 20
255.5278998480901
 30
0.0
 10
23.91757541232637
 20
255.5278998480901
 30
0.0
 10
23.91757541232637
 20
255.5278998480901
 30
0.0
 10
23.91757541232637
 20
233.2393378363715
 30
0.0
 10
23.91757541232637
 20
233.2393378363715
 30
0.0
 10
23.91757541232637
 20
233.2393378363715
 30
0.0
 10
43.65624999999999
 20
233.2393378363715
 30
0.0
 10
43.65624999999999
 20
233.2393378363715
 30
0.0
 10
43.65624999999999
 20
233.2393378363715
 30
0.0
 10
43.65624999999999
 20
211.5188720703125
 30
0.0
 10
43.65624999999999
 20
211.5188720703125
 30
0.0
 10
43.65624999999999
 20
211.5188720703125
 30
0.0
 10
23.91757541232637
 20
211.5188720703125
 30
0.0
 10
23.91757541232637
 20
211.5188720703125
 30
0.0
 10
23.91757541232637
 20
211.5188720703125
 30
0.0
 10
23.91757541232637
 20
189.2303100585936
 30
0.0
 10
23.91757541232637
 20
189.2303100585936
 30
0.0
 10
23.91757541232637
 20
189.2303100585936
 30
0.0
 10
64.41501736111111
 20
189.2303100585936
 30
0.0
 10
64.41501736111111
 20
189.2303100585936
 30
0.0
 10
64.41501736111111
 20
189.2303100585936
 30
0.0
 10
64.42052951388888
 20
211.069976128472
 30
0.0
 10
64.42052951388888
 20
211.069976128472
 30
0.0
 10
64.42052951388888
 20
211.069976128472
 30
0.0
 10
84.55711263020829
 20
211.069976128472
 30
0.0
 10
84.55711263020829
 20
211.069976128472
 30
0.0
 10
84.55711263020829
 20
211.069976128472
 30
0.0
 10
84.5626247829861
 20
189.2303100585936
 30
0.0
 10
84.5626247829861
 20
189.2303100585936
 30
0.0
 10
84.5626247829861
 20
189.2303100585936
 30
0.0
 10
125.8827555338541
 20
189.2303100585936
 30
0.0
 10
125.8827555338541
 20
189.2303100585936
 30
0.0
 10
125.8827555338541
 20
189.2303100585936
 30
0.0
 10
125.8827555338541
 20
211.5188720703125
 30
0.0
 10
125.8827555338541
 20
211.5188720703125
 30
0.0
 10
125.8827555338541
 20
211.5188720703125
 30
0.0
 10
105.3213921440971
 20
211.5188720703125
 30
0.0
 10
105.3213921440971
 20
211.5188720703125
 30
0.0
 10
105.3213921440971
 20
211.5188720703125
 30
0.0
 10
105.3213921440971
 20
233.2393378363715
 30
0.0
 10
105.3213921440971
 20
233.2393378363715
 30
0.0
 10
105.3213921440971
 20
233.2393378363715
 30
0.0
 10
175.0046495225693
 20
233.243127441406
 30
0.0
 10
175.0046495225693
 20
233.243127441406
 30
0.0
 10
175.6268337673611
 20
233.2560465494791
 30
0.0
 10
189.7165852864583
 20
233.3962619357638
 30
0.0
 10
191.3037407769094
 20
219.5690266927083
 30
0.0
 10
191.3037407769094
 20
219.4332899305555
 30
0.0
 10
191.3037407769094
 20
186.1142211914062
 30
0.0
 10
191.3037407769094
 20
186.1142211914062
 30
0.0
 10
191.3037407769094
 20
186.1142211914062
 30
0.0
 10
191.3051188151039
 20
186.0880384657115
 30
0.0
 10
191.3051188151039
 20
186.0880384657115
 30
0.0
 10
191.3054633246526
 20
186.0787367078991
 30
0.0
 10
191.3109754774304
 20
185.9566080729166
 30
0.0
 10
191.3109754774304
 20
185.7399115668401
 30
0.0
 10
191.3109754774304
 20
184.2090833875865
 30
0.0
 10
191.0488037109374
 20
177.9643310546874
 30
0.0
 10
186.9866916232638
 20
173.5652886284722
 30
0.0
 10
184.2540418836804
 20
170.6064683702255
 30
0.0
 10
180.3224989149304
 20
169.0308539496526
 30
0.0
 10
175.300927734375
 20
168.8825425889756
 30
0.0
 10
175.300927734375
 20
168.8825425889756
 30
0.0
 10
107.0094889322916
 20
168.8828870985243
 30
0.0
 10
107.0094889322916
 20
168.8828870985243
 30
0.0
 10
107.0094889322916
 20
168.8828870985243
 30
0.0
 10
107.0094889322916
 20
166.8830091688368
 30
0.0
 10
107.0094889322916
 20
166.8830091688368
 30
0.0
 10
107.0094889322916
 20
166.8830091688368
 30
0.0
 10
175.3305555555555
 20
166.8830091688368
 30
0.0
 10
175.3305555555555
 20
166.8830091688368
 30
0.0
 10
180.9467502170138
 20
167.0485460069444
 30
0.0
 10
185.3571614583333
 20
168.8448187934026
 30
0.0
 10
188.4687717013888
 20
172.2223904079861
 30
0.0
 10
192.9649658203124
 20
177.1034016927083
 30
0.0
 10
193.3136094835069
 20
183.7202243381076
 30
0.0
 10
193.3136094835069
 20
185.6520616319443
 30
0.0
 10
193.3136094835069
 20
185.9247409396701
 30
0.0
 10
193.3070638020833
 20
186.0868326822916
 30
0.0
 10
193.3039632161458
 20
186.1548733181423
 30
0.0
  0
INSERT
  5
34D
102
{ACAD_REACTORS
330
36D
102
}
330
34B
100
AcDbEntity
  8
LAYER_1
 62
     7
100
AcDbBlockReference
  2
AI9-BLK14
 10
159.5625257703993
 20
200.5118781195744
 30
0.0
  0
INSERT
  5
34E
330
34B
100
AcDbEntity
  8
LAYER_1
 62
     7
100
AcDbBlockReference
  2
AI9-BLK13
 10
27.69615614149305
 20
179.2145562065971
 30
0.0
 42
0.9200000000000001
  0
INSERT
  5
34F
102
{ACAD_REACTORS
330
35A
102
}
330
34B
100
AcDbEntity
  8
LAYER_1
 62
     7
100
AcDbBlockReference
  2
AI9-BLK11
 10
44.76591525607638
 20
179.2145562065971
 30
0.0
 42
0.9200000000000001
  0
INSERT
  5
350
102
{ACAD_REACTORS
330
368
102
}
330
34B
100
AcDbEntity
  8
LAYER_1
 62
     7
100
AcDbBlockReference
  2
AI9-BLK10
 10
54.04665798611111
 20
179.2145562065971
 30
0.0
 42
0.9200000000000001
  0
INSERT
  5
351
102
{ACAD_REACTORS
330
367
102
}
330
34B
100
AcDbEntity
  8
LAYER_1
 62
     7
100
AcDbBlockReference
  2
AI9-BLK9
 10
62.79013807508679
 20
179.2145562065971
 30
0.0
 42
0.9
  0
INSERT
  5
352
330
34B
100
AcDbEntity
  8
LAYER_1
 62
     7
100
AcDbBlockReference
  2
AI9-BLK8
 10
71.03046196831595
 20
179.2145562065971
 30
0.0
 42
0.9200000000000001
  0
INSERT
  5
353
330
34B
100
AcDbEntity
  8
LAYER_1
 62
     7
100
AcDbBlockReference
  2
AI9-BLK7
 10
76.93793945312498
 20
179.2145562065971
 30
0.0
 42
0.9200000000000001
  0
INSERT
  5
354
102
{ACAD_REACTORS
330
35B
102
}
330
34B
100
AcDbEntity
  8
LAYER_1
 62
     7
100
AcDbBlockReference
  2
AI9-BLK6
 10
82.55602891710069
 20
179.2145562065971
 30
0.0
 42
0.9
  0
INSERT
  5
355
102
{ACAD_REACTORS
330
369
102
}
330
34B
100
AcDbEntity
  8
LAYER_1
 62
     7
100
AcDbBlockReference
  2
AI9-BLK5
 10
94.32430284288193
 20
179.2145562065971
 30
0.0
 42
0.9200000000000001
  0
INSERT
  5
356
102
{ACAD_REACTORS
330
36A
102
}
330
34B
100
AcDbEntity
  8
LAYER_1
 62
     7
100
AcDbBlockReference
  2
AI9-BLK4
 10
103.2081705729166
 20
179.2145562065971
 30
0.0
 42
0.9200000000000001
  0
INSERT
  5
357
330
34B
100
AcDbEntity
  8
LAYER_1
 62
     7
100
AcDbBlockReference
  2
AI9-BLK3
 10
108.850978597005
 20
179.2145562065971
 30
0.0
 42
0.9200000000000001
  0
INSERT
  5
358
330
34B
100
AcDbEntity
  8
LAYER_1
 62
     7
100
AcDbBlockReference
  2
AI9-BLK2
 10
114.2045708550346
 20
179.2145562065971
 30
0.0
 42
0.9200000000000001
  0
INSERT
  5
359
330
34B
100
AcDbEntity
  8
LAYER_1
 62
     7
100
AcDbBlockReference
  2
AI9-BLK1
 10
122.4125108506944
 20
179.2145562065971
 30
0.0
 42
0.9200000000000001
  0
HATCH
  5
35A
330
34B
100
AcDbEntity
  8
0
  6
Continuous
100
AcDbHatch
 10
0.0
 20
0.0
 30
0.0
210
0.0
220
0.0
230
1.0
  2
SOLID
 70
     1
 71
     1
 91
        2
 92
       16
 93
        1
 72
     4
 94
        3
 73
     0
 74
     0
 95
       26
 96
       22
 40
0.0
 40
0.0
 40
0.0
 40
0.0
 40
1.0
 40
1.0
 40
1.0
 40
2.0
 40
2.0
 40
2.0
 40
3.0
 40
3.0
 40
3.0
 40
4.0
 40
4.0
 40
4.0
 40
5.0
 40
5.0
 40
5.0
 40
6.0
 40
6.0
 40
6.0
 40
7.0
 40
7.0
 40
7.0
 40
7.0
 10
42.12008192274304
 20
180.046229817708
 10
42.12008192274304
 20
180.046229817708
 10
42.12008192274304
 20
186.7401881510414
 10
42.12008192274304
 20
186.7401881510414
 10
42.12008192274304
 20
186.7401881510414
 10
45.23100314670138
 20
186.7401881510414
 10
45.23100314670138
 20
186.7401881510414
 10
45.66853027343749
 20
186.7401881510414
 10
46.01579589843749
 20
186.6064357638887
 10
46.27280002170138
 20
186.3401987847216
 10
46.76751573350694
 20
185.8330807291664
 10
47.01487358940972
 20
184.8822343749995
 10
47.01487358940972
 20
183.4863919270832
 10
47.01487358940972
 20
182.188169704861
 10
46.83848470052082
 20
181.2905707465276
 10
46.48639594184028
 20
180.7929611545137
 10
46.13430718315971
 20
180.2947176649304
 10
45.65888400607638
 20
180.046229817708
 10
45.06012641059028
 20
180.046229817708
 10
45.06012641059028
 20
180.046229817708
 10
42.12008192274304
 20
180.046229817708
 10
42.12008192274304
 20
180.046229817708
 97
        1
330
34F
 92
        1
 93
        1
 72
     4
 94
        3
 73
     0
 74
     0
 95
       68
 96
       64
 40
0.0
 40
0.0
 40
0.0
 40
0.0
 40
1.0
 40
1.0
 40
1.0
 40
2.0
 40
2.0
 40
2.0
 40
3.0
 40
3.0
 40
3.0
 40
4.0
 40
4.0
 40
4.0
 40
5.0
 40
5.0
 40
5.0
 40
6.0
 40
6.0
 40
6.0
 40
7.0
 40
7.0
 40
7.0
 40
8.0
 40
8.0
 40
8.0
 40
9.0
 40
9.0
 40
9.0
 40
10.0
 40
10.0
 40
10.0
 40
11.0
 40
11.0
 40
11.0
 40
12.0
 40
12.0
 40
12.0
 40
13.0
 40
13.0
 40
13.0
 40
14.0
 40
14.0
 40
14.0
 40
15.0
 40
15.0
 40
15.0
 40
16.0
 40
16.0
 40
16.0
 40
17.0
 40
17.0
 40
17.0
 40
18.0
 40
18.0
 40
18.0
 40
19.0
 40
19.0
 40
19.0
 40
20.0
 40
20.0
 40
20.0
 40
21.0
 40
21.0
 40
21.0
 40
21.0
 10
40.79716525607638
 20
169.3358964843748
 10
40.79716525607638
 20
169.3358964843748
 10
42.12008192274304
 20
169.3358964843748
 10
42.12008192274304
 20
169.3358964843748
 10
42.12008192274304
 20
169.3358964843748
 10
42.12008192274304
 20
177.8149103732637
 10
42.12008192274304
 20
177.8149103732637
 10
42.12008192274304
 20
177.8149103732637
 10
45.00500488281249
 20
177.8149103732637
 10
45.00500488281249
 20
177.8149103732637
 10
45.52590332031249
 20
177.8149103732637
 10
45.90968695746528
 20
177.6938359374998
 10
46.15635579427083
 20
177.4516870659717
 10
46.58216959635415
 20
177.0117621527776
 10
46.80954589843749
 20
176.1458580729164
 10
46.83848470052082
 20
174.8539748263887
 10
46.83848470052082
 20
174.8539748263887
 10
46.92667914496527
 20
171.5564396701385
 10
46.92667914496527
 20
171.5564396701385
 10
46.94597167968749
 20
170.7843524305554
 10
46.96870930989581
 20
170.2639225260415
 10
46.99351399739582
 20
169.9951499565971
 10
47.01831868489581
 20
169.725743489583
 10
47.0548366970486
 20
169.5057810329859
 10
47.10444607204859
 20
169.3358964843748
 10
47.10444607204859
 20
169.3358964843748
 10
48.73466525607638
 20
169.3358964843748
 10
48.73466525607638
 20
169.3358964843748
 10
48.73466525607638
 20
169.3358964843748
 10
48.73466525607638
 20
169.7821603732633
 10
48.73466525607638
 20
169.7821603732633
 10
48.53278266059028
 20
169.9609194878471
 10
48.39153374565971
 20
170.3628105468748
 10
48.31160753038194
 20
170.9878335503471
 10
48.26062011718749
 20
171.3542263454858
 10
48.22548014322915
 20
171.9120562065971
 10
48.20549858940971
 20
172.6625909288193
 10
48.20549858940971
 20
172.6625909288193
 10
48.16140136718749
 20
175.3205234374999
 10
48.16140136718749
 20
175.3205234374999
 10
48.14141981336803
 20
176.4716814236109
 10
48.03462185329859
 20
177.3033550347219
 10
47.84169650607638
 20
177.814276475694
 10
47.64808213975693
 20
178.3251979166665
 10
47.35800509982638
 20
178.7372313368054
 10
46.97077636718749
 20
179.0516445312498
 10
47.4021023220486
 20
179.5086846788193
 10
47.73765462239582
 20
180.1134229600693
 10
47.97743326822915
 20
180.866493272569
 10
48.21721191406249
 20
181.6189296874999
 10
48.33779025607638
 20
182.5868912760411
 10
48.33779025607638
 20
183.7697441406248
 10
48.33779025607638
 20
186.0371957465273
 10
47.89061686197913
 20
187.5921464843749
 10
46.99695909288194
 20
188.4345963541665
 10
46.52567003038194
 20
188.8732534722221
 10
45.92966851128472
 20
189.0932159288193
 10
45.20895453559027
 20
189.0932159288193
 10
45.20895453559027
 20
189.0932159288193
 10
40.79716525607638
 20
189.0932159288193
 10
40.79716525607638
 20
189.0932159288193
 10
40.79716525607638
 20
189.0932159288193
 10
40.79716525607638
 20
169.3358964843748
 10
40.79716525607638
 20
169.3358964843748
 97
        0
 75
     0
 76
     1
 98
        0
  0
HATCH
  5
35B
330
34B
100
AcDbEntity
  8
0
  6
Continuous
100
AcDbHatch
 10
0.0
 20
0.0
 30
0.0
210
0.0
220
0.0
230
1.0
  2
SOLID
 70
     1
 71
     1
 91
        1
 92
        1
 93
        1
 72
     4
 94
        3
 73
     0
 74
     0
 95
       59
 96
       55
 40
0.0
 40
0.0
 40
0.0
 40
0.0
 40
1.0
 40
1.0
 40
1.0
 40
2.0
 40
2.0
 40
2.0
 40
3.0
 40
3.0
 40
3.0
 40
4.0
 40
4.0
 40
4.0
 40
5.0
 40
5.0
 40
5.0
 40
6.0
 40
6.0
 40
6.0
 40
7.0
 40
7.0
 40
7.0
 40
8.0
 40
8.0
 40
8.0
 40
9.0
 40
9.0
 40
9.0
 40
10.0
 40
10.0
 40
10.0
 40
11.0
 40
11.0
 40
11.0
 40
12.0
 40
12.0
 40
12.0
 40
13.0
 40
13.0
 40
13.0
 40
14.0
 40
14.0
 40
14.0
 40
15.0
 40
15.0
 40
15.0
 40
16.0
 40
16.0
 40
16.0
 40
17.0
 40
17.0
 40
17.0
 40
18.0
 40
18.0
 40
18.0
 40
18.0
 10
85.61871880425345
 20
187.4658355034721
 10
86.29120144314232
 20
186.1797124565971
 10
86.66671685112847
 20
184.7193364800346
 10
86.7452650282118
 20
183.0840874565969
 10
86.7452650282118
 20
183.0840874565969
 10
85.42234836154511
 20
183.0840874565969
 10
85.42234836154511
 20
183.0840874565969
 10
85.27696533203123
 20
184.3156401909719
 10
84.99171142578125
 20
185.2917046440971
 10
84.56589762369791
 20
186.0122808159719
 10
84.14008382161458
 20
186.7322368706594
 10
83.53994818793401
 20
187.0925249565969
 10
82.76617974175342
 20
187.0925249565969
 10
81.81740044487847
 20
187.0925249565969
 10
81.05258924696178
 20
186.4240386284721
 10
80.47243516710068
 20
185.0883062065971
 10
79.89159206814234
 20
183.7525737847219
 10
79.6015150282118
 20
181.7049468315971
 10
79.6015150282118
 20
178.9454253472221
 10
79.6015150282118
 20
176.6844780815969
 10
79.86265326605901
 20
174.8514116753471
 10
80.38561876085069
 20
173.4456060112846
 10
80.90789523654512
 20
172.0391802300344
 10
81.69199896918403
 20
171.3365874565971
 10
82.73724093967013
 20
171.3365874565971
 10
83.69497748480901
 20
171.3365874565971
 10
84.42120361328125
 20
172.0794878472221
 10
84.91523030598958
 20
173.5665288628469
 10
85.18601481119791
 20
174.3491167534719
 10
85.38445231119791
 20
175.3785112847221
 10
85.51054280598959
 20
176.6547124565971
 10
85.51054280598959
 20
176.6547124565971
 10
86.83345947265625
 20
176.6547124565971
 10
86.83345947265625
 20
176.6547124565971
 10
86.72597249348957
 20
174.6157671440971
 10
86.35114610460069
 20
172.9061040581596
 10
85.70760226779514
 20
171.526343315972
 10
84.93727891710069
 20
169.8650493706596
 10
83.90375027126735
 20
169.0347124565971
 10
82.60701633029514
 20
169.0347124565971
 10
81.48598225911458
 20
169.0347124565971
 10
80.54547119140625
 20
169.7143608940971
 10
79.78479410807292
 20
171.0742778862845
 10
78.78020426432292
 20
172.8726177300344
 10
78.27859836154512
 20
175.6495024956596
 10
78.27859836154512
 20
179.4049321831594
 10
78.27859836154512
 20
182.2562310112846
 10
78.65342475043402
 20
184.5946929253469
 10
79.40445556640622
 20
186.4196978081596
 10
80.22301025390625
 20
188.4028325737846
 10
81.34955647786458
 20
189.3943999565971
 10
82.78271620008679
 20
189.3943999565971
 10
84.00090196397568
 20
189.3943999565971
 10
84.94623616536458
 20
188.7513384331594
 10
85.61871880425345
 20
187.4658355034721
 97
        1
330
354
 75
     0
 76
     1
 98
        1
 10
0.0
 20
0.0
  0
LINE
  5
35C
102
{ACAD_REACTORS
330
36B
102
}
330
34B
100
AcDbEntity
  8
LAYER_1
 62
     7
100
AcDbLine
 10
34.65766059027778
 20
177.4497853732638
 30
0.0
 11
36.19830729166666
 21
186.1658769531249
 31
0.0
  0
LINE
  5
35D
102
{ACAD_REACTORS
330
36B
102
}
330
34B
100
AcDbEntity
  8
LAYER_1
 62
     7
100
AcDbLine
 10
36.19830729166666
 20
186.1658769531249
 30
0.0
 11
37.67556423611111
 21
177.4497853732638
 31
0.0
  0
LINE
  5
35E
102
{ACAD_REACTORS
330
36B
102
}
330
34B
100
AcDbEntity
  8
LAYER_1
 62
     7
100
AcDbLine
 10
37.67556423611111
 20
177.4497853732638
 30
0.0
 11
34.65766059027778
 21
177.4497853732638
 31
0.0
  0
LINE
  5
35F
102
{ACAD_REACTORS
330
36B
102
}
330
34B
100
AcDbEntity
  8
LAYER_1
 62
     7
100
AcDbLine
 10
31.83957248263888
 20
169.3358964843748
 30
0.0
 11
33.22450086805555
 21
169.3358964843748
 31
0.0
  0
LINE
  5
360
102
{ACAD_REACTORS
330
36B
102
}
330
34B
100
AcDbEntity
  8
LAYER_1
 62
     7
100
AcDbLine
 10
33.22450086805555
 20
169.3358964843748
 30
0.0
 11
34.27043185763887
 21
175.2590353732638
 31
0.0
  0
LINE
  5
361
102
{ACAD_REACTORS
330
36B
102
}
330
34B
100
AcDbEntity
  8
LAYER_1
 62
     7
100
AcDbLine
 10
34.27043185763887
 20
175.2590353732638
 30
0.0
 11
38.04694552951389
 21
175.2590353732638
 31
0.0
  0
LINE
  5
362
102
{ACAD_REACTORS
330
36B
102
}
330
34B
100
AcDbEntity
  8
LAYER_1
 62
     7
100
AcDbLine
 10
38.04694552951389
 20
175.2590353732638
 30
0.0
 11
39.05015733506942
 21
169.3358964843748
 31
0.0
  0
LINE
  5
363
102
{ACAD_REACTORS
330
36B
102
}
330
34B
100
AcDbEntity
  8
LAYER_1
 62
     7
100
AcDbLine
 10
39.05015733506942
 20
169.3358964843748
 30
0.0
 11
40.43508572048611
 21
169.3358964843748
 31
0.0
  0
LINE
  5
364
102
{ACAD_REACTORS
330
36B
102
}
330
34B
100
AcDbEntity
  8
LAYER_1
 62
     7
100
AcDbLine
 10
40.43508572048611
 20
169.3358964843748
 30
0.0
 11
36.952783203125
 21
189.0932159288193
 31
0.0
  0
LINE
  5
365
102
{ACAD_REACTORS
330
36B
102
}
330
34B
100
AcDbEntity
  8
LAYER_1
 62
     7
100
AcDbLine
 10
36.952783203125
 20
189.0932159288193
 30
0.0
 11
35.47828233506943
 21
189.0932159288193
 31
0.0
  0
LINE
  5
366
102
{ACAD_REACTORS
330
36B
102
}
330
34B
100
AcDbEntity
  8
LAYER_1
 62
     7
100
AcDbLine
 10
35.47828233506943
 20
189.0932159288193
 30
0.0
 11
31.83957248263888
 21
169.3358964843748
 31
0.0
  0
HATCH
  5
367
330
34B
100
AcDbEntity
  8
0
  6
Continuous
100
AcDbHatch
 10
0.0
 20
0.0
 30
0.0
210
0.0
220
0.0
230
1.0
  2
SOLID
 70
     1
 71
     1
 91
        2
 92
       16
 93
        1
 72
     4
 94
        3
 73
     0
 74
     0
 95
       29
 96
       25
 40
0.0
 40
0.0
 40
0.0
 40
0.0
 40
1.0
 40
1.0
 40
1.0
 40
2.0
 40
2.0
 40
2.0
 40
3.0
 40
3.0
 40
3.0
 40
4.0
 40
4.0
 40
4.0
 40
5.0
 40
5.0
 40
5.0
 40
6.0
 40
6.0
 40
6.0
 40
7.0
 40
7.0
 40
7.0
 40
8.0
 40
8.0
 40
8.0
 40
8.0
 10
62.85697292751734
 20
171.3365874565971
 10
61.88338894314235
 20
171.3365874565971
 10
61.18058946397566
 20
172.0714263237844
 10
60.74857449001735
 20
173.5411040581594
 10
60.31587049696178
 20
175.0107817925344
 10
60.10020751953123
 20
176.8165630425341
 10
60.10020751953123
 20
178.9578276909721
 10
60.10020751953123
 20
181.6342534722221
 10
60.35101047092013
 20
183.6589360894094
 10
60.85261637369789
 20
185.0324956597219
 10
61.35422227647566
 20
186.4054351128471
 10
62.00741238064235
 20
187.0925249565969
 10
62.81218668619789
 20
187.0925249565969
 10
63.6369425455729
 20
187.0925249565969
 10
64.28806559244789
 20
186.3992339409721
 10
64.76486680772568
 20
185.0126519097221
 10
65.24166802300347
 20
183.6260698784719
 10
65.48006863064235
 20
181.7961040581594
 10
65.48006863064235
 20
179.5239946831596
 10
65.48006863064235
 20
177.3734282769096
 10
65.27336290147568
 20
175.4715288628467
 10
64.86132948133678
 20
173.8176763237846
 10
64.4492960611979
 20
172.1632036675344
 10
63.78094753689235
 20
171.3365874565971
 10
62.85697292751734
 20
171.3365874565971
 97
        1
330
351
 92
        1
 93
        1
 72
     4
 94
        3
 73
     0
 74
     0
 95
       29
 96
       25
 40
0.0
 40
0.0
 40
0.0
 40
0.0
 40
1.0
 40
1.0
 40
1.0
 40
2.0
 40
2.0
 40
2.0
 40
3.0
 40
3.0
 40
3.0
 40
4.0
 40
4.0
 40
4.0
 40
5.0
 40
5.0
 40
5.0
 40
6.0
 40
6.0
 40
6.0
 40
7.0
 40
7.0
 40
7.0
 40
8.0
 40
8.0
 40
8.0
 40
8.0
 10
62.76119927300346
 20
189.4340874565971
 10
61.47273356119789
 20
189.4340874565971
 10
60.50121663411457
 20
188.2397417534719
 10
59.84733751085068
 20
185.8516704644094
 10
59.3395304361979
 20
183.9900786675344
 10
59.08597140842012
 20
181.7514556206596
 10
59.08597140842012
 20
179.1351812065971
 10
59.08597140842012
 20
176.2379937065971
 10
59.3836276584201
 20
173.8412407769094
 10
59.9789401584201
 20
171.9449224175346
 10
60.6424655490451
 20
169.9779106987846
 10
61.5602389865451
 20
168.9950249565971
 10
62.7315714518229
 20
168.9950249565971
 10
63.9904093424479
 20
168.9950249565971
 10
64.95641411675345
 20
170.1186773003469
 10
65.63027479383679
 20
172.3659819878471
 10
66.20629475911457
 20
174.2796636284719
 10
66.49430474175345
 20
176.6813774956591
 10
66.49430474175345
 20
179.5698833550344
 10
66.49430474175345
 20
182.2388677300341
 10
66.24005669487845
 20
184.4291216362844
 10
65.73293863932289
 20
186.1412651909719
 10
65.08870578342011
 20
188.3364800347219
 10
64.09789632161457
 20
189.4340874565971
 10
62.76119927300346
 20
189.4340874565971
 97
        0
 75
     0
 76
     1
 98
        0
  0
HATCH
  5
368
330
34B
100
AcDbEntity
  8
0
  6
Continuous
100
AcDbHatch
 10
0.0
 20
0.0
 30
0.0
210
0.0
220
0.0
230
1.0
  2
SOLID
 70
     1
 71
     1
 91
        1
 92
        1
 93
        1
 72
     4
 94
        3
 73
     0
 74
     0
 95
       59
 96
       55
 40
0.0
 40
0.0
 40
0.0
 40
0.0
 40
1.0
 40
1.0
 40
1.0
 40
2.0
 40
2.0
 40
2.0
 40
3.0
 40
3.0
 40
3.0
 40
4.0
 40
4.0
 40
4.0
 40
5.0
 40
5.0
 40
5.0
 40
6.0
 40
6.0
 40
6.0
 40
7.0
 40
7.0
 40
7.0
 40
8.0
 40
8.0
 40
8.0
 40
9.0
 40
9.0
 40
9.0
 40
10.0
 40
10.0
 40
10.0
 40
11.0
 40
11.0
 40
11.0
 40
12.0
 40
12.0
 40
12.0
 40
13.0
 40
13.0
 40
13.0
 40
14.0
 40
14.0
 40
14.0
 40
15.0
 40
15.0
 40
15.0
 40
16.0
 40
16.0
 40
16.0
 40
17.0
 40
17.0
 40
17.0
 40
18.0
 40
18.0
 40
18.0
 40
18.0
 10
49.39440104166666
 20
189.0932159288193
 10
49.39440104166666
 20
189.0932159288193
 10
51.24786241319444
 20
189.0932159288193
 10
51.24786241319444
 20
189.0932159288193
 10
51.24786241319444
 20
189.0932159288193
 10
54.04665798611111
 20
172.3887471788193
 10
54.04665798611111
 20
172.3887471788193
 10
54.04665798611111
 20
172.3887471788193
 10
56.83994140624999
 20
189.0932159288193
 10
56.83994140624999
 20
189.0932159288193
 10
56.83994140624999
 20
189.0932159288193
 10
58.69891493055553
 20
189.0932159288193
 10
58.69891493055553
 20
189.0932159288193
 10
58.69891493055553
 20
189.0932159288193
 10
58.69891493055553
 20
169.3358964843748
 10
58.69891493055553
 20
169.3358964843748
 10
58.69891493055553
 20
169.3358964843748
 10
57.46419270833333
 20
169.3358964843748
 10
57.46419270833333
 20
169.3358964843748
 10
57.46419270833333
 20
169.3358964843748
 10
57.46419270833333
 20
180.9964422743054
 10
57.46419270833333
 20
180.9964422743054
 10
57.46419270833333
 20
181.3996011284721
 10
57.47108289930555
 20
182.0677291666664
 10
57.48624131944444
 20
183.0001924913193
 10
57.50071072048609
 20
183.9326558159721
 10
57.50828993055553
 20
184.932312282986
 10
57.50828993055553
 20
185.9997957899304
 10
57.50828993055553
 20
185.9997957899304
 10
54.700537109375
 20
169.3358964843748
 10
54.700537109375
 20
169.3358964843748
 10
54.700537109375
 20
169.3358964843748
 10
53.38382161458333
 20
169.3358964843748
 10
53.38382161458333
 20
169.3358964843748
 10
53.38382161458333
 20
169.3358964843748
 10
50.58502604166665
 20
185.9997957899304
 10
50.58502604166665
 20
185.9997957899304
 10
50.58502604166665
 20
185.9997957899304
 10
50.58502604166665
 20
185.3944236111109
 10
50.58502604166665
 20
185.3944236111109
 10
50.58502604166665
 20
184.9101258680554
 10
50.59191623263888
 20
184.1729029947915
 10
50.60707465277777
 20
183.1821210937498
 10
50.62154405381942
 20
182.1913391927082
 10
50.62912326388889
 20
181.4629908854165
 10
50.62912326388889
 20
180.9964422743054
 10
50.62912326388889
 20
180.9964422743054
 10
50.62912326388889
 20
169.3358964843748
 10
50.62912326388889
 20
169.3358964843748
 10
50.62912326388889
 20
169.3358964843748
 10
49.39440104166666
 20
169.3358964843748
 10
49.39440104166666
 20
169.3358964843748
 10
49.39440104166666
 20
169.3358964843748
 10
49.39440104166666
 20
189.0932159288193
 10
49.39440104166666
 20
189.0932159288193
 97
        1
330
350
 75
     0
 76
     1
 98
        1
 10
0.0
 20
0.0
  0
HATCH
  5
369
330
34B
100
AcDbEntity
  8
0
  6
Continuous
100
AcDbHatch
 10
0.0
 20
0.0
 30
0.0
210
0.0
220
0.0
230
1.0
  2
SOLID
 70
     1
 71
     1
 91
        2
 92
       16
 93
        1
 72
     4
 94
        3
 73
     0
 74
     0
 95
       32
 96
       28
 40
0.0
 40
0.0
 40
0.0
 40
0.0
 40
1.0
 40
1.0
 40
1.0
 40
2.0
 40
2.0
 40
2.0
 40
3.0
 40
3.0
 40
3.0
 40
4.0
 40
4.0
 40
4.0
 40
5.0
 40
5.0
 40
5.0
 40
6.0
 40
6.0
 40
6.0
 40
7.0
 40
7.0
 40
7.0
 40
8.0
 40
8.0
 40
8.0
 40
9.0
 40
9.0
 40
9.0
 40
9.0
 10
91.70051812065969
 20
171.6077853732634
 10
91.70051812065969
 20
171.6077853732634
 10
91.70051812065969
 20
186.7401881510414
 10
91.70051812065969
 20
186.7401881510414
 10
91.70051812065969
 20
186.7401881510414
 10
93.98668348524305
 20
186.7401881510414
 10
93.98668348524305
 20
186.7401881510414
 10
95.02159016927082
 20
186.7401881510414
 10
95.77331000434028
 20
186.0644533420137
 10
96.24322102864582
 20
184.7142515190969
 10
96.71313205295138
 20
183.3640496961804
 10
96.94808756510417
 20
181.4680620659721
 10
96.94808756510417
 20
179.0262886284719
 10
96.94808756510417
 20
178.3911232638887
 10
96.91432562934028
 20
177.7027105034721
 10
96.84749077690971
 20
176.9604164496524
 10
96.7324245876736
 20
175.7167094184024
 10
96.55052354600693
 20
174.6974021267359
 10
96.30109863281248
 20
173.901860677083
 10
95.98414984809028
 20
172.9091770833332
 10
95.57693956163193
 20
172.2378795572914
 10
95.07877875434026
 20
171.8892358940971
 10
94.79076877170138
 20
171.7016022135415
 10
94.43178982204859
 20
171.6077853732634
 10
94.00115288628471
 20
171.6077853732634
 10
94.00115288628471
 20
171.6077853732634
 10
91.70051812065969
 20
171.6077853732634
 10
91.70051812065969
 20
171.6077853732634
 97
        1
330
355
 92
        1
 93
        1
 72
     4
 94
        3
 73
     0
 74
     0
 95
       26
 96
       22
 40
0.0
 40
0.0
 40
0.0
 40
0.0
 40
1.0
 40
1.0
 40
1.0
 40
2.0
 40
2.0
 40
2.0
 40
3.0
 40
3.0
 40
3.0
 40
4.0
 40
4.0
 40
4.0
 40
5.0
 40
5.0
 40
5.0
 40
6.0
 40
6.0
 40
6.0
 40
7.0
 40
7.0
 40
7.0
 40
7.0
 10
90.37760145399305
 20
169.3358964843748
 10
90.37760145399305
 20
169.3358964843748
 10
94.22990722656248
 20
169.3358964843748
 10
94.22990722656248
 20
169.3358964843748
 10
95.87115071614581
 20
169.3358964843748
 10
97.03008083767359
 20
170.8331625434026
 10
97.70600857204859
 20
173.8283285590274
 10
98.08221299913194
 20
175.5227367621523
 10
98.27100423177082
 20
177.4187243923609
 10
98.27100423177082
 20
179.5169253472221
 10
98.27100423177082
 20
182.233810329861
 10
97.94716525607638
 20
184.4619602864582
 10
97.30086534288195
 20
186.2013752170135
 10
96.57601725260416
 20
188.1290577256939
 10
95.5576470269097
 20
189.0932159288193
 10
94.24437662760416
 20
189.0932159288193
 10
94.24437662760416
 20
189.0932159288193
 10
90.37760145399305
 20
189.0932159288193
 10
90.37760145399305
 20
189.0932159288193
 10
90.37760145399305
 20
189.0932159288193
 10
90.37760145399305
 20
169.3358964843748
 10
90.37760145399305
 20
169.3358964843748
 97
        0
 75
     0
 76
     1
 98
        0
  0
HATCH
  5
36A
330
34B
100
AcDbEntity
  8
0
  6
Continuous
100
AcDbHatch
 10
0.0
 20
0.0
 30
0.0
210
0.0
220
0.0
230
1.0
  2
SOLID
 70
     1
 71
     1
 91
        2
 92
       16
 93
        1
 72
     4
 94
        3
 73
     0
 74
     0
 95
       26
 96
       22
 40
0.0
 40
0.0
 40
0.0
 40
0.0
 40
1.0
 40
1.0
 40
1.0
 40
2.0
 40
2.0
 40
2.0
 40
3.0
 40
3.0
 40
3.0
 40
4.0
 40
4.0
 40
4.0
 40
5.0
 40
5.0
 40
5.0
 40
6.0
 40
6.0
 40
6.0
 40
7.0
 40
7.0
 40
7.0
 40
7.0
 10
100.5623372395832
 20
180.046229817708
 10
100.5623372395832
 20
180.046229817708
 10
100.5623372395832
 20
186.7401881510414
 10
100.5623372395832
 20
186.7401881510414
 10
100.5623372395832
 20
186.7401881510414
 10
103.6732584635416
 20
186.7401881510414
 10
103.6732584635416
 20
186.7401881510414
 10
104.1107855902777
 20
186.7401881510414
 10
104.4580512152777
 20
186.6064357638887
 10
104.7150553385415
 20
186.3401987847216
 10
105.2097710503471
 20
185.8330807291664
 10
105.4571289062495
 20
184.8822343749995
 10
105.4571289062495
 20
183.4863919270832
 10
105.4571289062495
 20
182.188169704861
 10
105.280740017361
 20
181.2905707465276
 10
104.9286512586804
 20
180.7929611545137
 10
104.5765624999999
 20
180.2947176649304
 10
104.1011393229166
 20
180.046229817708
 10
103.5023817274304
 20
180.046229817708
 10
103.5023817274304
 20
180.046229817708
 10
100.5623372395832
 20
180.046229817708
 10
100.5623372395832
 20
180.046229817708
 97
        1
330
356
 92
        1
 93
        1
 72
     4
 94
        3
 73
     0
 74
     0
 95
       68
 96
       64
 40
0.0
 40
0.0
 40
0.0
 40
0.0
 40
1.0
 40
1.0
 40
1.0
 40
2.0
 40
2.0
 40
2.0
 40
3.0
 40
3.0
 40
3.0
 40
4.0
 40
4.0
 40
4.0
 40
5.0
 40
5.0
 40
5.0
 40
6.0
 40
6.0
 40
6.0
 40
7.0
 40
7.0
 40
7.0
 40
8.0
 40
8.0
 40
8.0
 40
9.0
 40
9.0
 40
9.0
 40
10.0
 40
10.0
 40
10.0
 40
11.0
 40
11.0
 40
11.0
 40
12.0
 40
12.0
 40
12.0
 40
13.0
 40
13.0
 40
13.0
 40
14.0
 40
14.0
 40
14.0
 40
15.0
 40
15.0
 40
15.0
 40
16.0
 40
16.0
 40
16.0
 40
17.0
 40
17.0
 40
17.0
 40
18.0
 40
18.0
 40
18.0
 40
19.0
 40
19.0
 40
19.0
 40
20.0
 40
20.0
 40
20.0
 40
21.0
 40
21.0
 40
21.0
 40
21.0
 10
99.23942057291661
 20
169.3358964843748
 10
99.23942057291661
 20
169.3358964843748
 10
100.5623372395832
 20
169.3358964843748
 10
100.5623372395832
 20
169.3358964843748
 10
100.5623372395832
 20
169.3358964843748
 10
100.5623372395832
 20
177.8149103732637
 10
100.5623372395832
 20
177.8149103732637
 10
100.5623372395832
 20
177.8149103732637
 10
103.4472601996527
 20
177.8149103732637
 10
103.4472601996527
 20
177.8149103732637
 10
103.9681586371527
 20
177.8149103732637
 10
104.3519422743053
 20
177.6938359374998
 10
104.5986111111109
 20
177.4516870659717
 10
105.0244249131943
 20
177.0117621527776
 10
105.2518012152777
 20
176.1458580729164
 10
105.280740017361
 20
174.8539748263887
 10
105.280740017361
 20
174.8539748263887
 10
105.3689344618053
 20
171.5564396701385
 10
105.3689344618053
 20
171.5564396701385
 10
105.3882269965277
 20
170.7843524305554
 10
105.4109646267359
 20
170.2639225260415
 10
105.4357693142359
 20
169.9951499565971
 10
105.4605740017358
 20
169.725743489583
 10
105.4970920138888
 20
169.5057810329859
 10
105.5467013888887
 20
169.3358964843748
 10
105.5467013888887
 20
169.3358964843748
 10
107.1769205729166
 20
169.3358964843748
 10
107.1769205729166
 20
169.3358964843748
 10
107.1769205729166
 20
169.3358964843748
 10
107.1769205729166
 20
169.7821603732633
 10
107.1769205729166
 20
169.7821603732633
 10
106.9750379774303
 20
169.9609194878471
 10
106.8337890624996
 20
170.3628105468748
 10
106.7538628472221
 20
170.9878335503471
 10
106.7028754340274
 20
171.3542263454858
 10
106.6677354600692
 20
171.9120562065971
 10
106.6477539062496
 20
172.6625909288193
 10
106.6477539062496
 20
172.6625909288193
 10
106.6036566840277
 20
175.3205234374999
 10
106.6036566840277
 20
175.3205234374999
 10
106.5836751302082
 20
176.4716814236109
 10
106.4768771701387
 20
177.3033550347219
 10
106.2839518229166
 20
177.814276475694
 10
106.0903374565971
 20
178.3251979166665
 10
105.8002604166666
 20
178.7372313368054
 10
105.4130316840276
 20
179.0516445312498
 10
105.8443576388885
 20
179.5086846788193
 10
106.179909939236
 20
180.1134229600693
 10
106.4196885850692
 20
180.866493272569
 10
106.6594672309027
 20
181.6189296874999
 10
106.7800455729166
 20
182.5868912760411
 10
106.7800455729166
 20
183.7697441406248
 10
106.7800455729166
 20
186.0371957465273
 10
106.3328721788193
 20
187.5921464843749
 10
105.4392144097221
 20
188.4345963541665
 10
104.9679253472221
 20
188.8732534722221
 10
104.3719238281249
 20
189.0932159288193
 10
103.6512098524303
 20
189.0932159288193
 10
103.6512098524303
 20
189.0932159288193
 10
99.23942057291661
 20
189.0932159288193
 10
99.23942057291661
 20
189.0932159288193
 10
99.23942057291661
 20
189.0932159288193
 10
99.23942057291661
 20
169.3358964843748
 10
99.23942057291661
 20
169.3358964843748
 97
        0
 75
     0
 76
     1
 98
        0
  0
HATCH
  5
36B
330
34B
100
AcDbEntity
  8
0
  6
Continuous
100
AcDbHatch
 10
0.0
 20
0.0
 30
0.0
210
0.0
220
0.0
230
1.0
  2
SOLID
 70
     1
 71
     1
 91
        2
 92
        1
 93
        8
 72
     1
 10
35.47828233506943
 20
189.0932159288193
 11
31.83957248263888
 21
169.3358964843748
 72
     1
 10
31.83957248263888
 20
169.3358964843748
 11
33.22450086805555
 21
169.3358964843748
 72
     1
 10
33.22450086805555
 20
169.3358964843748
 11
34.27043185763887
 21
175.2590353732638
 72
     1
 10
34.27043185763887
 20
175.2590353732638
 11
38.04694552951389
 21
175.2590353732638
 72
     1
 10
38.04694552951389
 20
175.2590353732638
 11
39.05015733506942
 21
169.3358964843748
 72
     1
 10
39.05015733506942
 20
169.3358964843748
 11
40.43508572048611
 21
169.3358964843748
 72
     1
 10
40.43508572048611
 20
169.3358964843748
 11
36.952783203125
 21
189.0932159288193
 72
     1
 10
36.952783203125
 20
189.0932159288193
 11
35.47828233506943
 21
189.0932159288193
 97
        8
330
366
330
35F
330
360
330
361
330
362
330
363
330
364
330
365
 92
       16
 93
        3
 72
     1
 10
37.67556423611111
 20
177.4497853732638
 11
34.65766059027778
 21
177.4497853732638
 72
     1
 10
34.65766059027778
 20
177.4497853732638
 11
36.19830729166666
 21
186.1658769531249
 72
     1
 10
36.19830729166666
 20
186.1658769531249
 11
37.67556423611111
 21
177.4497853732638
 97
        3
330
35E
330
35C
330
35D
 75
     0
 76
     1
 98
        1
 10
0.0
 20
0.0
  0
HATCH
  5
36C
330
34B
100
AcDbEntity
  8
0
  6
Continuous
100
AcDbHatch
 10
0.0
 20
0.0
 30
0.0
210
0.0
220
0.0
230
1.0
  2
SOLID
 70
     1
 71
     1
 91
        1
 92
        1
 93
        1
 72
     4
 94
        3
 73
     0
 74
     0
 95
      113
 96
      109
 40
0.0
 40
0.0
 40
0.0
 40
0.0
 40
1.0
 40
1.0
 40
1.0
 40
2.0
 40
2.0
 40
2.0
 40
3.0
 40
3.0
 40
3.0
 40
4.0
 40
4.0
 40
4.0
 40
5.0
 40
5.0
 40
5.0
 40
6.0
 40
6.0
 40
6.0
 40
7.0
 40
7.0
 40
7.0
 40
8.0
 40
8.0
 40
8.0
 40
9.0
 40
9.0
 40
9.0
 40
10.0
 40
10.0
 40
10.0
 40
11.0
 40
11.0
 40
11.0
 40
12.0
 40
12.0
 40
12.0
 40
13.0
 40
13.0
 40
13.0
 40
14.0
 40
14.0
 40
14.0
 40
15.0
 40
15.0
 40
15.0
 40
16.0
 40
16.0
 40
16.0
 40
17.0
 40
17.0
 40
17.0
 40
18.0
 40
18.0
 40
18.0
 40
19.0
 40
19.0
 40
19.0
 40
20.0
 40
20.0
 40
20.0
 40
21.0
 40
21.0
 40
21.0
 40
22.0
 40
22.0
 40
22.0
 40
23.0
 40
23.0
 40
23.0
 40
24.0
 40
24.0
 40
24.0
 40
25.0
 40
25.0
 40
25.0
 40
26.0
 40
26.0
 40
26.0
 40
27.0
 40
27.0
 40
27.0
 40
28.0
 40
28.0
 40
28.0
 40
29.0
 40
29.0
 40
29.0
 40
30.0
 40
30.0
 40
30.0
 40
31.0
 40
31.0
 40
31.0
 40
32.0
 40
32.0
 40
32.0
 40
33.0
 40
33.0
 40
33.0
 40
34.0
 40
34.0
 40
34.0
 40
35.0
 40
35.0
 40
35.0
 40
36.0
 40
36.0
 40
36.0
 40
36.0
 10
193.3039632161458
 20
186.1548733181423
 10
193.3039632161458
 20
186.1860514322916
 10
193.3039632161458
 20
219.6932223849826
 10
193.3039632161458
 20
219.6932223849826
 10
193.3039632161458
 20
219.6932223849826
 10
193.2974175347219
 20
219.7488606770833
 10
193.2974175347219
 20
219.7488606770833
 10
191.5293945312499
 20
235.455740017361
 10
175.1458984374999
 20
235.2467949761284
 10
174.9808783637151
 20
235.2428331163193
 10
174.9808783637151
 20
235.2428331163193
 10
125.8827555338541
 20
235.2430053710937
 10
125.8827555338541
 20
235.2430053710937
 10
125.8827555338541
 20
235.2430053710937
 10
125.8827555338541
 20
255.5278998480901
 10
125.8827555338541
 20
255.5278998480901
 10
125.8827555338541
 20
255.5278998480901
 10
84.5626247829861
 20
255.5278998480901
 10
84.5626247829861
 20
255.5278998480901
 10
84.5626247829861
 20
255.5278998480901
 10
84.55711263020829
 20
233.7919311523436
 10
84.55711263020829
 20
233.7919311523436
 10
84.55711263020829
 20
233.7919311523436
 10
64.42052951388888
 20
233.7919311523436
 10
64.42052951388888
 20
233.7919311523436
 10
64.42052951388888
 20
233.7919311523436
 10
64.41501736111111
 20
255.5278998480901
 10
64.41501736111111
 20
255.5278998480901
 10
64.41501736111111
 20
255.5278998480901
 10
23.91757541232637
 20
255.5278998480901
 10
23.91757541232637
 20
255.5278998480901
 10
23.91757541232637
 20
255.5278998480901
 10
23.91757541232637
 20
233.2393378363715
 10
23.91757541232637
 20
233.2393378363715
 10
23.91757541232637
 20
233.2393378363715
 10
43.65624999999999
 20
233.2393378363715
 10
43.65624999999999
 20
233.2393378363715
 10
43.65624999999999
 20
233.2393378363715
 10
43.65624999999999
 20
211.5188720703125
 10
43.65624999999999
 20
211.5188720703125
 10
43.65624999999999
 20
211.5188720703125
 10
23.91757541232637
 20
211.5188720703125
 10
23.91757541232637
 20
211.5188720703125
 10
23.91757541232637
 20
211.5188720703125
 10
23.91757541232637
 20
189.2303100585936
 10
23.91757541232637
 20
189.2303100585936
 10
23.91757541232637
 20
189.2303100585936
 10
64.41501736111111
 20
189.2303100585936
 10
64.41501736111111
 20
189.2303100585936
 10
64.41501736111111
 20
189.2303100585936
 10
64.42052951388888
 20
211.069976128472
 10
64.42052951388888
 20
211.069976128472
 10
64.42052951388888
 20
211.069976128472
 10
84.55711263020829
 20
211.069976128472
 10
84.55711263020829
 20
211.069976128472
 10
84.55711263020829
 20
211.069976128472
 10
84.5626247829861
 20
189.2303100585936
 10
84.5626247829861
 20
189.2303100585936
 10
84.5626247829861
 20
189.2303100585936
 10
125.8827555338541
 20
189.2303100585936
 10
125.8827555338541
 20
189.2303100585936
 10
125.8827555338541
 20
189.2303100585936
 10
125.8827555338541
 20
211.5188720703125
 10
125.8827555338541
 20
211.5188720703125
 10
125.8827555338541
 20
211.5188720703125
 10
105.3213921440971
 20
211.5188720703125
 10
105.3213921440971
 20
211.5188720703125
 10
105.3213921440971
 20
211.5188720703125
 10
105.3213921440971
 20
233.2393378363715
 10
105.3213921440971
 20
233.2393378363715
 10
105.3213921440971
 20
233.2393378363715
 10
175.0046495225693
 20
233.243127441406
 10
175.0046495225693
 20
233.243127441406
 10
175.6268337673611
 20
233.2560465494791
 10
189.7165852864583
 20
233.3962619357638
 10
191.3037407769094
 20
219.5690266927083
 10
191.3037407769094
 20
219.4332899305555
 10
191.3037407769094
 20
186.1142211914062
 10
191.3037407769094
 20
186.1142211914062
 10
191.3037407769094
 20
186.1142211914062
 10
191.3051188151039
 20
186.0880384657115
 10
191.3051188151039
 20
186.0880384657115
 10
191.3054633246526
 20
186.0787367078991
 10
191.3109754774304
 20
185.9566080729166
 10
191.3109754774304
 20
185.7399115668401
 10
191.3109754774304
 20
184.2090833875865
 10
191.0488037109374
 20
177.9643310546874
 10
186.9866916232638
 20
173.5652886284722
 10
184.2540418836804
 20
170.6064683702255
 10
180.3224989149304
 20
169.0308539496526
 10
175.300927734375
 20
168.8825425889756
 10
175.300927734375
 20
168.8825425889756
 10
107.0094889322916
 20
168.8828870985243
 10
107.0094889322916
 20
168.8828870985243
 10
107.0094889322916
 20
168.8828870985243
 10
107.0094889322916
 20
166.8830091688368
 10
107.0094889322916
 20
166.8830091688368
 10
107.0094889322916
 20
166.8830091688368
 10
175.3305555555555
 20
166.8830091688368
 10
175.3305555555555
 20
166.8830091688368
 10
180.9467502170138
 20
167.0485460069444
 10
185.3571614583333
 20
168.8448187934026
 10
188.4687717013888
 20
172.2223904079861
 10
192.9649658203124
 20
177.1034016927083
 10
193.3136094835069
 20
183.7202243381076
 10
193.3136094835069
 20
185.6520616319443
 10
193.3136094835069
 20
185.9247409396701
 10
193.3070638020833
 20
186.0868326822916
 10
193.3039632161458
 20
186.1548733181423
 97
        1
330
34C
 75
     0
 76
     1
 98
        1
 10
0.0
 20
0.0
  0
HATCH
  5
36D
330
34B
100
AcDbEntity
  8
0
  6
Continuous
100
AcDbHatch
 10
0.0
 20
0.0
 30
0.0
210
0.0
220
0.0
230
1.0
  2
SOLID
 70
     1
 71
     1
 91
        2
 92
        1
 93
        1
 72
     4
 94
        3
 73
     0
 74
     0
 95
       23
 96
       19
 40
0.0
 40
0.0
 40
0.0
 40
0.0
 40
1.0
 40
1.0
 40
1.0
 40
2.0
 40
2.0
 40
2.0
 40
3.0
 40
3.0
 40
3.0
 40
4.0
 40
4.0
 40
4.0
 40
5.0
 40
5.0
 40
5.0
 40
6.0
 40
6.0
 40
6.0
 40
6.0
 10
148.6593153211804
 20
211.3929538302948
 10
148.6593153211804
 20
211.3929538302948
 10
148.6593153211804
 20
189.6308024088539
 10
148.6593153211804
 20
189.6308024088539
 10
148.6593153211804
 20
189.6308024088539
 10
161.3152180989583
 20
189.6308024088539
 10
161.3152180989583
 20
189.6308024088539
 10
162.8431179470483
 20
189.6308024088539
 10
170.4657362196178
 20
190.1880466037321
 10
170.4657362196178
 20
201.1911648220483
 10
170.4657362196178
 20
211.1288872612844
 10
162.3356553819444
 20
211.3914035373261
 10
162.2536621093749
 20
211.3927815755205
 10
162.2536621093749
 20
211.3927815755205
 10
149.6594265407986
 20
211.3929538302948
 10
149.6594265407986
 20
211.3929538302948
 10
149.6594265407986
 20
211.3929538302948
 10
148.6593153211804
 20
211.3929538302948
 10
148.6593153211804
 20
211.3929538302948
 97
        1
330
34D
 92
       16
 93
        1
 72
     4
 94
        3
 73
     0
 74
     0
 95
       20
 96
       16
 40
0.0
 40
0.0
 40
0.0
 40
0.0
 40
1.0
 40
1.0
 40
1.0
 40
2.0
 40
2.0
 40
2.0
 40
3.0
 40
3.0
 40
3.0
 40
4.0
 40
4.0
 40
4.0
 40
5.0
 40
5.0
 40
5.0
 40
5.0
 10
162.2354031032983
 20
209.3930759006072
 10
162.467947048611
 20
209.3861857096351
 10
168.4655137803819
 20
209.1283203124997
 10
168.4655137803819
 20
201.1911648220483
 10
168.4655137803819
 20
192.3202162000865
 10
162.9926350911458
 20
191.6306803385413
 10
161.3152180989583
 20
191.6306803385413
 10
161.3152180989583
 20
191.6306803385413
 10
152.3310980902776
 20
191.6306803385413
 10
150.6595377604166
 20
191.6306803385413
 10
150.6595377604166
 20
193.3373806423608
 10
150.6595377604166
 20
207.6863755967879
 10
150.6595377604166
 20
209.3930759006072
 10
152.3538357204859
 20
209.3930759006072
 10
162.2354031032983
 20
209.3930759006072
 10
162.2354031032983
 20
209.3930759006072
 97
        0
 75
     0
 76
     1
 98
        0
  0
ENDBLK
  5
36F
330
34B
100
AcDbEntity
  8
0
100
AcDbBlockEnd
  0
BLOCK
  5
372
330
370
100
AcDbEntity
  8
0
100
AcDbBlockBegin
  2
HD logo-new
 70
     0
 10
0.0
 20
0.0
 30
0.0
  3
HD logo-new
  1

  0
INSERT
  5
371
330
370
100
AcDbEntity
  8
0
 62
     3
100
AcDbBlockReference
  2
HD_LLC_logo_OT5
 10
-27.1607188578505
 20
-68.37367811463031
 30
0.0
 41
0.2999999999999971
 42
0.3000000000000007
 43
0.3
  0
ENDBLK
  5
373
330
370
100
AcDbEntity
  8
0
100
AcDbBlockEnd
  0
BLOCK
  5
376
330
374
100
AcDbEntity
  8
0
100
AcDbBlockBegin
  2
HD Logo
 70
     0
 10
0.0
 20
0.0
 30
0.0
  3
HD Logo
  1

  0
INSERT
  5
375
330
374
100
AcDbEntity
  8
0
100
AcDbBlockReference
  2
HD logo-new
 10
0.9700256734946606
 20
7.273795608420527
 30
0.0
  0
ENDBLK
  5
377
330
374
100
AcDbEntity
  8
0
100
AcDbBlockEnd
  0
BLOCK
  5
382
330
380
100
AcDbEntity
  8
0
100
AcDbBlockBegin
  2
Harmonic Drive LLC
 70
     0
 10
0.0
 20
0.0
 30
0.0
  3
Harmonic Drive LLC
  1

  0
MTEXT
  5
381
330
380
100
AcDbEntity
  8
0
100
AcDbMText
 10
189.3064368747374
 20
-164.4147342669637
 30
0.0
 40
3.5
 41
76.932
 71
     5
 72
     5
  1
Harmonic Drive LLC\P800-921-3332\Pwww.harmonicdrive.net
 73
     1
 44
1.0
  0
ENDBLK
  5
383
330
380
100
AcDbEntity
  8
0
100
AcDbBlockEnd
  0
BLOCK
  5
396
330
393
100
AcDbEntity
  8
0
100
AcDbBlockBegin
  2
NTC
 70
     0
 10
0.0
 20
0.0
 30
0.0
  3
NTC
  1

  0
LWPOLYLINE
  5
394
330
393
100
AcDbEntity
  8
0
100
AcDbPolyline
 90
        8
 70
     1
 43
0.0
 10
4.581008201925953
 20
-10.78862239032818
 10
319.3921777697513
 20
-10.78862239032818
 42
-0.4142135623730951
 10
324.9046777697513
 20
-16.30112239032816
 10
324.9046777697513
 20
-117.4075202476924
 42
-0.4142135623730951
 10
319.3921777697513
 20
-122.9200202476925
 10
4.581008201925838
 20
-122.9200202476925
 42
-0.4142135623730951
 10
-0.9314917980741483
 20
-117.4075202476924
 10
-0.9314917980740915
 20
-16.30112239032816
 42
-0.4142135623730951
  0
MTEXT
  5
395
330
393
100
AcDbEntity
  8
0
  6
Continuous
370
    30
100
AcDbMText
 10
21.65307678143926
 20
-17.4535155144544
 30
0.0
 40
8.75
 41
294.5432999999998
 71
     1
 72
     5
  3
{\fTxt|b1|i0|c0|p2;Notice:\P\Ftxt.shx;\H0.5714x;All specifications and dimensions shown in the drawing are subject to change without notice. This drawing is the property of Harmonic Drive LLC.   This data is believed to be accurate, however, Harmonic
  1
 Drive LLC assumes no liability for any errors or omissions in the specifications, models, or drawings.\P\PHarmonic Drive LLC\PTel: 800-921-3332\Pwww.harmonicdrive.net}
 73
     1
 44
1.0
  0
ENDBLK
  5
397
330
393
100
AcDbEntity
  8
0
100
AcDbBlockEnd
  0
ENDSEC
  0
SECTION
  2
ENTITIES
  0
LINE
  5
70
330
1E
100
AcDbEntity
  8
0
 62
     7
100
AcDbLine
 10
-1.399999999951657
 20
17.99999972965105
 30
0.0
 11
-1.399999999951657
 21
-17.99999972964591
 31
0.0
  0
LINE
  5
71
330
1E
100
AcDbEntity
  8
1
 62
     7
100
AcDbLine
 10
-10.80099999996432
 20
-34.79999999999998
 30
0.0
 11
-10.80099999996432
 21
-18.002
 31
0.0
  0
LINE
  5
72
330
1E
100
AcDbEntity
  8
1
  6
PHANTOM
 62
     4
100
AcDbLine
 10
-9.700000045035267
 20
26.5
 30
0.0
 11
0.5999999549646873
 21
26.5
 31
0.0
  0
LINE
  5
73
330
1E
100
AcDbEntity
  8
1
  6
PHANTOM
 62
     4
100
AcDbLine
 10
-9.700000045035267
 20
35.00000000000005
 30
0.0
 11
-9.700000045035267
 21
26.5
 31
0.0
  0
LINE
  5
74
330
1E
100
AcDbEntity
  8
1
 62
     7
100
AcDbLine
 10
-12.9999999999643
 20
35.00000000000005
 30
0.0
 11
-11.00099999996435
 21
35.00000000000005
 31
0.0
  0
LINE
  5
75
330
1E
100
AcDbEntity
  8
1
  6
PHANTOM
 62
     4
100
AcDbLine
 10
-11.39999999996438
 20
35.00000000000005
 30
0.0
 11
-11.39999999996438
 21
22.5
 31
0.0
  0
LINE
  5
76
330
1E
100
AcDbEntity
  8
1
  6
PHANTOM
 62
     4
100
AcDbLine
 10
-11.39999999996438
 20
22.5
 30
0.0
 11
-1.699999999964346
 21
22.5
 31
0.0
  0
LINE
  5
77
330
1E
100
AcDbEntity
  8
1
  6
CENTER
 62
     3
100
AcDbLine
 10
-87.35652328950164
 20
45.00000000000006
 30
0.0
 11
-87.35652328950164
 21
-45.0
 31
0.0
  0
LINE
  5
78
330
1E
100
AcDbEntity
  8
1
  6
CENTER
 62
     3
100
AcDbLine
 10
-132.3565232895014
 20
0.0
 30
0.0
 11
-42.35652328950163
 21
0.0
 31
0.0
  0
LINE
  5
79
330
1E
100
AcDbEntity
  8
1
  6
CENTER
 62
     3
100
AcDbLine
 10
-67.04402328950163
 20
35.18228202874286
 30
0.0
 11
-69.66902328950164
 21
30.63564865887457
 31
0.0
  0
LINE
  5
7A
330
1E
100
AcDbEntity
  8
1
  6
CENTER
 62
     3
100
AcDbLine
 10
-52.17424126075878
 20
20.31250000000006
 30
0.0
 11
-56.72087463062712
 21
17.68750000000006
 31
0.0
  0
LINE
  5
7B
330
1E
100
AcDbEntity
  8
1
  6
CENTER
 62
     3
100
AcDbLine
 10
-52.17424126075865
 20
-20.3125
 30
0.0
 11
-56.72087463062702
 21
-17.68749999999989
 31
0.0
  0
LINE
  5
7C
330
1E
100
AcDbEntity
  8
1
  6
CENTER
 62
     3
100
AcDbLine
 10
-67.04402328950152
 20
-35.18228202874279
 30
0.0
 11
-69.66902328950152
 21
-30.63564865887448
 31
0.0
  0
LINE
  5
7D
330
1E
100
AcDbEntity
  8
1
  6
CENTER
 62
     3
100
AcDbLine
 10
-107.6690232895014
 20
-35.18228202874289
 30
0.0
 11
-105.0440232895013
 21
-30.63564865887448
 31
0.0
  0
LINE
  5
7E
330
1E
100
AcDbEntity
  8
1
  6
CENTER
 62
     3
100
AcDbLine
 10
-122.5388053182443
 20
-20.3125
 30
0.0
 11
-117.9921719483761
 21
-17.6875
 31
0.0
  0
LINE
  5
7F
330
1E
100
AcDbEntity
  8
1
  6
CENTER
 62
     3
100
AcDbLine
 10
-122.5388053182443
 20
20.31250000000003
 30
0.0
 11
-117.9921719483761
 21
17.68750000000003
 31
0.0
  0
LINE
  5
80
330
1E
100
AcDbEntity
  8
1
  6
CENTER
 62
     3
100
AcDbLine
 10
-107.6690232895016
 20
35.18228202874286
 30
0.0
 11
-105.0440232895014
 21
30.63564865887457
 31
0.0
  0
LINE
  5
81
330
1E
100
AcDbEntity
  8
1
  6
CENTER
 62
     3
100
AcDbLine
 10
-14.25304187452661
 20
-38.0
 30
0.0
 11
-9.602099954098546
 21
-38.0
 31
0.0
  0
LINE
  5
82
330
1E
100
AcDbEntity
  8
1
 62
     7
100
AcDbLine
 10
-11.00099999996435
 20
-35.0
 30
0.0
 11
-12.9999999999643
 21
-35.0
 31
0.0
  0
LINE
  5
83
330
1E
100
AcDbEntity
  8
1
 62
     7
100
AcDbLine
 10
-13.39999999996439
 20
35.40000000000003
 30
0.0
 11
-13.39999999996439
 21
18.32
 31
0.0
  0
LINE
  5
84
330
1E
100
AcDbEntity
  8
1
 62
     7
100
AcDbLine
 10
-12.9999999999643
 20
-35.0
 30
0.0
 11
-13.39999999996439
 21
-35.40000000000001
 31
0.0
  0
LINE
  5
85
330
1E
100
AcDbEntity
  8
1
 62
     7
100
AcDbLine
 10
-13.39999999996439
 20
-40.59999999999997
 30
0.0
 11
-12.9999999999643
 21
-41.0
 31
0.0
  0
LINE
  5
86
330
1E
100
AcDbEntity
  8
1
 62
     7
100
AcDbLine
 10
-10.79999999996424
 20
-41.0
 30
0.0
 11
-12.9999999999643
 21
-41.0
 31
0.0
  0
LINE
  5
87
330
1E
100
AcDbEntity
  8
1
 62
     7
100
AcDbLine
 10
-10.39999999996439
 20
-40.59999999999997
 30
0.0
 11
-10.79999999996424
 21
-41.0
 31
0.0
  0
LINE
  5
88
330
1E
100
AcDbEntity
  8
1
 62
     7
100
AcDbLine
 10
-10.39999999996439
 20
-26.08500000000001
 30
0.0
 11
-10.39999999996439
 21
-40.59999999999997
 31
0.0
  0
LINE
  5
89
330
1E
100
AcDbEntity
  8
1
 62
     7
100
AcDbLine
 10
-13.39999999996439
 20
-36.25
 30
0.0
 11
-10.39999999996439
 21
-36.25
 31
0.0
  0
LINE
  5
8A
330
1E
100
AcDbEntity
  8
1
 62
     7
100
AcDbLine
 10
-13.39999999996439
 20
-39.75
 30
0.0
 11
-10.39999999996439
 21
-39.75
 31
0.0
  0
LINE
  5
8B
330
1E
100
AcDbEntity
  8
1
 62
     7
100
AcDbLine
 10
-13.39999999996439
 20
40.60000000000008
 30
0.0
 11
-13.39999999996439
 21
35.40000000000003
 31
0.0
  0
LINE
  5
8C
330
1E
100
AcDbEntity
  8
1
 62
     7
100
AcDbLine
 10
-13.39999999996439
 20
35.40000000000003
 30
0.0
 11
-12.9999999999643
 21
35.00000000000005
 31
0.0
  0
LINE
  5
8D
330
1E
100
AcDbEntity
  8
1
 62
     7
100
AcDbLine
 10
-12.9999999999643
 20
41.00000000000006
 30
0.0
 11
-13.39999999996439
 21
40.60000000000008
 31
0.0
  0
LINE
  5
8E
330
1E
100
AcDbEntity
  8
1
 62
     7
100
AcDbLine
 10
-12.9999999999643
 20
41.00000000000006
 30
0.0
 11
-10.79999999996424
 21
41.00000000000006
 31
0.0
  0
LINE
  5
8F
330
1E
100
AcDbEntity
  8
1
 62
     7
100
AcDbLine
 10
-10.79999999996424
 20
41.00000000000006
 30
0.0
 11
-10.39999999996439
 21
40.60000000000008
 31
0.0
  0
LINE
  5
90
330
1E
100
AcDbEntity
  8
1
 62
     7
100
AcDbLine
 10
-10.39999999996439
 20
40.60000000000008
 30
0.0
 11
-10.39999999996439
 21
26.08500000000003
 31
0.0
  0
LINE
  5
91
330
1E
100
AcDbEntity
  8
1
  6
CENTER
 62
     3
100
AcDbLine
 10
-16.27900963813329
 20
0.0
 30
0.0
 11
-8.3810029161853
 21
0.0
 31
0.0
  0
LINE
  5
92
330
1E
100
AcDbEntity
  8
1
 62
     7
100
AcDbLine
 10
15.60000000004333
 20
29.25000000000014
 30
0.0
 11
15.60000000003765
 21
26.23150000000004
 31
0.0
  0
LINE
  5
93
330
1E
100
AcDbEntity
  8
1
 62
     7
100
AcDbLine
 10
5.500000000057752
 20
26.99999959453035
 30
0.0
 11
5.100000000028786
 21
26.59999959452992
 31
0.0
  0
LINE
  5
94
330
1E
100
AcDbEntity
  8
1
 62
     7
100
AcDbLine
 10
12.09954260301902
 20
29.25000000000014
 30
0.0
 11
12.09954260301902
 21
32.75000000000005
 31
0.0
  0
LINE
  5
95
330
1E
100
AcDbEntity
  8
1
 62
     7
100
AcDbLine
 10
12.09954260301902
 20
29.25000000000014
 30
0.0
 11
15.60000000004333
 21
29.25000000000014
 31
0.0
  0
LINE
  5
96
330
1E
100
AcDbEntity
  8
1
 62
     7
100
AcDbLine
 10
11.7819999549647
 20
29.8
 30
0.0
 11
12.09954260301902
 21
29.25000000000014
 31
0.0
  0
LINE
  5
97
330
1E
100
AcDbEntity
  8
1
 62
     7
100
AcDbLine
 10
11.7819999549647
 20
32.20000000000016
 30
0.0
 11
11.7819999549647
 21
29.8
 31
0.0
  0
LINE
  5
98
330
1E
100
AcDbEntity
  8
1
 62
     7
100
AcDbLine
 10
11.7819999549647
 20
32.20000000000016
 30
0.0
 11
8.099999954964687
 21
32.20000000000016
 31
0.0
  0
LINE
  5
99
330
1E
100
AcDbEntity
  8
1
 62
     7
100
AcDbLine
 10
12.09954260301902
 20
32.75000000000005
 30
0.0
 11
15.60000000004333
 21
32.75000000000005
 31
0.0
  0
LINE
  5
9A
330
1E
100
AcDbEntity
  8
1
 62
     7
100
AcDbLine
 10
12.09954260301902
 20
32.75000000000005
 30
0.0
 11
11.7819999549647
 21
32.20000000000016
 31
0.0
  0
LINE
  5
9B
330
1E
100
AcDbEntity
  8
0
 62
     7
100
AcDbLine
 10
15.60000000004333
 20
32.75000000000005
 30
0.0
 11
15.60000000006288
 21
34.59999948034885
 31
0.0
  0
LINE
  5
9C
330
1E
100
AcDbEntity
  8
0
 62
     7
100
AcDbLine
 10
8.099999954964687
 20
27.29999958993685
 30
0.0
 11
8.099999954964687
 21
34.59999948045044
 31
0.0
  0
LINE
  5
9D
330
1E
100
AcDbEntity
  8
0
 62
     7
100
AcDbLine
 10
15.60000000004333
 20
29.25000000000014
 30
0.0
 11
15.60000000004333
 21
32.75000000000005
 31
0.0
  0
LINE
  5
9E
330
1E
100
AcDbEntity
  8
1
  6
CENTER
 62
     3
100
AcDbLine
 10
6.843328889678331
 20
31.00000000000005
 30
0.0
 11
17.10710205824534
 21
31.00000000000005
 31
0.0
  0
LINE
  5
9F
330
1E
100
AcDbEntity
  8
1
 62
     7
100
AcDbLine
 10
8.099999954964687
 20
29.8
 30
0.0
 11
11.7819999549647
 21
29.8
 31
0.0
  0
LINE
  5
A0
330
1E
100
AcDbEntity
  8
1
 62
     3
100
AcDbLine
 10
11.94789519255824
 20
29.50000000000013
 30
0.0
 11
8.099999954964687
 21
29.50000000000013
 31
0.0
  0
LINE
  5
A1
330
1E
100
AcDbEntity
  8
1
 62
     3
100
AcDbLine
 10
8.099999954964687
 20
32.50000000000005
 30
0.0
 11
11.95520503572174
 21
32.50000000000005
 31
0.0
  0
LINE
  5
A2
330
1E
100
AcDbEntity
  8
0
 62
     7
100
AcDbLine
 10
7.79999995952221
 20
26.99999959444355
 30
0.0
 11
5.500000000057752
 21
26.99999959453035
 31
0.0
  0
LINE
  5
A3
330
1E
100
AcDbEntity
  8
0
 62
     7
100
AcDbLine
 10
8.499999949031918
 20
34.99999947451767
 30
0.0
 11
8.099999954964687
 21
34.59999948045044
 31
0.0
  0
LINE
  5
A4
330
1E
100
AcDbEntity
  8
0
 62
     7
100
AcDbLine
 10
15.2000000060425
 20
34.99999947423822
 30
0.0
 11
8.499999949031918
 21
34.99999947451767
 31
0.0
  0
LINE
  5
A5
330
1E
100
AcDbEntity
  8
0
 62
     7
100
AcDbLine
 10
15.60000000006288
 20
34.59999948034885
 30
0.0
 11
15.2000000060425
 21
34.99999947423822
 31
0.0
  0
LINE
  5
A6
330
1E
100
AcDbEntity
  8
0
 62
     7
100
AcDbLine
 10
16.49999999993156
 20
-12.49999981224418
 30
0.0
 11
16.49999999993156
 21
-9.999999849800504
 31
0.0
  0
LINE
  5
A7
330
1E
100
AcDbEntity
  8
0
 62
     7
100
AcDbLine
 10
15.18999992201282
 20
-12.49999981224418
 30
0.0
 11
16.49999999993156
 21
-12.49999981224418
 31
0.0
  0
LINE
  5
A8
330
1E
100
AcDbEntity
  8
0
 62
     7
100
AcDbLine
 10
15.18999992201282
 20
-9.999999849800504
 30
0.0
 11
15.18999992201282
 21
-12.49999981224418
 31
0.0
  0
LINE
  5
A9
330
1E
100
AcDbEntity
  8
0
 62
     7
100
AcDbLine
 10
15.18999992201282
 20
-10.9999998347526
 30
0.0
 11
14.10000000004061
 21
-10.9999998347526
 31
0.0
  0
LINE
  5
AA
330
1E
100
AcDbEntity
  8
0
 62
     7
100
AcDbLine
 10
15.18999992201282
 20
-13.9999997897359
 30
0.0
 11
15.18999992201282
 21
-10.4999998422892
 31
0.0
  0
LINE
  5
AB
330
1E
100
AcDbEntity
  8
0
 62
     7
100
AcDbLine
 10
14.10000000004061
 20
-13.9999997897359
 30
0.0
 11
15.18999992201282
 21
-13.9999997897359
 31
0.0
  0
LINE
  5
AC
330
1E
100
AcDbEntity
  8
0
 62
     7
100
AcDbLine
 10
14.10000000004061
 20
-10.9999998347526
 30
0.0
 11
14.10000000004061
 21
-13.9999997897359
 31
0.0
  0
LINE
  5
AD
330
1E
100
AcDbEntity
  8
0
 62
     7
100
AcDbLine
 10
14.10000000004061
 20
10.9999998347983
 30
0.0
 11
15.18999992201282
 21
10.9999998347983
 31
0.0
  0
LINE
  5
AE
330
1E
100
AcDbEntity
  8
0
 62
     7
100
AcDbLine
 10
16.49999999993156
 20
12.49999981227221
 30
0.0
 11
15.18999992201282
 21
12.49999981227221
 31
0.0
  0
LINE
  5
AF
330
1E
100
AcDbEntity
  8
0
 62
     7
100
AcDbLine
 10
16.49999999993156
 20
9.999999849823312
 30
0.0
 11
16.49999999993156
 21
12.49999981227221
 31
0.0
  0
LINE
  5
B0
330
1E
100
AcDbEntity
  8
0
 62
     7
100
AcDbLine
 10
15.18999992201282
 20
13.99999978974864
 30
0.0
 11
15.18999992201282
 21
9.999999849823312
 31
0.0
  0
LINE
  5
B1
330
1E
100
AcDbEntity
  8
0
 62
     7
100
AcDbLine
 10
14.10000000004061
 20
13.99999978974864
 30
0.0
 11
15.18999992201282
 21
13.99999978974864
 31
0.0
  0
LINE
  5
B2
330
1E
100
AcDbEntity
  8
0
 62
     7
100
AcDbLine
 10
14.10000000004061
 20
10.9999998347983
 30
0.0
 11
14.10000000004061
 21
13.99999978974864
 31
0.0
  0
LINE
  5
B3
330
1E
100
AcDbEntity
  8
0
 62
     7
100
AcDbLine
 10
-1.399999999951657
 20
-4.499999932398792
 30
0.0
 11
20.1000000000356
 21
-4.499999932398792
 31
0.0
  0
LINE
  5
B4
330
1E
100
AcDbEntity
  8
0
 62
     7
100
AcDbLine
 10
20.1000000000356
 20
4.499999932411596
 30
0.0
 11
-1.399999999951657
 21
4.499999932411596
 31
0.0
  0
LINE
  5
B5
330
1E
100
AcDbEntity
  8
0
 62
     7
100
AcDbLine
 10
-1.399999999951657
 20
5.899999911380007
 30
0.0
 11
20.1000000000356
 21
5.899999911380007
 31
0.0
  0
LINE
  5
B6
330
1E
100
AcDbEntity
  8
0
 62
     7
100
AcDbLine
 10
-1.399999999951657
 20
-10.74999983853359
 30
0.0
 11
1.800000000048389
 21
-10.74999983853359
 31
0.0
  0
LINE
  5
B7
330
1E
100
AcDbEntity
  8
0
 62
     7
100
AcDbLine
 10
14.10000000003561
 20
-10.4999998422892
 30
0.0
 11
14.10000000003561
 21
-17.77999973297119
 31
0.0
  0
LINE
  5
B8
330
1E
100
AcDbEntity
  8
0
 62
     7
100
AcDbLine
 10
5.800000000035543
 20
-10.4999998422892
 30
0.0
 11
5.800000000035543
 21
-17.77999973297119
 31
0.0
  0
LINE
  5
B9
330
1E
100
AcDbEntity
  8
0
 62
     7
100
AcDbLine
 10
14.10000000003561
 20
17.77999973298904
 30
0.0
 11
14.10000000003561
 21
10.4999998422994
 31
0.0
  0
LINE
  5
BA
330
1E
100
AcDbEntity
  8
0
 62
     7
100
AcDbLine
 10
5.800000000035543
 20
17.77999973298904
 30
0.0
 11
5.800000000035543
 21
10.4999998422994
 31
0.0
  0
LINE
  5
BB
330
1E
100
AcDbEntity
  8
0
 62
     7
100
AcDbLine
 10
14.10000000003561
 20
-10.9999998347526
 30
0.0
 11
5.800000000035543
 21
-10.9999998347526
 31
0.0
  0
LINE
  5
BC
330
1E
100
AcDbEntity
  8
0
 62
     7
100
AcDbLine
 10
5.800000000035543
 20
-17.77999973297119
 30
0.0
 11
14.10000000003561
 21
-17.77999973297119
 31
0.0
  0
LINE
  5
BD
330
1E
100
AcDbEntity
  8
0
 62
     7
100
AcDbLine
 10
9.140000014365572
 20
10.9999998347983
 30
0.0
 11
9.140000014365572
 21
17.77999973298904
 31
0.0
  0
LINE
  5
BE
330
1E
100
AcDbEntity
  8
0
 62
     7
100
AcDbLine
 10
14.10000000003561
 20
10.9999998347983
 30
0.0
 11
5.800000000035543
 21
10.9999998347983
 31
0.0
  0
LINE
  5
BF
330
1E
100
AcDbEntity
  8
0
 62
     7
100
AcDbLine
 10
5.800000000035543
 20
17.77999973298904
 30
0.0
 11
14.10000000003561
 21
17.77999973298904
 31
0.0
  0
LINE
  5
C0
330
1E
100
AcDbEntity
  8
0
 62
     7
100
AcDbLine
 10
5.800000000048388
 20
-10.9999998347526
 30
0.0
 11
2.299999992580753
 21
-10.9999998347526
 31
0.0
  0
LINE
  5
C1
330
1E
100
AcDbEntity
  8
0
 62
     7
100
AcDbLine
 10
5.800000000048388
 20
-16.89999974614527
 30
0.0
 11
5.800000000048388
 21
-10.9999998347526
 31
0.0
  0
LINE
  5
C2
330
1E
100
AcDbEntity
  8
0
 62
     7
100
AcDbLine
 10
5.700000127729142
 20
-16.89999974614527
 30
0.0
 11
5.800000000048388
 21
-16.89999974614527
 31
0.0
  0
LINE
  5
C3
330
1E
100
AcDbEntity
  8
0
 62
     7
100
AcDbLine
 10
5.700000127729142
 20
-22.9999996545335
 30
0.0
 11
5.700000127729142
 21
-16.89999974614527
 31
0.0
  0
LINE
  5
C4
330
1E
100
AcDbEntity
  8
0
 62
     7
100
AcDbLine
 10
2.10000018179301
 20
-22.9999996545335
 30
0.0
 11
5.700000127729142
 21
-22.9999996545335
 31
0.0
  0
LINE
  5
C5
330
1E
100
AcDbEntity
  8
0
 62
     7
100
AcDbLine
 10
2.10000018179301
 20
-16.89999974614527
 30
0.0
 11
2.10000018179301
 21
-22.9999996545335
 31
0.0
  0
LINE
  5
C6
330
1E
100
AcDbEntity
  8
0
 62
     7
100
AcDbLine
 10
-1.059999832415312
 20
-16.89999974614527
 30
0.0
 11
2.10000018179301
 21
-16.89999974614527
 31
0.0
  0
LINE
  5
C7
330
1E
100
AcDbEntity
  8
0
 62
     7
100
AcDbLine
 10
-1.059999832415312
 20
-11.74999982351109
 30
0.0
 11
-1.059999832415312
 21
-16.89999974614527
 31
0.0
  0
LINE
  5
C8
330
1E
100
AcDbEntity
  8
0
 62
     7
100
AcDbLine
 10
1.800000000048389
 20
-11.74999982351109
 30
0.0
 11
-1.059999832415312
 21
-11.74999982351109
 31
0.0
  0
LINE
  5
C9
330
1E
100
AcDbEntity
  8
0
 62
     7
100
AcDbLine
 10
1.800000000048389
 20
-11.49999982726668
 30
0.0
 11
1.800000000048389
 21
-11.74999982351109
 31
0.0
  0
LINE
  5
CA
330
1E
100
AcDbEntity
  8
0
 62
     7
100
AcDbLine
 10
2.299999992580753
 20
-10.9999998347526
 30
0.0
 11
1.800000000048389
 21
-11.49999982726668
 31
0.0
  0
LINE
  5
CB
330
1E
100
AcDbEntity
  8
0
 62
     7
100
AcDbLine
 10
5.800000000048388
 20
16.89999974620375
 30
0.0
 11
5.800000000048388
 21
10.9999998347983
 31
0.0
  0
LINE
  5
CC
330
1E
100
AcDbEntity
  8
0
 62
     7
100
AcDbLine
 10
5.800000000048388
 20
10.9999998347983
 30
0.0
 11
2.299999992550287
 21
10.9999998347983
 31
0.0
  0
LINE
  5
CD
330
1E
100
AcDbEntity
  8
0
 62
     7
100
AcDbLine
 10
8.940000017390282
 20
11.74999982351368
 30
0.0
 11
5.800000000048388
 21
11.74999982351368
 31
0.0
  0
LINE
  5
CE
330
1E
100
AcDbEntity
  8
0
 62
     7
100
AcDbLine
 10
8.940000017390282
 20
16.89999974620375
 30
0.0
 11
8.940000017390282
 21
11.74999982351368
 31
0.0
  0
LINE
  5
CF
330
1E
100
AcDbEntity
  8
0
 62
     7
100
AcDbLine
 10
5.700000127729142
 20
16.89999974620375
 30
0.0
 11
8.940000017390282
 21
16.89999974620375
 31
0.0
  0
LINE
  5
D0
330
1E
100
AcDbEntity
  8
0
 62
     7
100
AcDbLine
 10
5.700000127729142
 20
22.99999965455135
 30
0.0
 11
5.700000127729142
 21
16.89999974620375
 31
0.0
  0
LINE
  5
D1
330
1E
100
AcDbEntity
  8
0
 62
     7
100
AcDbLine
 10
2.10000018179301
 20
22.99999965455135
 30
0.0
 11
5.700000127729142
 21
22.99999965455135
 31
0.0
  0
LINE
  5
D2
330
1E
100
AcDbEntity
  8
0
 62
     7
100
AcDbLine
 10
2.10000018179301
 20
16.89999974620375
 30
0.0
 11
2.10000018179301
 21
22.99999965455135
 31
0.0
  0
LINE
  5
D3
330
1E
100
AcDbEntity
  8
0
 62
     7
100
AcDbLine
 10
1.800000000048389
 20
16.89999974620375
 30
0.0
 11
2.10000018179301
 21
16.89999974620375
 31
0.0
  0
LINE
  5
D4
330
1E
100
AcDbEntity
  8
0
 62
     7
100
AcDbLine
 10
2.299999992550287
 20
10.9999998347983
 30
0.0
 11
1.800000000048389
 21
11.49999982727441
 31
0.0
  0
LINE
  5
D5
330
1E
100
AcDbEntity
  8
0
 62
     7
100
AcDbLine
 10
20.1000000000356
 20
-9.999999849775091
 30
0.0
 11
20.1000000000356
 21
9.999999849777607
 31
0.0
  0
LINE
  5
D6
330
1E
100
AcDbEntity
  8
0
 62
     7
100
AcDbLine
 10
19.60000000754701
 20
-10.4999998422892
 30
0.0
 11
20.1000000000356
 21
-9.999999849775091
 31
0.0
  0
LINE
  5
D7
330
1E
100
AcDbEntity
  8
0
 62
     7
100
AcDbLine
 10
16.49999999993156
 20
-10.4999998422892
 30
0.0
 11
19.60000000754701
 21
-10.4999998422892
 31
0.0
  0
LINE
  5
D8
330
1E
100
AcDbEntity
  8
0
 62
     7
100
AcDbLine
 10
15.18999992201282
 20
-9.999999849800504
 30
0.0
 11
16.49999999993156
 21
-9.999999849800504
 31
0.0
  0
LINE
  5
D9
330
1E
100
AcDbEntity
  8
0
 62
     7
100
AcDbLine
 10
1.800000000048389
 20
-10.4999998422892
 30
0.0
 11
15.18999992201282
 21
-10.4999998422892
 31
0.0
  0
LINE
  5
DA
330
1E
100
AcDbEntity
  8
0
 62
     7
100
AcDbLine
 10
-1.399999999951657
 20
-17.99999972964591
 30
0.0
 11
1.800000000048389
 21
-17.99999972964591
 31
0.0
  0
LINE
  5
DB
330
1E
100
AcDbEntity
  8
0
 62
     7
100
AcDbLine
 10
19.60000000754701
 20
10.4999998422994
 30
0.0
 11
20.1000000000356
 21
9.999999849777607
 31
0.0
  0
LINE
  5
DC
330
1E
100
AcDbEntity
  8
0
 62
     7
100
AcDbLine
 10
16.49999999993156
 20
10.4999998422994
 30
0.0
 11
19.60000000754701
 21
10.4999998422994
 31
0.0
  0
LINE
  5
DD
330
1E
100
AcDbEntity
  8
0
 62
     7
100
AcDbLine
 10
15.18999992201282
 20
9.999999849823312
 30
0.0
 11
16.49999999993156
 21
9.999999849823312
 31
0.0
  0
LINE
  5
DE
330
1E
100
AcDbEntity
  8
0
 62
     7
100
AcDbLine
 10
1.800000000048389
 20
10.4999998422994
 30
0.0
 11
15.18999992201282
 21
10.4999998422994
 31
0.0
  0
LINE
  5
DF
330
1E
100
AcDbEntity
  8
0
 62
     7
100
AcDbLine
 10
-1.399999999951657
 20
17.99999972965105
 30
0.0
 11
1.800000000048389
 21
17.99999972965105
 31
0.0
  0
LINE
  5
E0
330
1E
100
AcDbEntity
  8
1
 62
     7
100
AcDbLine
 10
5.100000000035606
 20
-26.59999959453669
 30
0.0
 11
5.500000000057752
 21
-26.99999959453029
 31
0.0
  0
LINE
  5
E1
330
1E
100
AcDbEntity
  8
1
 62
     7
100
AcDbLine
 10
15.60000000004333
 20
-29.25
 30
0.0
 11
8.099999954964687
 21
-29.25
 31
0.0
  0
LINE
  5
E2
330
1E
100
AcDbEntity
  8
1
 62
     7
100
AcDbLine
 10
15.60000000004333
 20
-32.75
 30
0.0
 11
8.099999954964687
 21
-32.75
 31
0.0
  0
LINE
  5
E3
330
1E
100
AcDbEntity
  8
0
 62
     7
100
AcDbLine
 10
15.60000000006288
 20
-34.5999994803488
 30
0.0
 11
15.60000000004333
 21
-32.75
 31
0.0
  0
LINE
  5
E4
330
1E
100
AcDbEntity
  8
0
 62
     7
100
AcDbLine
 10
15.60000000004333
 20
-32.75
 30
0.0
 11
15.59999999990669
 21
-29.25
 31
0.0
  0
LINE
  5
E5
330
1E
100
AcDbEntity
  8
0
 62
     7
100
AcDbLine
 10
8.099999954964687
 20
-34.59999948045041
 30
0.0
 11
8.099999954964687
 21
-27.29999958993678
 31
0.0
  0
LINE
  5
E6
330
1E
100
AcDbEntity
  8
0
 62
     7
100
AcDbLine
 10
5.500000000057752
 20
-26.99999959453029
 30
0.0
 11
7.79999995952221
 21
-26.99999959444348
 31
0.0
  0
LINE
  5
E7
330
1E
100
AcDbEntity
  8
0
 62
     7
100
AcDbLine
 10
8.099999954964687
 20
-34.59999948045041
 30
0.0
 11
8.499999949031918
 21
-34.9999994745176
 31
0.0
  0
LINE
  5
E8
330
1E
100
AcDbEntity
  8
0
 62
     7
100
AcDbLine
 10
8.499999949031918
 20
-34.9999994745176
 30
0.0
 11
15.2000000060425
 21
-34.99999947423818
 31
0.0
  0
LINE
  5
E9
330
1E
100
AcDbEntity
  8
0
 62
     7
100
AcDbLine
 10
15.2000000060425
 20
-34.99999947423818
 30
0.0
 11
15.60000000006288
 21
-34.5999994803488
 31
0.0
  0
LINE
  5
EA
330
1E
100
AcDbEntity
  8
1
  6
CENTER
 62
     3
100
AcDbLine
 10
17.13439932731135
 20
-31.0
 30
0.0
 11
6.843328889678331
 21
-31.0
 31
0.0
  0
LINE
  5
EB
330
1E
100
AcDbEntity
  8
1
 62
     7
100
AcDbLine
 10
5.100000000028786
 20
26.59999959452992
 30
0.0
 11
5.100000000028786
 21
25.53300000000003
 31
0.0
  0
LINE
  5
EC
330
1E
100
AcDbEntity
  8
1
 62
     7
100
AcDbLine
 10
15.60000000003765
 20
26.23150000000004
 30
0.0
 11
15.60000000003765
 21
25.53300000000003
 31
0.0
  0
LINE
  5
ED
330
1E
100
AcDbEntity
  8
1
 62
     7
100
AcDbLine
 10
15.20000000003756
 20
25.13300000000004
 30
0.0
 11
5.500000000028761
 21
25.13300000000004
 31
0.0
  0
LINE
  5
EE
330
1E
100
AcDbEntity
  8
1
 62
     7
100
AcDbLine
 10
1.800000000048389
 20
17.99999972965105
 30
0.0
 11
1.800000000048389
 21
10.4999998422994
 31
0.0
  0
LINE
  5
EF
330
1E
100
AcDbEntity
  8
1
 62
     7
100
AcDbLine
 10
1.800000000048389
 20
-10.4999998422892
 30
0.0
 11
1.800000000048389
 21
-11.49999982726668
 31
0.0
  0
LINE
  5
F0
330
1E
100
AcDbEntity
  8
1
 62
     7
100
AcDbLine
 10
1.800000000048389
 20
-17.99999972964591
 30
0.0
 11
1.800000000048389
 21
-11.74999982351109
 31
0.0
  0
LINE
  5
F1
330
1E
100
AcDbEntity
  8
0
 62
     7
100
AcDbLine
 10
15.59999999990669
 20
-29.25
 30
0.0
 11
15.60000000004333
 21
-29.25
 31
0.0
  0
LINE
  5
F2
330
1E
100
AcDbEntity
  8
1
 62
     7
100
AcDbLine
 10
15.59999999990669
 20
-25.5330000000001
 30
0.0
 11
15.59999999990669
 21
-29.25
 31
0.0
  0
LINE
  5
F3
330
1E
100
AcDbEntity
  8
1
 62
     7
100
AcDbLine
 10
15.59999999990669
 20
-25.5330000000001
 30
0.0
 11
15.19999999990671
 21
-25.13300000000009
 31
0.0
  0
LINE
  5
F4
330
1E
100
AcDbEntity
  8
1
 62
     7
100
AcDbLine
 10
5.100000000035606
 20
-25.5330000000001
 30
0.0
 11
5.100000000035606
 21
-26.59999959453669
 31
0.0
  0
LINE
  5
F5
330
1E
100
AcDbEntity
  8
1
 62
     7
100
AcDbLine
 10
5.500000000035698
 20
-25.13300000000009
 30
0.0
 11
15.19999999990671
 21
-25.13300000000009
 31
0.0
  0
LINE
  5
F6
330
1E
100
AcDbEntity
  8
1
 62
     7
100
AcDbLine
 10
5.500000000035698
 20
-25.13300000000009
 30
0.0
 11
5.100000000035606
 21
-25.5330000000001
 31
0.0
  0
LINE
  5
F7
330
1E
100
AcDbEntity
  8
1
 62
     7
100
AcDbLine
 10
5.100000000035606
 20
-25.60000000000011
 30
0.0
 11
15.59999999990669
 21
-25.60000000000011
 31
0.0
  0
LINE
  5
F8
330
1E
100
AcDbEntity
  8
1
 62
     7
100
AcDbLine
 10
5.100000000028786
 20
25.60000000000005
 30
0.0
 11
15.60000000003765
 21
25.60000000000005
 31
0.0
  0
LINE
  5
F9
330
1E
100
AcDbEntity
  8
1
 62
     7
100
AcDbLine
 10
15.60000000003765
 20
25.53300000000003
 30
0.0
 11
15.20000000003756
 21
25.13300000000004
 31
0.0
  0
LINE
  5
FA
330
1E
100
AcDbEntity
  8
1
 62
     7
100
AcDbLine
 10
5.100000000028786
 20
25.53300000000003
 30
0.0
 11
5.500000000028761
 21
25.13300000000004
 31
0.0
  0
LINE
  5
FB
330
1E
100
AcDbEntity
  8
1
 62
     7
100
AcDbLine
 10
15.60000000003561
 20
-21.13016336066821
 30
0.0
 11
15.60000000003561
 21
-24.90000000000001
 31
0.0
  0
LINE
  5
FC
330
1E
100
AcDbEntity
  8
1
 62
     7
100
AcDbLine
 10
14.97520991606939
 20
-25.52479008396637
 30
0.0
 11
15.60000000003561
 21
-24.90000000000001
 31
0.0
  0
LINE
  5
FD
330
1E
100
AcDbEntity
  8
1
 62
     7
100
AcDbLine
 10
13.00000000003568
 20
-25.60000000000011
 30
0.0
 11
14.97520991606939
 21
-25.52479008396637
 31
0.0
  0
LINE
  5
FE
330
1E
100
AcDbEntity
  8
1
 62
     7
100
AcDbLine
 10
15.60000000003561
 20
24.90000000000003
 30
0.0
 11
14.97520991606939
 21
25.52479008396645
 31
0.0
  0
LINE
  5
FF
330
1E
100
AcDbEntity
  8
1
 62
     7
100
AcDbLine
 10
1.288000000035709
 20
-24.93500000000009
 30
0.0
 11
-9.250999999964276
 21
-24.935
 31
0.0
  0
LINE
  5
100
330
1E
100
AcDbEntity
  8
1
 62
     7
100
AcDbLine
 10
-9.149999999964391
 20
-24.5340000000001
 30
0.0
 11
14.60000000003561
 21
-24.5340000000001
 31
0.0
  0
LINE
  5
101
330
1E
100
AcDbEntity
  8
1
 62
     7
100
AcDbLine
 10
15.60000000003561
 20
-24.58640777928309
 30
0.0
 11
14.60000000003561
 21
-24.5340000000001
 31
0.0
  0
LINE
  5
102
330
1E
100
AcDbEntity
  8
1
 62
     7
100
AcDbLine
 10
6.590000000035614
 20
-25.55099999999999
 30
0.0
 11
6.59159260921649
 21
-25.55101946081049
 31
0.0
  0
LINE
  5
103
330
1E
100
AcDbEntity
  8
1
 62
     7
100
AcDbLine
 10
6.59159260921649
 20
-25.55101946081049
 30
0.0
 11
10.6000000000356
 21
-25.60000000000011
 31
0.0
  0
LINE
  5
104
330
1E
100
AcDbEntity
  8
1
 62
     7
100
AcDbLine
 10
10.6000000000356
 20
-25.60000000000011
 30
0.0
 11
13.00000000003568
 21
-25.60000000000011
 31
0.0
  0
LINE
  5
105
330
1E
100
AcDbEntity
  8
1
 62
     7
100
AcDbLine
 10
15.60000000003561
 20
21.20172976110681
 30
0.0
 11
15.60000000003561
 21
24.90000000000003
 31
0.0
  0
LINE
  5
106
330
1E
100
AcDbEntity
  8
1
 62
     7
100
AcDbLine
 10
14.97520991606939
 20
25.52479008396645
 30
0.0
 11
13.00000000003568
 21
25.60000000000005
 31
0.0
  0
LINE
  5
107
330
1E
100
AcDbEntity
  8
1
 62
     7
100
AcDbLine
 10
14.60000000003561
 20
24.53400000000005
 30
0.0
 11
-9.250999999964276
 21
24.5340000000001
 31
0.0
  0
LINE
  5
108
330
1E
100
AcDbEntity
  8
1
 62
     7
100
AcDbLine
 10
14.60000000003561
 20
24.53400000000005
 30
0.0
 11
15.60000000003561
 21
24.58640777928314
 31
0.0
  0
LINE
  5
109
330
1E
100
AcDbEntity
  8
1
 62
     7
100
AcDbLine
 10
-9.149999999964391
 20
24.93500000000004
 30
0.0
 11
1.288000000035709
 21
24.93500000000004
 31
0.0
  0
LINE
  5
10A
330
1E
100
AcDbEntity
  8
1
 62
     7
100
AcDbLine
 10
6.59159260921649
 20
25.55101946081044
 30
0.0
 11
6.590000000035614
 21
25.55100000000005
 31
0.0
  0
LINE
  5
10B
330
1E
100
AcDbEntity
  8
1
 62
     7
100
AcDbLine
 10
10.6000000000356
 20
25.60000000000005
 30
0.0
 11
6.59159260921649
 21
25.55101946081044
 31
0.0
  0
LINE
  5
10C
330
1E
100
AcDbEntity
  8
1
 62
     7
100
AcDbLine
 10
13.00000000003568
 20
25.60000000000005
 30
0.0
 11
10.6000000000356
 21
25.60000000000005
 31
0.0
  0
LINE
  5
10D
330
1E
100
AcDbEntity
  8
1
  6
DIVIDE
 62
     4
100
AcDbLine
 10
15.59999999990669
 20
-26.5
 30
0.0
 11
17.09999999990668
 21
-26.5
 31
0.0
  0
LINE
  5
10E
330
1E
100
AcDbEntity
  8
1
  6
DIVIDE
 62
     4
100
AcDbLine
 10
17.09999999990668
 20
-26.5
 30
0.0
 11
17.09999999990668
 21
-19.61713721143819
 31
0.0
  0
LINE
  5
10F
330
1E
100
AcDbEntity
  8
1
 62
     7
100
AcDbLine
 10
-10.39999999996439
 20
36.25000000000006
 30
0.0
 11
-13.39999999996439
 21
36.25000000000006
 31
0.0
  0
LINE
  5
110
330
1E
100
AcDbEntity
  8
1
 62
     7
100
AcDbLine
 10
-10.39999999996439
 20
39.75000000000006
 30
0.0
 11
-13.39999999996439
 21
39.75000000000006
 31
0.0
  0
LINE
  5
111
330
1E
100
AcDbEntity
  8
1
  6
CENTER
 62
     3
100
AcDbLine
 10
-9.602099954098546
 20
38.00000000000006
 30
0.0
 11
-14.25304187452661
 21
38.00000000000006
 31
0.0
  0
LINE
  5
112
330
1E
100
AcDbEntity
  8
1
  6
PHANTOM
 62
     4
100
AcDbLine
 10
-1.699999999964346
 20
-22.5
 30
0.0
 11
-11.39999999996438
 21
-22.5
 31
0.0
  0
LINE
  5
113
330
1E
100
AcDbEntity
  8
1
  6
PHANTOM
 62
     4
100
AcDbLine
 10
-11.39999999996438
 20
-22.5
 30
0.0
 11
-11.39999999996438
 21
-35.00000000000005
 31
0.0
  0
LINE
  5
114
330
1E
100
AcDbEntity
  8
1
  6
PHANTOM
 62
     4
100
AcDbLine
 10
0.5999999549646873
 20
-26.5
 30
0.0
 11
-9.700000045035267
 21
-26.5
 31
0.0
  0
LINE
  5
115
330
1E
100
AcDbEntity
  8
1
  6
PHANTOM
 62
     4
100
AcDbLine
 10
-9.700000045035267
 20
-26.5
 30
0.0
 11
-9.700000045035267
 21
-35.00000000000005
 31
0.0
  0
LINE
  5
116
330
1E
100
AcDbEntity
  8
1
  6
DIVIDE
 62
     4
100
AcDbLine
 10
17.09999999990668
 20
19.61713721143819
 30
0.0
 11
17.09999999990668
 21
26.5
 31
0.0
  0
LINE
  5
117
330
1E
100
AcDbEntity
  8
1
  6
DIVIDE
 62
     4
100
AcDbLine
 10
17.09999999990668
 20
19.61713721143819
 30
0.0
 11
17.09999999990668
 21
26.5
 31
0.0
  0
LINE
  5
118
330
1E
100
AcDbEntity
  8
1
  6
DIVIDE
 62
     4
100
AcDbLine
 10
17.09999999990668
 20
26.5
 30
0.0
 11
15.59999999990669
 21
26.5
 31
0.0
  0
LINE
  5
119
330
1E
100
AcDbEntity
  8
1
 62
     7
100
AcDbLine
 10
11.09462036247669
 20
23.20272430685317
 30
0.0
 11
13.4550000000354
 21
23.20272430685317
 31
0.0
  0
LINE
  5
11A
330
1E
100
AcDbEntity
  8
1
 62
     7
100
AcDbLine
 10
14.10000000003561
 20
18.88604063402222
 30
0.0
 11
14.10000000003561
 21
18.07750000000003
 31
0.0
  0
LINE
  5
11B
330
1E
100
AcDbEntity
  8
1
 62
     7
100
AcDbLine
 10
13.4550000000354
 20
23.20272430685317
 30
0.0
 11
13.65500000003556
 21
23.40272430685315
 31
0.0
  0
LINE
  5
11C
330
1E
100
AcDbEntity
  8
1
 62
     7
100
AcDbLine
 10
14.10000000003561
 20
18.88604063402222
 30
0.0
 11
13.80000000003553
 21
19.18604063402225
 31
0.0
  0
LINE
  5
11D
330
1E
100
AcDbEntity
  8
1
 62
     7
100
AcDbLine
 10
13.80000000003553
 20
17.77750000000003
 30
0.0
 11
14.10000000003561
 21
18.07750000000003
 31
0.0
  0
LINE
  5
11E
330
1E
100
AcDbEntity
  8
1
 62
     7
100
AcDbLine
 10
13.15500000003556
 20
24.53400000000005
 30
0.0
 11
13.65500000003556
 21
24.24532486540524
 31
0.0
  0
LINE
  5
11F
330
1E
100
AcDbEntity
  8
1
 62
     7
100
AcDbLine
 10
13.65500000003556
 20
23.40272430685315
 30
0.0
 11
13.65500000003556
 21
24.24532486540524
 31
0.0
  0
LINE
  5
120
330
1E
100
AcDbEntity
  8
1
 62
     7
100
AcDbLine
 10
11.13874433750676
 20
19.18604063402225
 30
0.0
 11
13.80000000003553
 21
19.18604063402225
 31
0.0
  0
LINE
  5
121
330
1E
100
AcDbEntity
  8
1
 62
     7
100
AcDbLine
 10
6.415000000035549
 20
24.24532486540524
 30
0.0
 11
6.915000000035549
 21
24.53400000000005
 31
0.0
  0
LINE
  5
122
330
1E
100
AcDbEntity
  8
1
 62
     7
100
AcDbLine
 10
6.415000000035549
 20
24.24532486540524
 30
0.0
 11
6.415000000035549
 21
23.40272430685315
 31
0.0
  0
LINE
  5
123
330
1E
100
AcDbEntity
  8
1
 62
     7
100
AcDbLine
 10
5.9700000000355
 20
18.07750000000003
 30
0.0
 11
6.270000000035456
 21
17.77750000000003
 31
0.0
  0
LINE
  5
124
330
1E
100
AcDbEntity
  8
1
 62
     7
100
AcDbLine
 10
6.270000000035456
 20
19.18604063402225
 30
0.0
 11
5.9700000000355
 21
18.88604063402222
 31
0.0
  0
LINE
  5
125
330
1E
100
AcDbEntity
  8
1
 62
     7
100
AcDbLine
 10
6.415000000035549
 20
23.40272430685315
 30
0.0
 11
6.615000000035482
 21
23.20272430685317
 31
0.0
  0
LINE
  5
126
330
1E
100
AcDbEntity
  8
1
 62
     7
100
AcDbLine
 10
5.9700000000355
 20
18.07750000000003
 30
0.0
 11
5.9700000000355
 21
18.88604063402222
 31
0.0
  0
LINE
  5
127
330
1E
100
AcDbEntity
  8
1
 62
     7
100
AcDbLine
 10
6.270000000035456
 20
19.18604063402225
 30
0.0
 11
8.931255662564247
 21
19.18604063402225
 31
0.0
  0
LINE
  5
128
330
1E
100
AcDbEntity
  8
1
 62
     7
100
AcDbLine
 10
6.615000000035482
 20
23.20272430685317
 30
0.0
 11
8.975379637594418
 21
23.20272430685317
 31
0.0
  0
LINE
  5
129
330
1E
100
AcDbEntity
  8
1
 62
     7
100
AcDbLine
 10
5.970000000035502
 20
-18.88604063402226
 30
0.0
 11
5.970000000035502
 21
-18.08249999999998
 31
0.0
  0
LINE
  5
12A
330
1E
100
AcDbEntity
  8
1
 62
     7
100
AcDbLine
 10
13.80000000003553
 20
-17.78249999999998
 30
0.0
 11
6.270000000035457
 21
-17.78249999999998
 31
0.0
  0
LINE
  5
12B
330
1E
100
AcDbEntity
  8
1
 62
     7
100
AcDbLine
 10
6.615000000035482
 20
-23.20272430685317
 30
0.0
 11
6.415000000035552
 21
-23.40272430685316
 31
0.0
  0
LINE
  5
12C
330
1E
100
AcDbEntity
  8
1
 62
     7
100
AcDbLine
 10
5.970000000035502
 20
-18.88604063402226
 30
0.0
 11
6.270000000035456
 21
-19.18604063402225
 31
0.0
  0
LINE
  5
12D
330
1E
100
AcDbEntity
  8
1
 62
     7
100
AcDbLine
 10
6.270000000035457
 20
-17.78249999999998
 30
0.0
 11
5.970000000035502
 21
-18.08249999999998
 31
0.0
  0
LINE
  5
12E
330
1E
100
AcDbEntity
  8
1
 62
     7
100
AcDbLine
 10
6.915000000035552
 20
-24.53899999999999
 30
0.0
 11
6.415000000035552
 21
-24.25032486540519
 31
0.0
  0
LINE
  5
12F
330
1E
100
AcDbEntity
  8
1
 62
     7
100
AcDbLine
 10
6.415000000035552
 20
-23.40272430685316
 30
0.0
 11
6.415000000035552
 21
-24.25032486540519
 31
0.0
  0
LINE
  5
130
330
1E
100
AcDbEntity
  8
1
 62
     7
100
AcDbLine
 10
13.65500000003556
 20
-24.25032486540519
 30
0.0
 11
13.15500000003556
 21
-24.53899999999999
 31
0.0
  0
LINE
  5
131
330
1E
100
AcDbEntity
  8
1
 62
     7
100
AcDbLine
 10
13.65500000003556
 20
-24.25032486540519
 30
0.0
 11
13.65500000003556
 21
-23.40272430685316
 31
0.0
  0
LINE
  5
132
330
1E
100
AcDbEntity
  8
1
 62
     7
100
AcDbLine
 10
14.10000000003561
 20
-18.08249999999998
 30
0.0
 11
13.80000000003553
 21
-17.78249999999998
 31
0.0
  0
LINE
  5
133
330
1E
100
AcDbEntity
  8
1
 62
     7
100
AcDbLine
 10
13.80000000003553
 20
-19.18604063402225
 30
0.0
 11
14.10000000003561
 21
-18.88604063402226
 31
0.0
  0
LINE
  5
134
330
1E
100
AcDbEntity
  8
1
 62
     7
100
AcDbLine
 10
13.65500000003556
 20
-23.40272430685316
 30
0.0
 11
13.4550000000354
 21
-23.20272430685317
 31
0.0
  0
LINE
  5
135
330
1E
100
AcDbEntity
  8
1
 62
     7
100
AcDbLine
 10
14.10000000003561
 20
-18.08249999999998
 30
0.0
 11
14.10000000003561
 21
-18.88604063402226
 31
0.0
  0
LINE
  5
13A
330
1E
100
AcDbEntity
  8
1
  6
CENTER
 62
     3
100
AcDbLine
 10
-3.335082060321588
 20
0.0
 30
0.0
 11
23.83657451094835
 21
0.0
 31
0.0
  0
LINE
  5
13B
330
1E
100
AcDbEntity
  8
1
 62
     7
100
AcDbLine
 10
12.4159547061355
 20
22.71301372182793
 30
0.0
 11
13.81595470613548
 21
22.71301372182793
 31
0.0
  0
LINE
  5
13C
330
1E
100
AcDbEntity
  8
1
 62
     7
100
AcDbLine
 10
12.4159547061355
 20
19.58301372182781
 30
0.0
 11
12.4159547061355
 21
22.71301372182793
 31
0.0
  0
LINE
  5
13D
330
1E
100
AcDbEntity
  8
1
 62
     7
100
AcDbLine
 10
13.81595470613548
 20
19.58301372182781
 30
0.0
 11
12.4159547061355
 21
19.58301372182781
 31
0.0
  0
LINE
  5
13E
330
1E
100
AcDbEntity
  8
1
 62
     7
100
AcDbLine
 10
13.81595470613548
 20
22.71301372182793
 30
0.0
 11
13.81595470613548
 21
19.58301372182781
 31
0.0
  0
LINE
  5
13F
330
1E
100
AcDbEntity
  8
1
 62
     7
100
AcDbLine
 10
7.423470127439943
 20
19.58301372182781
 30
0.0
 11
6.24347012743988
 21
19.58301372182781
 31
0.0
  0
LINE
  5
140
330
1E
100
AcDbEntity
  8
1
 62
     7
100
AcDbLine
 10
7.423470127439943
 20
22.71301372182782
 30
0.0
 11
7.423470127439943
 21
19.58301372182781
 31
0.0
  0
LINE
  5
141
330
1E
100
AcDbEntity
  8
1
 62
     7
100
AcDbLine
 10
6.24347012743988
 20
19.58301372182781
 30
0.0
 11
6.24347012743988
 21
21.00301372182778
 31
0.0
  0
LINE
  5
142
330
1E
100
AcDbEntity
  8
1
 62
     7
100
AcDbLine
 10
6.24347012743988
 20
21.00301372182778
 30
0.0
 11
6.39307574206919
 21
22.71301372182782
 31
0.0
  0
LINE
  5
143
330
1E
100
AcDbEntity
  8
1
 62
     7
100
AcDbLine
 10
6.39307574206919
 20
22.71301372182782
 30
0.0
 11
7.423470127439943
 21
22.71301372182782
 31
0.0
  0
LINE
  5
144
330
1E
100
AcDbEntity
  8
1
 62
     7
100
AcDbLine
 10
12.4159547061355
 20
-19.57698627817203
 30
0.0
 11
13.81595470613548
 21
-19.57698627817203
 31
0.0
  0
LINE
  5
145
330
1E
100
AcDbEntity
  8
1
 62
     7
100
AcDbLine
 10
12.4159547061355
 20
-22.70698627817214
 30
0.0
 11
12.4159547061355
 21
-19.57698627817203
 31
0.0
  0
LINE
  5
146
330
1E
100
AcDbEntity
  8
1
 62
     7
100
AcDbLine
 10
13.81595470613548
 20
-19.57698627817203
 30
0.0
 11
13.81595470613548
 21
-22.70698627817214
 31
0.0
  0
LINE
  5
147
330
1E
100
AcDbEntity
  8
1
 62
     7
100
AcDbLine
 10
13.81595470613548
 20
-22.70698627817214
 30
0.0
 11
12.4159547061355
 21
-22.70698627817214
 31
0.0
  0
LINE
  5
148
330
1E
100
AcDbEntity
  8
1
 62
     7
100
AcDbLine
 10
7.423470127439943
 20
-22.70698627817203
 30
0.0
 11
6.39307574206919
 21
-22.70698627817203
 31
0.0
  0
LINE
  5
149
330
1E
100
AcDbEntity
  8
1
 62
     7
100
AcDbLine
 10
7.423470127439943
 20
-19.57698627817203
 30
0.0
 11
7.423470127439943
 21
-22.70698627817203
 31
0.0
  0
LINE
  5
14A
330
1E
100
AcDbEntity
  8
1
 62
     7
100
AcDbLine
 10
6.24347012743988
 20
-20.99698627817198
 30
0.0
 11
6.24347012743988
 21
-19.57698627817203
 31
0.0
  0
LINE
  5
14B
330
1E
100
AcDbEntity
  8
1
 62
     7
100
AcDbLine
 10
6.24347012743988
 20
-19.57698627817203
 30
0.0
 11
7.423470127439943
 21
-19.57698627817203
 31
0.0
  0
LINE
  5
14C
330
1E
100
AcDbEntity
  8
1
 62
     7
100
AcDbLine
 10
6.39307574206919
 20
-22.70698627817203
 30
0.0
 11
6.24347012743988
 21
-20.99698627817198
 31
0.0
  0
LINE
  5
14D
330
1E
100
AcDbEntity
  8
1
  6
CENTER
 62
     3
100
AcDbLine
 10
80.77574101100287
 20
31.06846273119182
 30
0.0
 11
82.7848291334717
 21
26.21809522798603
 31
0.0
  0
LINE
  5
14E
330
1E
100
AcDbEntity
  8
1
  6
CENTER
 62
     3
100
AcDbLine
 10
69.86700706641352
 20
-23.77345229754317
 30
0.0
 11
73.57931758915288
 21
-20.06114161782375
 31
0.0
  0
LINE
  5
14F
330
1E
100
AcDbEntity
  8
1
  6
CENTER
 62
     3
100
AcDbLine
 10
80.77574232464712
 20
-31.06243583019223
 30
0.0
 11
82.7848302420117
 21
-26.21206824202949
 31
0.0
  0
LINE
  5
150
330
1E
100
AcDbEntity
  8
1
  6
CENTER
 62
     3
100
AcDbLine
 10
106.5112031511995
 20
-31.06243528606288
 30
0.0
 11
104.5021150287307
 21
-26.21206778285716
 31
0.0
  0
LINE
  5
151
330
1E
100
AcDbEntity
  8
1
  6
CENTER
 62
     3
100
AcDbLine
 10
117.4199381012088
 20
-23.77345129212323
 30
0.0
 11
113.7076274214894
 21
-20.06114076938387
 31
0.0
  0
LINE
  5
152
330
1E
100
AcDbEntity
  8
1
  6
CENTER
 62
     3
100
AcDbLine
 10
106.5112018375552
 20
31.06846327532124
 30
0.0
 11
104.5021139201905
 21
26.21809568715852
 31
0.0
  0
LINE
  5
153
330
1E
100
AcDbEntity
  8
1
  6
CENTER
 62
     3
100
AcDbLine
 10
87.15671818456245
 20
32.61412415882134
 30
0.0
 11
88.03462472695118
 21
28.20059041556854
 31
0.0
  0
LINE
  5
154
330
1E
100
AcDbEntity
  8
1
  6
CENTER
 62
     3
100
AcDbLine
 10
100.1302259776399
 20
-32.60809671369232
 30
0.0
 11
99.25231943525124
 21
-28.19456297043953
 31
0.0
  0
LINE
  5
155
330
1E
100
AcDbEntity
  8
1
  6
CENTER
 62
     3
100
AcDbLine
 10
108.6886093290764
 20
-18.49295717055324
 30
0.0
 11
105.3375323447488
 21
-14.37393021687723
 31
0.0
  0
LINE
  5
156
330
1E
100
AcDbEntity
  8
1
  6
CENTER
 62
     3
100
AcDbLine
 10
103.1413547182582
 20
-21.86631742798394
 30
0.0
 11
101.0258449312229
 21
-16.9959254169689
 31
0.0
  0
LINE
  5
157
330
1E
100
AcDbEntity
  8
1
  6
CENTER
 62
     3
100
AcDbLine
 10
96.88968565077948
 20
-23.61795295353576
 30
0.0
 11
96.16664074412597
 21
-18.35741058007632
 31
0.0
  0
LINE
  5
158
330
1E
100
AcDbEntity
  8
1
  6
CENTER
 62
     3
100
AcDbLine
 10
90.39725982188835
 20
-23.61795295347914
 30
0.0
 11
91.12030472863308
 21
-18.35741058003245
 31
0.0
  0
LINE
  5
159
330
1E
100
AcDbEntity
  8
1
  6
CENTER
 62
     3
100
AcDbLine
 10
84.14559075443959
 20
-21.86631742781796
 30
0.0
 11
86.26110054155994
 21
-16.99592541683998
 31
0.0
  0
LINE
  5
15A
330
1E
100
AcDbEntity
  8
1
  6
CENTER
 62
     3
100
AcDbLine
 10
78.59833614368041
 20
-18.49295717029085
 30
0.0
 11
81.94941312807987
 21
-14.37393021667316
 31
0.0
  0
LINE
  5
15B
330
1E
100
AcDbEntity
  8
1
  6
CENTER
 62
     3
100
AcDbLine
 10
108.6886086734826
 20
-18.48994344725205
 30
0.0
 11
105.337531689155
 21
-14.37091649357594
 31
0.0
  0
LINE
  5
15C
330
1E
100
AcDbEntity
  8
1
  6
CENTER
 62
     3
100
AcDbLine
 10
103.1413540626647
 20
-21.86330370468262
 30
0.0
 11
101.0258442756291
 21
-16.99291169366776
 31
0.0
  0
LINE
  5
15D
330
1E
100
AcDbEntity
  8
1
  6
CENTER
 62
     3
100
AcDbLine
 10
96.88968499518558
 20
-23.61493923023451
 30
0.0
 11
96.16664008853227
 21
-18.35439685677503
 31
0.0
  0
LINE
  5
15E
330
1E
100
AcDbEntity
  8
1
  6
CENTER
 62
     3
100
AcDbLine
 10
90.39725916629448
 20
-23.61493923017784
 30
0.0
 11
91.12030407303928
 21
-18.35439685673103
 31
0.0
  0
LINE
  5
15F
330
1E
100
AcDbEntity
  8
1
  6
CENTER
 62
     3
100
AcDbLine
 10
84.14559009884568
 20
-21.86330370451671
 30
0.0
 11
86.26109988596624
 21
-16.99291169353896
 31
0.0
  0
LINE
  5
160
330
1E
100
AcDbEntity
  8
1
  6
CENTER
 62
     3
100
AcDbLine
 10
78.59833548808672
 20
-18.48994344698954
 30
0.0
 11
81.94941247248605
 21
-14.37091649337205
 31
0.0
  0
LINE
  5
161
330
1E
100
AcDbEntity
  8
1
 62
     7
100
AcDbLine
 10
-13.39999999996439
 20
-18.002
 30
0.0
 11
-13.39999999996439
 21
-40.59999999999997
 31
0.0
  0
LINE
  5
162
330
1E
100
AcDbEntity
  8
1
 62
     7
100
AcDbLine
 10
-10.80099999996432
 20
18.32
 30
0.0
 11
-10.80099999996432
 21
34.80000000000001
 31
0.0
  0
LINE
  5
163
330
1E
100
AcDbEntity
  8
1
  6
CENTER
 62
     3
100
AcDbLine
 10
87.21151705658009
 20
22.95896185367748
 30
0.0
 11
88.64413791141988
 21
17.8458710578598
 31
0.0
  0
LINE
  5
164
330
1E
100
AcDbEntity
  8
1
  6
CENTER
 62
     3
100
AcDbLine
 10
81.25659071213226
 20
20.37237232770829
 30
0.0
 11
84.0155814868134
 21
15.83540528956224
 31
0.0
  0
LINE
  5
165
330
1E
100
AcDbEntity
  8
1
  6
CENTER
 62
     3
100
AcDbLine
 10
76.22034269259268
 20
16.27508065767349
 30
0.0
 11
80.10108166290127
 21
12.65072346717365
 31
0.0
  0
LINE
  5
166
330
1E
100
AcDbEntity
  8
1
  6
CENTER
 62
     3
100
AcDbLine
 10
72.47628847426677
 20
10.97096422287612
 30
0.0
 11
77.19095898397586
 21
8.52801887250942
 31
0.0
  0
LINE
  5
167
330
1E
100
AcDbEntity
  8
1
  6
CENTER
 62
     3
100
AcDbLine
 10
70.30210743061785
 20
4.853405074564449
 30
0.0
 11
75.50104393620677
 21
3.77305364523525
 31
0.0
  0
LINE
  5
168
330
1E
100
AcDbEntity
  8
1
  6
CENTER
 62
     3
100
AcDbLine
 10
69.85904862343625
 20
-1.623885411204327
 30
0.0
 11
75.15666978783952
 21
-1.261518196262129
 31
0.0
  0
LINE
  5
169
330
1E
100
AcDbEntity
  8
1
  6
CENTER
 62
     3
100
AcDbLine
 10
71.17997169759087
 20
-7.980516230735843
 30
0.0
 11
76.18337719405133
 21
-6.202305490134533
 31
0.0
  0
LINE
  5
16A
330
1E
100
AcDbEntity
  8
1
  6
CENTER
 62
     3
100
AcDbLine
 10
74.16690983149362
 20
-13.74504515579915
 30
0.0
 11
78.50501996339767
 21
-10.68287264539552
 31
0.0
  0
LINE
  5
16B
330
1E
100
AcDbEntity
  8
1
  6
CENTER
 62
     3
100
AcDbLine
 10
113.1200343301584
 20
-13.74504515613896
 30
0.0
 11
108.7819241983079
 21
-10.6828726456596
 31
0.0
  0
LINE
  5
16C
330
1E
100
AcDbEntity
  8
1
  6
CENTER
 62
     3
100
AcDbLine
 10
116.1069724641617
 20
-7.98051623112795
 30
0.0
 11
111.1035669677324
 21
-6.202305490439213
 31
0.0
  0
LINE
  5
16D
330
1E
100
AcDbEntity
  8
1
  6
CENTER
 62
     3
100
AcDbLine
 10
117.4278955384275
 20
-1.62388541161951
 30
0.0
 11
112.1302743740304
 21
-1.261518196584774
 31
0.0
  0
LINE
  5
16E
330
1E
100
AcDbEntity
  8
1
  6
CENTER
 62
     3
100
AcDbLine
 10
116.9848367313587
 20
4.853405074157108
 30
0.0
 11
111.7859002257509
 21
3.773053644918518
 31
0.0
  0
LINE
  5
16F
330
1E
100
AcDbEntity
  8
1
  6
CENTER
 62
     3
100
AcDbLine
 10
114.810655687817
 20
10.97096422250641
 30
0.0
 11
110.095985178065
 21
8.52801887222202
 31
0.0
  0
LINE
  5
170
330
1E
100
AcDbEntity
  8
1
  6
CENTER
 62
     3
100
AcDbLine
 10
111.0666014695834
 20
16.27508065736939
 30
0.0
 11
107.1858624992117
 21
12.65072346693731
 31
0.0
  0
LINE
  5
171
330
1E
100
AcDbEntity
  8
1
  6
CENTER
 62
     3
100
AcDbLine
 10
106.0303534501155
 20
20.37237232749205
 30
0.0
 11
103.2713626753549
 21
15.83540528939423
 31
0.0
  0
LINE
  5
172
330
1E
100
AcDbEntity
  8
1
  6
CENTER
 62
     3
100
AcDbLine
 10
100.0754271057127
 20
22.95896185356528
 30
0.0
 11
98.64280625078372
 21
17.84587105777248
 31
0.0
  0
LINE
  5
173
330
1E
100
AcDbEntity
  8
1
  6
CENTER
 62
     3
100
AcDbLine
 10
87.21151771217389
 20
22.9559481303763
 30
0.0
 11
88.64413856701366
 21
17.8428573345586
 31
0.0
  0
LINE
  5
174
330
1E
100
AcDbEntity
  8
1
  6
CENTER
 62
     3
100
AcDbLine
 10
81.25659136772583
 20
20.36935860440709
 30
0.0
 11
84.01558214240706
 21
15.83239156626107
 31
0.0
  0
LINE
  5
175
330
1E
100
AcDbEntity
  8
1
  6
CENTER
 62
     3
100
AcDbLine
 10
76.2203433481866
 20
16.27206693437231
 30
0.0
 11
80.10108231849519
 21
12.64770974387241
 31
0.0
  0
LINE
  5
176
330
1E
100
AcDbEntity
  8
1
  6
CENTER
 62
     3
100
AcDbLine
 10
72.47628912986032
 20
10.96795049957488
 30
0.0
 11
77.19095963956944
 21
8.525005149208197
 31
0.0
  0
LINE
  5
177
330
1E
100
AcDbEntity
  8
1
  6
CENTER
 62
     3
100
AcDbLine
 10
70.30210808621177
 20
4.850391351263226
 30
0.0
 11
75.50104459180069
 21
3.770039921934142
 31
0.0
  0
LINE
  5
178
330
1E
100
AcDbEntity
  8
1
  6
CENTER
 62
     3
100
AcDbLine
 10
69.85904927902993
 20
-1.626899134505493
 30
0.0
 11
75.1566704434331
 21
-1.264531919563297
 31
0.0
  0
LINE
  5
179
330
1E
100
AcDbEntity
  8
1
  6
CENTER
 62
     3
100
AcDbLine
 10
71.17997235318478
 20
-7.983529954037121
 30
0.0
 11
76.18337784964501
 21
-6.205319213435758
 31
0.0
  0
LINE
  5
17A
330
1E
100
AcDbEntity
  8
1
  6
CENTER
 62
     3
100
AcDbLine
 10
74.16691048708732
 20
-13.74805887910035
 30
0.0
 11
78.50502061899158
 21
-10.68588636869691
 31
0.0
  0
LINE
  5
17B
330
1E
100
AcDbEntity
  8
1
  6
CENTER
 62
     3
100
AcDbLine
 10
116.1069731197555
 20
-7.983529954429116
 30
0.0
 11
111.1035676233262
 21
-6.205319213740495
 31
0.0
  0
LINE
  5
17C
330
1E
100
AcDbEntity
  8
1
  6
CENTER
 62
     3
100
AcDbLine
 10
117.4278961940212
 20
-1.626899134920676
 30
0.0
 11
112.1302750296242
 21
-1.264531919886224
 31
0.0
  0
LINE
  5
17D
330
1E
100
AcDbEntity
  8
1
  6
CENTER
 62
     3
100
AcDbLine
 10
116.9848373869527
 20
4.850391350855886
 30
0.0
 11
111.7859008813448
 21
3.770039921617296
 31
0.0
  0
LINE
  5
17E
330
1E
100
AcDbEntity
  8
1
  6
CENTER
 62
     3
100
AcDbLine
 10
114.8106563434104
 20
10.96795049920519
 30
0.0
 11
110.0959858336586
 21
8.525005148920797
 31
0.0
  0
LINE
  5
17F
330
1E
100
AcDbEntity
  8
1
  6
CENTER
 62
     3
100
AcDbLine
 10
111.0666021251772
 20
16.27206693406806
 30
0.0
 11
107.1858631548055
 21
12.64770974363606
 31
0.0
  0
LINE
  5
180
330
1E
100
AcDbEntity
  8
1
  6
CENTER
 62
     3
100
AcDbLine
 10
106.0303541057092
 20
20.36935860419064
 30
0.0
 11
103.2713633309485
 21
15.83239156609281
 31
0.0
  0
LINE
  5
181
330
1E
100
AcDbEntity
  8
1
  6
CENTER
 62
     3
100
AcDbLine
 10
100.0754277613064
 20
22.95594813026398
 30
0.0
 11
98.64280690637748
 21
17.84285733447129
 31
0.0
  0
LINE
  5
182
330
1E
100
AcDbEntity
  8
1
  6
CENTER
 62
     3
100
AcDbLine
 10
113.1200349857519
 20
-13.74805887944018
 30
0.0
 11
108.7819248539015
 21
-10.68588636896077
 31
0.0
  0
LINE
  5
183
330
1E
100
AcDbEntity
  8
1
  6
CENTER
 62
     3
100
AcDbLine
 10
117.4199370957889
 20
23.77947974267212
 30
0.0
 11
113.7076265730495
 21
20.06716906295272
 31
0.0
  0
LINE
  5
184
330
1E
100
AcDbEntity
  8
1
  6
CENTER
 62
     3
100
AcDbLine
 10
124.7089210897285
 20
12.87074479266275
 30
0.0
 11
119.8585535865226
 21
10.86165667019389
 31
0.0
  0
LINE
  5
185
330
1E
100
AcDbEntity
  8
1
  6
CENTER
 62
     3
100
AcDbLine
 10
124.7089216338578
 20
-12.86471603388952
 30
0.0
 11
119.858554045695
 21
-10.85562811652494
 31
0.0
  0
LINE
  5
186
330
1E
100
AcDbEntity
  8
1
  6
CENTER
 62
     3
100
AcDbLine
 10
62.5780230724739
 20
-12.86471734753388
 30
0.0
 11
67.4283905756796
 21
-10.85562922506499
 31
0.0
  0
LINE
  5
187
330
1E
100
AcDbEntity
  8
1
  6
CENTER
 62
     3
100
AcDbLine
 10
62.57802252834438
 20
12.87074347901839
 30
0.0
 11
67.42839011650722
 21
10.86165556165383
 31
0.0
  0
LINE
  5
188
330
1E
100
AcDbEntity
  8
1
  6
CENTER
 62
     3
100
AcDbLine
 10
69.86700606099351
 20
23.77947873725211
 30
0.0
 11
73.57931674071278
 21
20.06716821451286
 31
0.0
  0
LINE
  5
189
330
1E
100
AcDbEntity
  8
1
 62
     7
100
AcDbLine
 10
92.1434721032257
 20
4.245654345760497
 30
0.0
 11
92.1434721032257
 21
5.903013633423798
 31
0.0
  0
LINE
  5
18A
330
1E
100
AcDbEntity
  8
1
 62
     7
100
AcDbLine
 10
92.1434721032257
 20
5.903013633423798
 30
0.0
 11
95.14347205739623
 21
5.903013633423798
 31
0.0
  0
LINE
  5
18B
330
1E
100
AcDbEntity
  8
1
 62
     7
100
AcDbLine
 10
95.14347205739623
 20
5.903013633423798
 30
0.0
 11
95.14347205739623
 21
4.245654346522485
 31
0.0
  0
LINE
  5
18C
330
1E
100
AcDbEntity
  8
0
 62
     7
100
AcDbLine
 10
90.28347213143604
 20
-12.42198608999109
 30
0.0
 11
90.28347213143604
 21
-10.99775034893222
 31
0.0
  0
LINE
  5
18D
330
1E
100
AcDbEntity
  8
0
 62
     7
100
AcDbLine
 10
93.29347208620527
 20
-13.12198607949019
 30
0.0
 11
90.98347212089949
 21
-13.12198607949019
 31
0.0
  0
LINE
  5
18E
330
1E
100
AcDbEntity
  8
0
 62
     7
100
AcDbLine
 10
93.29347208620527
 20
-10.45571170233817
 30
0.0
 11
93.29347208620527
 21
-13.12198607949019
 31
0.0
  0
LINE
  5
18F
330
1E
100
AcDbEntity
  8
0
 62
     7
100
AcDbLine
 10
97.00347203046852
 20
-12.42198608999109
 30
0.0
 11
97.00347203046852
 21
-10.99775034893222
 31
0.0
  0
LINE
  5
190
330
1E
100
AcDbEntity
  8
0
 62
     7
100
AcDbLine
 10
93.99347207568792
 20
-13.12198607949019
 30
0.0
 11
96.3034720409961
 21
-13.12198607949019
 31
0.0
  0
LINE
  5
191
330
1E
100
AcDbEntity
  8
0
 62
     7
100
AcDbLine
 10
93.99347207568792
 20
-10.45571170233817
 30
0.0
 11
93.99347207568792
 21
-13.12198607949019
 31
0.0
  0
LINE
  5
192
330
1E
100
AcDbEntity
  8
1
  6
CENTER
 62
     3
100
AcDbLine
 10
93.64347142566272
 20
-39.99397255487117
 30
0.0
 11
93.64347142566272
 21
40.00602744512881
 31
0.0
  0
LINE
  5
193
330
1E
100
AcDbEntity
  8
1
  6
CENTER
 62
     3
100
AcDbLine
 10
55.7490776959754
 20
0.0030137233011089
 30
0.0
 11
132.3430776959755
 21
0.0030137233011089
 31
0.0
  0
LINE
  5
194
330
1E
100
AcDbEntity
  8
1
 62
     7
100
AcDbLine
 10
13.4550000000354
 20
-23.20272430685317
 30
0.0
 11
11.09462036247669
 21
-23.20272430685317
 31
0.0
  0
LINE
  5
195
330
1E
100
AcDbEntity
  8
1
 62
     7
100
AcDbLine
 10
8.975379637594418
 20
-23.20272430685317
 30
0.0
 11
6.615000000035482
 21
-23.20272430685317
 31
0.0
  0
LINE
  5
196
330
1E
100
AcDbEntity
  8
1
 62
     7
100
AcDbLine
 10
8.931255662564247
 20
-19.18604063402225
 30
0.0
 11
6.270000000035456
 21
-19.18604063402225
 31
0.0
  0
LINE
  5
197
330
1E
100
AcDbEntity
  8
1
 62
     7
100
AcDbLine
 10
13.80000000003553
 20
-19.18604063402225
 30
0.0
 11
11.13874433750676
 21
-19.18604063402225
 31
0.0
  0
ARC
  5
198
330
1E
100
AcDbEntity
  8
0
 62
     7
100
AcDbCircle
 10
7.799999959471504
 20
27.29999958993685
 30
0.0
 40
0.2999999954932981
100
AcDbArc
 50
270.0000000096836
 51
0.0
  0
ARC
  5
199
330
1E
100
AcDbEntity
  8
0
 62
     7
100
AcDbCircle
 10
7.799999959471504
 20
-27.29999958993678
 30
0.0
 40
0.2999999954931809
100
AcDbArc
 50
0.0
 51
89.99999999031619
  0
ARC
  5
19A
330
1E
100
AcDbEntity
  8
1
 62
     7
100
AcDbCircle
 10
1.658352546262464
 20
-44.88500000000001
 30
0.0
 40
19.95343732314043
100
AcDbArc
 50
75.68589209522496
 51
91.06351883405745
  0
ARC
  5
19B
330
1E
100
AcDbEntity
  8
1
 62
     7
100
AcDbCircle
 10
1.658352546262465
 20
44.88500000000004
 30
0.0
 40
19.95343732314051
100
AcDbArc
 50
268.9364811659426
 51
284.3141079047748
  0
ARC
  5
19C
330
1E
100
AcDbEntity
  8
1
 62
     7
100
AcDbCircle
 10
110.9509792645273
 20
-12.2139589014389
 30
0.0
 40
2.619999999999944
100
AcDbArc
 50
191.9866508930233
 51
269.9535553291194
  0
ARC
  5
19D
330
1E
100
AcDbEntity
  8
1
 62
     7
100
AcDbCircle
 10
80.27387398055395
 20
-16.43042997100859
 30
0.0
 40
2.381249999999996
100
AcDbArc
 50
258.6906181702838
 51
24.78731992802827
  0
ARC
  5
19E
330
1E
100
AcDbEntity
  8
1
 62
     7
100
AcDbCircle
 10
85.20334499270871
 20
-19.42810769982853
 30
0.0
 40
2.381249999999897
100
AcDbArc
 50
274.3427920833294
 51
40.43949384107395
  0
ARC
  5
19F
330
1E
100
AcDbEntity
  8
1
 62
     7
100
AcDbCircle
 10
90.7587816199973
 20
-20.9846680442151
 30
0.0
 40
2.381249999999999
100
AcDbArc
 50
289.9949659963733
 51
56.09166775411579
  0
ARC
  5
1A0
330
1E
100
AcDbEntity
  8
1
 62
     7
100
AcDbCircle
 10
96.52816254220512
 20
-20.9846680442151
 30
0.0
 40
2.38124999999999
100
AcDbArc
 50
305.6471399094188
 51
71.74384166715383
  0
ARC
  5
1A1
330
1E
100
AcDbEntity
  8
1
 62
     7
100
AcDbCircle
 10
102.0835991694936
 20
-19.42810769982853
 30
0.0
 40
2.38124999999999
100
AcDbArc
 50
321.2993138224608
 51
87.39601558020344
  0
ARC
  5
1A2
330
1E
100
AcDbEntity
  8
1
 62
     7
100
AcDbCircle
 10
107.0130701816486
 20
-16.43042997100859
 30
0.0
 40
2.381250000000193
100
AcDbArc
 50
336.9514877355058
 51
103.0481894932399
  0
ARC
  5
1A3
330
1E
100
AcDbEntity
  8
1
 62
     7
100
AcDbCircle
 10
80.27387398055395
 20
-16.43042997100859
 30
0.0
 40
2.38124999999997
100
AcDbArc
 50
76.95181050675734
 51
203.048512264496
  0
ARC
  5
1A4
330
1E
100
AcDbEntity
  8
1
 62
     7
100
AcDbCircle
 10
85.20334499270871
 20
-19.42810769982853
 30
0.0
 40
2.381250000000088
100
AcDbArc
 50
92.60398441979893
 51
218.7006861775373
  0
ARC
  5
1A5
330
1E
100
AcDbEntity
  8
1
 62
     7
100
AcDbCircle
 10
90.7587816199973
 20
-20.9846680442151
 30
0.0
 40
2.381249999999961
100
AcDbArc
 50
108.2561583328409
 51
234.3528600905833
  0
ARC
  5
1A6
330
1E
100
AcDbEntity
  8
1
 62
     7
100
AcDbCircle
 10
96.52816254220512
 20
-20.9846680442151
 30
0.0
 40
2.381249999999996
100
AcDbArc
 50
123.9083322458842
 51
250.0050340036317
  0
ARC
  5
1A7
330
1E
100
AcDbEntity
  8
1
 62
     7
100
AcDbCircle
 10
102.0835991694936
 20
-19.42810769982853
 30
0.0
 40
2.381249999999917
100
AcDbArc
 50
139.5605061589274
 51
265.657207916668
  0
ARC
  5
1A8
330
1E
100
AcDbEntity
  8
1
 62
     7
100
AcDbCircle
 10
107.0130701816486
 20
-16.43042997100859
 30
0.0
 40
2.381250000000054
100
AcDbArc
 50
155.2126800719733
 51
281.309381829719
  0
ARC
  5
1A9
330
1E
100
AcDbEntity
  8
1
 62
     7
100
AcDbCircle
 10
93.64347208110121
 20
0.0030137225645035
 30
0.0
 40
22.79500000000007
100
AcDbArc
 50
314.5215633808786
 51
319.391480097383
  0
ARC
  5
1AA
330
1E
100
AcDbEntity
  8
1
 62
     7
100
AcDbCircle
 10
107.0130701816486
 20
-16.43042997100859
 30
0.0
 40
2.620000000000247
100
AcDbArc
 50
3.959488149145503
 51
81.92639258523721
  0
ARC
  5
1AB
330
1E
100
AcDbEntity
  8
1
 62
     7
100
AcDbCircle
 10
93.64347208110121
 20
0.0030137225645035
 30
0.0
 40
22.79500000000012
100
AcDbArc
 50
298.869389467835
 51
303.7393061843391
  0
ARC
  5
1AC
330
1E
100
AcDbEntity
  8
1
 62
     7
100
AcDbCircle
 10
107.0130701816486
 20
-16.43042997100859
 30
0.0
 40
2.619999999999989
100
AcDbArc
 50
176.3344769799804
 51
254.3013814160736
  0
ARC
  5
1AD
330
1E
100
AcDbEntity
  8
1
 62
     7
100
AcDbCircle
 10
93.64347208110121
 20
0.0030137225645035
 30
0.0
 40
19.50000000000003
100
AcDbArc
 50
299.1362218858466
 51
303.4724737663273
  0
ARC
  5
1AE
330
1E
100
AcDbEntity
  8
1
 62
     7
100
AcDbCircle
 10
102.0835991694936
 20
-19.42810769982853
 30
0.0
 40
2.620000000000255
100
AcDbArc
 50
348.3073142361015
 51
66.27421867219286
  0
ARC
  5
1AF
330
1E
100
AcDbEntity
  8
1
 62
     7
100
AcDbCircle
 10
93.64347208110121
 20
0.0030137225645035
 30
0.0
 40
22.79499999999996
100
AcDbArc
 50
283.2172155547914
 51
288.0871322712962
  0
ARC
  5
1B0
330
1E
100
AcDbEntity
  8
1
 62
     7
100
AcDbCircle
 10
102.0835991694936
 20
-19.42810769982853
 30
0.0
 40
2.61999999999999
100
AcDbArc
 50
160.6823030669351
 51
238.6492075030328
  0
ARC
  5
1B1
330
1E
100
AcDbEntity
  8
1
 62
     7
100
AcDbCircle
 10
93.64347208110121
 20
0.0030137225645035
 30
0.0
 40
19.50000000000001
100
AcDbArc
 50
283.4840479728025
 51
287.8202998532838
  0
ARC
  5
1B2
330
1E
100
AcDbEntity
  8
1
 62
     7
100
AcDbCircle
 10
96.52816254220512
 20
-20.9846680442151
 30
0.0
 40
2.620000000000154
100
AcDbArc
 50
332.6551403230586
 51
50.62204475914986
  0
ARC
  5
1B3
330
1E
100
AcDbEntity
  8
1
 62
     7
100
AcDbCircle
 10
93.64347208110121
 20
0.0030137225645035
 30
0.0
 40
22.79499999999998
100
AcDbArc
 50
267.5650416417478
 51
272.4349583582526
  0
ARC
  5
1B4
330
1E
100
AcDbEntity
  8
1
 62
     7
100
AcDbCircle
 10
96.52816254220512
 20
-20.9846680442151
 30
0.0
 40
2.619999999999977
100
AcDbArc
 50
145.0301291538915
 51
222.9970335899901
  0
ARC
  5
1B5
330
1E
100
AcDbEntity
  8
1
 62
     7
100
AcDbCircle
 10
93.64347208110121
 20
0.0030137225645035
 30
0.0
 40
19.49999999999993
100
AcDbArc
 50
267.8318740597593
 51
272.1681259402404
  0
ARC
  5
1B6
330
1E
100
AcDbEntity
  8
1
 62
     7
100
AcDbCircle
 10
90.7587816199973
 20
-20.9846680442151
 30
0.0
 40
2.620000000000031
100
AcDbArc
 50
317.0029664100133
 51
34.96987084610989
  0
ARC
  5
1B7
330
1E
100
AcDbEntity
  8
1
 62
     7
100
AcDbCircle
 10
93.64347208110121
 20
0.0030137225645035
 30
0.0
 40
22.79499999999999
100
AcDbArc
 50
251.9128677287044
 51
256.7827844452092
  0
ARC
  5
1B8
330
1E
100
AcDbEntity
  8
1
 62
     7
100
AcDbCircle
 10
90.7587816199973
 20
-20.9846680442151
 30
0.0
 40
2.619999999999953
100
AcDbArc
 50
129.3779552408502
 51
207.3448596769444
  0
ARC
  5
1B9
330
1E
100
AcDbEntity
  8
1
 62
     7
100
AcDbCircle
 10
93.64347208110121
 20
0.0030137225645035
 30
0.0
 40
19.50000000000001
100
AcDbArc
 50
252.1797001467158
 51
256.5159520271973
  0
ARC
  5
1BA
330
1E
100
AcDbEntity
  8
1
 62
     7
100
AcDbCircle
 10
85.20334499270871
 20
-19.42810769982853
 30
0.0
 40
2.61999999999999
100
AcDbArc
 50
301.3507924969692
 51
19.31769693306617
  0
ARC
  5
1BB
330
1E
100
AcDbEntity
  8
1
 62
     7
100
AcDbCircle
 10
93.64347208110121
 20
0.0030137225645035
 30
0.0
 40
22.79499999999998
100
AcDbArc
 50
236.260693815661
 51
241.1306105321655
  0
ARC
  5
1BC
330
1E
100
AcDbEntity
  8
1
 62
     7
100
AcDbCircle
 10
85.20334499270871
 20
-19.42810769982853
 30
0.0
 40
2.620000000000088
100
AcDbArc
 50
113.725781327809
 51
191.692685763899
  0
ARC
  5
1BD
330
1E
100
AcDbEntity
  8
1
 62
     7
100
AcDbCircle
 10
93.64347208110121
 20
0.0030137225645035
 30
0.0
 40
19.50000000000001
100
AcDbArc
 50
236.5275262336727
 51
240.8637781141534
  0
ARC
  5
1BE
330
1E
100
AcDbEntity
  8
1
 62
     7
100
AcDbCircle
 10
80.27387398055395
 20
-16.43042997100859
 30
0.0
 40
2.620000000000034
100
AcDbArc
 50
285.6986185839246
 51
3.665523020019794
  0
ARC
  5
1BF
330
1E
100
AcDbEntity
  8
1
 62
     7
100
AcDbCircle
 10
93.64347208110121
 20
0.0030137225645035
 30
0.0
 40
22.79499999999989
100
AcDbArc
 50
220.6085199026174
 51
225.478436619122
  0
ARC
  5
1C0
330
1E
100
AcDbEntity
  8
1
 62
     7
100
AcDbCircle
 10
80.27387398055395
 20
-16.43042997100859
 30
0.0
 40
2.62000000000006
100
AcDbArc
 50
98.07360741476649
 51
176.0405118508574
  0
ARC
  5
1C1
330
1E
100
AcDbEntity
  8
1
 62
     7
100
AcDbCircle
 10
76.33596489767501
 20
-12.2139589014389
 30
0.0
 40
2.620000000000056
100
AcDbArc
 50
270.0464446708859
 51
348.0133491069762
  0
ARC
  5
1C2
330
1E
100
AcDbEntity
  8
1
 62
     7
100
AcDbCircle
 10
93.64347208094605
 20
0.0030137233011089
 30
0.0
 40
21.84500000000005
100
AcDbArc
 50
253.3751145682264
 51
255.3205376027744
  0
ARC
  5
1C3
330
1E
100
AcDbEntity
  8
1
 62
     7
100
AcDbCircle
 10
93.64347208094605
 20
0.0030137233011089
 30
0.0
 40
21.84500000000005
100
AcDbArc
 50
237.7229406552263
 51
239.6683636897744
  0
ARC
  5
1C4
330
1E
100
AcDbEntity
  8
1
 62
     7
100
AcDbCircle
 10
93.64347208094605
 20
0.0030137233011089
 30
0.0
 40
21.8450000000001
100
AcDbArc
 50
222.0707667422261
 51
224.0161897767741
  0
ARC
  5
1C5
330
1E
100
AcDbEntity
  8
1
 62
     7
100
AcDbCircle
 10
93.64347208094605
 20
0.0030137233011089
 30
0.0
 40
21.8450000000001
100
AcDbArc
 50
315.9838102212258
 51
317.9292332557742
  0
ARC
  5
1C6
330
1E
100
AcDbEntity
  8
1
 62
     7
100
AcDbCircle
 10
93.64347208094605
 20
0.0030137233011089
 30
0.0
 40
21.84500000000005
100
AcDbArc
 50
300.331636308226
 51
302.2770593427741
  0
ARC
  5
1C7
330
1E
100
AcDbEntity
  8
1
 62
     7
100
AcDbCircle
 10
93.64347208094605
 20
0.0030137233011089
 30
0.0
 40
21.8450000000001
100
AcDbArc
 50
284.6794623952258
 51
286.6248854297738
  0
ARC
  5
1C8
330
1E
100
AcDbEntity
  8
1
 62
     7
100
AcDbCircle
 10
93.64347208094605
 20
0.0030137233011089
 30
0.0
 40
20.44500000000009
100
AcDbArc
 50
253.5458460933206
 51
255.14980607768
  0
ARC
  5
1C9
330
1E
100
AcDbEntity
  8
1
 62
     7
100
AcDbCircle
 10
93.64347208094605
 20
0.0030137233011089
 30
0.0
 40
20.44500000000005
100
AcDbArc
 50
237.8936721803205
 51
239.4976321646798
  0
ARC
  5
1CA
330
1E
100
AcDbEntity
  8
1
 62
     7
100
AcDbCircle
 10
93.64347208094605
 20
0.0030137233011089
 30
0.0
 40
20.44500000000005
100
AcDbArc
 50
300.5023678333202
 51
302.1063278176796
  0
ARC
  5
1CB
330
1E
100
AcDbEntity
  8
1
 62
     7
100
AcDbCircle
 10
93.64347208094605
 20
0.0030137233011089
 30
0.0
 40
20.44500000000005
100
AcDbArc
 50
284.8501939203206
 51
286.4541539046797
  0
ARC
  5
1CC
330
1E
100
AcDbEntity
  8
1
 62
     7
100
AcDbCircle
 10
93.64347208094605
 20
0.0030137233011089
 30
0.0
 40
20.44500000000005
100
AcDbArc
 50
269.1980200073201
 51
270.8019799916796
  0
ARC
  5
1CD
330
1E
100
AcDbEntity
  8
1
 62
     7
100
AcDbCircle
 10
93.64347208094605
 20
0.0030137233011089
 30
0.0
 40
21.84500000000005
100
AcDbArc
 50
269.0272884822263
 51
270.9727115167738
  0
ARC
  5
1CE
330
1E
100
AcDbEntity
  8
1
 62
     7
100
AcDbCircle
 10
110.950979264233
 20
-12.21395890089931
 30
0.0
 40
2.654999999999894
100
AcDbArc
 50
194.6707092730808
 51
266.9503193163035
  0
ARC
  5
1CF
330
1E
100
AcDbEntity
  8
1
 62
     7
100
AcDbCircle
 10
93.64347208094605
 20
0.0030137233011089
 30
0.0
 40
22.70999999999996
100
AcDbArc
 50
319.1031752994516
 51
330.4620420905487
  0
ARC
  5
1D0
330
1E
100
AcDbEntity
  8
1
 62
     7
100
AcDbCircle
 10
107.0130701813189
 20
-16.43042997041405
 30
0.0
 40
2.655000000000015
100
AcDbArc
 50
179.0185353600787
 51
251.2981454033013
  0
ARC
  5
1D1
330
1E
100
AcDbEntity
  8
1
 62
     7
100
AcDbCircle
 10
107.0130701813189
 20
-16.43042997041405
 30
0.0
 40
2.654999999999918
100
AcDbArc
 50
6.962724160697866
 51
79.24233420392109
  0
ARC
  5
1D2
330
1E
100
AcDbEntity
  8
1
 62
     7
100
AcDbCircle
 10
93.64347208094605
 20
0.0030137233011089
 30
0.0
 40
19.58000000000001
100
AcDbArc
 50
303.1779700651948
 51
315.0828994988053
  0
ARC
  5
1D3
330
1E
100
AcDbEntity
  8
1
 62
     7
100
AcDbCircle
 10
93.64347208094605
 20
0.0030137233011089
 30
0.0
 40
22.70999999999991
100
AcDbArc
 50
303.4510013864517
 51
314.8098681775485
  0
ARC
  5
1D4
330
1E
100
AcDbEntity
  8
1
 62
     7
100
AcDbCircle
 10
102.0835991691468
 20
-19.42810769917512
 30
0.0
 40
2.654999999999937
100
AcDbArc
 50
163.3663614470805
 51
235.6459714903027
  0
ARC
  5
1D5
330
1E
100
AcDbEntity
  8
1
 62
     7
100
AcDbCircle
 10
102.0835991691468
 20
-19.42810769917512
 30
0.0
 40
2.654999999999905
100
AcDbArc
 50
351.3105502476954
 51
63.59016029092035
  0
ARC
  5
1D6
330
1E
100
AcDbEntity
  8
1
 62
     7
100
AcDbCircle
 10
93.64347208094605
 20
0.0030137233011089
 30
0.0
 40
19.58000000000008
100
AcDbArc
 50
287.525796152195
 51
299.4307255858051
  0
ARC
  5
1D7
330
1E
100
AcDbEntity
  8
1
 62
     7
100
AcDbCircle
 10
93.64347208094605
 20
0.0030137233011089
 30
0.0
 40
22.71
100
AcDbArc
 50
287.7988274734516
 51
299.1576942645483
  0
ARC
  5
1D8
330
1E
100
AcDbEntity
  8
1
 62
     7
100
AcDbCircle
 10
96.52816254185893
 20
-20.98466804350473
 30
0.0
 40
2.655000000000002
100
AcDbArc
 50
147.7141875340818
 51
219.9937975773031
  0
ARC
  5
1D9
330
1E
100
AcDbEntity
  8
1
 62
     7
100
AcDbCircle
 10
96.52816254185893
 20
-20.98466804350473
 30
0.0
 40
2.655000000000002
100
AcDbArc
 50
335.658376334695
 51
47.93798637792114
  0
ARC
  5
1DA
330
1E
100
AcDbEntity
  8
1
 62
     7
100
AcDbCircle
 10
93.64347208094605
 20
0.0030137233011089
 30
0.0
 40
19.58000000000003
100
AcDbArc
 50
271.8736222391946
 51
283.7785516728053
  0
ARC
  5
1DB
330
1E
100
AcDbEntity
  8
1
 62
     7
100
AcDbCircle
 10
93.64347208094605
 20
0.0030137233011089
 30
0.0
 40
22.70999999999996
100
AcDbArc
 50
272.1466535604515
 51
283.5055203515485
  0
ARC
  5
1DC
330
1E
100
AcDbEntity
  8
1
 62
     7
100
AcDbCircle
 10
90.75878161966681
 20
-20.98466804345443
 30
0.0
 40
2.654999999999923
100
AcDbArc
 50
132.062013621079
 51
204.3416236643035
  0
ARC
  5
1DD
330
1E
100
AcDbEntity
  8
1
 62
     7
100
AcDbCircle
 10
90.75878161966681
 20
-20.98466804345443
 30
0.0
 40
2.654999999999823
100
AcDbArc
 50
320.0062024216975
 51
32.28581246491888
  0
ARC
  5
1DE
330
1E
100
AcDbEntity
  8
1
 62
     7
100
AcDbCircle
 10
93.64347208094605
 20
0.0030137233011089
 30
0.0
 40
19.58000000000003
100
AcDbArc
 50
256.2214483261949
 51
268.1263777598053
  0
ARC
  5
1DF
330
1E
100
AcDbEntity
  8
1
 62
     7
100
AcDbCircle
 10
93.64347208094605
 20
0.0030137233011089
 30
0.0
 40
22.70999999999991
100
AcDbArc
 50
256.4944796474517
 51
267.8533464385481
  0
ARC
  5
1E0
330
1E
100
AcDbEntity
  8
1
 62
     7
100
AcDbCircle
 10
85.20334499240606
 20
-19.42810769902783
 30
0.0
 40
2.655000000000009
100
AcDbArc
 50
116.4098397080818
 51
188.6894497513014
  0
ARC
  5
1E1
330
1E
100
AcDbEntity
  8
1
 62
     7
100
AcDbCircle
 10
85.20334499240606
 20
-19.42810769902783
 30
0.0
 40
2.654999999999943
100
AcDbArc
 50
304.3540285086963
 51
16.63363855191947
  0
ARC
  5
1E2
330
1E
100
AcDbEntity
  8
1
 62
     7
100
AcDbCircle
 10
93.64347208094605
 20
0.0030137233011089
 30
0.0
 40
19.58000000000003
100
AcDbArc
 50
240.5692744131948
 51
252.4742038468054
  0
ARC
  5
1E3
330
1E
100
AcDbEntity
  8
1
 62
     7
100
AcDbCircle
 10
93.64347208094605
 20
0.0030137233011089
 30
0.0
 40
22.70999999999994
100
AcDbArc
 50
240.8423057344514
 51
252.2011725255485
  0
ARC
  5
1E4
330
1E
100
AcDbEntity
  8
1
 62
     7
100
AcDbCircle
 10
80.27387398028645
 20
-16.43042997018071
 30
0.0
 40
2.654999999999958
100
AcDbArc
 50
100.7576657950802
 51
173.0372758383039
  0
ARC
  5
1E5
330
1E
100
AcDbEntity
  8
1
 62
     7
100
AcDbCircle
 10
80.27387398028645
 20
-16.43042997018071
 30
0.0
 40
2.65499999999997
100
AcDbArc
 50
288.7018545956983
 51
0.9814646389190762
  0
ARC
  5
1E6
330
1E
100
AcDbEntity
  8
1
 62
     7
100
AcDbCircle
 10
93.64347208094605
 20
0.0030137233011089
 30
0.0
 40
19.58000000000003
100
AcDbArc
 50
224.9171005001949
 51
236.8220299338053
  0
ARC
  5
1E7
330
1E
100
AcDbEntity
  8
1
 62
     7
100
AcDbCircle
 10
93.64347208094605
 20
0.0030137233011089
 30
0.0
 40
22.71000000000005
100
AcDbArc
 50
225.1901318214514
 51
236.5489986125485
  0
ARC
  5
1E8
330
1E
100
AcDbEntity
  8
1
 62
     7
100
AcDbCircle
 10
76.3359648974457
 20
-12.21395890059736
 30
0.0
 40
2.654999999999855
100
AcDbArc
 50
273.0496806826955
 51
345.3292907259214
  0
ARC
  5
1E9
330
1E
100
AcDbEntity
  8
1
 62
     7
100
AcDbCircle
 10
93.64347208094605
 20
0.0030137233011089
 30
0.0
 40
22.70999999999995
100
AcDbArc
 50
209.5379579084519
 51
220.8968246995484
  0
ARC
  5
1EA
330
1E
100
AcDbEntity
  8
1
 62
     7
100
AcDbCircle
 10
93.64347208094605
 20
0.0030137233011089
 30
0.0
 40
22.71
100
AcDbArc
 50
84.32056660445159
 51
95.6794333955484
  0
ARC
  5
1EB
330
1E
100
AcDbEntity
  8
1
 62
     7
100
AcDbCircle
 10
93.64347208094605
 20
0.0030137233011089
 30
0.0
 40
19.58000000000009
100
AcDbArc
 50
84.04753528319451
 51
95.9524647168055
  0
ARC
  5
1EC
330
1E
100
AcDbEntity
  8
1
 62
     7
100
AcDbCircle
 10
93.64347208094605
 20
21.18801372330111
 30
0.0
 40
2.654999999999949
100
AcDbArc
 50
147.8322893786969
 51
220.1118994219184
  0
ARC
  5
1ED
330
1E
100
AcDbEntity
  8
1
 62
     7
100
AcDbCircle
 10
93.64347208094605
 20
21.18801372330111
 30
0.0
 40
2.655000000000061
100
AcDbArc
 50
319.8881005780815
 51
32.16771062130284
  0
ARC
  5
1EE
330
1E
100
AcDbEntity
  8
1
 62
     7
100
AcDbCircle
 10
93.64347208094605
 20
0.0030137233011089
 30
0.0
 40
22.71000000000005
100
AcDbArc
 50
99.97274051745151
 51
111.3316073085482
  0
ARC
  5
1EF
330
1E
100
AcDbEntity
  8
1
 62
     7
100
AcDbCircle
 10
93.64347208094605
 20
0.0030137233011089
 30
0.0
 40
19.58000000000019
100
AcDbArc
 50
99.69970919619456
 51
111.6046386298052
  0
ARC
  5
1F0
330
1E
100
AcDbEntity
  8
1
 62
     7
100
AcDbCircle
 10
87.92782748399998
 20
20.40241645576864
 30
0.0
 40
2.654999999999958
100
AcDbArc
 50
163.4844632916979
 51
235.7640733349172
  0
ARC
  5
1F1
330
1E
100
AcDbEntity
  8
1
 62
     7
100
AcDbCircle
 10
87.92782748399998
 20
20.40241645576864
 30
0.0
 40
2.65499999999999
100
AcDbArc
 50
335.5402744910814
 51
47.81988453430297
  0
ARC
  5
1F2
330
1E
100
AcDbEntity
  8
1
 62
     7
100
AcDbCircle
 10
93.64347208094605
 20
0.0030137233011089
 30
0.0
 40
22.70999999999998
100
AcDbArc
 50
115.6249144304515
 51
126.9837812215484
  0
ARC
  5
1F3
330
1E
100
AcDbEntity
  8
1
 62
     7
100
AcDbCircle
 10
93.64347208094605
 20
0.0030137233011089
 30
0.0
 40
19.5800000000001
100
AcDbArc
 50
115.3518831091949
 51
127.2568125428051
  0
ARC
  5
1F4
330
1E
100
AcDbEntity
  8
1
 62
     7
100
AcDbCircle
 10
82.63608609947278
 20
18.10388880863516
 30
0.0
 40
2.654999999999851
100
AcDbArc
 50
179.1366372046969
 51
251.4162472479219
  0
ARC
  5
1F5
330
1E
100
AcDbEntity
  8
1
 62
     7
100
AcDbCircle
 10
82.63608609947278
 20
18.10388880863516
 30
0.0
 40
2.654999999999978
100
AcDbArc
 50
351.1924484040806
 51
63.4720584473013
  0
ARC
  5
1F6
330
1E
100
AcDbEntity
  8
1
 62
     7
100
AcDbCircle
 10
93.64347208094605
 20
0.0030137233011089
 30
0.0
 40
22.70999999999996
100
AcDbArc
 50
131.2770883434515
 51
142.6359551345483
  0
ARC
  5
1F7
330
1E
100
AcDbEntity
  8
1
 62
     7
100
AcDbCircle
 10
93.64347208094605
 20
0.0030137233011089
 30
0.0
 40
19.58000000000014
100
AcDbArc
 50
131.0040570221947
 51
142.9089864558051
  0
ARC
  5
1F8
330
1E
100
AcDbEntity
  8
1
 62
     7
100
AcDbCircle
 10
78.16071217774697
 20
14.46290206242364
 30
0.0
 40
2.655000000000018
100
AcDbArc
 50
194.7888111176976
 51
267.0684211609168
  0
ARC
  5
1F9
330
1E
100
AcDbEntity
  8
1
 62
     7
100
AcDbCircle
 10
78.16071217774697
 20
14.46290206242364
 30
0.0
 40
2.654999999999872
100
AcDbArc
 50
6.844622317080053
 51
79.12423236030327
  0
ARC
  5
1FA
330
1E
100
AcDbEntity
  8
1
 62
     7
100
AcDbCircle
 10
93.64347208094605
 20
0.0030137233011089
 30
0.0
 40
22.71000000000009
100
AcDbArc
 50
146.9292622564515
 51
158.2881290475483
  0
ARC
  5
1FB
330
1E
100
AcDbEntity
  8
1
 62
     7
100
AcDbCircle
 10
93.64347208094605
 20
0.0030137233011089
 30
0.0
 40
19.58000000000014
100
AcDbArc
 50
146.6562309351944
 51
158.5611603688054
  0
ARC
  5
1FC
330
1E
100
AcDbEntity
  8
1
 62
     7
100
AcDbCircle
 10
74.8336237291212
 20
9.749491547692656
 30
0.0
 40
2.654999999999845
100
AcDbArc
 50
210.4409850306973
 51
282.7205950739201
  0
ARC
  5
1FD
330
1E
100
AcDbEntity
  8
1
 62
     7
100
AcDbCircle
 10
74.8336237291212
 20
9.749491547692656
 30
0.0
 40
2.6550000000001
100
AcDbArc
 50
22.49679623008164
 51
94.77640627330291
  0
ARC
  5
1FE
330
1E
100
AcDbEntity
  8
1
 62
     7
100
AcDbCircle
 10
93.64347208094605
 20
0.0030137233011089
 30
0.0
 40
22.71000000000007
100
AcDbArc
 50
162.5814361694516
 51
173.9403029605483
  0
ARC
  5
1FF
330
1E
100
AcDbEntity
  8
1
 62
     7
100
AcDbCircle
 10
93.64347208094605
 20
0.0030137233011089
 30
0.0
 40
19.58000000000009
100
AcDbArc
 50
162.3084048481946
 51
174.213334281805
  0
ARC
  5
200
330
1E
100
AcDbEntity
  8
1
 62
     7
100
AcDbCircle
 10
72.90157568341237
 20
4.313229359899906
 30
0.0
 40
2.654999999999974
100
AcDbArc
 50
226.0931589436965
 51
298.3727689869203
  0
ARC
  5
201
330
1E
100
AcDbEntity
  8
1
 62
     7
100
AcDbCircle
 10
72.90157568341237
 20
4.313229359899906
 30
0.0
 40
2.65499999999999
100
AcDbArc
 50
38.14897014308035
 51
110.4285801863049
  0
ARC
  5
202
330
1E
100
AcDbEntity
  8
1
 62
     7
100
AcDbCircle
 10
93.64347208094605
 20
0.0030137233011089
 30
0.0
 40
22.70999999999995
100
AcDbArc
 50
178.2336100824513
 51
189.5924768735483
  0
ARC
  5
203
330
1E
100
AcDbEntity
  8
1
 62
     7
100
AcDbCircle
 10
93.64347208094605
 20
0.0030137233011089
 30
0.0
 40
19.58000000000009
100
AcDbArc
 50
177.9605787611945
 51
189.8655081948048
  0
ARC
  5
204
330
1E
100
AcDbEntity
  8
1
 62
     7
100
AcDbCircle
 10
72.50785920563783
 20
-1.442701803733229
 30
0.0
 40
2.65499999999993
100
AcDbArc
 50
241.745332856696
 51
314.0249428999211
  0
ARC
  5
205
330
1E
100
AcDbEntity
  8
1
 62
     7
100
AcDbCircle
 10
72.50785920563783
 20
-1.442701803733229
 30
0.0
 40
2.655000000000037
100
AcDbArc
 50
53.8011440560804
 51
126.0807540993001
  0
ARC
  5
206
330
1E
100
AcDbEntity
  8
1
 62
     7
100
AcDbCircle
 10
93.64347208094605
 20
0.0030137233011089
 30
0.0
 40
22.70999999999995
100
AcDbArc
 50
193.8857839954515
 51
205.2446507865484
  0
ARC
  5
207
330
1E
100
AcDbEntity
  8
1
 62
     7
100
AcDbCircle
 10
93.64347208094605
 20
0.0030137233011089
 30
0.0
 40
19.58000000000001
100
AcDbArc
 50
193.6127526741946
 51
205.5176821078053
  0
ARC
  5
208
330
1E
100
AcDbEntity
  8
1
 62
     7
100
AcDbCircle
 10
73.68167444582116
 20
-7.091410860435217
 30
0.0
 40
2.654999999999945
100
AcDbArc
 50
257.3975067696965
 51
329.67711681292
  0
ARC
  5
209
330
1E
100
AcDbEntity
  8
1
 62
     7
100
AcDbCircle
 10
73.68167444582116
 20
-7.091410860435217
 30
0.0
 40
2.65500000000003
100
AcDbArc
 50
69.45331796907997
 51
141.7329280123018
  0
ARC
  5
20A
330
1E
100
AcDbEntity
  8
1
 62
     7
100
AcDbCircle
 10
93.64347208094605
 20
0.0030137233011089
 30
0.0
 40
19.58000000000005
100
AcDbArc
 50
209.264926587195
 51
221.1698560208053
  0
ARC
  5
20B
330
1E
100
AcDbEntity
  8
1
 62
     7
100
AcDbCircle
 10
76.3359648974457
 20
-12.21395890059736
 30
0.0
 40
2.655000000000016
100
AcDbArc
 50
85.10549188208027
 51
157.3851019253027
  0
ARC
  5
20C
330
1E
100
AcDbEntity
  8
1
 62
     7
100
AcDbCircle
 10
93.64347208094605
 20
0.0030137233011089
 30
0.0
 40
19.58000000000007
100
AcDbArc
 50
318.8301439781948
 51
330.7350734118052
  0
ARC
  5
20D
330
1E
100
AcDbEntity
  8
1
 62
     7
100
AcDbCircle
 10
110.950979264233
 20
-12.21395890089931
 30
0.0
 40
2.655000000000145
100
AcDbArc
 50
22.61489807369576
 51
94.89450811691915
  0
ARC
  5
20E
330
1E
100
AcDbEntity
  8
1
 62
     7
100
AcDbCircle
 10
93.64347208094605
 20
0.0030137233011089
 30
0.0
 40
22.70999999999999
100
AcDbArc
 50
334.7553492124517
 51
346.1142160035482
  0
ARC
  5
20F
330
1E
100
AcDbEntity
  8
1
 62
     7
100
AcDbCircle
 10
93.64347208094605
 20
0.0030137233011089
 30
0.0
 40
19.58000000000012
100
AcDbArc
 50
334.4823178911946
 51
346.3872473248051
  0
ARC
  5
210
330
1E
100
AcDbEntity
  8
1
 62
     7
100
AcDbCircle
 10
113.6052697159469
 20
-7.091410860783611
 30
0.0
 40
2.654999999999998
100
AcDbArc
 50
38.26707198669621
 51
110.5466820299175
  0
ARC
  5
211
330
1E
100
AcDbEntity
  8
1
 62
     7
100
AcDbCircle
 10
113.6052697159469
 20
-7.091410860783611
 30
0.0
 40
2.654999999999982
100
AcDbArc
 50
210.3228831860812
 51
282.6024932293033
  0
ARC
  5
212
330
1E
100
AcDbEntity
  8
1
 62
     7
100
AcDbCircle
 10
93.64347208094605
 20
0.0030137233011089
 30
0.0
 40
22.71000000000007
100
AcDbArc
 50
350.4075231254513
 51
1.766389916548539
  0
ARC
  5
213
330
1E
100
AcDbEntity
  8
1
 62
     7
100
AcDbCircle
 10
93.64347208094605
 20
0.0030137233011089
 30
0.0
 40
19.58000000000014
100
AcDbArc
 50
350.1344918041947
 51
2.039421237804985
  0
ARC
  5
214
330
1E
100
AcDbEntity
  8
1
 62
     7
100
AcDbCircle
 10
114.7790849562289
 20
-1.442701804102143
 30
0.0
 40
2.65500000000001
100
AcDbArc
 50
53.91924589969877
 51
126.1988559429201
  0
ARC
  5
215
330
1E
100
AcDbEntity
  8
1
 62
     7
100
AcDbCircle
 10
114.7790849562289
 20
-1.442701804102143
 30
0.0
 40
2.65499999999993
100
AcDbArc
 50
225.9750570990795
 51
298.2546671423023
  0
ARC
  5
216
330
1E
100
AcDbEntity
  8
1
 62
     7
100
AcDbCircle
 10
93.64347208094605
 20
0.0030137233011089
 30
0.0
 40
22.71000000000003
100
AcDbArc
 50
6.059697038451416
 51
17.4185638295486
  0
ARC
  5
217
330
1E
100
AcDbEntity
  8
1
 62
     7
100
AcDbCircle
 10
93.64347208094605
 20
0.0030137233011089
 30
0.0
 40
19.58000000000017
100
AcDbArc
 50
5.786665717194509
 51
17.69159515080529
  0
ARC
  5
218
330
1E
100
AcDbEntity
  8
1
 62
     7
100
AcDbCircle
 10
114.3853684785548
 20
4.3132293595377
 30
0.0
 40
2.655000000000168
100
AcDbArc
 50
69.57141981269811
 51
141.8510298559163
  0
ARC
  5
219
330
1E
100
AcDbEntity
  8
1
 62
     7
100
AcDbCircle
 10
114.3853684785548
 20
4.3132293595377
 30
0.0
 40
2.654999999999876
100
AcDbArc
 50
241.6272310120819
 51
313.9068410553047
  0
ARC
  5
21A
330
1E
100
AcDbEntity
  8
1
 62
     7
100
AcDbCircle
 10
93.64347208094605
 20
0.0030137233011089
 30
0.0
 40
22.71000000000014
100
AcDbArc
 50
21.71187095145128
 51
33.0707377425481
  0
ARC
  5
21B
330
1E
100
AcDbEntity
  8
1
 62
     7
100
AcDbCircle
 10
93.64347208094605
 20
0.0030137233011089
 30
0.0
 40
19.5800000000002
100
AcDbArc
 50
21.43883963019451
 51
33.34376906380452
  0
ARC
  5
21C
330
1E
100
AcDbEntity
  8
1
 62
     7
100
AcDbCircle
 10
112.4533204329407
 20
9.749491547364216
 30
0.0
 40
2.654999999999968
100
AcDbArc
 50
85.2235937256972
 51
157.5032037689173
  0
ARC
  5
21D
330
1E
100
AcDbEntity
  8
1
 62
     7
100
AcDbCircle
 10
112.4533204329407
 20
9.749491547364216
 30
0.0
 40
2.654999999999855
100
AcDbArc
 50
257.2794049250822
 51
329.5590149683062
  0
ARC
  5
21E
330
1E
100
AcDbEntity
  8
1
 62
     7
100
AcDbCircle
 10
93.64347208094605
 20
0.0030137233011089
 30
0.0
 40
22.71000000000016
100
AcDbArc
 50
37.36404486445109
 51
48.72291165554829
  0
ARC
  5
21F
330
1E
100
AcDbEntity
  8
1
 62
     7
100
AcDbCircle
 10
93.64347208094605
 20
0.0030137233011089
 30
0.0
 40
19.58000000000014
100
AcDbArc
 50
37.09101354319464
 51
48.99594297680499
  0
ARC
  5
220
330
1E
100
AcDbEntity
  8
1
 62
     7
100
AcDbCircle
 10
109.1262319843976
 20
14.46290206215327
 30
0.0
 40
2.654999999999976
100
AcDbArc
 50
100.8757676386971
 51
173.1553776819193
  0
ARC
  5
221
330
1E
100
AcDbEntity
  8
1
 62
     7
100
AcDbCircle
 10
109.1262319843976
 20
14.46290206215327
 30
0.0
 40
2.654999999999944
100
AcDbArc
 50
272.9315788380806
 51
345.2111888813031
  0
ARC
  5
222
330
1E
100
AcDbEntity
  8
1
 62
     7
100
AcDbCircle
 10
93.64347208094605
 20
0.0030137233011089
 30
0.0
 40
22.71000000000014
100
AcDbArc
 50
53.01621877745171
 51
64.37508556854796
  0
ARC
  5
223
330
1E
100
AcDbEntity
  8
1
 62
     7
100
AcDbCircle
 10
93.64347208094605
 20
0.0030137233011089
 30
0.0
 40
19.58000000000023
100
AcDbArc
 50
52.74318745619467
 51
64.64811688980479
  0
ARC
  5
224
330
1E
100
AcDbEntity
  8
1
 62
     7
100
AcDbCircle
 10
104.6508580627351
 20
18.10388880844314
 30
0.0
 40
2.654999999999791
100
AcDbArc
 50
116.5279415516957
 51
188.807551594924
  0
ARC
  5
225
330
1E
100
AcDbEntity
  8
1
 62
     7
100
AcDbCircle
 10
104.6508580627351
 20
18.10388880844314
 30
0.0
 40
2.654999999999997
100
AcDbArc
 50
288.5837527510815
 51
0.863362794304326
  0
ARC
  5
226
330
1E
100
AcDbEntity
  8
1
 62
     7
100
AcDbCircle
 10
93.64347208094605
 20
0.0030137233011089
 30
0.0
 40
22.71000000000009
100
AcDbArc
 50
68.66839269045154
 51
80.02725948154811
  0
ARC
  5
227
330
1E
100
AcDbEntity
  8
1
 62
     7
100
AcDbCircle
 10
93.64347208094605
 20
0.0030137233011089
 30
0.0
 40
19.5800000000001
100
AcDbArc
 50
68.39536136919463
 51
80.30029080280469
  0
ARC
  5
228
330
1E
100
AcDbEntity
  8
1
 62
     7
100
AcDbCircle
 10
99.35911667824827
 20
20.40241645566883
 30
0.0
 40
2.654999999999954
100
AcDbArc
 50
132.1801154646965
 51
204.4597255079215
  0
ARC
  5
229
330
1E
100
AcDbEntity
  8
1
 62
     7
100
AcDbCircle
 10
99.35911667824827
 20
20.40241645566883
 30
0.0
 40
2.654999999999962
100
AcDbArc
 50
304.2359266640791
 51
16.51553670730456
  0
ARC
  5
22A
330
1E
100
AcDbEntity
  8
1
 62
     7
100
AcDbCircle
 10
93.64347208094605
 20
0.0030137233011089
 30
0.0
 40
20.44500000000014
100
AcDbArc
 50
316.1545417463205
 51
317.7585017306793
  0
ARC
  5
22B
330
1E
100
AcDbEntity
  8
1
 62
     7
100
AcDbCircle
 10
93.64347208094605
 20
0.0030137233011089
 30
0.0
 40
20.445
100
AcDbArc
 50
331.8067156593201
 51
333.4106756436796
  0
ARC
  5
22C
330
1E
100
AcDbEntity
  8
1
 62
     7
100
AcDbCircle
 10
93.64347208094605
 20
0.0030137233011089
 30
0.0
 40
20.445
100
AcDbArc
 50
347.4588895723203
 51
349.0628495566796
  0
ARC
  5
22D
330
1E
100
AcDbEntity
  8
1
 62
     7
100
AcDbCircle
 10
93.64347208094605
 20
0.0030137233011089
 30
0.0
 40
20.44500000000016
100
AcDbArc
 50
3.111063485320102
 51
4.715023469679761
  0
ARC
  5
22E
330
1E
100
AcDbEntity
  8
1
 62
     7
100
AcDbCircle
 10
93.64347208094605
 20
0.0030137233011089
 30
0.0
 40
20.44500000000012
100
AcDbArc
 50
18.7632373983208
 51
20.36719738267957
  0
ARC
  5
22F
330
1E
100
AcDbEntity
  8
1
 62
     7
100
AcDbCircle
 10
93.64347208094605
 20
0.0030137233011089
 30
0.0
 40
20.44500000000011
100
AcDbArc
 50
34.41541131132055
 51
36.01937129567928
  0
ARC
  5
230
330
1E
100
AcDbEntity
  8
1
 62
     7
100
AcDbCircle
 10
93.64347208094605
 20
0.0030137233011089
 30
0.0
 40
20.4450000000001
100
AcDbArc
 50
50.06758522432025
 51
51.67154520867924
  0
ARC
  5
231
330
1E
100
AcDbEntity
  8
1
 62
     7
100
AcDbCircle
 10
93.64347208094605
 20
0.0030137233011089
 30
0.0
 40
20.44500000000019
100
AcDbArc
 50
65.71975913732035
 51
67.32371912167924
  0
ARC
  5
232
330
1E
100
AcDbEntity
  8
1
 62
     7
100
AcDbCircle
 10
93.64347208094605
 20
0.0030137233011089
 30
0.0
 40
20.44500000000023
100
AcDbArc
 50
81.37193305032038
 51
82.97589303467951
  0
ARC
  5
233
330
1E
100
AcDbEntity
  8
1
 62
     7
100
AcDbCircle
 10
93.64347208094605
 20
0.0030137233011089
 30
0.0
 40
20.44500000000011
100
AcDbArc
 50
97.0241069633203
 51
98.6280669476795
  0
ARC
  5
234
330
1E
100
AcDbEntity
  8
1
 62
     7
100
AcDbCircle
 10
93.64347208094605
 20
0.0030137233011089
 30
0.0
 40
20.4450000000001
100
AcDbArc
 50
112.6762808763202
 51
114.2802408606795
  0
ARC
  5
235
330
1E
100
AcDbEntity
  8
1
 62
     7
100
AcDbCircle
 10
93.64347208094605
 20
0.0030137233011089
 30
0.0
 40
20.44500000000012
100
AcDbArc
 50
128.3284547893202
 51
129.9324147736796
  0
ARC
  5
236
330
1E
100
AcDbEntity
  8
1
 62
     7
100
AcDbCircle
 10
93.64347208094605
 20
0.0030137233011089
 30
0.0
 40
20.44500000000021
100
AcDbArc
 50
143.9806287023204
 51
145.5845886866798
  0
ARC
  5
237
330
1E
100
AcDbEntity
  8
1
 62
     7
100
AcDbCircle
 10
93.64347208094605
 20
0.0030137233011089
 30
0.0
 40
20.44500000000011
100
AcDbArc
 50
159.6328026153206
 51
161.2367625996795
  0
ARC
  5
238
330
1E
100
AcDbEntity
  8
1
 62
     7
100
AcDbCircle
 10
93.64347208094605
 20
0.0030137233011089
 30
0.0
 40
20.44500000000012
100
AcDbArc
 50
175.2849765283205
 51
176.8889365126798
  0
ARC
  5
239
330
1E
100
AcDbEntity
  8
1
 62
     7
100
AcDbCircle
 10
93.64347208094605
 20
0.0030137233011089
 30
0.0
 40
20.44500000000016
100
AcDbArc
 50
190.9371504413204
 51
192.5411104256798
  0
ARC
  5
23A
330
1E
100
AcDbEntity
  8
1
 62
     7
100
AcDbCircle
 10
93.64347208094605
 20
0.0030137233011089
 30
0.0
 40
20.44500000000009
100
AcDbArc
 50
206.5893243543209
 51
208.1932843386799
  0
ARC
  5
23B
330
1E
100
AcDbEntity
  8
1
 62
     7
100
AcDbCircle
 10
93.64347208094605
 20
0.0030137233011089
 30
0.0
 40
20.44500000000009
100
AcDbArc
 50
222.2414982673206
 51
223.8454582516799
  0
ARC
  5
23C
330
1E
100
AcDbEntity
  8
1
 62
     7
100
AcDbCircle
 10
93.64347208094605
 20
0.0030137233011089
 30
0.0
 40
21.84500000000018
100
AcDbArc
 50
331.6359841342261
 51
333.5814071687741
  0
ARC
  5
23D
330
1E
100
AcDbEntity
  8
1
 62
     7
100
AcDbCircle
 10
93.64347208094605
 20
0.0030137233011089
 30
0.0
 40
21.84500000000013
100
AcDbArc
 50
347.2881580472261
 51
349.2335810817739
  0
ARC
  5
23E
330
1E
100
AcDbEntity
  8
1
 62
     7
100
AcDbCircle
 10
93.64347208094605
 20
0.0030137233011089
 30
0.0
 40
21.8450000000001
100
AcDbArc
 50
2.940331960225977
 51
4.885754994773721
  0
ARC
  5
23F
330
1E
100
AcDbEntity
  8
1
 62
     7
100
AcDbCircle
 10
93.64347208094605
 20
0.0030137233011089
 30
0.0
 40
21.84500000000006
100
AcDbArc
 50
18.5925058732261
 51
20.53792890777383
  0
ARC
  5
240
330
1E
100
AcDbEntity
  8
1
 62
     7
100
AcDbCircle
 10
93.64347208094605
 20
0.0030137233011089
 30
0.0
 40
21.84500000000018
100
AcDbArc
 50
34.24467978622587
 51
36.19010282077395
  0
ARC
  5
241
330
1E
100
AcDbEntity
  8
1
 62
     7
100
AcDbCircle
 10
93.64347208094605
 20
0.0030137233011089
 30
0.0
 40
21.8450000000001
100
AcDbArc
 50
49.89685369922592
 51
51.84227673377389
  0
ARC
  5
242
330
1E
100
AcDbEntity
  8
1
 62
     7
100
AcDbCircle
 10
93.64347208094605
 20
0.0030137233011089
 30
0.0
 40
21.84500000000018
100
AcDbArc
 50
65.54902761222592
 51
67.49445064677404
  0
ARC
  5
243
330
1E
100
AcDbEntity
  8
1
 62
     7
100
AcDbCircle
 10
93.64347208094605
 20
0.0030137233011089
 30
0.0
 40
21.8450000000001
100
AcDbArc
 50
81.20120152522618
 51
83.14662455977426
  0
ARC
  5
244
330
1E
100
AcDbEntity
  8
1
 62
     7
100
AcDbCircle
 10
93.64347208094605
 20
0.0030137233011089
 30
0.0
 40
21.84500000000018
100
AcDbArc
 50
96.85337543822583
 51
98.79879847277418
  0
ARC
  5
245
330
1E
100
AcDbEntity
  8
1
 62
     7
100
AcDbCircle
 10
93.64347208094605
 20
0.0030137233011089
 30
0.0
 40
21.84500000000005
100
AcDbArc
 50
112.505549351226
 51
114.450972385774
  0
ARC
  5
246
330
1E
100
AcDbEntity
  8
1
 62
     7
100
AcDbCircle
 10
93.64347208094605
 20
0.0030137233011089
 30
0.0
 40
21.84500000000022
100
AcDbArc
 50
128.1577232642254
 51
130.1031462987737
  0
ARC
  5
247
330
1E
100
AcDbEntity
  8
1
 62
     7
100
AcDbCircle
 10
93.64347208094605
 20
0.0030137233011089
 30
0.0
 40
21.84500000000018
100
AcDbArc
 50
143.8098971772255
 51
145.7553202117734
  0
ARC
  5
248
330
1E
100
AcDbEntity
  8
1
 62
     7
100
AcDbCircle
 10
93.64347208094605
 20
0.0030137233011089
 30
0.0
 40
21.84500000000013
100
AcDbArc
 50
159.4620710902259
 51
161.4074941247739
  0
ARC
  5
249
330
1E
100
AcDbEntity
  8
1
 62
     7
100
AcDbCircle
 10
93.64347208094605
 20
0.0030137233011089
 30
0.0
 40
21.84500000000018
100
AcDbArc
 50
175.114245003226
 51
177.059668037774
  0
ARC
  5
24A
330
1E
100
AcDbEntity
  8
1
 62
     7
100
AcDbCircle
 10
93.64347208094605
 20
0.0030137233011089
 30
0.0
 40
21.84500000000017
100
AcDbArc
 50
190.7664189162264
 51
192.711841950774
  0
ARC
  5
24B
330
1E
100
AcDbEntity
  8
1
 62
     7
100
AcDbCircle
 10
93.64347208094605
 20
0.0030137233011089
 30
0.0
 40
21.84500000000018
100
AcDbArc
 50
206.4185928292261
 51
208.364015863774
  0
ARC
  5
24C
330
1E
100
AcDbEntity
  8
1
 62
     7
100
AcDbCircle
 10
93.64347208110121
 20
0.0030137225645035
 30
0.0
 40
22.79500000000007
100
AcDbArc
 50
95.39112859826893
 51
100.2610453147737
  0
ARC
  5
24D
330
1E
100
AcDbEntity
  8
1
 62
     7
100
AcDbCircle
 10
87.92782748413971
 20
20.40241645502768
 30
0.0
 40
2.620000000000005
100
AcDbArc
 50
332.8562161104128
 51
50.82312054650767
  0
ARC
  5
24E
330
1E
100
AcDbEntity
  8
1
 62
     7
100
AcDbCircle
 10
93.64347208110121
 20
0.0030137225645035
 30
0.0
 40
19.49999999999996
100
AcDbArc
 50
95.65796101628095
 51
99.99421289676213
  0
ARC
  5
24F
330
1E
100
AcDbEntity
  8
1
 62
     7
100
AcDbCircle
 10
93.64347208110121
 20
21.18801372256448
 30
0.0
 40
2.619999999999918
100
AcDbArc
 50
144.829053366531
 51
222.7959578026311
  0
ARC
  5
250
330
1E
100
AcDbEntity
  8
1
 62
     7
100
AcDbCircle
 10
87.92782748413971
 20
20.40241645502768
 30
0.0
 40
2.620000000000115
100
AcDbArc
 50
160.4812272795802
 51
238.4481317156728
  0
ARC
  5
251
330
1E
100
AcDbEntity
  8
1
 62
     7
100
AcDbCircle
 10
82.63608609960067
 20
18.10388880788186
 30
0.0
 40
2.619999999999897
100
AcDbArc
 50
348.5083900234553
 51
66.47529445955555
  0
ARC
  5
252
330
1E
100
AcDbEntity
  8
1
 62
     7
100
AcDbCircle
 10
93.64347208110121
 20
0.0030137225645035
 30
0.0
 40
22.79500000000007
100
AcDbArc
 50
111.043302511313
 51
115.9132192278175
  0
ARC
  5
253
330
1E
100
AcDbEntity
  8
1
 62
     7
100
AcDbCircle
 10
82.63608609960067
 20
18.10388880788186
 30
0.0
 40
2.620000000000154
100
AcDbArc
 50
176.1334011926229
 51
254.1003056287157
  0
ARC
  5
254
330
1E
100
AcDbEntity
  8
1
 62
     7
100
AcDbCircle
 10
93.64347208110121
 20
0.0030137225645035
 30
0.0
 40
19.49999999999996
100
AcDbArc
 50
126.9623088423678
 51
131.2985607228492
  0
ARC
  5
255
330
1E
100
AcDbEntity
  8
1
 62
     7
100
AcDbCircle
 10
78.16071217786904
 20
14.4629020616517
 30
0.0
 40
2.620000000000055
100
AcDbArc
 50
4.160563936500889
 51
82.12746837259313
  0
ARC
  5
256
330
1E
100
AcDbEntity
  8
1
 62
     7
100
AcDbCircle
 10
93.64347208110121
 20
0.0030137225645035
 30
0.0
 40
22.795
100
AcDbArc
 50
126.6954764243564
 51
131.5653931408608
  0
ARC
  5
257
330
1E
100
AcDbEntity
  8
1
 62
     7
100
AcDbCircle
 10
78.16071217786904
 20
14.4629020616517
 30
0.0
 40
2.620000000000048
100
AcDbArc
 50
191.7855751056679
 51
269.7524795417633
  0
ARC
  5
258
330
1E
100
AcDbEntity
  8
1
 62
     7
100
AcDbCircle
 10
93.64347208110121
 20
0.0030137225645035
 30
0.0
 40
19.49999999999999
100
AcDbArc
 50
142.6144827554114
 51
146.9507346358921
  0
ARC
  5
259
330
1E
100
AcDbEntity
  8
1
 62
     7
100
AcDbCircle
 10
74.8336237292468
 20
9.74949154689898
 30
0.0
 40
2.620000000000247
100
AcDbArc
 50
19.81273784954233
 51
97.77964228563504
  0
ARC
  5
25A
330
1E
100
AcDbEntity
  8
1
 62
     7
100
AcDbCircle
 10
93.64347208110121
 20
0.0030137225645035
 30
0.0
 40
22.795
100
AcDbArc
 50
142.3476503374
 51
147.2175670539042
  0
ARC
  5
25B
330
1E
100
AcDbEntity
  8
1
 62
     7
100
AcDbCircle
 10
74.8336237292468
 20
9.74949154689898
 30
0.0
 40
2.619999999999857
100
AcDbArc
 50
207.4377490187108
 51
285.4046534548032
  0
ARC
  5
25C
330
1E
100
AcDbEntity
  8
1
 62
     7
100
AcDbCircle
 10
93.64347208110121
 20
0.0030137225645035
 30
0.0
 40
19.50000000000006
100
AcDbArc
 50
158.2666566684553
 51
162.6029085489362
  0
ARC
  5
25D
330
1E
100
AcDbEntity
  8
1
 62
     7
100
AcDbCircle
 10
72.90157568355128
 20
4.3132293590846
 30
0.0
 40
2.619999999999854
100
AcDbArc
 50
35.46491176258889
 51
113.4318161986836
  0
ARC
  5
25E
330
1E
100
AcDbEntity
  8
1
 62
     7
100
AcDbCircle
 10
93.64347208110121
 20
0.0030137225645035
 30
0.0
 40
22.79499999999992
100
AcDbArc
 50
157.9998242504432
 51
162.8697409669477
  0
ARC
  5
25F
330
1E
100
AcDbEntity
  8
1
 62
     7
100
AcDbCircle
 10
72.90157568355128
 20
4.3132293590846
 30
0.0
 40
2.620000000000068
100
AcDbArc
 50
223.0899229317528
 51
301.0568273678438
  0
ARC
  5
260
330
1E
100
AcDbEntity
  8
1
 62
     7
100
AcDbCircle
 10
93.64347208110121
 20
0.0030137225645035
 30
0.0
 40
19.50000000000001
100
AcDbArc
 50
173.9188305814986
 51
178.2550824619791
  0
ARC
  5
261
330
1E
100
AcDbEntity
  8
1
 62
     7
100
AcDbCircle
 10
72.50785920579959
 20
-1.442701804566013
 30
0.0
 40
2.620000000000187
100
AcDbArc
 50
51.11708567562857
 51
129.0839901117237
  0
ARC
  5
262
330
1E
100
AcDbEntity
  8
1
 62
     7
100
AcDbCircle
 10
93.64347208110121
 20
0.0030137225645035
 30
0.0
 40
22.79499999999994
100
AcDbArc
 50
173.6519981634868
 51
178.5219148799914
  0
ARC
  5
263
330
1E
100
AcDbEntity
  8
1
 62
     7
100
AcDbCircle
 10
72.50785920579959
 20
-1.442701804566013
 30
0.0
 40
2.619999999999857
100
AcDbArc
 50
238.7420968447995
 51
316.7090012808933
  0
ARC
  5
264
330
1E
100
AcDbEntity
  8
1
 62
     7
100
AcDbCircle
 10
93.64347208110121
 20
0.0030137225645035
 30
0.0
 40
19.49999999999984
100
AcDbArc
 50
189.5710044945421
 51
193.9072563750228
  0
ARC
  5
265
330
1E
100
AcDbEntity
  8
1
 62
     7
100
AcDbCircle
 10
73.68167444601408
 20
-7.091410861277807
 30
0.0
 40
2.620000000000009
100
AcDbArc
 50
66.76925958867561
 51
144.7361640247705
  0
ARC
  5
266
330
1E
100
AcDbEntity
  8
1
 62
     7
100
AcDbCircle
 10
93.64347208110121
 20
0.0030137225645035
 30
0.0
 40
22.7949999999998
100
AcDbArc
 50
189.30417207653
 51
194.174088793035
  0
ARC
  5
267
330
1E
100
AcDbEntity
  8
1
 62
     7
100
AcDbCircle
 10
73.68167444601408
 20
-7.091410861277807
 30
0.0
 40
2.62000000000004
100
AcDbArc
 50
254.3942707578385
 51
332.3611751939314
  0
ARC
  5
268
330
1E
100
AcDbEntity
  8
1
 62
     7
100
AcDbCircle
 10
93.64347208110121
 20
0.0030137225645035
 30
0.0
 40
19.50000000000006
100
AcDbArc
 50
205.2231784075856
 51
209.5594302880666
  0
ARC
  5
269
330
1E
100
AcDbEntity
  8
1
 62
     7
100
AcDbCircle
 10
76.33596489767501
 20
-12.2139589014389
 30
0.0
 40
2.619999999999928
100
AcDbArc
 50
82.42143350171682
 51
160.3883379378126
  0
ARC
  5
26A
330
1E
100
AcDbEntity
  8
1
 62
     7
100
AcDbCircle
 10
93.64347208110121
 20
0.0030137225645035
 30
0.0
 40
22.79499999999998
100
AcDbArc
 50
204.9563459895736
 51
209.8262627060785
  0
ARC
  5
26B
330
1E
100
AcDbEntity
  8
1
 62
     7
100
AcDbCircle
 10
93.64347208110121
 20
0.0030137225645035
 30
0.0
 40
19.50000000000003
100
AcDbArc
 50
220.8753523206288
 51
225.2116042011099
  0
ARC
  5
26C
330
1E
100
AcDbEntity
  8
1
 62
     7
100
AcDbCircle
 10
93.64347208110121
 20
0.0030137225645035
 30
0.0
 40
19.49999999999993
100
AcDbArc
 50
330.4405697119331
 51
334.7768215924143
  0
ARC
  5
26D
330
1E
100
AcDbEntity
  8
1
 62
     7
100
AcDbCircle
 10
113.6052697161886
 20
-7.091410861277807
 30
0.0
 40
2.620000000000258
100
AcDbArc
 50
207.6388248060641
 51
285.6057292421596
  0
ARC
  5
26E
330
1E
100
AcDbEntity
  8
1
 62
     7
100
AcDbCircle
 10
113.6052697161886
 20
-7.091410861277807
 30
0.0
 40
2.619999999999826
100
AcDbArc
 50
35.26383597523424
 51
113.2307404113298
  0
ARC
  5
26F
330
1E
100
AcDbEntity
  8
1
 62
     7
100
AcDbCircle
 10
93.64347208110121
 20
0.0030137225645035
 30
0.0
 40
19.49999999999993
100
AcDbArc
 50
346.0927436249771
 51
350.4289955054581
  0
ARC
  5
270
330
1E
100
AcDbEntity
  8
1
 62
     7
100
AcDbCircle
 10
114.7790849564028
 20
-1.442701804566013
 30
0.0
 40
2.619999999999869
100
AcDbArc
 50
223.290998719112
 51
301.2579031552053
  0
ARC
  5
271
330
1E
100
AcDbEntity
  8
1
 62
     7
100
AcDbCircle
 10
93.64347208110121
 20
0.0030137225645035
 30
0.0
 40
22.79499999999994
100
AcDbArc
 50
345.825911206965
 51
350.69582792347
  0
ARC
  5
272
330
1E
100
AcDbEntity
  8
1
 62
     7
100
AcDbCircle
 10
114.7790849564028
 20
-1.442701804566013
 30
0.0
 40
2.620000000000094
100
AcDbArc
 50
50.91600988827275
 51
128.8829143243684
  0
ARC
  5
273
330
1E
100
AcDbEntity
  8
1
 62
     7
100
AcDbCircle
 10
93.64347208110121
 20
0.0030137225645035
 30
0.0
 40
19.50000000000006
100
AcDbArc
 50
1.744917538020333
 51
6.081169418501295
  0
ARC
  5
274
330
1E
100
AcDbEntity
  8
1
 62
     7
100
AcDbCircle
 10
114.3853684786509
 20
4.3132293590846
 30
0.0
 40
2.620000000000089
100
AcDbArc
 50
238.9431726321535
 51
316.910077068249
  0
ARC
  5
275
330
1E
100
AcDbEntity
  8
1
 62
     7
100
AcDbCircle
 10
93.64347208110121
 20
0.0030137225645035
 30
0.0
 40
22.79500000000012
100
AcDbArc
 50
1.478085120008679
 51
6.34800183651344
  0
ARC
  5
276
330
1E
100
AcDbEntity
  8
1
 62
     7
100
AcDbCircle
 10
114.3853684786509
 20
4.3132293590846
 30
0.0
 40
2.62000000000002
100
AcDbArc
 50
66.56818380131579
 51
144.535088237412
  0
ARC
  5
277
330
1E
100
AcDbEntity
  8
1
 62
     7
100
AcDbCircle
 10
93.64347208110121
 20
0.0030137225645035
 30
0.0
 40
19.49999999999995
100
AcDbArc
 50
17.39709145106391
 51
21.73334333154476
  0
ARC
  5
278
330
1E
100
AcDbEntity
  8
1
 62
     7
100
AcDbCircle
 10
112.4533204329555
 20
9.74949154689898
 30
0.0
 40
2.620000000000009
100
AcDbArc
 50
254.5953465451983
 51
332.5622509812903
  0
ARC
  5
279
330
1E
100
AcDbEntity
  8
1
 62
     7
100
AcDbCircle
 10
93.64347208110121
 20
0.0030137225645035
 30
0.0
 40
22.795
100
AcDbArc
 50
17.1302590330521
 51
22.00017574955681
  0
ARC
  5
27A
330
1E
100
AcDbEntity
  8
1
 62
     7
100
AcDbCircle
 10
112.4533204329555
 20
9.74949154689898
 30
0.0
 40
2.619999999999985
100
AcDbArc
 50
82.22035771436315
 51
160.1872621504549
  0
ARC
  5
27B
330
1E
100
AcDbEntity
  8
1
 62
     7
100
AcDbCircle
 10
93.64347208110121
 20
0.0030137225645035
 30
0.0
 40
19.50000000000006
100
AcDbArc
 50
33.04926536410726
 51
37.38551724458799
  0
ARC
  5
27C
330
1E
100
AcDbEntity
  8
1
 62
     7
100
AcDbCircle
 10
109.1262319843332
 20
14.4629020616517
 30
0.0
 40
2.62000000000002
100
AcDbArc
 50
270.2475204582453
 51
348.2144248943346
  0
ARC
  5
27D
330
1E
100
AcDbEntity
  8
1
 62
     7
100
AcDbCircle
 10
93.64347208110121
 20
0.0030137225645035
 30
0.0
 40
22.79499999999992
100
AcDbArc
 50
32.78243294609567
 51
37.65234966260019
  0
ARC
  5
27E
330
1E
100
AcDbEntity
  8
1
 62
     7
100
AcDbCircle
 10
109.1262319843332
 20
14.4629020616517
 30
0.0
 40
2.619999999999953
100
AcDbArc
 50
97.87253162740379
 51
175.8394360634989
  0
ARC
  5
27F
330
1E
100
AcDbEntity
  8
1
 62
     7
100
AcDbCircle
 10
93.64347208110121
 20
0.0030137225645035
 30
0.0
 40
19.5
100
AcDbArc
 50
48.70143927715087
 51
53.03769115763211
  0
ARC
  5
280
330
1E
100
AcDbEntity
  8
1
 62
     7
100
AcDbCircle
 10
104.650858062602
 20
18.10388880788186
 30
0.0
 40
2.620000000000037
100
AcDbArc
 50
113.5247055404515
 51
191.4916099765432
  0
ARC
  5
281
330
1E
100
AcDbEntity
  8
1
 62
     7
100
AcDbCircle
 10
93.64347208110121
 20
0.0030137225645035
 30
0.0
 40
19.49999999999993
100
AcDbArc
 50
64.35361319019425
 51
68.68986507067528
  0
ARC
  5
282
330
1E
100
AcDbEntity
  8
1
 62
     7
100
AcDbCircle
 10
99.35911667806273
 20
20.40241645502756
 30
0.0
 40
2.620000000000008
100
AcDbArc
 50
301.551868284328
 51
19.5187727204221
  0
ARC
  5
283
330
1E
100
AcDbEntity
  8
1
 62
     7
100
AcDbCircle
 10
93.64347208110121
 20
0.0030137225645035
 30
0.0
 40
22.79499999999998
100
AcDbArc
 50
64.08678077218247
 51
68.95669748868697
  0
ARC
  5
284
330
1E
100
AcDbEntity
  8
1
 62
     7
100
AcDbCircle
 10
99.35911667806273
 20
20.40241645502756
 30
0.0
 40
2.619999999999965
100
AcDbArc
 50
129.1768794534904
 51
207.1437838895873
  0
ARC
  5
285
330
1E
100
AcDbEntity
  8
1
 62
     7
100
AcDbCircle
 10
93.64347208110121
 20
0.0030137225645035
 30
0.0
 40
19.50000000000003
100
AcDbArc
 50
80.0057871032372
 51
84.34203898371874
  0
ARC
  5
286
330
1E
100
AcDbEntity
  8
1
 62
     7
100
AcDbCircle
 10
93.64347208110121
 20
21.18801372256448
 30
0.0
 40
2.620000000000008
100
AcDbArc
 50
317.2040421973706
 51
35.17094663346237
  0
ARC
  5
287
330
1E
100
AcDbEntity
  8
1
 62
     7
100
AcDbCircle
 10
93.64347208110121
 20
0.0030137225645035
 30
0.0
 40
22.79499999999996
100
AcDbArc
 50
79.73895468522584
 51
84.60887140173019
  0
ARC
  5
288
330
1E
100
AcDbEntity
  8
1
 62
     7
100
AcDbCircle
 10
99.35911667806273
 20
20.40241645502756
 30
0.0
 40
2.381249999999996
100
AcDbArc
 50
280.4300713763248
 51
46.52677313405679
  0
ARC
  5
289
330
1E
100
AcDbEntity
  8
1
 62
     7
100
AcDbCircle
 10
104.650858062602
 20
18.10388880788186
 30
0.0
 40
2.381250000000095
100
AcDbArc
 50
264.7778974632719
 51
30.87459922102019
  0
ARC
  5
28A
330
1E
100
AcDbEntity
  8
1
 62
     7
100
AcDbCircle
 10
112.4533204329555
 20
9.74949154689898
 30
0.0
 40
2.381249999999956
100
AcDbArc
 50
233.473549637192
 51
359.5702513949303
  0
ARC
  5
28B
330
1E
100
AcDbEntity
  8
1
 62
     7
100
AcDbCircle
 10
114.7790849564028
 20
-1.442701804566013
 30
0.0
 40
2.381249999999965
100
AcDbArc
 50
202.1692018111035
 51
328.2659035688435
  0
ARC
  5
28C
330
1E
100
AcDbEntity
  8
1
 62
     7
100
AcDbCircle
 10
113.6052697161886
 20
-7.091410861277807
 30
0.0
 40
2.381250000000239
100
AcDbArc
 50
186.5170278980583
 51
312.6137296558001
  0
ARC
  5
28D
330
1E
100
AcDbEntity
  8
1
 62
     7
100
AcDbCircle
 10
76.33596489767501
 20
-12.2139589014389
 30
0.0
 40
2.381249999999972
100
AcDbArc
 50
61.29963659371183
 51
187.3963383514528
  0
ARC
  5
28E
330
1E
100
AcDbEntity
  8
1
 62
     7
100
AcDbCircle
 10
73.68167444601408
 20
-7.091410861277807
 30
0.0
 40
2.381250000000015
100
AcDbArc
 50
45.64746268066707
 51
171.7441644384096
  0
ARC
  5
28F
330
1E
100
AcDbEntity
  8
1
 62
     7
100
AcDbCircle
 10
72.50785920579959
 20
-1.442701804566013
 30
0.0
 40
2.381250000000139
100
AcDbArc
 50
29.99528876762154
 51
156.0919905253659
  0
ARC
  5
290
330
1E
100
AcDbEntity
  8
1
 62
     7
100
AcDbCircle
 10
72.90157568355128
 20
4.3132293590846
 30
0.0
 40
2.381249999999905
100
AcDbArc
 50
14.34311485458191
 51
140.4398166123237
  0
ARC
  5
291
330
1E
100
AcDbEntity
  8
1
 62
     7
100
AcDbCircle
 10
74.8336237292468
 20
9.74949154689898
 30
0.0
 40
2.381250000000088
100
AcDbArc
 50
358.6909409415385
 51
124.7876426992739
  0
ARC
  5
292
330
1E
100
AcDbEntity
  8
1
 62
     7
100
AcDbCircle
 10
78.16071217786904
 20
14.4629020616517
 30
0.0
 40
2.381250000000064
100
AcDbArc
 50
343.0387670284961
 51
109.1354687862277
  0
ARC
  5
293
330
1E
100
AcDbEntity
  8
1
 62
     7
100
AcDbCircle
 10
82.63608609960067
 20
18.10388880788186
 30
0.0
 40
2.381249999999883
100
AcDbArc
 50
327.3865931154507
 51
93.48329487319448
  0
ARC
  5
294
330
1E
100
AcDbEntity
  8
1
 62
     7
100
AcDbCircle
 10
87.92782748413971
 20
20.40241645502768
 30
0.0
 40
2.381250000000023
100
AcDbArc
 50
311.7344192024053
 51
77.83112096015019
  0
ARC
  5
295
330
1E
100
AcDbEntity
  8
1
 62
     7
100
AcDbCircle
 10
99.35911667806273
 20
20.40241645502756
 30
0.0
 40
2.381250000000049
100
AcDbArc
 50
102.1688790398492
 51
228.2655807975928
  0
ARC
  5
296
330
1E
100
AcDbEntity
  8
1
 62
     7
100
AcDbCircle
 10
104.650858062602
 20
18.10388880788186
 30
0.0
 40
2.381249999999968
100
AcDbArc
 50
86.51670512681205
 51
212.6134068845501
  0
ARC
  5
297
330
1E
100
AcDbEntity
  8
1
 62
     7
100
AcDbCircle
 10
109.1262319843332
 20
14.4629020616517
 30
0.0
 40
2.381250000000061
100
AcDbArc
 50
70.86453121376317
 51
196.9612329715073
  0
ARC
  5
298
330
1E
100
AcDbEntity
  8
1
 62
     7
100
AcDbCircle
 10
114.3853684786509
 20
4.3132293590846
 30
0.0
 40
2.381250000000028
100
AcDbArc
 50
39.56018338767609
 51
165.6568851454188
  0
ARC
  5
299
330
1E
100
AcDbEntity
  8
1
 62
     7
100
AcDbCircle
 10
114.7790849564028
 20
-1.442701804566013
 30
0.0
 40
2.381250000000024
100
AcDbArc
 50
23.90800947463397
 51
150.0047112323765
  0
ARC
  5
29A
330
1E
100
AcDbEntity
  8
1
 62
     7
100
AcDbCircle
 10
113.6052697161886
 20
-7.091410861277807
 30
0.0
 40
2.381249999999734
100
AcDbArc
 50
8.255835561594089
 51
134.352537319334
  0
ARC
  5
29B
330
1E
100
AcDbEntity
  8
1
 62
     7
100
AcDbCircle
 10
76.33596489767501
 20
-12.2139589014389
 30
0.0
 40
2.381249999999949
100
AcDbArc
 50
243.0384442572434
 51
9.135146014982195
  0
ARC
  5
29C
330
1E
100
AcDbEntity
  8
1
 62
     7
100
AcDbCircle
 10
73.68167444601408
 20
-7.091410861277807
 30
0.0
 40
2.381250000000004
100
AcDbArc
 50
227.3862703442009
 51
353.4829721019412
  0
ARC
  5
29D
330
1E
100
AcDbEntity
  8
1
 62
     7
100
AcDbCircle
 10
72.50785920579959
 20
-1.442701804566013
 30
0.0
 40
2.381250000000008
100
AcDbArc
 50
211.7340964311561
 51
337.8307981888988
  0
ARC
  5
29E
330
1E
100
AcDbEntity
  8
1
 62
     7
100
AcDbCircle
 10
72.90157568355128
 20
4.3132293590846
 30
0.0
 40
2.381250000000023
100
AcDbArc
 50
196.0819225181143
 51
322.1786242758517
  0
ARC
  5
29F
330
1E
100
AcDbEntity
  8
1
 62
     7
100
AcDbCircle
 10
74.8336237292468
 20
9.74949154689898
 30
0.0
 40
2.381249999999908
100
AcDbArc
 50
180.4297486050698
 51
306.5264503628146
  0
ARC
  5
2A0
330
1E
100
AcDbEntity
  8
1
 62
     7
100
AcDbCircle
 10
78.16071217786904
 20
14.4629020616517
 30
0.0
 40
2.381249999999905
100
AcDbArc
 50
164.777574692026
 51
290.8742764497691
  0
ARC
  5
2A1
330
1E
100
AcDbEntity
  8
1
 62
     7
100
AcDbCircle
 10
82.63608609960067
 20
18.10388880788186
 30
0.0
 40
2.381250000000139
100
AcDbArc
 50
149.1254007789833
 51
275.2221025367209
  0
ARC
  5
2A2
330
1E
100
AcDbEntity
  8
1
 62
     7
100
AcDbCircle
 10
87.92782748413971
 20
20.40241645502768
 30
0.0
 40
2.38124999999997
100
AcDbArc
 50
133.4732268659385
 51
259.5699286236811
  0
ARC
  5
2A3
330
1E
100
AcDbEntity
  8
1
 62
     7
100
AcDbCircle
 10
93.64347208110121
 20
21.18801372256448
 30
0.0
 40
2.381250000000009
100
AcDbArc
 50
296.0822452893665
 51
62.17894704710351
  0
ARC
  5
2A4
330
1E
100
AcDbEntity
  8
1
 62
     7
100
AcDbCircle
 10
93.64347208110121
 20
21.18801372256448
 30
0.0
 40
2.381249999999989
100
AcDbArc
 50
117.821052952894
 51
243.9177547106383
  0
ARC
  5
2A5
330
1E
100
AcDbEntity
  8
1
 62
     7
100
AcDbCircle
 10
113.6052703696133
 20
-7.0944245895069
 30
0.0
 40
2.381249999999945
100
AcDbArc
 50
186.517027881804
 51
205.6306841220766
  0
ARC
  5
2A6
330
1E
100
AcDbEntity
  8
1
 62
     7
100
AcDbCircle
 10
82.63608675594559
 20
18.10087508586857
 30
0.0
 40
2.381250000000021
100
AcDbArc
 50
149.1254007761149
 51
173.9120597534399
  0
ARC
  5
2A7
330
1E
100
AcDbEntity
  8
1
 62
     7
100
AcDbCircle
 10
104.6508587180406
 20
18.10087508531736
 30
0.0
 40
2.381249999999953
100
AcDbArc
 50
86.51670512681439
 51
111.3033641041486
  0
ARC
  5
2A8
330
1E
100
AcDbEntity
  8
1
 62
     7
100
AcDbCircle
 10
104.6508587180406
 20
18.10087508531736
 30
0.0
 40
2.381250000000342
100
AcDbArc
 50
193.4997506442707
 51
212.6134068845513
  0
ARC
  5
2A9
330
1E
100
AcDbEntity
  8
1
 62
     7
100
AcDbCircle
 10
93.64347273653972
 20
0.0
 30
0.0
 40
22.71000000000002
100
AcDbArc
 50
350.4075231254509
 51
1.766389916548102
  0
ARC
  5
2AA
330
1E
100
AcDbEntity
  8
1
 62
     7
100
AcDbCircle
 10
93.64347208110121
 20
0.0030137225645035
 30
0.0
 40
22.79499999999998
100
AcDbArc
 50
48.43460685913893
 51
53.30452357564356
  0
ARC
  5
2AB
330
1E
100
AcDbEntity
  8
1
 62
     7
100
AcDbCircle
 10
104.650858062602
 20
18.10388880788186
 30
0.0
 40
2.619999999999921
100
AcDbArc
 50
285.8996943712783
 51
3.866598807377421
  0
ARC
  5
2AC
330
1E
100
AcDbEntity
  8
1
 62
     7
100
AcDbCircle
 10
109.1262319843332
 20
14.4629020616517
 30
0.0
 40
2.381250000000023
100
AcDbArc
 50
249.1257235502342
 51
15.22242530797322
  0
ARC
  5
2AD
330
1E
100
AcDbEntity
  8
1
 62
     7
100
AcDbCircle
 10
93.64347208110121
 20
0.0030137225645035
 30
0.0
 40
19.50000000000001
100
AcDbArc
 50
111.3101349293246
 51
115.6463868098057
  0
ARC
  5
2AE
330
1E
100
AcDbEntity
  8
1
 62
     7
100
AcDbCircle
 10
110.9509792645273
 20
-12.2139589014389
 30
0.0
 40
2.381250000000029
100
AcDbArc
 50
352.6036616485476
 51
118.7003634062882
  0
ARC
  5
2AF
330
1E
100
AcDbEntity
  8
1
 62
     7
100
AcDbCircle
 10
110.9509792645273
 20
-12.2139589014389
 30
0.0
 40
2.381250000000095
100
AcDbArc
 50
170.8648539850178
 51
296.961555742756
  0
ARC
  5
2B0
330
1E
100
AcDbEntity
  8
1
 62
     7
100
AcDbCircle
 10
110.9509792645273
 20
-12.2139589014389
 30
0.0
 40
2.619999999999929
100
AcDbArc
 50
19.61166206218726
 51
97.57856649828353
  0
ARC
  5
2B1
330
1E
100
AcDbEntity
  8
1
 62
     7
100
AcDbCircle
 10
93.64347208110121
 20
0.0030137225645035
 30
0.0
 40
19.49999999999998
100
AcDbArc
 50
314.7883957988901
 51
319.1246476793711
  0
ARC
  5
2B2
330
1E
100
AcDbEntity
  8
1
 62
     7
100
AcDbCircle
 10
112.4533204329555
 20
9.74949154689898
 30
0.0
 40
2.381250000000004
100
AcDbArc
 50
55.21235730071932
 51
181.3090590584614
  0
ARC
  5
2B3
330
1E
100
AcDbEntity
  8
1
 62
     7
100
AcDbCircle
 10
93.64347208129435
 20
0.0030137226336819
 30
0.0
 40
22.79499999999982
100
AcDbArc
 50
330.1737372928371
 51
335.0436540093418
  0
ARC
  5
2B4
330
1E
100
AcDbEntity
  8
1
 62
     7
100
AcDbCircle
 10
93.64347208110121
 20
0.0030137225645035
 30
0.0
 40
4.499999932549282
100
AcDbArc
 50
109.47122063934
 51
70.52877938200386
  0
ARC
  5
2B5
330
1E
100
AcDbEntity
  8
0
 62
     7
100
AcDbCircle
 10
93.64347208094729
 20
0.6155137141211924
 30
0.0
 40
11.60249982567589
100
AcDbArc
 50
90.00000000000616
 51
250.7303611220272
  0
ARC
  5
2B6
330
1E
100
AcDbEntity
  8
0
 62
     7
100
AcDbCircle
 10
89.58347214194157
 20
-10.99775034893881
 30
0.0
 40
0.6999999894944722
100
AcDbArc
 50
0.0000000005394221
 51
70.73036112248991
  0
ARC
  5
2B7
330
1E
100
AcDbEntity
  8
0
 62
     7
100
AcDbCircle
 10
90.9834721209172
 20
-12.42198608999109
 30
0.0
 40
0.6999999894990197
100
AcDbArc
 50
180.0
 51
269.9999999985483
  0
ARC
  5
2B8
330
1E
100
AcDbEntity
  8
0
 62
     7
100
AcDbCircle
 10
93.64347208094478
 20
0.6155137141211924
 30
0.0
 40
11.6024998256758
100
AcDbArc
 50
289.2696388779721
 51
89.99999999999381
  0
ARC
  5
2B9
330
1E
100
AcDbEntity
  8
0
 62
     7
100
AcDbCircle
 10
97.70347201995514
 20
-10.99775034893222
 30
0.0
 40
0.6999999894873002
100
AcDbArc
 50
109.2696388775123
 51
180.0
  0
ARC
  5
2BA
330
1E
100
AcDbEntity
  8
0
 62
     7
100
AcDbCircle
 10
96.30347204098631
 20
-12.421986089992
 30
0.0
 40
0.6999999894982008
100
AcDbArc
 50
270.0000000008003
 51
0.0000000000744432
  0
CIRCLE
  5
2BB
330
1E
100
AcDbEntity
  8
1
 62
     7
100
AcDbCircle
 10
-87.35652328950164
 20
0.0
 30
0.0
 40
24.53400000000007
  0
CIRCLE
  5
2BC
330
1E
100
AcDbEntity
  8
1
 62
     7
100
AcDbCircle
 10
-68.35652328950164
 20
32.90896534380868
 30
0.0
 40
1.750000000000045
  0
CIRCLE
  5
2BD
330
1E
100
AcDbEntity
  8
1
 62
     7
100
AcDbCircle
 10
-54.44755794569289
 20
19.00000000000006
 30
0.0
 40
1.75
  0
CIRCLE
  5
2BE
330
1E
100
AcDbEntity
  8
1
 62
     7
100
AcDbCircle
 10
-49.35652328950164
 20
0.0
 30
0.0
 40
1.749999999999899
  0
CIRCLE
  5
2BF
330
1E
100
AcDbEntity
  8
1
 62
     7
100
AcDbCircle
 10
-54.44755794569289
 20
-18.99999999999987
 30
0.0
 40
1.750000000000045
  0
CIRCLE
  5
2C0
330
1E
100
AcDbEntity
  8
1
 62
     7
100
AcDbCircle
 10
-68.35652328950152
 20
-32.9089653438086
 30
0.0
 40
1.750000000000045
  0
CIRCLE
  5
2C1
330
1E
100
AcDbEntity
  8
1
 62
     7
100
AcDbCircle
 10
-87.3565232895015
 20
-38.0
 30
0.0
 40
1.75
  0
CIRCLE
  5
2C2
330
1E
100
AcDbEntity
  8
1
 62
     7
100
AcDbCircle
 10
-106.3565232895014
 20
-32.90896534380868
 30
0.0
 40
1.750000000000033
  0
CIRCLE
  5
2C3
330
1E
100
AcDbEntity
  8
1
 62
     7
100
AcDbCircle
 10
-120.2654886333103
 20
-19.0
 30
0.0
 40
1.750000000000019
  0
CIRCLE
  5
2C4
330
1E
100
AcDbEntity
  8
1
 62
     7
100
AcDbCircle
 10
-125.3565232895015
 20
0.0
 30
0.0
 40
1.75
  0
CIRCLE
  5
2C5
330
1E
100
AcDbEntity
  8
1
 62
     7
100
AcDbCircle
 10
-120.2654886333103
 20
19.00000000000003
 30
0.0
 40
1.749999999999995
  0
CIRCLE
  5
2C6
330
1E
100
AcDbEntity
  8
1
 62
     7
100
AcDbCircle
 10
-106.3565232895016
 20
32.90896534380875
 30
0.0
 40
1.750000000000019
  0
CIRCLE
  5
2C7
330
1E
100
AcDbEntity
  8
1
 62
     7
100
AcDbCircle
 10
-87.35652328950164
 20
38.00000000000006
 30
0.0
 40
1.75
  0
CIRCLE
  5
2C8
330
1E
100
AcDbEntity
  8
1
  6
CENTER
 62
     3
100
AcDbCircle
 10
-87.35652328950164
 20
0.0
 30
0.0
 40
38.0
  0
CIRCLE
  5
2C9
330
1E
100
AcDbEntity
  8
1
 62
     7
100
AcDbCircle
 10
-87.35652328950164
 20
0.0
 30
0.0
 40
35.0
  0
CIRCLE
  5
2CA
330
1E
100
AcDbEntity
  8
1
 62
     7
100
AcDbCircle
 10
-87.35652328950164
 20
0.0
 30
0.0
 40
40.99999999999977
  0
CIRCLE
  5
2CB
330
1E
100
AcDbEntity
  8
1
 62
     7
100
AcDbCircle
 10
93.64347208094605
 20
0.0030137233011089
 30
0.0
 40
24.85099962673336
  0
CIRCLE
  5
2CC
330
1E
100
AcDbEntity
  8
1
 62
     7
100
AcDbCircle
 10
93.64347208094605
 20
0.0030137233011089
 30
0.0
 40
25.79999961262287
  0
CIRCLE
  5
2CD
330
1E
100
AcDbEntity
  8
1
 62
     7
100
AcDbCircle
 10
93.64347208094605
 20
0.0030137233011089
 30
0.0
 40
34.99999947446668
  0
CIRCLE
  5
2CE
330
1E
100
AcDbEntity
  8
1
  6
CENTER
 62
     3
100
AcDbCircle
 10
93.64347208110121
 20
0.0030137225645035
 30
0.0
 40
30.99999999999999
  0
CIRCLE
  5
2CF
330
1E
100
AcDbEntity
  8
1
 62
     7
100
AcDbCircle
 10
93.64347142566272
 20
31.00301372256453
 30
0.0
 40
1.75
  0
CIRCLE
  5
2D0
330
1E
100
AcDbEntity
  8
1
 62
     7
100
AcDbCircle
 10
81.78028507223723
 20
28.64327897958899
 30
0.0
 40
1.750000000000017
  0
CIRCLE
  5
2D1
330
1E
100
AcDbEntity
  8
1
 62
     7
100
AcDbCircle
 10
71.72316232778314
 20
-21.91729695768348
 30
0.0
 40
1.750000000000017
  0
CIRCLE
  5
2D2
330
1E
100
AcDbEntity
  8
1
 62
     7
100
AcDbCircle
 10
81.78028628332947
 20
-28.63725203611087
 30
0.0
 40
1.750000000000027
  0
CIRCLE
  5
2D3
330
1E
100
AcDbEntity
  8
1
 62
     7
100
AcDbCircle
 10
93.64347273653947
 20
-30.99698627743554
 30
0.0
 40
1.75
  0
CIRCLE
  5
2D4
330
1E
100
AcDbEntity
  8
1
 62
     7
100
AcDbCircle
 10
105.5066590899651
 20
-28.63725153446003
 30
0.0
 40
1.749999999999953
  0
CIRCLE
  5
2D5
330
1E
100
AcDbEntity
  8
1
 62
     7
100
AcDbCircle
 10
115.5637827613489
 20
-21.91729603075362
 30
0.0
 40
1.749999999999944
  0
CIRCLE
  5
2D6
330
1E
100
AcDbEntity
  8
1
 62
     7
100
AcDbCircle
 10
105.5066578788728
 20
28.64327948123989
 30
0.0
 40
1.750000000000043
  0
CIRCLE
  5
2D7
330
1E
100
AcDbEntity
  8
1
 62
     3
100
AcDbCircle
 10
87.59567145575681
 20
30.40735728719496
 30
0.0
 40
1.5
  0
CIRCLE
  5
2D8
330
1E
100
AcDbEntity
  8
1
 62
     7
100
AcDbCircle
 10
87.59567145575681
 20
30.40735728719496
 30
0.0
 40
1.200000000000043
  0
CIRCLE
  5
2D9
330
1E
100
AcDbEntity
  8
1
 62
     7
100
AcDbCircle
 10
99.69127270644561
 20
-30.40132984206593
 30
0.0
 40
1.199999999999932
  0
CIRCLE
  5
2DA
330
1E
100
AcDbEntity
  8
1
 62
     3
100
AcDbCircle
 10
99.69127270644561
 20
-30.40132984206593
 30
0.0
 40
1.5
  0
CIRCLE
  5
2DB
330
1E
100
AcDbEntity
  8
1
 62
     7
100
AcDbCircle
 10
93.64347208110121
 20
0.0030137225645035
 30
0.0
 40
17.77750000073659
  0
CIRCLE
  5
2DC
330
1E
100
AcDbEntity
  8
1
 62
     7
100
AcDbCircle
 10
93.64347208110121
 20
0.0030137225645035
 30
0.0
 40
24.5340000007366
  0
CIRCLE
  5
2DD
330
1E
100
AcDbEntity
  8
1
  6
CENTER
 62
     3
100
AcDbCircle
 10
93.64347208110121
 20
0.0030137225645035
 30
0.0
 40
21.18499999999996
  0
CIRCLE
  5
2DE
330
1E
100
AcDbEntity
  8
1
 62
     7
100
AcDbCircle
 10
93.64347208110121
 20
0.0030137225645035
 30
0.0
 40
23.31750000000007
  0
CIRCLE
  5
2DF
330
1E
100
AcDbEntity
  8
1
 62
     7
100
AcDbCircle
 10
93.64347208110121
 20
0.0030137225645035
 30
0.0
 40
19.07500000000019
  0
CIRCLE
  5
2E0
330
1E
100
AcDbEntity
  8
1
 62
     7
100
AcDbCircle
 10
115.5637818344192
 20
21.92332440281242
 30
0.0
 40
1.749999999999944
  0
CIRCLE
  5
2E1
330
1E
100
AcDbEntity
  8
1
 62
     7
100
AcDbCircle
 10
122.2837373381258
 20
11.86620073142836
 30
0.0
 40
1.750000000000014
  0
CIRCLE
  5
2E2
330
1E
100
AcDbEntity
  8
1
 62
     7
100
AcDbCircle
 10
124.6434720811012
 20
0.0030143780027743
 30
0.0
 40
1.75
  0
CIRCLE
  5
2E3
330
1E
100
AcDbEntity
  8
1
 62
     7
100
AcDbCircle
 10
122.2837378397764
 20
-11.86017207520723
 30
0.0
 40
1.750000000000024
  0
CIRCLE
  5
2E4
330
1E
100
AcDbEntity
  8
1
 62
     7
100
AcDbCircle
 10
65.00320682407674
 20
-11.86017328629947
 30
0.0
 40
1.750000000000014
  0
CIRCLE
  5
2E5
330
1E
100
AcDbEntity
  8
1
 62
     7
100
AcDbCircle
 10
62.64347208110121
 20
0.0030130671260054
 30
0.0
 40
1.75
  0
CIRCLE
  5
2E6
330
1E
100
AcDbEntity
  8
1
 62
     7
100
AcDbCircle
 10
65.00320632242585
 20
11.86619952033606
 30
0.0
 40
1.749999999999985
  0
CIRCLE
  5
2E7
330
1E
100
AcDbEntity
  8
1
 62
     7
100
AcDbCircle
 10
71.7231614008532
 20
21.92332347588248
 30
0.0
 40
1.750000000000017
  0
CIRCLE
  5
2E8
330
1E
100
AcDbEntity
  8
1
 62
     7
100
AcDbCircle
 10
93.64347208094605
 20
0.0030137233011089
 30
0.0
 40
10.49999984251767
  0
CIRCLE
  5
2E9
330
1E
100
AcDbEntity
  8
1
 62
     7
100
AcDbCircle
 10
93.64347208094605
 20
0.0030137233011089
 30
0.0
 40
13.99999978993917
  0
CIRCLE
  5
2EA
330
1E
100
AcDbEntity
  8
0
 62
     7
100
AcDbCircle
 10
91.78847210882075
 20
-11.44198610475291
 30
0.0
 40
0.699999989479352
  0
CIRCLE
  5
2EB
330
1E
100
AcDbEntity
  8
0
 62
     7
100
AcDbCircle
 10
95.49847205307665
 20
-11.44198610475291
 30
0.0
 40
0.6999999894831035
  0
CIRCLE
  5
2EC
330
1E
100
AcDbEntity
  8
1
 62
     7
100
AcDbCircle
 10
10.03500000003554
 20
21.18250000000001
 30
0.0
 40
2.281250000000029
  0
CIRCLE
  5
2ED
330
1E
100
AcDbEntity
  8
1
 62
     7
100
AcDbCircle
 10
10.03500000003554
 20
-21.18250000000001
 30
0.0
 40
2.281250000000029
  0
ARC
  5
2EE
330
1E
100
AcDbEntity
  8
1
 62
     7
100
AcDbCircle
 10
-11.00099999996435
 20
-34.79999999999998
 30
0.0
 40
0.2000000000000171
100
AcDbArc
 50
270.0
 51
0.0
  0
ARC
  5
2EF
330
1E
100
AcDbEntity
  8
1
 62
     7
100
AcDbCircle
 10
-9.199999999964392
 20
-26.13500000000001
 30
0.0
 40
1.201041214946429
100
AcDbArc
 50
87.61405596961116
 51
177.6140559696113
  0
ARC
  5
2F0
330
1E
100
AcDbEntity
  8
1
 62
     7
100
AcDbCircle
 10
-9.300999999964272
 20
-26.03400000000001
 30
0.0
 40
1.500833101980264
100
AcDbArc
 50
88.0908475670037
 51
178.0908475670036
  0
ARC
  5
2F1
330
1E
100
AcDbEntity
  8
1
 62
     7
100
AcDbCircle
 10
-9.199999999964392
 20
-26.13500000000001
 30
0.0
 40
1.201041214946429
100
AcDbArc
 50
87.61405596961116
 51
177.6140559696113
  0
ARC
  5
2F2
330
1E
100
AcDbEntity
  8
1
 62
     7
100
AcDbCircle
 10
-9.300999999964272
 20
-26.03400000000001
 30
0.0
 40
1.500833101980264
100
AcDbArc
 50
88.0908475670037
 51
178.0908475670036
  0
ARC
  5
2F3
330
1E
100
AcDbEntity
  8
1
 62
     7
100
AcDbCircle
 10
-11.00099999996435
 20
34.80000000000001
 30
0.0
 40
0.200000000000049
100
AcDbArc
 50
0.0
 51
90.0
  0
ARC
  5
2F4
330
1E
100
AcDbEntity
  8
1
 62
     7
100
AcDbCircle
 10
-9.199999999964392
 20
26.13500000000003
 30
0.0
 40
1.201041214946427
100
AcDbArc
 50
182.3859440303889
 51
272.3859440303886
  0
ARC
  5
2F5
330
1E
100
AcDbEntity
  8
1
 62
     7
100
AcDbCircle
 10
-9.300999999964272
 20
26.03400000000004
 30
0.0
 40
1.500833101980409
100
AcDbArc
 50
181.9091524329963
 51
271.9091524329963
  0
TEXT
  5
2FE
330
1E
100
AcDbEntity
  8
1
 62
     3
100
AcDbText
 10
-125.83120782585
 20
-110.9336400062005
 30
0.0
 40
2.1
  1
 
 41
0.9
100
AcDbText
  0
TEXT
  5
304
330
1E
100
AcDbEntity
  8
1
 62
     0
100
AcDbText
 10
-49.12207872240892
 20
-67.54418488857242
 30
0.0
 40
2.799999999999998
  1
REMARKS:  M.H.C = MINIMUM HOUSING CLEARANCE
 41
0.9
 72
     1
 11
0.857921277591048
 21
-66.14418488857241
 31
0.0
100
AcDbText
 73
     2
  0
TEXT
  5
305
330
1E
100
AcDbEntity
  8
1
 62
     0
100
AcDbText
 10
71.65656374475307
 20
-77.21656846153655
 30
0.0
 40
3.5
  1
SHG-20-XXX-2A-GR.dxf
 41
0.9
100
AcDbText
  0
DIMENSION
  5
306
330
1E
100
AcDbEntity
  8
1
  6
Continuous
 62
     2
100
AcDbDimension
  2
*D0
 10
8.099999954964687
 20
48.35317633855488
 30
0.0
 11
-0.787366460787005
 21
50.7369263385549
 31
0.0
  1
M.H.C <>
 71
     5
 42
-1.0
  3
DMST_1
100
AcDbAlignedDimension
 13
-9.700000045035267
 23
35.00000000000005
 33
0.0
 14
8.099999954964687
 24
34.59999948045044
 34
0.0
100
AcDbRotatedDimension
  0
DIMENSION
  5
307
330
1E
100
AcDbEntity
  8
1
  6
Continuous
 62
     2
100
AcDbDimension
  2
*D1
 10
17.09999999990668
 20
-51.05
 30
0.0
 11
35.48972097259832
 21
-48.5125
 31
0.0
  1
M.H.C 1.5
 71
     5
 42
-1.0
  3
DMST_2
100
AcDbAlignedDimension
 13
15.60000000006288
 23
-34.5999994803488
 33
0.0
 14
17.09999999990668
 24
-26.5
 34
0.0
100
AcDbRotatedDimension
  0
DIMENSION
  5
308
330
1E
100
AcDbEntity
  8
1
  6
Continuous
 62
     2
100
AcDbDimension
  2
*D2
 10
-27.0474200768488
 20
-22.5
 30
0.0
 11
-29.4311700768488
 21
-0.205038792764711
 31
0.0
  1
M.H.C 45
 71
     5
 42
-1.0
  3
DMST_1
100
AcDbAlignedDimension
 13
-11.39999999996438
 23
22.5
 33
0.0
 14
-11.39999999996438
 24
-22.5
 34
0.0
 50
90.0
100
AcDbRotatedDimension
  0
DIMENSION
  5
309
330
1E
100
AcDbEntity
  8
1
  6
Continuous
 62
     2
100
AcDbDimension
  2
*D3
 10
-3.100670531348998
 20
-26.5
 30
0.0
 11
-5.484420531348998
 21
0.0
 31
0.0
  1
M.H.C 53
 71
     5
 42
-1.0
  3
DMST_1
100
AcDbAlignedDimension
 13
0.5999999549646873
 23
26.5
 33
0.0
 14
0.5999999549646873
 24
-26.5
 34
0.0
 50
90.0
100
AcDbRotatedDimension
  0
DIMENSION
  5
30A
330
1E
100
AcDbEntity
  8
1
  6
Continuous
 62
     2
100
AcDbDimension
  2
*D4
 10
40.1000000000356
 20
-26.5
 30
0.0
 11
37.7162500000356
 21
-0.4645153495734821
 31
0.0
  1
M.H.C 53
 71
     5
 42
-1.0
  3
DMST_1
100
AcDbAlignedDimension
 13
17.09999999990668
 23
26.5
 33
0.0
 14
17.09999999990668
 24
-26.5
 34
0.0
 50
90.0
100
AcDbRotatedDimension
  0
DIMENSION
  5
30B
330
1E
100
AcDbEntity
  8
1
  6
Continuous
 62
     2
100
AcDbDimension
  2
*D5
 10
-13.39999999996439
 20
12.2876840942782
 30
0.0
 11
-19.8114271876263
 21
14.6376840942782
 31
0.0
 71
     5
 42
-1.0
  3
DMST_1
100
AcDbAlignedDimension
 13
-11.39999999996438
 23
22.5
 33
0.0
 14
-13.39999999996439
 24
18.32
 34
0.0
100
AcDbRotatedDimension
  0
INSERT
  5
37F
330
1E
100
AcDbEntity
  8
0
100
AcDbBlockReference
  2
HD Logo
 10
41.56645394626352
 20
-130.0256229876703
 30
0.0
 41
0.85
 42
0.85
 43
0.85
  0
INSERT
  5
389
330
1E
100
AcDbEntity
  8
0
100
AcDbBlockReference
  2
Harmonic Drive LLC
 10
-103.894655481482
 20
65.21312147953057
 30
0.0
 41
1.168724084480676
 42
1.168724084480676
 43
1.168724084480676
  0
INSERT
  5
39E
330
1E
100
AcDbEntity
  8
0
100
AcDbBlockReference
  2
NTC
 10
-166.79409283449
 20
-90.22023080667299
 30
0.0
 41
0.5411347072287589
 42
0.5411347072287589
 43
0.5411347072287589
  0
ENDSEC
  0
SECTION
  2
OBJECTS
  0
DICTIONARY
  5
C
330
0
100
AcDbDictionary
281
     1
  3
ACAD_GROUP
350
D
  3
ACAD_LAYOUT
350
19
  3
ACAD_MLINESTYLE
350
16
  3
ACAD_PLOTSETTINGS
350
18
  3
ACAD_PLOTSTYLENAME
350
E
  3
AcDbVariableDictionary
350
38A
  0
DICTIONARY
  5
D
102
{ACAD_REACTORS
330
C
102
}
330
C
100
AcDbDictionary
281
     1
  0
DICTIONARY
  5
19
102
{ACAD_REACTORS
330
C
102
}
330
C
100
AcDbDictionary
281
     1
  3
Layout1
350
1D
  3
Model
350
21
  0
DICTIONARY
  5
16
102
{ACAD_REACTORS
330
C
102
}
330
C
100
AcDbDictionary
281
     1
  3
Standard
350
17
  0
DICTIONARY
  5
18
102
{ACAD_REACTORS
330
C
102
}
330
C
100
AcDbDictionary
281
     1
  0
ACDBDICTIONARYWDFLT
  5
E
102
{ACAD_REACTORS
330
C
102
}
330
C
100
AcDbDictionary
281
     1
  3
Normal
350
F
100
AcDbDictionaryWithDefault
340
F
  0
DICTIONARY
  5
38A
102
{ACAD_REACTORS
330
C
102
}
330
C
100
AcDbDictionary
281
     1
  3
DIMASSOC
350
38B
  0
LAYOUT
  5
1D
102
{ACAD_REACTORS
330
19
102
}
330
19
100
AcDbPlotSettings
  1

  2
\\SERVER9\HP LaserJet 5100 PCL 5e
  4

  6

 40
0.0
 41
0.0
 42
0.0
 43
0.0
 44
0.0
 45
0.0
 46
0.0
 47
0.0
 48
0.0
 49
0.0
140
0.0
141
0.0
142
1.0
143
1.0
 70
   688
 72
     0
 73
     0
 74
     5
  7

 75
    16
147
1.0
148
0.0
149
0.0
100
AcDbLayout
  1
Layout1
 70
     1
 71
     1
 10
0.0
 20
0.0
 11
12.0
 21
9.0
 12
0.0
 22
0.0
 32
0.0
 14
1.000000000000000E+20
 24
1.000000000000000E+20
 34
1.000000000000000E+20
 15
-1.000000000000000E+20
 25
-1.000000000000000E+20
 35
-1.000000000000000E+20
146
0.0
 13
0.0
 23
0.0
 33
0.0
 16
1.0
 26
0.0
 36
0.0
 17
0.0
 27
1.0
 37
0.0
 76
     0
330
1A
  0
LAYOUT
  5
21
102
{ACAD_REACTORS
330
19
102
}
330
19
100
AcDbPlotSettings
  1

  2
\\SERVER9\HP LaserJet 5100 PCL 5e
  4

  6

 40
0.0
 41
0.0
 42
0.0
 43
0.0
 44
0.0
 45
0.0
 46
0.0
 47
0.0
 48
0.0
 49
0.0
140
0.0
141
0.0
142
1.0
143
1.0
 70
  1712
 72
     0
 73
     0
 74
     0
  7

 75
     0
147
1.0
148
0.0
149
0.0
100
AcDbLayout
  1
Model
 70
     1
 71
     0
 10
0.0
 20
0.0
 11
12.0
 21
9.0
 12
0.0
 22
0.0
 32
0.0
 14
0.0
 24
0.0
 34
0.0
 15
0.0
 25
0.0
 35
0.0
146
0.0
 13
0.0
 23
0.0
 33
0.0
 16
1.0
 26
0.0
 36
0.0
 17
0.0
 27
1.0
 37
0.0
 76
     0
330
1E
  0
MLINESTYLE
  5
17
102
{ACAD_REACTORS
330
16
102
}
330
16
100
AcDbMlineStyle
  2
STANDARD
 70
     0
  3

 62
   256
 51
90.0
 52
90.0
 71
     2
 49
0.5
 62
   256
  6
BYLAYER
 49
-0.5
 62
   256
  6
BYLAYER
  0
ACDBPLACEHOLDER
  5
F
102
{ACAD_REACTORS
330
E
102
}
330
E
  0
DICTIONARYVAR
  5
38B
102
{ACAD_REACTORS
330
38A
102
}
330
38A
100
DictionaryVariables
280
     0
  1
1
  0
ENDSEC
  0
EOF
